osu file format v14

[General]
AudioFilename: audio.mp3
AudioLeadIn: 0
PreviewTime: 71564
Countdown: 0
SampleSet: None
StackLeniency: 0.4
Mode: 0
LetterboxInBreaks: 0
WidescreenStoryboard: 1

[Editor]
DistanceSpacing: 0.8
BeatDivisor: 4
GridSize: 4
TimelineZoom: 2.7

[Metadata]
Title:Ryoushi no Umi no Lindwurm
TitleUnicode:量子の海のリントヴルム
Artist:Kuroneko Dungeon
ArtistUnicode:黒猫ダンジョン
Creator:KnightC0re
Version:AR0 (Can you read?)
Source:jubeat copious
Tags:ramen good luck reading
BeatmapID:1391599
BeatmapSetID:656896

[Difficulty]
HPDrainRate:5.2
CircleSize:4.3
OverallDifficulty:9.4
ApproachRate:0
SliderMultiplier:1.4
SliderTickRate:1

[Events]
//Background and Video events
0,0,"bg6.jpg",0,0
//Break Periods
//Storyboard Layer 0 (Background)
//Storyboard Layer 1 (Fail)
//Storyboard Layer 2 (Pass)
//Storyboard Layer 3 (Foreground)
//Storyboard Sound Samples

[TimingPoints]
425,214.285714285714,7,2,1,20,1,0
1067,-200,7,2,1,20,0,0
4924,-133.333333333333,7,2,2,50,0,0
7924,-100,7,2,2,50,0,0
9424,-133.333333333333,7,2,2,50,0,0
12424,-100,7,2,2,50,0,0
16924,214.285714285714,4,2,1,30,1,0
17781,-133.333333333333,4,2,1,30,0,0
20352,-133.333333333333,4,2,1,40,0,0
23781,214.285714285714,3,2,2,50,1,0
28923,214.285714285714,4,2,2,50,1,0
32351,-133.333333333333,4,2,2,40,0,0
39208,-100,4,2,2,40,0,0
46065,-100,4,2,2,60,0,0
49601,-100,4,2,2,30,0,0
51422,-200,4,2,2,30,0,0
52065,-200,4,2,2,60,0,0
53244,-100,4,2,2,60,0,0
55601,-100,4,2,2,30,0,0
57422,-200,4,2,2,30,0,0
58065,214.285714285714,3,2,2,60,1,0
58065,-200,3,2,2,60,0,0
58707,-100,3,2,2,60,0,0
61279,214.285714285714,4,2,2,60,1,0
61493,-200,4,2,1,20,0,0
62457,-200,4,2,2,60,0,0
62993,214.285714285714,5,2,2,60,1,0
63528,-133.333333333333,5,2,2,60,0,0
65135,-100,5,2,2,60,0,0
67278,-133.333333333333,5,2,2,60,0,0
69421,-100,5,2,2,60,0,0
71564,214.285714285714,4,2,2,80,1,1
85063,-100,4,2,2,80,0,0
85278,-111.111111111111,4,2,2,80,0,1
85921,-55.5555555555556,4,2,2,80,0,1
86349,-200,4,2,2,50,0,1
86992,-200,4,2,2,50,0,0
87956,-100,4,2,2,80,0,1
88278,-100,4,2,2,80,0,0
88706,-100,4,2,2,80,0,1
89349,-50,4,2,2,80,0,1
89778,-200,4,2,2,50,0,1
90421,-200,4,2,1,50,0,0
91385,-100,4,2,1,80,0,1
91706,-100,4,2,1,80,0,0
92135,214.285714285714,3,2,1,50,1,0
92135,-200,3,2,1,50,0,0
92777,-200,3,2,1,30,0,0
103063,-200,3,2,1,50,0,0

[Colours]
Combo1 : 255,0,0
Combo2 : 0,0,64
Combo3 : 0,255,255
Combo4 : 128,0,0

[HitObjects]
139,162,425,5,0,0:0:0:0:
147,128,532,1,0,0:0:0:0:
155,94,639,1,0,0:0:0:0:
235,173,746,5,2,0:0:0:0:
243,206,853,1,0,0:0:0:0:
251,240,960,1,0,0:0:0:0:
139,318,1067,6,0,L|148:279,3,35,2|0|0|0,0:0|0:0|0:0|0:0,0:0:0:0:
178,129,1496,5,2,0:0:0:0:
186,162,1603,1,0,0:0:0:0:
194,196,1710,1,0,0:0:0:0:
99,117,1817,6,0,L|108:78,3,35,2|0|0|0,0:0|0:0|0:0|0:0,0:0:0:0:
309,50,2246,5,2,0:0:0:0:
317,83,2353,1,0,0:0:0:0:
325,117,2460,1,0,0:0:0:0:
216,243,2567,6,0,L|225:204,3,35,2|0|0|0,0:0|0:0|0:0|0:0,0:0:0:0:
389,278,2996,5,2,0:0:0:0:
397,311,3103,1,0,0:0:0:0:
405,345,3210,1,0,0:0:0:0:
287,189,3317,6,0,L|296:150,3,35,2|0|0|0,0:0|0:0|0:0|0:0,0:0:0:0:
409,52,3746,5,0,0:0:0:0:
417,85,3853,1,0,0:0:0:0:
287,189,3960,1,2,0:0:0:0:
319,57,4067,1,2,0:0:0:0:
390,173,4174,5,0,0:0:0:0:
423,182,4281,1,0,0:0:0:0:
457,191,4388,1,0,0:0:0:0:
295,239,4496,5,0,0:0:0:0:
227,257,4603,1,0,0:0:0:0:
282,134,4710,1,2,0:0:0:0:
345,301,4817,1,2,0:0:0:0:
227,257,4924,6,0,P|202:248|181:232,1,52.5000020027161,2|0,0:0|0:0,0:0:0:0:
137,131,5139,1,0,0:0:0:0:
181,232,5246,6,0,P|172:256|156:277,1,52.5000020027161,8|0,0:0|0:0,0:0:0:0:
244,147,5460,2,0,P|260:166|270:191,1,52.5000020027161
201,49,5674,1,0,0:0:0:0:
201,49,5782,2,0,P|226:44|252:47,1,52.5000020027161,2|8,0:0|0:0,0:0:0:0:
329,136,5996,2,0,P|303:140|277:137,1,52.5000020027161,2|0,0:0|0:0,0:0:0:0:
134,189,6210,6,0,P|159:184|185:187,1,52.5000020027161
293,266,6424,1,0,0:0:0:0:
106,164,6532,2,0,P|130:154|156:153,1,52.5000020027161,10|0,0:0|0:0,0:0:0:0:
319,194,6746,2,0,P|294:203|268:204,1,52.5000020027161,2|0,0:0|0:0,0:0:0:0:
74,144,6960,6,0,P|96:130|122:125,1,52.5000020027161,2|0,0:0|0:0,0:0:0:0:
277,140,7174,1,8,0:0:0:0:
291,190,7281,1,0,0:0:0:0:
306,240,7388,1,0,0:0:0:0:
140,337,7496,1,10,0:0:0:0:
154,286,7603,1,0,0:0:0:0:
169,236,7710,1,0,0:0:0:0:
182,185,7817,2,0,P|187:172|194:161,1,26.2500010013581,8|8,0:0|0:0,0:0:0:0:
310,62,7924,6,0,P|323:84|332:135,1,70,4|0,0:0|0:0,0:0:0:0:
304,250,8139,1,8,0:0:0:0:
220,284,8246,1,0,0:0:0:0:
233,195,8353,1,0,0:0:0:0:
302,342,8460,1,0,0:0:0:0:
105,248,8567,2,0,P|119:215|141:189,1,70,10|0,0:0|0:0,0:0:0:0:
273,133,8782,5,0,0:0:0:0:
367,164,8889,1,0,0:0:0:0:
347,68,8996,1,0,0:0:0:0:
263,206,9103,1,0,0:0:0:0:
419,132,9210,1,10,0:0:0:0:
434,123,9263,1,8,0:0:0:0:
446,110,9317,1,10,0:0:0:0:
455,96,9370,1,8,0:0:0:0:
461,79,9424,6,0,P|435:76|409:81,1,52.5000020027161
255,143,9639,1,0,0:0:0:0:
335,177,9746,2,0,P|361:180|387:175,1,52.5000020027161,10|0,0:0|0:0,0:0:0:0:
255,143,9960,2,0,P|229:140|203:145,1,52.5000020027161,2|0,0:0|0:0,0:0:0:0:
73,223,10174,1,0,0:0:0:0:
125,292,10282,2,0,P|122:318|127:344,1,52.5000020027161,2|8,0:0|0:0,0:0:0:0:
73,223,10496,2,0,P|76:197|71:171,1,52.5000020027161,2|0,0:0|0:0,0:0:0:0:
17,50,10710,6,0,P|14:76|19:102,1,52.5000020027161
118,185,10924,1,0,0:0:0:0:
217,268,11032,2,0,P|222:294|219:320,1,52.5000020027161,10|0,0:0|0:0,0:0:0:0:
118,185,11246,2,0,P|113:159|116:133,1,52.5000020027161,2|0,0:0|0:0,0:0:0:0:
281,204,11460,6,0,P|285:229|282:255,1,52.5000020027161,2|0,0:0|0:0,0:0:0:0:
142,206,11674,1,8,0:0:0:0:
152,154,11781,1,0,0:0:0:0:
191,190,11889,1,0,0:0:0:0:
242,333,11996,5,10,0:0:0:0:
158,308,12103,1,0,0:0:0:0:
183,223,12210,1,0,0:0:0:0:
267,248,12317,2,0,L|281:275,1,26.2500010013581,8|8,0:0|0:0,0:0:0:0:
250,169,12424,6,0,P|284:171|314:188,1,70,4|0,0:0|0:0,0:0:0:0:
404,288,12639,1,8,0:0:0:0:
421,307,12746,1,0,0:0:0:0:
326,359,12853,1,0,0:0:0:0:
234,249,12960,1,0,0:0:0:0:
361,301,13067,2,0,P|349:333|325:358,1,70,10|0,0:0|0:0,0:0:0:0:
191,359,13282,5,0,0:0:0:0:
179,273,13389,1,8,0:0:0:0:
107,350,13496,1,0,0:0:0:0:
125,221,13603,1,0,0:0:0:0:
268,311,13710,1,10,0:0:0:0:
260,294,13763,1,8,0:0:0:0:
255,278,13817,1,10,0:0:0:0:
250,261,13870,1,8,0:0:0:0:
247,243,13924,6,0,P|315:249|371:290,1,140,4|0,0:0|0:0,0:0:0:0:
449,235,14246,2,0,P|428:206|419:173,1,70,10|0,0:0|0:0,0:0:0:0:
473,33,14460,2,0,P|459:64|434:89,1,70,2|0,0:0|0:0,0:0:0:0:
286,113,14674,5,8,0:0:0:0:
419,173,14782,1,10,0:0:0:0:
418,173,14996,2,0,P|376:203|325:212,1,105,4|0,0:0|0:0,0:0:0:0:
299,205,15210,1,8,0:0:0:0:
366,86,15317,1,8,0:0:0:0:
403,218,15424,6,0,P|396:287|359:345,1,140,4|0,0:0|0:0,0:0:0:0:
261,208,15746,2,0,L|276:135,1,70,10|0,0:0|0:0,0:0:0:0:
369,41,15960,2,0,L|354:114,1,70,2|0,0:0|0:0,0:0:0:0:
235,222,16174,5,8,0:0:0:0:
399,169,16282,1,10,0:0:0:0:
399,169,16496,1,10,0:0:0:0:
252,109,16603,1,0,0:0:0:0:
405,71,16711,1,10,0:0:0:0:
304,193,16817,1,8,0:0:0:0:
315,34,16924,5,4,0:0:0:0:
350,109,17031,1,0,0:0:0:0:
384,116,17138,1,0,0:0:0:0:
418,123,17245,1,0,0:0:0:0:
503,186,17352,1,2,0:0:0:0:
468,193,17459,1,0,0:0:0:0:
434,200,17566,1,0,0:0:0:0:
400,207,17674,1,0,0:0:0:0:
287,236,17781,6,0,L|236:250,1,52.5000020027161,2|0,0:0|0:0,0:0:0:0:
109,272,17995,2,0,L|159:286,1,52.5000020027161
287,308,18209,1,2,0:0:0:0:
198,333,18316,1,0,0:0:0:0:
173,244,18423,1,2,0:0:0:0:
262,219,18531,2,0,P|293:220|326:236,1,52.5000020027161
398,298,18745,6,0,L|404:236,2,52.5000020027161
500,269,19066,1,2,0:0:0:0:
475,195,19173,1,0,0:0:0:0:
410,154,19280,1,0,0:0:0:0:
333,162,19387,1,0,0:0:0:0:
279,217,19495,5,2,0:0:0:0:
209,263,19602,1,0,0:0:0:0:
127,252,19709,1,0,0:0:0:0:
72,189,19816,1,0,0:0:0:0:
74,105,19923,5,2,0:0:0:0:
207,181,20031,1,0,0:0:0:0:
172,46,20138,1,2,0:0:0:0:
133,147,20245,1,2,0:0:0:0:
250,88,20352,5,4,0:0:0:0:
176,202,20459,1,0,0:0:0:0:
102,233,20566,1,0,0:0:0:0:
113,154,20673,1,0,0:0:0:0:
205,327,20781,5,4,0:0:0:0:
355,234,20888,1,0,0:0:0:0:
366,313,20995,1,0,0:0:0:0:
292,282,21102,1,0,0:0:0:0:
439,225,21209,5,4,0:0:0:0:
388,114,21316,1,0,0:0:0:0:
493,147,21423,1,0,0:0:0:0:
332,192,21531,1,0,0:0:0:0:
442,81,21638,5,4,0:0:0:0:
439,225,21745,1,0,0:0:0:0:
442,81,21852,1,0,0:0:0:0:
325,114,21959,2,0,L|267:133,1,52.5000020027161,0|4,0:0|0:0,0:0:0:0:
325,114,22173,5,0,0:0:0:0:
204,176,22281,2,0,L|262:195,1,52.5000020027161
360,231,22495,5,4,0:0:0:0:
355,179,22602,1,0,0:0:0:0:
327,134,22709,1,0,0:0:0:0:
283,107,22816,1,0,0:0:0:0:
231,101,22923,5,4,0:0:0:0:
124,154,23031,1,0,0:0:0:0:
275,188,23138,2,0,L|281:221,2,26.2500010013581,8|0|0,0:0|0:0|0:0,0:0:0:0:
134,249,23352,5,12,0:0:0:0:
214,155,23459,1,0,0:0:0:0:
244,323,23566,1,8,0:0:0:0:
244,323,23781,6,0,P|260:276|263:230,1,70,4|0,0:0|0:0,0:0:0:0:
221,160,23995,1,2,0:0:0:0:
322,189,24102,2,0,L|411:221,1,70,8|0,0:0|0:0,0:0:0:0:
484,266,24316,5,2,0:0:0:0:
461,147,24423,2,0,P|439:109|402:89,1,70
495,274,24638,5,2,0:0:0:0:
469,143,24745,2,0,P|444:101|404:79,1,70,8|0,0:0|0:0,0:0:0:0:
403,209,24959,1,2,0:0:0:0:
297,165,25066,6,0,P|262:153|223:123,1,70
179,45,25280,1,2,0:0:0:0:
303,129,25388,6,0,P|266:136|217:129,1,70,8|0,0:0|0:0,0:0:0:0:
140,83,25602,1,2,0:0:0:0:
279,81,25709,6,0,P|257:112|218:141,1,70
131,163,25923,1,2,0:0:0:0:
228,63,26030,5,8,0:0:0:0:
182,226,26138,1,0,0:0:0:0:
228,63,26245,1,2,0:0:0:0:
273,225,26352,6,0,P|303:245|336:255,1,70
437,261,26566,1,2,0:0:0:0:
237,200,26673,6,0,P|244:234|260:264,1,70,8|0,0:0|0:0,0:0:0:0:
327,340,26887,1,2,0:0:0:0:
229,155,26995,5,0,0:0:0:0:
199,217,27102,1,0,0:0:0:0:
268,212,27209,1,8,0:0:0:0:
226,115,27316,5,2,0:0:0:0:
202,289,27423,1,0,0:0:0:0:
226,115,27530,1,8,0:0:0:0:
202,289,27638,6,0,L|213:208,1,70
226,115,27852,1,2,0:0:0:0:
197,316,27959,5,8,0:0:0:0:
351,275,28066,1,0,0:0:0:0:
197,316,28173,1,2,0:0:0:0:
239,163,28280,6,0,L|264:93,2,70,8|0|8,0:0|0:0|0:0,0:0:0:0:
126,197,28602,6,0,L|149:262,1,70,8|0,0:0|0:0,0:0:0:0:
47,141,28816,2,0,L|58:173,1,35,8|8,0:0|0:0,0:0:0:0:
126,197,28923,5,10,0:0:0:0:
287,225,29030,1,10,0:0:0:0:
297,227,29244,1,10,0:0:0:0:
306,229,29458,6,0,P|333:153|265:197,1,210,4|0,0:0|0:0,0:0:0:0:
306,229,29887,5,10,0:0:0:0:
153,263,29994,1,10,0:0:0:0:
293,239,30101,1,10,0:0:0:0:
140,273,30208,1,10,0:0:0:0:
281,248,30315,2,0,B|348:215|348:268|417:245,1,140,4|0,0:0|0:0,0:0:0:0:
281,248,30637,5,10,0:0:0:0:
378,121,30744,1,10,0:0:0:0:
367,124,30958,1,10,0:0:0:0:
356,127,31172,6,0,B|313:125|271:147|271:147|274:118|274:118|234:143|171:134,1,210,4|0,0:0|0:0,0:0:0:0:
274,118,31601,1,10,0:0:0:0:
114,153,31708,1,10,0:0:0:0:
271,147,31815,1,10,0:0:0:0:
111,182,31922,1,10,0:0:0:0:
268,176,32030,6,0,B|293:163|321:158|321:158|344:202|391:207,1,140,4|0,0:0|0:0,0:0:0:0:
388,134,32351,6,0,P|372:112|352:96,2,52.5000020027161,4|0|2,0:0|0:0|0:0,0:0:0:0:
390,279,32672,2,0,P|416:276|440:266,2,52.5000020027161
263,208,32994,2,0,P|252:231|248:257,1,52.5000020027161,2|0,0:0|0:0,0:0:0:0:
263,208,33208,1,0,0:0:0:0:
334,114,33315,5,0,0:0:0:0:
263,208,33422,2,0,P|272:232|288:253,1,52.5000020027161,2|0,0:0|0:0,0:0:0:0:
192,128,33637,2,0,P|181:151|177:177,2,52.5000020027161,0|0|2,0:0|0:0|0:0,0:0:0:0:
370,215,33958,6,0,P|419:230|470:220,1,105.000004005432
407,134,34280,2,0,P|383:123|357:119,1,52.5000020027161,2|0,0:0|0:0,0:0:0:0:
407,134,34494,1,0,0:0:0:0:
292,167,34601,2,0,P|267:176|246:192,2,52.5000020027161,0|2|0,0:0|0:0|0:0,0:0:0:0:
307,256,34922,6,0,L|313:317,2,52.5000020027161,0|0|2,0:0|0:0|0:0,0:0:0:0:
379,220,35244,2,0,L|385:281,2,52.5000020027161
450,183,35565,2,0,L|456:244,1,52.5000020027161,2|0,0:0|0:0,0:0:0:0:
456,236,35780,6,0,L|450:183,1,52.5000020027161
384,272,35994,1,2,0:0:0:0:
384,272,36101,2,0,L|379:220,2,52.5000020027161
312,308,36422,2,0,L|307:256,2,52.5000020027161,2|0|0,0:0|0:0|0:0,0:0:0:0:
291,167,36744,5,0,0:0:0:0:
406,133,36851,2,0,P|383:123|357:119,1,52.5000020027161,2|0,0:0|0:0,0:0:0:0:
406,133,37065,1,0,0:0:0:0:
420,231,37172,2,0,P|446:228|470:219,1,52.5000020027161,0|2,0:0|0:0,0:0:0:0:
470,219,37387,6,0,P|419:230|370:215,1,105.000004005432
176,177,37708,2,0,P|180:151|192:128,2,52.5000020027161,2|0|0,0:0|0:0|0:0,0:0:0:0:
288,253,38030,2,0,P|272:232|263:208,1,52.5000020027161,0|2,0:0|0:0,0:0:0:0:
334,114,38244,1,0,0:0:0:0:
262,207,38351,5,0,0:0:0:0:
349,168,38458,1,0,0:0:0:0:
262,128,38565,1,2,0:0:0:0:
348,88,38672,1,0,0:0:0:0:
261,48,38780,1,2,0:0:0:0:
349,168,38887,1,2,0:0:0:0:
348,88,38994,1,2,0:0:0:0:
219,149,39101,1,2,0:0:0:0:
348,87,39208,6,0,P|382:91|413:108,1,70,4|0,0:0|0:0,0:0:0:0:
441,238,39422,1,2,0:0:0:0:
240,67,39530,6,0,P|267:45|300:35,1,70
413,108,39744,1,0,0:0:0:0:
149,129,39851,6,0,P|152:94|169:63,1,70,2|0,0:0|0:0,0:0:0:0:
300,35,40065,1,0,0:0:0:0:
128,236,40172,6,0,P|106:208|96:175,1,70,0|2,0:0|0:0,0:0:0:0:
169,63,40386,1,0,0:0:0:0:
190,327,40494,5,0,0:0:0:0:
103,278,40601,1,0,0:0:0:0:
96,175,40708,1,2,0:0:0:0:
103,278,40815,1,0,0:0:0:0:
189,326,40922,6,0,P|224:328|258:319,1,70
103,278,41137,1,2,0:0:0:0:
355,293,41244,6,0,P|380:269|398:239,1,70
258,319,41459,1,0,0:0:0:0:
447,153,41565,5,2,0:0:0:0:
398,239,41672,1,0,0:0:0:0:
349,153,41780,5,10,0:0:0:0:
486,245,41887,1,10,0:0:0:0:
355,293,41994,1,10,0:0:0:0:
469,120,42101,2,0,B|486:78|486:78|428:96|381:88,1,140,4|0,0:0|0:0,0:0:0:0:
301,53,42422,1,2,0:0:0:0:
301,53,42637,5,0,0:0:0:0:
335,133,42744,1,0,0:0:0:0:
249,123,42851,1,2,0:0:0:0:
387,63,42958,5,0,0:0:0:0:
335,133,43065,1,0,0:0:0:0:
301,53,43172,1,0,0:0:0:0:
421,143,43280,5,2,0:0:0:0:
335,133,43387,1,0,0:0:0:0:
387,63,43494,1,0,0:0:0:0:
369,212,43601,5,0,0:0:0:0:
335,133,43708,1,2,0:0:0:0:
421,143,43815,1,0,0:0:0:0:
284,202,43922,5,0,0:0:0:0:
335,133,44030,1,0,0:0:0:0:
369,212,44137,1,2,0:0:0:0:
250,124,44244,1,0,0:0:0:0:
272,271,44351,5,0,0:0:0:0:
374,295,44458,1,0,0:0:0:0:
344,195,44565,1,2,0:0:0:0:
242,171,44672,5,0,0:0:0:0:
272,271,44779,1,0,0:0:0:0:
343,195,44886,1,0,0:0:0:0:
314,96,44994,5,2,0:0:0:0:
242,171,45101,1,0,0:0:0:0:
343,195,45208,5,10,0:0:0:0:
242,171,45315,1,10,0:0:0:0:
314,96,45422,1,10,0:0:0:0:
272,271,45530,2,0,B|227:315|175:316|175:316|189:289,1,140,4|0,0:0|0:0,0:0:0:0:
242,171,45851,2,0,L|258:211,3,35,2|0|0|0,0:0|0:0|0:0|0:0,0:0:0:0:
242,171,46065,5,4,0:0:0:0:
324,193,46172,1,0,0:0:0:0:
437,100,46280,1,2,0:0:0:0:
355,122,46387,1,0,0:0:0:0:
242,29,46494,5,0,0:0:0:0:
149,59,46601,1,0,0:0:0:0:
149,157,46708,1,2,0:0:0:0:
242,188,46815,1,0,0:0:0:0:
300,109,46922,5,0,0:0:0:0:
149,59,47030,1,8,0:0:0:0:
300,109,47137,1,10,0:0:0:0:
148,157,47244,2,0,P|115:166|80:165,1,70,10|0,0:0|0:0,0:0:0:0:
108,96,47458,1,0,0:0:0:0:
277,183,47565,1,2,0:0:0:0:
277,183,47780,5,0,0:0:0:0:
190,221,47887,1,0,0:0:0:0:
239,96,47994,1,2,0:0:0:0:
277,183,48101,1,0,0:0:0:0:
152,134,48208,5,0,0:0:0:0:
239,96,48315,1,0,0:0:0:0:
277,183,48422,1,2,0:0:0:0:
190,221,48530,1,0,0:0:0:0:
239,96,48637,5,0,0:0:0:0:
190,221,48744,1,10,0:0:0:0:
277,183,48851,1,10,0:0:0:0:
152,134,48958,2,0,B|117:118|83:130,1,70,4|0,0:0|0:0,0:0:0:0:
112,194,49172,1,0,0:0:0:0:
297,117,49280,1,2,0:0:0:0:
118,45,49387,1,8,0:0:0:0:
297,117,49494,5,4,0:0:0:0:
297,316,49601,1,2,0:0:0:0:
297,316,49708,1,8,0:0:0:0:
180,155,49922,1,2,0:0:0:0:
180,155,50030,1,8,0:0:0:0:
369,216,50244,1,2,0:0:0:0:
369,216,50351,1,8,0:0:0:0:
180,278,50565,1,2,0:0:0:0:
180,278,50672,1,8,0:0:0:0:
369,216,50887,1,2,0:0:0:0:
369,216,51101,1,8,0:0:0:0:
180,155,51422,6,0,L|200:183,1,35,2|0,0:0|0:0,0:0:0:0:
297,316,51637,2,0,L|297:281,1,35,2|0,0:0|0:0,0:0:0:0:
297,117,51851,2,0,L|276:145,1,35,2|0,0:0|0:0,0:0:0:0:
180,278,52065,5,0,0:0:0:0:
250,232,52172,1,0,0:0:0:0:
320,278,52280,1,2,0:0:0:0:
390,232,52387,1,0,0:0:0:0:
379,119,52494,5,0,0:0:0:0:
295,174,52601,1,0,0:0:0:0:
351,259,52708,1,2,0:0:0:0:
435,201,52815,1,0,0:0:0:0:
295,174,52922,5,0,0:0:0:0:
417,304,53030,1,10,0:0:0:0:
379,119,53137,1,10,0:0:0:0:
292,298,53244,2,0,P|321:327|358:340,1,70,4|0,0:0|0:0,0:0:0:0:
433,316,53458,1,0,0:0:0:0:
272,222,53565,1,2,0:0:0:0:
272,222,53780,5,0,0:0:0:0:
385,189,53887,1,0,0:0:0:0:
288,205,53994,1,2,0:0:0:0:
401,172,54101,1,0,0:0:0:0:
304,188,54208,5,0,0:0:0:0:
207,55,54315,1,0,0:0:0:0:
363,105,54422,1,2,0:0:0:0:
207,156,54530,1,0,0:0:0:0:
304,23,54637,5,0,0:0:0:0:
207,156,54744,1,10,0:0:0:0:
363,105,54852,1,10,0:0:0:0:
207,55,54958,2,0,P|172:58|140:71,1,70,4|0,0:0|0:0,0:0:0:0:
83,165,55172,1,0,0:0:0:0:
227,225,55280,1,2,0:0:0:0:
189,125,55387,1,8,0:0:0:0:
160,297,55494,5,4,0:0:0:0:
294,242,55601,1,2,0:0:0:0:
310,235,55708,1,8,0:0:0:0:
160,187,55922,1,2,0:0:0:0:
144,180,56029,1,8,0:0:0:0:
294,132,56244,1,2,0:0:0:0:
310,125,56351,1,8,0:0:0:0:
160,77,56565,1,2,0:0:0:0:
144,70,56672,1,8,0:0:0:0:
294,22,56887,1,2,0:0:0:0:
310,15,57101,1,8,0:0:0:0:
310,15,57422,6,0,L|316:54,1,35,2|0,0:0|0:0,0:0:0:0:
246,48,57637,2,0,L|252:87,1,35,2|0,0:0|0:0,0:0:0:0:
182,81,57851,2,0,L|188:120,1,35,2|0,0:0|0:0,0:0:0:0:
118,114,58065,6,0,L|124:153,5,35,2|0|0|0|0|0,0:0|0:0|0:0|0:0|0:0|0:0,0:0:0:0:
123,148,58707,6,0,P|138:179|164:202,1,70,6|0,0:0|0:0,0:0:0:0:
286,225,58922,1,8,0:0:0:0:
114,101,59029,6,0,P|102:133|104:168,1,70,6|0,0:0|0:0,0:0:0:0:
174,270,59243,1,8,0:0:0:0:
140,61,59350,6,0,P|108:76|85:102,1,70,6|0,0:0|0:0,0:0:0:0:
62,222,59565,1,8,0:0:0:0:
186,51,59672,6,0,P|153:39|118:41,1,70,6|0,0:0|0:0,0:0:0:0:
17,111,59886,1,8,0:0:0:0:
225,76,59993,5,6,0:0:0:0:
65,113,60100,1,0,0:0:0:0:
216,177,60207,1,8,0:0:0:0:
131,36,60315,5,6,0:0:0:0:
118,201,60422,1,0,0:0:0:0:
131,36,60529,1,8,0:0:0:0:
216,177,60636,5,6,0:0:0:0:
321,100,60743,1,0,0:0:0:0:
148,100,60850,1,8,0:0:0:0:
296,245,60957,5,6,0:0:0:0:
244,60,61064,1,0,0:0:0:0:
216,177,61172,1,8,0:0:0:0:
399,122,61279,5,6,0:0:0:0:
399,122,61493,6,0,L|394:161,2,35,2|0|2,0:0|0:0|0:0,0:0:0:0:
284,166,61921,6,0,L|279:205,3,35,2|0|2|2,0:0|0:0|0:0|0:0,0:0:0:0:
169,210,62457,5,8,0:0:0:0:
320,248,62564,1,8,0:0:0:0:
124,246,62671,5,8,0:0:0:0:
336,193,62778,1,8,0:0:0:0:
336,192,62993,6,0,P|365:175|387:147,1,70
401,53,63207,1,0,0:0:0:0:
316,119,63314,1,0,0:0:0:0:
217,78,63421,1,8,0:0:0:0:
132,144,63528,2,0,L|118:196,2,52.5000020027161
258,159,63850,2,0,L|219:120,1,52.5000020027161
182,260,64064,6,0,L|234:246,1,52.5000020027161,2|0,0:0|0:0,0:0:0:0:
308,145,64278,2,0,L|255:158,1,52.5000020027161,2|0,0:0|0:0,0:0:0:0:
182,260,64493,5,8,0:0:0:0:
232,246,64600,1,0,0:0:0:0:
257,158,64707,1,0,0:0:0:0:
308,145,64814,1,0,0:0:0:0:
432,190,64921,1,8,0:0:0:0:
331,276,65028,1,8,0:0:0:0:
387,103,65135,6,0,P|405:74|436:58,1,70,4|0,0:0|0:0,0:0:0:0:
480,159,65350,1,0,0:0:0:0:
387,103,65457,1,0,0:0:0:0:
403,210,65564,1,2,0:0:0:0:
334,169,65671,1,8,0:0:0:0:
348,277,65778,1,2,0:0:0:0:
232,207,65885,1,8,0:0:0:0:
302,91,65993,1,2,0:0:0:0:
418,161,66100,1,2,0:0:0:0:
232,206,66207,6,0,P|197:204|167:187,1,70,4|0,0:0|0:0,0:0:0:0:
252,100,66421,1,0,0:0:0:0:
167,187,66528,1,0,0:0:0:0:
255,272,66635,1,2,0:0:0:0:
339,184,66743,1,8,0:0:0:0:
253,185,66850,1,2,0:0:0:0:
253,185,66957,2,0,P|235:215|233:249,2,70,8|8|8,0:0|0:0|0:0,0:0:0:0:
395,217,67278,6,0,P|410:195|416:169,1,52.5000020027161
398,68,67493,1,0,0:0:0:0:
317,141,67600,1,0,0:0:0:0:
299,40,67707,1,8,0:0:0:0:
218,113,67814,1,0,0:0:0:0:
200,12,67921,1,0,0:0:0:0:
119,85,68028,1,0,0:0:0:0:
137,186,68135,2,0,L|148:244,1,52.5000020027161
238,88,68350,6,0,L|180:99,1,52.5000020027161,2|0,0:0|0:0,0:0:0:0:
336,189,68564,1,2,0:0:0:0:
271,157,68671,1,0,0:0:0:0:
211,198,68778,1,8,0:0:0:0:
276,230,68885,1,0,0:0:0:0:
216,271,68992,1,0,0:0:0:0:
151,239,69099,1,0,0:0:0:0:
86,207,69207,1,8,0:0:0:0:
211,198,69314,1,8,0:0:0:0:
304,279,69421,6,0,P|333:299|368:300,1,70,4|0,0:0|0:0,0:0:0:0:
484,230,69635,1,0,0:0:0:0:
354,235,69742,1,0,0:0:0:0:
477,241,69850,1,2,0:0:0:0:
347,246,69957,1,8,0:0:0:0:
352,376,70064,1,2,0:0:0:0:
482,371,70171,1,8,0:0:0:0:
347,246,70278,1,8,0:0:0:0:
472,111,70385,1,8,0:0:0:0:
301,149,70492,6,0,P|261:160|223:156,1,70,4|0,0:0|0:0,0:0:0:0:
259,83,70707,1,2,0:0:0:0:
416,148,70814,1,2,0:0:0:0:
283,234,70921,6,0,L|280:268,1,35,8|0,0:0|0:0,0:0:0:0:
259,245,71028,2,0,L|261:279,1,35,8|0,0:0|0:0,0:0:0:0:
177,228,71135,6,0,L|174:262,1,35,8|0,0:0|0:0,0:0:0:0:
153,239,71242,2,0,L|155:273,1,35,8|0,0:0|0:0,0:0:0:0:
68,256,71350,6,0,L|70:221,1,35,8|0,0:0|0:0,0:0:0:0:
49,267,71457,2,0,L|46:232,1,35,8|0,0:0|0:0,0:0:0:0:
124,109,71564,5,6,0:0:0:0:
275,186,71671,1,0,0:0:0:0:
198,35,71778,1,10,0:0:0:0:
172,203,71885,1,0,0:0:0:0:
291,82,71992,2,0,P|319:60|352:50,1,70
275,186,72206,2,0,P|247:207|214:217,1,70,10|0,0:0|0:0,0:0:0:0:
293,83,72421,5,0,0:0:0:0:
275,186,72528,1,0,0:0:0:0:
373,150,72635,1,10,0:0:0:0:
355,253,72742,1,0,0:0:0:0:
275,186,72849,5,0,0:0:0:0:
386,89,72956,1,0,0:0:0:0:
408,220,73064,1,10,0:0:0:0:
299,84,73171,1,0,0:0:0:0:
318,253,73278,6,0,L|326:323,1,70,2|0,0:0|0:0,0:0:0:0:
249,127,73492,2,0,L|241:57,1,70,10|0,0:0|0:0,0:0:0:0:
180,253,73707,2,0,L|188:323,1,70,2|0,0:0|0:0,0:0:0:0:
111,127,73921,2,0,L|103:57,1,70,10|0,0:0|0:0,0:0:0:0:
42,253,74135,5,2,0:0:0:0:
187,322,74242,1,0,0:0:0:0:
175,204,74349,1,10,0:0:0:0:
74,289,74456,5,0,0:0:0:0:
218,339,74564,1,0,0:0:0:0:
188,195,74671,1,6,0:0:0:0:
129,339,74778,6,0,P|121:304|123:270,1,70,10|2,0:0|0:0,0:0:0:0:
198,144,74992,5,4,0:0:0:0:
123,270,75099,1,0,0:0:0:0:
198,144,75206,1,10,0:0:0:0:
343,145,75314,2,0,P|378:149|410:163,1,70,2|0,0:0|0:0,0:0:0:0:
258,64,75528,2,0,P|223:68|191:82,1,70,2|8,0:0|0:0,0:0:0:0:
87,176,75742,1,2,0:0:0:0:
238,249,75849,5,0,0:0:0:0:
87,176,75956,1,0,0:0:0:0:
238,249,76064,1,10,0:0:0:0:
376,154,76171,2,0,P|410:149|442:135,1,70,2|0,0:0|0:0,0:0:0:0:
304,267,76385,2,0,P|269:262|237:248,1,70,2|8,0:0|0:0,0:0:0:0:
139,171,76599,1,2,0:0:0:0:
233,99,76706,5,0,0:0:0:0:
139,171,76814,1,0,0:0:0:0:
233,99,76921,1,10,0:0:0:0:
342,144,77028,1,0,0:0:0:0:
248,215,77135,5,0,0:0:0:0:
233,99,77242,1,0,0:0:0:0:
342,144,77349,1,10,0:0:0:0:
201,250,77456,1,0,0:0:0:0:
226,76,77563,5,10,0:0:0:0:
331,201,77671,1,10,0:0:0:0:
224,99,77778,1,10,0:0:0:0:
329,224,77886,1,10,0:0:0:0:
222,122,77992,5,10,0:0:0:0:
146,194,78099,1,10,0:0:0:0:
53,145,78206,1,10,0:0:0:0:
71,42,78313,1,10,0:0:0:0:
175,27,78421,5,4,0:0:0:0:
246,170,78528,1,0,0:0:0:0:
73,140,78635,1,10,0:0:0:0:
261,83,78742,1,0,0:0:0:0:
169,257,78849,2,0,L|130:323,1,70
246,170,79063,2,0,L|285:104,1,70,10|0,0:0|0:0,0:0:0:0:
210,281,79278,5,0,0:0:0:0:
333,306,79385,1,0,0:0:0:0:
249,214,79492,1,10,0:0:0:0:
263,339,79599,1,0,0:0:0:0:
324,230,79706,5,0,0:0:0:0:
205,185,79813,1,0,0:0:0:0:
259,262,79921,1,10,0:0:0:0:
271,135,80028,1,0,0:0:0:0:
204,185,80135,6,0,P|176:204|154:232,1,70,6|0,0:0|0:0,0:0:0:0:
271,135,80349,2,0,P|299:115|321:87,1,70,10|0,0:0|0:0,0:0:0:0:
188,197,80563,5,10,0:0:0:0:
288,122,80671,1,10,0:0:0:0:
162,216,80778,1,10,0:0:0:0:
312,103,80886,1,10,0:0:0:0:
136,235,80992,5,0,0:0:0:0:
168,120,81099,1,6,0:0:0:0:
251,205,81206,1,8,0:0:0:0:
168,120,81313,5,8,0:0:0:0:
283,90,81420,1,8,0:0:0:0:
251,204,81527,1,6,0:0:0:0:
81,169,81635,6,0,P|60:140|50:107,1,70,10|2,0:0|0:0,0:0:0:0:
74,4,81849,5,4,0:0:0:0:
181,125,81956,1,0,0:0:0:0:
74,4,82063,1,10,0:0:0:0:
63,164,82171,2,0,P|57:199|45:232,1,70,2|0,0:0|0:0,0:0:0:0:
162,57,82385,2,0,P|168:91|180:124,1,70,2|8,0:0|0:0,0:0:0:0:
278,235,82599,1,2,0:0:0:0:
299,88,82706,5,0,0:0:0:0:
147,155,82813,1,0,0:0:0:0:
299,88,82921,1,10,0:0:0:0:
239,242,83028,2,0,P|222:273|214:307,1,70,2|0,0:0|0:0,0:0:0:0:
290,123,83242,2,0,P|256:133|226:151,1,70,2|8,0:0|0:0,0:0:0:0:
153,246,83456,1,2,0:0:0:0:
226,151,83563,5,0,0:0:0:0:
301,216,83671,1,0,0:0:0:0:
226,151,83778,1,10,0:0:0:0:
301,216,83885,1,0,0:0:0:0:
393,184,83992,5,0,0:0:0:0:
481,141,84100,1,0,0:0:0:0:
467,44,84207,1,10,0:0:0:0:
371,27,84314,1,0,0:0:0:0:
325,114,84421,5,10,0:0:0:0:
392,265,84528,1,2,0:0:0:0:
405,99,84635,1,10,0:0:0:0:
302,214,84742,2,0,P|270:255|254:304,1,105,4|0,0:0|0:0,0:0:0:0:
254,326,84956,1,10,0:0:0:0:
459,235,85063,5,2,0:0:0:0:
450,201,85116,1,2,0:0:0:0:
433,171,85170,1,2,0:0:0:0:
407,147,85223,1,2,0:0:0:0:
376,131,85278,6,0,P|342:121|309:121,1,62.9999980773926,4|0,0:0|0:0,0:0:0:0:
289,243,85492,1,8,0:0:0:0:
289,243,85599,2,0,P|315:218|331:189,1,62.9999980773926,4|0,0:0|0:0,0:0:0:0:
236,111,85814,1,8,0:0:0:0:
236,111,85921,6,0,P|244:146|260:174,1,62.9999980773926,4|0,0:0|0:0,0:0:0:0:
256,169,86349,2,0,L|266:208,1,35,10|0,0:0|0:0,0:0:0:0:
341,144,86563,2,0,L|331:183,1,35,2|0,0:0|0:0,0:0:0:0:
408,119,86778,2,0,L|418:158,1,35,10|0,0:0|0:0,0:0:0:0:
493,94,86992,6,0,L|483:133,2,35,0|0|8,0:0|0:0|0:0,0:0:0:0:
368,165,87313,2,0,L|378:204,2,35,0|0|8,0:0|0:0|0:0,0:0:0:0:
260,236,87635,2,0,L|250:275,2,35,0|0|8,0:0|0:0|0:0,0:0:0:0:
135,307,87956,6,0,P|205:300|127:240,1,210,4|0,0:0|0:0,0:0:0:0:
145,224,88385,1,8,0:0:0:0:
293,309,88492,1,8,0:0:0:0:
293,140,88599,1,8,0:0:0:0:
145,223,88706,6,0,P|137:258|140:292,1,70,4|0,0:0|0:0,0:0:0:0:
213,181,88921,1,8,0:0:0:0:
213,181,89028,2,0,P|186:157|155:142,1,70,4|0,0:0|0:0,0:0:0:0:
216,261,89242,1,8,0:0:0:0:
216,261,89349,6,0,P|249:249|278:230,1,70,4|0,0:0|0:0,0:0:0:0:
278,230,89778,2,0,L|284:195,1,35,10|0,0:0|0:0,0:0:0:0:
210,179,89992,2,0,L|200:144,1,35,2|0,0:0|0:0,0:0:0:0:
126,161,90206,2,0,L|103:133,1,35,10|0,0:0|0:0,0:0:0:0:
43,180,90421,6,0,L|10:165,2,35,0|0|8,0:0|0:0|0:0,0:0:0:0:
173,150,90742,2,0,L|150:123,2,35,0|0|8,0:0|0:0|0:0,0:0:0:0:
304,178,91063,2,0,L|294:144,2,35,0|0|8,0:0|0:0|0:0,0:0:0:0:
411,259,91385,6,0,P|399:189|368:265,1,210,4|0,0:0|0:0,0:0:0:0:
366,264,91813,5,8,0:0:0:0:
269,156,91921,1,8,0:0:0:0:
225,295,92028,1,8,0:0:0:0:
366,264,92135,5,4,0:0:0:0:
366,264,92777,5,4,0:0:0:0:
360,229,92885,1,0,0:0:0:0:
355,194,92992,1,0,0:0:0:0:
349,160,93099,1,0,0:0:0:0:
272,85,93206,1,10,0:0:0:0:
266,119,93313,1,0,0:0:0:0:
272,85,93420,5,0,0:0:0:0:
266,119,93528,1,0,0:0:0:0:
261,154,93635,1,0,0:0:0:0:
255,188,93742,1,0,0:0:0:0:
178,264,93849,1,10,0:0:0:0:
172,230,93956,1,0,0:0:0:0:
178,264,94063,5,8,0:0:0:0:
172,229,94171,1,8,0:0:0:0:
167,194,94278,1,8,0:0:0:0:
161,160,94385,1,0,0:0:0:0:
84,85,94492,1,2,0:0:0:0:
78,119,94599,1,8,0:0:0:0:
84,85,94706,5,10,0:0:0:0:
78,119,94813,2,0,L|70:153,1,35,10|8,0:0|0:0,0:0:0:0:
84,85,95027,5,10,0:0:0:0:
138,162,95135,1,10,0:0:0:0:
231,153,95242,1,10,0:0:0:0:
273,57,95349,5,4,0:0:0:0:
259,89,95456,1,0,0:0:0:0:
245,121,95563,1,0,0:0:0:0:
231,153,95670,1,0,0:0:0:0:
157,228,95777,1,10,0:0:0:0:
143,195,95884,1,0,0:0:0:0:
115,131,95992,5,0,0:0:0:0:
129,163,96099,1,0,0:0:0:0:
143,195,96206,1,0,0:0:0:0:
157,228,96313,1,0,0:0:0:0:
231,302,96420,1,10,0:0:0:0:
245,269,96527,1,0,0:0:0:0:
273,205,96635,5,8,0:0:0:0:
259,237,96742,1,8,0:0:0:0:
245,269,96849,1,8,0:0:0:0:
231,302,96956,1,0,0:0:0:0:
157,376,97063,1,10,0:0:0:0:
143,343,97170,1,8,0:0:0:0:
115,279,97277,5,10,0:0:0:0:
129,311,97385,2,0,L|143:343,1,35,10|8,0:0|0:0,0:0:0:0:
129,311,97599,5,10,0:0:0:0:
241,325,97706,1,10,0:0:0:0:
106,309,97813,1,10,0:0:0:0:
263,327,97920,5,4,0:0:0:0:
297,331,98027,1,0,0:0:0:0:
332,336,98134,1,0,0:0:0:0:
366,341,98241,1,0,0:0:0:0:
482,264,98349,1,10,0:0:0:0:
447,268,98456,1,0,0:0:0:0:
263,201,98563,5,0,0:0:0:0:
298,205,98670,1,0,0:0:0:0:
333,210,98777,1,0,0:0:0:0:
367,215,98884,1,0,0:0:0:0:
482,138,98992,1,10,0:0:0:0:
447,142,99099,1,0,0:0:0:0:
263,75,99206,5,8,0:0:0:0:
298,79,99313,1,8,0:0:0:0:
333,84,99420,1,8,0:0:0:0:
367,89,99527,1,0,0:0:0:0:
482,12,99635,1,10,0:0:0:0:
447,16,99742,1,8,0:0:0:0:
412,20,99849,5,10,0:0:0:0:
377,24,99956,2,0,L|342:29,1,35,10|8,0:0|0:0,0:0:0:0:
412,20,100170,5,10,0:0:0:0:
391,90,100277,1,10,0:0:0:0:
441,143,100384,1,10,0:0:0:0:
509,127,100492,5,4,0:0:0:0:
475,135,100599,1,0,0:0:0:0:
441,143,100706,1,0,0:0:0:0:
406,150,100813,1,0,0:0:0:0:
260,108,100920,1,10,0:0:0:0:
294,116,101027,1,0,0:0:0:0:
406,150,101135,5,4,0:0:0:0:
372,158,101242,1,0,0:0:0:0:
338,166,101349,1,0,0:0:0:0:
303,173,101456,1,0,0:0:0:0:
157,131,101563,1,10,0:0:0:0:
191,139,101670,1,0,0:0:0:0:
303,173,101777,5,4,0:0:0:0:
269,181,101884,1,0,0:0:0:0:
235,189,101991,1,0,0:0:0:0:
200,196,102098,1,0,0:0:0:0:
54,154,102205,1,10,0:0:0:0:
88,162,102312,1,0,0:0:0:0:
200,196,102420,5,8,0:0:0:0:
166,204,102527,1,8,0:0:0:0:
132,212,102634,1,8,0:0:0:0:
20,146,102742,1,8,0:0:0:0:
54,154,102849,1,8,0:0:0:0:
88,162,102956,1,8,0:0:0:0:
200,96,103063,5,4,0:0:0:0:
348,341,103599,5,4,0:0:0:0:
372,56,104134,5,4,0:0:0:0:
185,272,104670,5,4,0:0:0:0:
256,192,104724,12,0,106920,0:0:0:0:
