osu file format v14

[General]
AudioFilename: audio.mp3
AudioLeadIn: 0
PreviewTime: 71564
Countdown: 0
SampleSet: Soft
StackLeniency: 0.7
Mode: 2
LetterboxInBreaks: 0
WidescreenStoryboard: 1

[Editor]
Bookmarks: 32672,33851,34601,36315
DistanceSpacing: 1.4
BeatDivisor: 4
GridSize: 4
TimelineZoom: 1.8

[Metadata]
Title:Ryoushi no Umi no Lindwurm
TitleUnicode:量子の海のリントヴルム
Artist:Kuroneko Dungeon
ArtistUnicode:黒猫ダンジョン
Creator:[_-Kukkai-_]
Version:Rain
Source:jubeat copious
Tags:Daletto squirrelpascals PROG beatmania IIDX 23 copula bemani sdvx REFLEC BEAT limelight plus pop'n music SunnyPark ポップンリズミン rhythmin GITADORA SOUND VOLTEX III GRAVITY WARS ミライダガッキ FutureTomTom Ver.2 miraidagakki EPIC PROGRESSIVE エピックプログレ TOMOSUKE ORIGINAL SOUNDTRACK モード maud Dragon of Mordiford quantum sea Zektbach binary digits いそにん isonin Video Game Instrumental
BeatmapID:1910976
BeatmapSetID:857537

[Difficulty]
HPDrainRate:6
CircleSize:4
OverallDifficulty:9
ApproachRate:9
SliderMultiplier:1.4
SliderTickRate:1

[Events]
//Background and Video events
Video,-570,"umi.avi"
0,0,"bg.jpg",0,0
//Break Periods
//Storyboard Layer 0 (Background)
//Storyboard Layer 1 (Fail)
//Storyboard Layer 2 (Pass)
//Storyboard Layer 3 (Foreground)
//Storyboard Layer 4 (Overlay)
//Storyboard Sound Samples

[TimingPoints]
425,214.285714285714,7,2,1,30,1,0
4924,-100,7,2,1,40,0,0
16924,214.285714285714,4,2,1,30,1,0
23781,214.285714285714,3,2,1,40,1,0
28923,214.285714285714,4,2,1,40,1,0
32351,-100,4,2,1,30,0,0
38351,-100,4,2,1,35,0,0
39208,-100,4,2,1,40,0,0
49601,-100,4,2,1,30,0,0
52065,-100,4,2,1,40,0,0
55601,-100,4,2,1,30,0,0
58065,214.285714285714,3,2,1,40,1,0
61279,214.285714285714,4,2,1,40,1,0
62993,214.285714285714,5,2,1,30,1,0
70921,-100,5,2,1,40,0,0
71564,214.285714285714,4,2,1,50,1,0
71564,-90.9090909090909,4,2,1,50,0,1
85278,-90.9090909090909,4,2,1,40,0,0
92135,214.285714285714,3,2,1,30,1,0
104884,-100,3,2,1,5,0,0

[Colours]
Combo1 : 203,56,50
Combo2 : 160,194,203
Combo3 : 26,65,130

[HitObjects]
244,360,425,6,0,L|244:264,1,70,0|0,0:0|0:0,0:0:0:0:
176,296,639,1,0,0:0:0:0:
108,296,746,2,0,P|48:248|116:160,1,210,0|8,0:0|0:0,0:0:0:0:
328,360,1282,6,0,L|408:324,1,70,0|0,0:0|0:0,0:0:0:0:
460,308,1496,2,0,P|460:204|324:192,1,210,0|8,0:0|0:0,0:0:0:0:
171,217,2032,6,0,L|87:185,1,70,0|0,0:0|0:0,0:0:0:0:
171,217,2246,2,0,L|403:145,1,210,0|8,0:0|0:0,0:0:0:0:
168,352,2782,6,0,L|80:312,1,70,0|0,0:0|0:0,0:0:0:0:
40,288,2996,2,0,P|40:180|168:172,1,210,0|8,0:0|0:0,0:0:0:0:
368,312,3639,5,0,0:0:0:0:
434,299,3746,1,0,0:0:0:0:
462,238,3853,1,0,0:0:0:0:
429,179,3960,1,0,0:0:0:0:
362,172,4067,1,8,0:0:0:0:
152,336,4389,5,0,0:0:0:0:
93,300,4496,1,0,0:0:0:0:
77,234,4603,1,0,0:0:0:0:
113,175,4710,1,0,0:0:0:0:
179,159,4817,1,8,0:0:0:0:
384,360,4924,6,0,P|432:328|376:280,1,140,2|0,0:0|0:0,0:0:0:0:
320,276,5246,2,0,L|168:276,1,140,2|2,0:0|0:0,0:0:0:0:
180,208,5567,1,0,0:0:0:0:
364,212,5674,5,4,0:0:0:0:
444,212,5782,2,0,L|444:120,1,70,0|4,0:0|0:0,0:0:0:0:
340,136,5996,2,0,L|340:52,1,70,2|0,0:0|0:0,0:0:0:0:
408,64,6210,2,0,L|484:64,2,70,0|0|0,0:0|0:0|0:0,0:0:0:0:
216,368,6532,6,0,L|140:368,1,70,4|0,0:0|0:0,0:0:0:0:
216,368,6746,2,0,L|216:280,1,70,2|0,0:0|0:0,0:0:0:0:
140,300,6960,2,0,L|140:228,1,70,4|0,0:0|0:0,0:0:0:0:
320,232,7174,6,0,L|392:196,2,70,4|0|2,0:0|0:0|0:0,0:0:0:0:
232,232,7496,2,0,L|160:200,1,70,4|0,0:0|0:0,0:0:0:0:
168,203,7710,2,0,L|248:172,1,70,2|4,0:0|0:0,0:0:0:0:
432,168,7924,6,0,L|432:264,1,70,4|0,3:0|0:0,0:0:0:0:
360,240,8139,2,0,L|280:240,1,70,4|0,0:0|0:0,0:0:0:0:
220,240,8353,2,0,L|219:159,1,70,0|2,0:0|0:0,0:0:0:0:
408,360,8567,6,0,L|408:272,1,70,4|0,0:0|0:0,0:0:0:0:
336,292,8782,1,2,0:0:0:0:
268,292,8889,2,0,L|268:204,1,70,4|2,0:0|0:0,0:0:0:0:
336,220,9103,1,4,0:0:0:0:
436,224,9210,1,4,0:0:0:0:
464,204,9263,1,4,0:0:0:0:
436,224,9317,1,4,0:0:0:0:
240,364,9424,6,0,P|192:324|248:276,1,140,2|2,0:0|0:0,0:0:0:0:
304,268,9746,2,0,L|452:268,1,140,2|2,0:0|0:0,0:0:0:0:
376,272,10067,1,0,0:0:0:0:
192,328,10174,5,4,0:0:0:0:
120,324,10282,2,0,L|120:244,1,70,0|4,0:0|0:0,0:0:0:0:
188,248,10496,2,0,L|188:152,1,70,2|0,0:0|0:0,0:0:0:0:
88,180,10710,2,0,L|28:136,2,70,2|0|2,0:0|0:0|0:0,0:0:0:0:
273,360,11032,6,0,L|356:360,1,70,4|0,0:0|0:0,0:0:0:0:
273,360,11246,2,0,L|273:272,1,70,2|0,0:0|0:0,0:0:0:0:
344,280,11460,2,0,L|344:200,1,70,4|0,0:0|0:0,0:0:0:0:
164,212,11674,6,0,L|80:168,2,70,4|0|2,0:0|0:0|0:0,0:0:0:0:
264,216,11996,2,0,L|336:176,2,70,4|0|2,0:0|0:0|0:0,0:0:0:0:
188,212,12317,1,4,0:0:0:0:
24,220,12424,6,0,L|24:132,1,70,4|0,3:0|0:0,0:0:0:0:
96,148,12639,2,0,L|184:148,1,70,4|0,0:0|0:0,0:0:0:0:
236,148,12853,2,0,L|232:60,1,70,2|2,0:0|0:0,0:0:0:0:
44,368,13067,6,0,L|44:268,1,70,4|0,0:0|0:0,0:0:0:0:
116,300,13282,1,10,0:0:0:0:
184,300,13389,2,0,L|184:204,1,70,4|0,0:0|0:0,0:0:0:0:
116,232,13603,1,10,0:0:0:0:
48,232,13710,1,4,0:0:0:0:
20,212,13764,1,4,0:0:0:0:
48,232,13817,1,4,0:0:0:0:
310,359,13924,6,0,P|356:306|286:271,1,140,4|0,0:3|0:0,0:0:0:0:
138,356,14246,2,0,L|299:321,1,140,4|2,0:0|0:0,0:0:0:0:
274,326,14567,1,0,0:0:0:0:
172,328,14674,5,4,0:0:0:0:
104,324,14781,1,4,0:0:0:0:
104,256,14888,1,0,0:0:0:0:
308,229,14996,2,0,L|308:77,1,140,4|8,3:0|3:0,0:0:0:0:
236,93,15317,1,8,3:0:0:0:
66,182,15424,6,0,P|26:145|72:91,1,140,4|0,3:0|0:0,0:0:0:0:
273,354,15746,2,0,P|319:315|267:266,1,140,4|2,0:0|0:0,0:0:0:0:
208,264,16067,1,0,0:0:0:0:
308,268,16174,5,4,0:0:0:0:
376,268,16281,1,4,0:0:0:0:
376,200,16388,1,0,0:0:0:0:
200,220,16496,2,0,P|156:180|212:123,1,140,4|4,0:0|0:0,0:0:0:0:
280,124,16817,1,4,0:0:0:0:
112,280,16924,5,4,3:0:0:0:
52,250,17031,1,0,0:0:0:0:
53,184,17138,1,8,0:0:0:0:
113,156,17245,1,0,0:0:0:0:
224,360,17352,2,0,L|304:360,1,70,0|0,0:0|0:0,0:0:0:0:
224,296,17566,2,0,L|152:296,1,70,8|0,0:0|0:0,0:0:0:0:
264,232,17781,6,0,L|344:232,1,70,0|0,0:0|0:0,0:0:0:0:
408,160,17995,2,0,L|336:160,1,70,8|0,0:0|0:0,0:0:0:0:
232,160,18209,2,0,P|184:128|240:72,1,140,0|8,0:0|0:0,0:0:0:0:
296,64,18531,1,0,0:0:0:0:
400,360,18638,5,0,0:0:0:0:
457,325,18745,1,0,0:0:0:0:
454,259,18852,1,8,0:0:0:0:
394,230,18959,1,0,0:0:0:0:
288,232,19066,2,0,L|216:232,1,70,0|0,0:0|0:0,0:0:0:0:
288,168,19281,2,0,L|368:168,1,70,8|0,0:0|0:0,0:0:0:0:
252,172,19495,6,0,L|172:172,1,70,0|0,0:0|0:0,0:0:0:0:
180,100,19709,2,0,L|268:100,1,70,8|8,0:0|3:0,0:0:0:0:
356,368,19923,2,0,L|356:288,1,70,2|8,3:0|3:0,0:0:0:0:
268,280,20138,2,0,L|192:280,1,70,8|8,3:0|3:0,0:0:0:0:
416,352,20352,6,0,L|496:352,1,70,4|0,3:0|0:0,0:0:0:0:
416,288,20566,2,0,L|336:288,1,70,8|0,0:0|0:0,0:0:0:0:
176,280,20781,2,0,L|176:192,1,70,4|0,3:0|0:0,0:0:0:0:
256,192,20995,2,0,L|336:192,1,70,8|0,0:0|0:0,0:0:0:0:
120,128,21209,6,0,L|32:128,1,70,4|0,3:0|0:0,0:0:0:0:
48,56,21423,2,0,L|128:56,1,70,8|0,0:0|0:0,0:0:0:0:
320,360,21638,2,0,L|408:360,1,70,4|0,3:0|0:0,0:0:0:0:
464,288,21852,2,0,L|376:288,1,70,8|0,0:0|0:0,0:0:0:0:
208,280,22066,6,0,L|128:280,1,70,4|0,3:0|0:0,0:0:0:0:
64,216,22281,2,0,L|144:216,1,70,8|0,0:0|0:0,0:0:0:0:
312,216,22495,2,0,L|312:120,1,70,4|0,3:0|0:0,0:0:0:0:
224,128,22709,2,0,L|224:48,1,70,8|0,0:0|0:0,0:0:0:0:
424,352,22923,6,0,L|424:264,1,70,4|0,3:0|0:0,0:0:0:0:
336,272,23138,2,0,L|288:272,2,35,2|0|2,3:0|0:0|3:0,0:0:0:0:
416,200,23352,2,0,L|488:200,2,70,8|8|8,3:0|3:0|3:0,0:0:0:0:
120,360,23781,6,0,L|120:208,1,140,4|0,3:0|0:0,0:0:0:0:
332,320,24102,2,0,L|168:320,1,140,12|8,0:0|0:0,0:0:0:0:
124,320,24423,2,0,L|124:244,1,70,8|8,0:0|0:0,0:0:0:0:
196,256,24638,1,0,0:0:0:0:
376,264,24745,6,0,P|416:224|356:168,1,140,4|8,0:0|0:0,0:0:0:0:
304,168,25066,1,8,0:0:0:0:
236,168,25173,1,8,0:0:0:0:
236,100,25280,1,0,0:0:0:0:
420,340,25388,6,0,P|464:304|412:248,1,140,4|8,0:0|0:0,0:0:0:0:
352,252,25709,1,8,0:0:0:0:
416,224,25816,1,8,0:0:0:0:
480,196,25923,1,0,0:0:0:0:
300,212,26030,6,0,P|256:172|308:120,1,140,4|8,0:0|0:0,0:0:0:0:
368,116,26352,2,0,L|440:88,2,70,8|8|2,0:0|0:0|0:0,0:0:0:0:
184,356,26673,6,0,L|120:320,2,70,4|0|12,0:0|0:0|0:0,0:0:0:0:
276,360,26995,2,0,L|356:316,2,70,12|0|2,0:0|0:0|0:0,0:0:0:0:
104,216,27316,5,4,0:0:0:0:
36,216,27423,2,0,L|124:216,1,70,0|12,0:0|0:0,0:0:0:0:
176,212,27638,1,12,0:0:0:0:
106,216,27745,2,0,L|106:120,1,70,2|0,0:0|0:0,0:0:0:0:
288,160,27959,2,0,L|368:124,2,70,12|4|10,0:0|0:0|0:0,0:0:0:0:
120,164,28280,6,0,L|48:128,2,70,4|0|8,0:0|0:0|3:0,0:0:0:0:
316,264,28602,2,0,P|356:224|308:160,1,140,4|0,0:0|0:0,0:0:0:0:
244,160,28923,1,4,0:0:0:0:
80,336,29030,2,0,L|81:187,1,140,4|4,0:0|0:0,0:0:0:0:
419,296,29458,6,0,L|192:296,1,210,0|2,0:0|0:0,0:0:0:0:
304,296,29887,2,0,L|304:220,1,70,4|4,0:0|0:0,0:0:0:0:
224,232,30101,2,0,L|223:160,1,70,4|4,0:0|0:0,0:0:0:0:
401,363,30315,6,0,P|469:307|393:240,1,210,4|2,3:0|0:0,0:0:0:0:
328,240,30744,1,4,0:0:0:0:
396,240,30851,1,2,3:0:0:0:
464,240,30958,1,4,0:0:0:0:
152,360,31172,6,0,P|88:317|158:234,1,210,4|2,3:0|0:0,0:0:0:0:
252,232,31601,2,0,L|251:135,1,70,4|4,0:0|0:0,0:0:0:0:
180,160,31815,2,0,L|179:65,1,70,4|4,0:0|0:0,0:0:0:0:
348,92,32030,2,0,L|428:92,2,70,4|8|8,3:0|3:0|3:0,0:0:0:0:
162,366,32351,6,0,L|162:290,1,70,4|0,3:0|0:0,0:0:0:0:
233,295,32565,1,4,0:0:0:0:
324,292,32672,2,0,L|408:248,2,70,2|0|0,0:0|0:0|0:0,0:0:0:0:
212,296,32994,6,0,P|144:252|228:184,1,210,4|2,0:0|0:0,0:0:0:0:
288,176,33422,2,0,L|288:88,1,70,4|0,0:0|0:0,0:0:0:0:
208,104,33637,2,0,L|136:48,1,70,8|8,0:0|0:0,0:0:0:0:
152,61,33851,1,4,0:0:0:0:
264,368,33958,6,0,P|320:336|240:240,1,210,2|4,0:0|0:0,0:0:0:0:
172,236,34387,2,0,L|172:148,1,70,0|0,0:0|0:0,0:0:0:0:
240,160,34601,2,0,L|328:116,2,70,2|4|0,0:0|0:0|0:0,0:0:0:0:
124,364,34922,6,0,L|354:367,1,210,2|4,0:0|0:0,0:0:0:0:
262,367,35351,2,0,L|178:367,1,70,8|8,0:0|0:0,0:0:0:0:
384,304,35565,6,0,P|472:224|364:124,1,280,4|2,0:0|0:0,0:0:0:0:
292,120,36101,2,0,L|214:120,1,70,4|0,0:0|0:0,0:0:0:0:
222,120,36315,1,0,0:0:0:0:
332,372,36422,6,0,P|400:348|336:244,1,210,4|2,2:0|2:0,0:0:0:0:
268,236,36851,2,0,L|196:200,1,70,4|0,0:0|0:0,0:0:0:0:
276,236,37065,2,0,L|364:192,2,70,8|8|2,0:0|0:0|0:0,0:0:0:0:
164,232,37387,6,0,P|104:192|184:96,1,210,4|4,0:0|0:0,0:0:0:0:
252,92,37815,2,0,L|252:200,1,70,0|0,0:0|0:0,0:0:0:0:
176,160,38030,2,0,L|104:124,2,70,4|0|0,0:0|0:0|0:0,0:0:0:0:
360,372,38351,6,0,L|360:292,1,70,2|0,0:0|0:0,0:0:0:0:
288,296,38565,2,0,L|212:296,1,70,4|4,0:0|0:0,0:0:0:0:
400,244,38780,1,4,0:0:0:0:
460,214,38887,1,2,3:0:0:0:
460,148,38994,1,4,0:0:0:0:
401,118,39101,1,8,3:0:0:0:
225,298,39208,6,0,L|129:298,1,70,4|0,3:0|0:0,0:0:0:0:
155,298,39422,1,2,0:0:0:0:
260,300,39530,2,0,L|356:300,1,70,4|0,0:0|0:0,0:0:0:0:
330,300,39744,1,0,0:0:0:0:
225,298,39851,2,0,L|225:226,1,70,4|0,0:0|0:0,0:0:0:0:
297,226,40065,5,2,0:0:0:0:
400,224,40172,2,0,L|480:224,2,70,4|0|0,0:0|0:0|0:0,0:0:0:0:
196,372,40494,1,8,0:0:0:0:
131,355,40601,1,8,0:0:0:0:
133,293,40708,1,12,0:0:0:0:
197,285,40815,1,0,0:0:0:0:
376,284,40922,6,0,L|464:284,2,70,2|0|4,0:0|0:0|0:0,0:0:0:0:
272,292,41244,2,0,L|184:292,2,70,2|0|0,0:0|0:0|0:0,0:0:0:0:
376,292,41565,2,0,L|376:212,1,70,2|0,0:0|0:0,0:0:0:0:
196,232,41780,6,0,L|108:232,2,70,4|4|4,0:0|0:0|0:0,0:0:0:0:
376,222,42101,2,0,P|440:208|484:120,1,140,4|0,3:0|0:0,0:0:0:0:
412,156,42422,1,4,0:0:0:0:
248,356,42637,6,0,L|160:356,2,70,2|0|4,0:0|0:0|0:0,0:0:0:0:
352,352,42958,2,0,L|424:352,2,70,0|8|0,0:0|0:0|0:0,0:0:0:0:
248,356,43280,2,0,L|248:276,1,70,4|0,0:0|0:0,0:0:0:0:
320,284,43494,5,2,0:0:0:0:
424,288,43601,2,0,L|424:200,1,70,0|4,0:0|0:0,0:0:0:0:
352,224,43815,1,0,0:0:0:0:
188,224,43922,2,0,L|188:124,1,70,8|8,0:0|0:0,0:0:0:0:
260,152,44137,2,0,L|332:152,1,70,4|0,0:0|0:0,0:0:0:0:
152,312,44351,6,0,L|80:312,2,70,2|0|4,0:0|0:0|0:0,0:0:0:0:
328,304,44672,1,2,0:0:0:0:
393,286,44779,1,0,0:0:0:0:
420,224,44886,1,4,0:0:0:0:
389,164,44993,1,2,0:0:0:0:
322,152,45100,1,0,0:0:0:0:
148,156,45208,6,0,L|68:156,2,70,4|4|4,0:0|0:0|0:0,0:0:0:0:
328,316,45530,2,0,P|376:276|320:228,1,140,4|8,3:0|3:0,0:0:0:0:
264,228,45851,1,4,0:0:0:0:
228,224,45904,1,0,0:0:0:0:
264,228,45958,1,4,0:0:0:0:
436,360,46065,5,4,3:0:0:0:
486,314,46172,1,0,0:0:0:0:
490,246,46279,1,4,0:0:0:0:
445,195,46386,1,0,0:0:0:0:
377,192,46493,1,8,0:0:0:0:
196,300,46601,6,0,L|352:300,1,140,2|0,0:0|0:0,0:0:0:0:
252,304,46922,1,2,0:0:0:0:
184,304,47030,2,0,L|184:208,1,70,4|4,0:0|0:0,0:0:0:0:
368,288,47244,2,0,P|452:192|360:99,1,280,2|0,0:0|0:0,0:0:0:0:
272,100,47780,6,0,L|180:100,1,70,2|0,0:0|0:0,0:0:0:0:
272,100,47994,2,0,L|340:64,2,70,4|0|8,0:0|0:0|0:0,0:0:0:0:
96,216,48315,2,0,L|4:172,2,70,2|4|0,0:0|0:0|0:0,0:0:0:0:
280,224,48637,6,0,L|192:224,1,70,4|4,0:0|0:0,0:0:0:0:
140,224,48851,1,2,0:0:0:0:
324,152,48958,2,0,L|400:152,1,70,4|0,3:0|0:0,0:0:0:0:
394,152,49172,2,0,L|308:152,1,70,2|4,0:0|0:0,0:0:0:0:
140,212,49387,2,0,L|129:129,1,70,0|4,0:0|3:0,0:0:0:0:
368,360,49601,6,0,L|392:288,1,70,4|4,0:0|0:0,0:0:0:0:
208,256,49922,2,0,L|184:184,1,70,2|4,0:0|0:0,0:0:0:0:
368,360,50244,2,0,L|392:288,1,70,2|4,0:0|0:0,0:0:0:0:
208,256,50565,2,0,L|184:184,1,70,2|4,0:0|0:0,0:0:0:0:
336,160,50887,6,0,L|184:160,1,140,2|4,0:0|0:0,0:0:0:0:
360,352,51422,2,0,L|496:304,2,140,2|2|2,0:0|0:0|0:0,0:0:0:0:
216,360,52065,6,0,L|132:360,2,70,2|0|4,0:0|0:0|0:0,0:0:0:0:
304,360,52387,2,0,L|304:280,1,70,4|2,0:0|0:0,0:0:0:0:
224,240,52601,2,0,L|224:160,1,70,0|12,0:0|0:0,0:0:0:0:
304,152,52815,2,0,L|400:152,1,70,8|4,0:0|0:0,0:0:0:0:
444,152,53030,2,0,L|372:152,1,70,4|4,0:0|0:0,0:0:0:0:
156,344,53244,6,0,P|116:320|164:256,1,140,4|2,3:0|0:0,0:0:0:0:
228,256,53565,2,0,L|304:256,1,70,4|0,0:0|0:0,0:0:0:0:
400,336,53780,6,0,L|480:336,2,70,2|0|0,0:0|0:0|0:0,0:0:0:0:
312,328,54101,2,0,L|312:248,1,70,4|10,0:0|0:0,0:0:0:0:
392,248,54315,1,0,0:0:0:0:
480,184,54422,2,0,L|400:184,1,70,4|0,0:0|0:0,0:0:0:0:
184,176,54637,2,0,L|100:176,2,70,4|4|4,0:0|0:0|0:0,0:0:0:0:
352,176,54958,6,0,P|392:136|344:80,1,140,4|2,3:0|0:0,0:0:0:0:
272,360,55280,1,4,0:0:0:0:
339,340,55387,1,2,0:0:0:0:
406,320,55494,1,4,3:0:0:0:
144,360,55601,6,0,L|120:288,1,70,4|4,0:0|0:0,0:0:0:0:
304,256,55922,2,0,L|328:184,1,70,2|4,0:0|0:0,0:0:0:0:
144,360,56244,2,0,L|120:288,1,70,2|4,0:0|0:0,0:0:0:0:
304,256,56565,2,0,L|328:184,1,70,2|4,0:0|0:0,0:0:0:0:
176,160,56887,6,0,L|328:160,1,140,2|4,0:0|0:0,0:0:0:0:
152,352,57422,2,0,L|12:304,2,140,2|2|2,0:0|0:0|0:0,0:0:0:0:
304,360,58065,6,0,L|384:360,2,70,2|0|0,0:0|0:0|0:0,0:0:0:0:
224,360,58386,2,0,L|144:360,2,70,2|8|8,3:0|3:0|3:0,0:0:0:0:
400,296,58707,6,0,L|400:224,1,70,4|0,3:0|0:0,0:0:0:0:
328,224,58922,1,8,0:0:0:0:
224,220,59029,2,0,L|144:220,1,70,4|0,3:0|0:0,0:0:0:0:
224,220,59244,1,8,0:0:0:0:
408,144,59350,6,0,L|488:144,2,70,2|0|2,0:0|0:0|0:0,0:0:0:0:
296,148,59672,2,0,L|216:148,2,70,4|8|8,0:0|3:0|3:0,0:0:0:0:
484,352,59993,6,0,L|484:268,1,70,4|0,3:0|0:0,0:0:0:0:
412,284,60207,1,2,0:0:0:0:
300,284,60315,2,0,L|204:284,1,70,4|0,3:0|0:0,0:0:0:0:
232,204,60529,1,2,0:0:0:0:
416,200,60636,6,0,L|496:200,2,70,4|0|2,3:0|0:0|0:0,0:0:0:0:
232,360,60957,1,4,0:0:0:0:
316,360,61064,1,8,3:0:0:0:
400,356,61171,1,8,3:0:0:0:
160,292,61279,1,4,3:0:0:0:
296,352,62457,6,0,L|296:280,1,70,4|4,0:0|0:0,0:0:0:0:
216,280,62671,2,0,L|216:208,1,70,4|4,0:0|0:0,0:0:0:0:
388,232,62993,5,2,0:0:0:0:
448,208,63100,1,0,0:0:0:0:
444,132,63207,1,8,0:0:0:0:
376,128,63314,2,0,L|456:128,1,70,4|0,0:0|0:0,0:0:0:0:
340,124,63528,2,0,L|332:36,1,70,2|0,0:0|0:0,0:0:0:0:
400,88,63743,2,0,L|408:0,1,70,2|2,0:0|0:0,0:0:0:0:
332,48,63957,1,0,0:0:0:0:
232,252,64064,5,2,0:0:0:0:
172,212,64171,1,0,0:0:0:0:
176,144,64278,1,12,0:0:0:0:
246,144,64385,2,0,L|166:144,1,70,0|0,0:0|0:0,0:0:0:0:
264,136,64600,2,0,L|272:48,1,70,4|0,0:0|0:0,0:0:0:0:
164,64,64814,2,0,L|96:104,2,70,4|4|2,0:0|0:0|0:0,0:0:0:0:
344,276,65135,5,4,3:0:0:0:
409,258,65242,1,0,0:0:0:0:
436,196,65349,1,10,0:0:0:0:
405,136,65456,1,0,0:0:0:0:
338,124,65563,1,0,0:0:0:0:
172,120,65671,2,0,L|128:200,1,70,4|0,0:0|0:0,0:0:0:0:
320,192,65885,2,0,L|392:168,2,70,4|0|2,0:0|0:0|0:0,0:0:0:0:
128,360,66207,6,0,L|128:280,1,70,4|0,3:0|0:0,0:0:0:0:
196,288,66421,1,0,0:0:0:0:
264,288,66528,2,0,L|264:208,1,70,2|2,0:0|0:0,0:0:0:0:
92,220,66743,2,0,L|92:132,1,70,4|0,0:0|0:0,0:0:0:0:
268,84,66957,1,4,0:0:0:0:
198,91,67064,1,4,0:0:0:0:
128,98,67171,1,4,0:0:0:0:
312,356,67278,5,2,0:0:0:0:
376,332,67385,1,0,0:0:0:0:
401,268,67492,1,8,0:0:0:0:
369,208,67599,1,4,0:0:0:0:
304,191,67706,1,0,0:0:0:0:
408,192,67814,2,0,L|416:112,1,70,2|0,0:0|0:0,0:0:0:0:
312,116,68028,2,0,L|232:72,2,70,4|2|0,0:0|0:0|0:0,0:0:0:0:
416,104,68350,6,0,L|416:192,1,70,2|0,0:0|0:0,0:0:0:0:
340,176,68564,2,0,L|252:128,2,70,12|0|0,0:0|0:0|0:0,0:0:0:0:
416,184,68885,2,0,L|432:104,1,70,4|0,0:0|0:0,0:0:0:0:
324,96,69100,2,0,L|324:8,1,70,6|4,0:0|0:0,0:0:0:0:
396,24,69314,1,2,0:0:0:0:
204,368,69421,6,0,L|124:328,1,70,4|0,3:0|0:0,0:0:0:0:
216,300,69635,2,0,L|216:212,1,70,8|10,0:0|0:0,0:0:0:0:
144,216,69850,1,0,0:0:0:0:
320,172,69957,2,0,L|320:88,1,70,4|0,0:0|0:0,0:0:0:0:
152,92,70171,2,0,L|76:64,2,70,4|2|2,0:0|0:0|0:0,0:0:0:0:
320,360,70492,6,0,L|320:272,1,70,4|0,3:0|0:0,0:0:0:0:
248,296,70707,1,8,0:0:0:0:
320,290,70814,2,0,L|408:288,1,70,10|0,0:0|0:0,0:0:0:0:
200,280,71028,5,4,0:0:0:0:
168,267,71081,1,4,0:0:0:0:
142,244,71135,1,4,0:0:0:0:
127,213,71188,1,4,0:0:0:0:
124,178,71242,1,4,0:0:0:0:
134,145,71295,1,0,0:0:0:0:
156,118,71349,1,2,3:0:0:0:
186,100,71403,1,0,3:0:0:0:
220,95,71456,1,2,3:0:0:0:
412,208,71564,5,4,3:0:0:0:
478,181,71671,1,0,0:0:0:0:
473,110,71778,1,4,0:0:0:0:
403,94,71885,1,0,0:0:0:0:
304,96,71992,2,0,L|456:36,1,154.000004699707,8|4,0:0|0:0,0:0:0:0:
256,296,72421,6,0,L|256:208,1,77.0000023498536,2|0,0:0|0:0,0:0:0:0:
336,212,72635,2,0,L|424:168,2,77.0000023498536,4|0|0,0:0|0:0|0:0,0:0:0:0:
164,204,72956,2,0,L|75:167,2,77.0000023498536,2|4|0,0:0|0:0|0:0,0:0:0:0:
352,360,73278,6,0,P|392:288|324:248,1,154.000004699707,2|4,0:0|0:0,0:0:0:0:
168,252,73706,2,0,L|335:252,1,154.000004699707,10|4,0:0|0:0,0:0:0:0:
152,244,74135,6,0,L|152:160,1,77.0000023498536,4|4,0:0|0:0,0:0:0:0:
320,152,74349,2,0,L|392:104,1,77.0000023498536,4|4,0:0|0:0,0:0:0:0:
216,148,74564,2,0,L|112:108,1,77.0000023498536,4|4,0:0|3:0,0:0:0:0:
73,88,74778,2,0,L|153:124,1,77.0000023498536,8|8,3:0|3:0,0:0:0:0:
344,320,74992,6,0,L|427:279,2,77.0000023498536,4|0|4,3:0|0:0|0:0,0:0:0:0:
168,328,75314,2,0,L|168:164,1,154.000004699707,2|4,0:0|0:0,0:0:0:0:
324,172,75742,1,8,0:0:0:0:
204,172,75849,6,0,L|108:144,2,77.0000023498536,2|0|4,0:0|0:0|0:0,0:0:0:0:
376,344,76171,2,0,L|376:184,1,154.000004699707,2|4,0:0|0:0,0:0:0:0:
220,184,76599,1,8,0:0:0:0:
408,184,76706,5,2,0:0:0:0:
484,156,76813,1,0,0:0:0:0:
480,83,76920,1,4,0:0:0:0:
402,61,77027,1,0,0:0:0:0:
228,352,77135,2,0,L|140:312,1,77.0000023498536,0|2,0:0|0:0,0:0:0:0:
228,352,77349,2,0,L|324:308,1,77.0000023498536,4|0,0:0|0:0,0:0:0:0:
128,264,77563,6,0,L|128:168,1,77.0000023498536,2|2,0:0|0:0,0:0:0:0:
212,180,77778,2,0,L|312:180,1,77.0000023498536,4|4,0:0|0:0,0:0:0:0:
96,92,77992,2,0,L|20:132,1,77.0000023498536,2|2,3:0|3:0,0:0:0:0:
220,88,78206,2,0,L|304:120,1,77.0000023498536,8|8,3:0|3:0,0:0:0:0:
96,368,78421,5,4,3:0:0:0:
24,344,78528,1,0,0:0:0:0:
23,271,78635,1,4,0:0:0:0:
95,245,78742,1,0,0:0:0:0:
196,244,78849,2,0,L|24:200,1,154.000004699707,8|4,0:0|0:0,0:0:0:0:
236,168,79278,6,0,L|236:88,1,77.0000023498536,2|0,0:0|0:0,0:0:0:0:
156,92,79492,2,0,L|64:56,2,77.0000023498536,4|0|0,0:0|0:0|0:0,0:0:0:0:
336,96,79813,2,0,L|422:59,2,77.0000023498536,2|4|0,0:0|0:0|0:0,0:0:0:0:
136,348,80135,6,0,L|136:184,1,154.000004699707,4|4,3:0|0:0,0:0:0:0:
320,188,80563,2,0,L|144:188,1,154.000004699707,0|4,0:0|3:0,0:0:0:0:
344,184,80992,6,0,L|344:72,1,77.0000023498536,2|4,0:0|3:0,0:0:0:0:
180,104,81206,2,0,L|180:16,1,77.0000023498536,0|0,0:0|0:0,0:0:0:0:
352,24,81421,2,0,L|448:64,1,77.0000023498536,4|4,0:0|3:0,0:0:0:0:
423,53,81635,2,0,L|343:89,1,77.0000023498536,0|0,0:0|0:0,0:0:0:0:
164,364,81849,5,4,3:0:0:0:
232,364,81956,1,0,0:0:0:0:
300,364,82063,1,4,0:0:0:0:
128,296,82171,2,0,L|8:188,2,154.000004699707,2|4|8,0:0|0:0|0:0,0:0:0:0:
252,244,82706,5,2,0:0:0:0:
184,244,82813,1,0,0:0:0:0:
116,244,82920,1,4,0:0:0:0:
304,244,83028,2,0,L|468:164,2,154.000004699707,2|4|8,0:0|0:0|0:0,0:0:0:0:
91,255,83563,6,0,L|8:212,1,77.0000023498536,2|0,0:0|0:0,0:0:0:0:
91,255,83778,2,0,L|180:204,1,77.0000023498536,4|0,0:0|0:0,0:0:0:0:
340,360,83992,2,0,L|340:272,1,77.0000023498536,2|2,0:0|0:0,0:0:0:0:
244,280,84206,2,0,L|244:192,1,77.0000023498536,4|0,0:0|0:0,0:0:0:0:
416,208,84421,6,0,L|416:120,1,77.0000023498536,2|2,0:0|0:0,0:0:0:0:
336,124,84635,2,0,L|252:96,1,77.0000023498536,4|4,0:0|3:0,0:0:0:0:
436,136,84849,2,0,L|500:80,1,77.0000023498536,2|2,3:0|3:0,0:0:0:0:
296,128,85063,2,8,L|228:80,1,77.0000023498536,12|0,3:0|3:0,3:0:0:0:
416,360,85278,6,0,P|452:324|400:248,1,154.000004699707,4|10,3:0|0:0,0:0:0:0:
328,252,85599,2,0,L|144:252,1,154.000004699707,4|0,0:0|0:0,0:0:0:0:
356,360,85921,6,0,L|420:304,1,77.0000023498536,4|0,3:0|0:0,0:0:0:0:
332,288,86135,1,0,0:0:0:0:
260,263,86242,1,2,0:0:0:0:
217,200,86349,1,4,0:0:0:0:
220,125,86456,1,0,0:0:0:0:
267,65,86563,1,2,0:0:0:0:
340,46,86670,1,2,0:0:0:0:
424,40,86778,2,0,L|424:136,1,77.0000023498536,4|4,0:0|0:0,0:0:0:0:
236,372,86992,6,0,L|228:284,1,77.0000023498536,2|0,0:0|0:0,0:0:0:0:
311,295,87206,1,10,0:0:0:0:
392,300,87313,2,0,L|400:212,1,77.0000023498536,4|0,0:0|0:0,0:0:0:0:
323,223,87528,1,10,0:0:0:0:
240,232,87635,2,0,P|188:204|252:144,1,154.000004699707,2|0,0:0|0:0,0:0:0:0:
419,355,87956,6,0,L|212:228,1,231.000007049561,4|4,3:0|0:0,0:0:0:0:
300,224,88385,2,0,L|372:172,2,77.0000023498536,0|4|8,0:0|0:0|3:0,0:0:0:0:
88,322,88706,6,0,P|48:292|104:224,1,154.000004699707,4|10,3:0|0:0,0:0:0:0:
176,216,89028,2,0,L|336:216,1,154.000004699707,4|10,0:0|0:0,0:0:0:0:
136,220,89349,6,0,L|60:184,1,77.0000023498536,4|0,3:0|0:0,0:0:0:0:
156,356,89563,1,0,0:0:0:0:
231,356,89670,1,0,0:0:0:0:
286,305,89777,1,4,0:0:0:0:
290,230,89884,1,0,0:0:0:0:
242,172,89991,1,10,0:0:0:0:
167,164,90098,1,2,0:0:0:0:
92,169,90206,2,0,L|76:81,1,77.0000023498536,4|4,0:0|0:0,0:0:0:0:
360,368,90421,6,0,L|368:280,1,77.0000023498536,2|0,0:0|0:0,0:0:0:0:
288,288,90635,1,10,0:0:0:0:
208,288,90742,2,0,L|200:200,1,77.0000023498536,4|0,0:0|0:0,0:0:0:0:
280,208,90956,1,10,0:0:0:0:
360,208,91063,2,0,P|408:168|348:112,1,154.000004699707,2|0,0:0|0:0,0:0:0:0:
100,340,91385,5,4,3:0:0:0:
52,281,91492,1,0,0:0:0:0:
33,207,91599,1,4,0:0:0:0:
45,131,91706,1,0,0:0:0:0:
87,67,91813,1,4,0:0:0:0:
151,26,91920,1,2,3:0:0:0:
227,14,92027,1,2,3:0:0:0:
400,352,92135,6,0,L|400:276,1,70,4|0,3:0|0:0,0:0:0:0:
264,280,92456,2,0,L|264:172,1,70,0|0,0:0|0:0,0:0:0:0:
332,212,92670,1,0,0:0:0:0:
114,359,92777,5,4,3:0:0:0:
53,332,92884,1,8,0:0:0:0:
55,267,92991,1,0,0:0:0:0:
117,245,93098,1,4,0:0:0:0:
196,248,93206,2,0,L|116:248,1,70,2|0,0:0|0:0,0:0:0:0:
310,379,93420,5,10,0:0:0:0:
370,352,93527,1,8,0:0:0:0:
368,287,93634,1,0,0:0:0:0:
306,265,93741,1,4,0:0:0:0:
228,260,93849,2,0,L|308:260,1,70,2|0,0:0|0:0,0:0:0:0:
121,364,94063,6,0,L|121:276,1,70,4|4,0:0|0:0,0:0:0:0:
196,280,94277,2,0,L|196:200,1,70,2|2,0:0|0:0,0:0:0:0:
120,208,94492,2,0,L|40:208,1,70,4|4,0:0|0:0,0:0:0:0:
262,307,94706,6,0,L|262:227,1,70,10|8,0:0|0:0,0:0:0:0:
174,195,94920,2,0,L|174:115,1,70,2|4,0:0|0:0,0:0:0:0:
344,124,95135,2,0,L|426:81,1,70,4|4,0:0|0:0,0:0:0:0:
192,352,95349,6,0,L|192:256,1,70,4|8,3:0|0:0,0:0:0:0:
268,288,95563,2,0,L|348:288,1,70,0|4,0:0|0:0,0:0:0:0:
260,284,95777,2,0,L|180:284,1,70,2|0,0:0|0:0,0:0:0:0:
381,360,95992,6,0,L|381:264,1,70,10|8,0:0|0:0,0:0:0:0:
304,292,96206,2,0,L|224:292,1,70,0|4,0:0|0:0,0:0:0:0:
312,292,96420,2,0,L|392:292,1,70,2|0,0:0|0:0,0:0:0:0:
191,366,96635,5,4,0:0:0:0:
128,344,96742,1,4,0:0:0:0:
127,278,96849,1,2,0:0:0:0:
188,254,96956,1,2,0:0:0:0:
264,252,97063,2,0,L|264:180,1,70,4|4,0:0|0:0,0:0:0:0:
88,184,97277,6,0,L|88:104,1,70,12|12,0:0|0:0,0:0:0:0:
276,361,97492,2,0,L|276:273,1,70,2|4,0:0|0:0,0:0:0:0:
200,292,97706,2,0,L|120:292,1,70,8|8,3:0|3:0,0:0:0:0:
325,360,97920,5,4,3:0:0:0:
333,292,98027,1,8,0:0:0:0:
291,238,98134,1,0,0:0:0:0:
225,229,98241,1,4,0:0:0:0:
304,224,98349,2,0,L|376:176,1,70,2|0,0:0|0:0,0:0:0:0:
183,365,98563,5,10,0:0:0:0:
174,297,98670,1,8,0:0:0:0:
216,243,98777,1,0,0:0:0:0:
283,233,98884,1,4,0:0:0:0:
204,232,98992,2,0,L|132:184,1,70,2|0,0:0|0:0,0:0:0:0:
329,364,99206,5,10,0:0:0:0:
391,342,99313,1,8,0:0:0:0:
394,276,99420,1,0,0:0:0:0:
335,248,99527,1,4,0:0:0:0:
260,252,99634,2,0,L|260:156,1,70,2|4,0:0|0:0,0:0:0:0:
432,152,99849,6,0,L|432:72,1,70,4|4,0:0|0:0,0:0:0:0:
364,84,100063,1,8,3:0:0:0:
176,300,100170,1,2,3:0:0:0:
246,300,100277,1,2,3:0:0:0:
316,300,100384,1,8,3:0:0:0:
131,369,100492,6,0,L|131:289,1,70,4|8,3:0|0:0,0:0:0:0:
219,273,100706,2,0,L|219:193,1,70,0|4,0:0|0:0,0:0:0:0:
139,185,100920,2,0,L|51:185,1,70,2|0,0:0|0:0,0:0:0:0:
282,272,101134,6,0,L|282:192,1,70,4|8,3:0|0:0,0:0:0:0:
194,176,101348,2,0,L|194:96,1,70,0|4,0:0|0:0,0:0:0:0:
274,88,101562,2,0,L|362:88,1,70,2|0,0:0|0:0,0:0:0:0:
160,352,101777,5,4,3:0:0:0:
92,337,101884,1,8,0:0:0:0:
50,283,101991,1,0,0:0:0:0:
51,215,102098,1,4,0:0:0:0:
96,163,102205,1,2,0:0:0:0:
164,151,102312,1,0,0:0:0:0:
384,360,102420,6,0,L|464:360,2,70,2|2|8,3:0|3:0|3:0,0:0:0:0:
152,352,102742,2,0,L|58:353,2,70,2|8|8,3:0|3:0|3:0,0:0:0:0:
368,200,103063,5,4,3:0:0:0:
114,121,103599,5,4,3:0:0:0:
393,121,104134,5,4,3:0:0:0:
10,137,104670,5,4,3:0:0:0:
256,192,104884,12,0,106920,0:0:0:0:
