osu file format v14

[General]
AudioFilename: audio.mp3
AudioLeadIn: 0
PreviewTime: 71564
Countdown: 0
SampleSet: Soft
StackLeniency: 0.7
Mode: 2
LetterboxInBreaks: 0
WidescreenStoryboard: 1

[Editor]
Bookmarks: 1817,7174,7924,20352,49494,90742,92349,106920
DistanceSpacing: 1
BeatDivisor: 2
GridSize: 4
TimelineZoom: 1.8

[Metadata]
Title:Ryoushi no Umi no Lindwurm
TitleUnicode:量子の海のリントヴルム
Artist:Kuroneko Dungeon
ArtistUnicode:黒猫ダンジョン
Creator:[_-Kukkai-_]
Version:Platter
Source:jubeat copious
Tags:Daletto squirrelpascals PROG beatmania IIDX 23 copula bemani sdvx REFLEC BEAT limelight plus pop'n music SunnyPark ポップンリズミン rhythmin GITADORA SOUND VOLTEX III GRAVITY WARS ミライダガッキ FutureTomTom Ver.2 miraidagakki EPIC PROGRESSIVE エピックプログレ TOMOSUKE ORIGINAL SOUNDTRACK モード maud Dragon of Mordiford quantum sea Zektbach binary digits いそにん isonin Video Game Instrumental
BeatmapID:1924128
BeatmapSetID:857537

[Difficulty]
HPDrainRate:5
CircleSize:3.5
OverallDifficulty:8
ApproachRate:8
SliderMultiplier:1.2
SliderTickRate:1

[Events]
//Background and Video events
Video,-570,"umi.avi"
0,0,"bg.jpg",0,0
//Break Periods
2,17124,19602
//Storyboard Layer 0 (Background)
//Storyboard Layer 1 (Fail)
//Storyboard Layer 2 (Pass)
//Storyboard Layer 3 (Foreground)
//Storyboard Layer 4 (Overlay)
//Storyboard Sound Samples

[TimingPoints]
425,214.285714285714,7,2,1,30,1,0
4924,-100,7,2,1,40,0,0
16924,214.285714285714,4,2,1,30,1,0
20352,-100,4,2,1,30,0,0
23781,214.285714285714,3,2,1,40,1,0
28923,214.285714285714,4,2,1,40,1,0
32351,-100,4,2,1,30,0,0
38351,-100,4,2,1,35,0,0
39208,-100,4,2,1,40,0,0
49601,-100,4,2,1,30,0,0
52065,-100,4,2,1,40,0,0
55601,-100,4,2,1,30,0,0
58065,214.285714285714,3,2,1,40,1,0
61279,214.285714285714,4,2,1,40,1,0
62993,214.285714285714,5,2,1,30,1,0
70921,-100,5,2,1,40,0,0
71564,214.285714285714,4,2,1,50,1,0
71564,-100,4,2,1,50,0,1
85278,-100,4,2,1,40,0,0
92135,214.285714285714,3,2,1,30,1,0
104992,-100,3,2,1,5,0,0

[Colours]
Combo1 : 203,56,50
Combo2 : 160,194,203
Combo3 : 26,65,130

[HitObjects]
45,291,425,1,0,0:0:0:0:
212,360,746,2,0,L|36:288,1,180,0|8,0:0|0:0,0:0:0:0:
212,360,1496,2,0,L|36:288,1,180,0|8,0:0|0:0,0:0:0:0:
264,368,2246,6,0,L|440:296,1,180,0|8,0:0|0:0,0:0:0:0:
264,368,2996,2,0,L|440:296,1,180,0|8,0:0|0:0,0:0:0:0:
152,364,3639,5,0,0:0:0:0:
95,334,3746,1,0,0:0:0:0:
75,274,3853,1,0,0:0:0:0:
101,216,3960,1,0,0:0:0:0:
160,192,4067,1,8,0:0:0:0:
416,368,4389,5,0,0:0:0:0:
472,338,4496,1,0,0:0:0:0:
492,278,4603,1,0,0:0:0:0:
448,228,4710,1,0,0:0:0:0:
384,212,4817,1,8,0:0:0:0:
264,368,4924,6,0,L|264:168,1,180,2|2,0:0|0:0,0:0:0:0:
384,192,5460,1,2,0:0:0:0:
180,192,5674,1,4,0:0:0:0:
124,192,5781,1,0,0:0:0:0:
180,192,5888,1,4,0:0:0:0:
240,192,5996,2,0,L|304:336,1,120,2|2,0:0|0:0,0:0:0:0:
84,264,6424,6,0,L|16:264,1,60,0|4,0:0|0:0,0:0:0:0:
144,264,6746,1,2,0:0:0:0:
24,264,6960,1,4,0:0:0:0:
228,256,7174,2,0,L|288:216,2,60,4|0|2,0:0|0:0|0:0,0:0:0:0:
172,256,7496,1,4,0:0:0:0:
120,256,7603,1,0,0:0:0:0:
120,204,7710,1,2,0:0:0:0:
424,364,7924,6,0,L|424:232,1,120,4|4,3:0|0:0,0:0:0:0:
308,303,8353,1,0,0:0:0:0:
366,273,8460,1,2,0:0:0:0:
424,244,8567,1,4,0:0:0:0:
216,348,8782,1,2,0:0:0:0:
157,353,8889,1,4,0:0:0:0:
111,318,8996,1,2,0:0:0:0:
112,256,9103,1,4,0:0:0:0:
172,224,9210,1,4,0:0:0:0:
376,368,9424,6,0,L|376:156,1,180,2|2,0:0|0:0,0:0:0:0:
256,192,9960,1,2,0:0:0:0:
460,192,10174,1,4,0:0:0:0:
460,132,10281,1,0,0:0:0:0:
400,132,10388,1,4,0:0:0:0:
340,132,10496,2,0,L|192:132,1,120,2|2,0:0|0:0,0:0:0:0:
424,344,10924,6,0,L|496:344,1,60,2|4,0:0|0:0,0:0:0:0:
364,348,11246,1,2,0:0:0:0:
484,344,11460,1,4,0:0:0:0:
280,352,11674,2,0,L|224:312,2,60,4|0|2,0:0|0:0|0:0,0:0:0:0:
336,352,11996,1,4,0:0:0:0:
388,348,12103,1,0,0:0:0:0:
388,296,12210,1,2,0:0:0:0:
84,368,12424,6,0,L|84:204,1,120,4|4,3:0|0:0,0:0:0:0:
193,321,12853,1,2,0:0:0:0:
138,284,12960,1,2,0:0:0:0:
84,248,13067,1,4,0:0:0:0:
292,372,13282,1,10,0:0:0:0:
355,361,13389,1,4,0:0:0:0:
406,322,13496,1,0,0:0:0:0:
434,264,13603,1,10,0:0:0:0:
432,200,13710,1,4,0:0:0:0:
128,200,13924,5,4,0:3:0:0:
280,202,14246,2,0,L|280:74,1,120,4|2,0:0|0:0,0:0:0:0:
160,90,14674,2,0,L|224:90,1,60,4|4,0:0|0:0,0:0:0:0:
16,354,14996,2,0,L|16:214,1,120,4|8,3:0|3:0,0:0:0:0:
317,228,15424,5,4,3:0:0:0:
170,230,15746,2,0,L|170:94,1,120,4|2,0:0|0:0,0:0:0:0:
278,110,16174,2,0,L|214:110,1,60,4|4,0:0|0:0,0:0:0:0:
426,366,16496,2,0,L|426:222,1,120,4|4,0:0|0:0,0:0:0:0:
90,238,16924,1,4,3:0:0:0:
312,360,20352,6,0,L|432:308,1,120,4|8,3:0|0:0,0:0:0:0:
228,304,20781,1,4,3:0:0:0:
168,304,20888,2,0,L|168:232,1,60,0|8,0:0|0:0,0:0:0:0:
360,224,21209,6,0,L|360:92,1,120,4|8,3:0|0:0,0:0:0:0:
168,104,21638,1,4,3:0:0:0:
228,104,21745,1,0,0:0:0:0:
288,104,21852,1,8,0:0:0:0:
96,100,22066,6,0,L|96:240,1,120,4|8,3:0|0:0,0:0:0:0:
288,216,22495,1,4,3:0:0:0:
228,216,22602,1,0,0:0:0:0:
168,216,22709,1,8,0:0:0:0:
444,268,22923,5,4,3:0:0:0:
348,276,23138,2,0,L|348:204,1,60,2|2,3:0|3:0,0:0:0:0:
412,208,23352,2,0,L|476:208,2,60,8|8|8,3:0|3:0|3:0,0:0:0:0:
112,364,23781,6,0,L|112:196,1,120,4|0,3:0|0:0,0:0:0:0:
240,240,24102,2,0,L|380:240,1,120,12|8,0:0|0:0,0:0:0:0:
364,180,24423,6,0,L|228:180,1,120,8|0,0:0|0:0,0:0:0:0:
376,372,24745,2,0,L|376:236,1,120,4|8,0:0|0:0,0:0:0:0:
300,256,25066,6,0,L|300:112,1,120,8|0,0:0|0:0,0:0:0:0:
432,244,25388,2,0,L|432:88,1,120,4|8,0:0|0:0,0:0:0:0:
372,120,25709,6,0,L|228:120,1,120,8|0,0:0|0:0,0:0:0:0:
380,72,26030,2,0,L|532:72,1,120,4|8,0:0|0:0,0:0:0:0:
500,132,26352,6,0,L|352:132,1,120,8|2,0:0|0:0,0:0:0:0:
252,368,26673,2,0,L|252:244,1,120,4|12,0:0|0:0,0:0:0:0:
332,244,26995,5,12,0:0:0:0:
392,224,27102,1,0,0:0:0:0:
393,167,27209,1,0,0:0:0:0:
334,136,27316,1,4,0:0:0:0:
148,128,27530,5,0,0:0:0:0:
88,132,27638,2,0,L|88:268,1,120,12|0,0:0|0:0,0:0:0:0:
148,252,27959,1,12,0:0:0:0:
208,252,28066,1,4,0:0:0:0:
268,252,28173,1,10,0:0:0:0:
328,252,28280,1,4,0:0:0:0:
132,344,28495,2,0,L|48:344,2,60,8|4|0,3:0|0:0|3:0,0:0:0:0:
336,344,28923,5,4,0:0:0:0:
408,344,29030,2,0,L|408:216,1,120,4|4,0:0|0:0,0:0:0:0:
104,244,29458,1,0,0:0:0:0:
256,240,29780,5,2,0:0:0:0:
316,240,29887,1,4,0:0:0:0:
376,240,29994,1,4,0:0:0:0:
316,240,30101,1,4,0:0:0:0:
40,236,30315,1,4,3:0:0:0:
192,232,30637,6,0,L|192:160,1,60,2|4,0:0|0:0,0:0:0:0:
72,176,30958,1,4,0:0:0:0:
356,172,31172,1,4,3:0:0:0:
204,188,31494,5,2,0:0:0:0:
144,188,31601,1,4,0:0:0:0:
84,188,31708,1,4,0:0:0:0:
144,188,31815,1,4,0:0:0:0:
424,252,32030,6,0,P|424:184|312:144,1,180,4|4,3:0|3:0,0:0:0:0:
172,136,32672,1,2,0:0:0:0:
404,144,32994,2,0,L|404:348,1,180,4|2,0:0|0:0,0:0:0:0:
344,324,33422,1,4,0:0:0:0:
224,324,33637,1,8,0:0:0:0:
472,224,33958,6,0,L|296:136,2,180,2|4|2,0:0|0:0|0:0,0:0:0:0:
224,328,34922,2,0,L|224:116,1,180,2|4,0:0|0:0,0:0:0:0:
404,148,35565,1,4,0:0:0:0:
204,360,36101,6,0,L|420:360,1,180,4|4,0:0|2:0,0:0:0:0:
204,280,36744,2,0,L|204:192,1,60,2|4,2:0|0:0,0:0:0:0:
324,220,37065,1,8,0:0:0:0:
92,176,37387,2,0,L|260:84,2,180,4|4|4,0:0|0:0|0:0,0:0:0:0:
360,304,38351,5,2,0:0:0:0:
416,272,38458,1,0,0:0:0:0:
408,208,38565,1,4,0:0:0:0:
344,192,38672,1,4,0:0:0:0:
296,152,38780,1,4,0:0:0:0:
344,104,38887,1,2,3:0:0:0:
408,104,38994,1,4,0:0:0:0:
80,356,39208,6,0,L|80:220,1,120,4|2,3:0|0:0,0:0:0:0:
248,224,39637,2,0,L|248:92,1,120,0|4,0:0|0:0,0:0:0:0:
80,100,40065,6,0,L|252:100,1,120,2|0,0:0|0:0,0:0:0:0:
368,100,40494,2,0,L|236:100,1,120,8|12,0:0|0:0,0:0:0:0:
428,368,40922,6,0,L|492:368,2,60,2|0|4,0:0|0:0|0:0,0:0:0:0:
368,368,41244,2,0,L|308:296,2,60,2|0|0,0:0|0:0|0:0,0:0:0:0:
428,368,41565,1,2,0:0:0:0:
485,347,41672,1,0,0:0:0:0:
486,286,41779,1,4,0:0:0:0:
429,264,41886,1,4,0:0:0:0:
128,268,42101,2,0,L|128:120,1,120,4|0,3:0|0:0,0:0:0:0:
128,88,42422,1,4,0:0:0:0:
432,360,42637,6,0,L|432:232,1,120,2|4,0:0|0:0,0:0:0:0:
264,240,43066,2,0,L|264:104,1,120,8|4,0:0|0:0,0:0:0:0:
432,116,43494,6,0,L|304:116,1,120,2|4,0:0|0:0,0:0:0:0:
144,120,43923,2,0,L|272:120,1,120,8|4,0:0|0:0,0:0:0:0:
84,368,44351,6,0,L|8:368,2,60,2|0|4,0:0|0:0|0:0,0:0:0:0:
144,368,44673,2,0,L|188:300,2,60,2|0|4,0:0|0:0|0:0,0:0:0:0:
84,368,44994,1,2,0:0:0:0:
27,343,45101,1,0,0:0:0:0:
24,281,45208,1,4,0:0:0:0:
78,250,45315,1,4,0:0:0:0:
380,244,45530,2,0,L|380:104,1,120,4|8,3:0|3:0,0:0:0:0:
380,114,45851,1,4,0:0:0:0:
105,366,46065,5,4,3:0:0:0:
46,340,46172,1,0,0:0:0:0:
24,281,46279,1,4,0:0:0:0:
50,224,46386,1,0,0:0:0:0:
110,202,46493,1,8,0:0:0:0:
232,200,46708,1,4,0:0:0:0:
432,208,46922,6,0,L|432:136,1,60,2|4,0:0|0:0,0:0:0:0:
372,152,47137,2,0,L|304:152,1,60,4|2,0:0|0:0,0:0:0:0:
252,152,47351,1,0,0:0:0:0:
132,152,47565,1,4,0:0:0:0:
332,368,47780,5,2,0:0:0:0:
388,358,47887,1,0,0:0:0:0:
414,306,47994,1,4,0:0:0:0:
388,255,48101,1,0,0:0:0:0:
331,245,48208,1,8,0:0:0:0:
212,252,48422,1,4,0:0:0:0:
416,148,48637,6,0,L|488:148,2,60,4|4|2,0:0|0:0|0:0,0:0:0:0:
296,144,48958,2,0,L|296:76,1,60,4|0,3:0|0:0,0:0:0:0:
364,84,49172,2,0,L|364:16,1,60,2|4,0:0|0:0,0:0:0:0:
72,360,49494,6,0,L|8:360,2,60,4|4|4,3:0|0:0|0:0,0:0:0:0:
252,360,49922,2,0,L|252:280,1,60,2|4,0:0|0:0,0:0:0:0:
144,356,50244,2,0,L|144:284,1,60,2|4,0:0|0:0,0:0:0:0:
260,276,50565,2,0,L|260:204,1,60,2|4,0:0|0:0,0:0:0:0:
80,204,50887,5,2,0:0:0:0:
208,132,51101,1,4,0:0:0:0:
32,204,51422,2,0,L|32:44,2,120,2|2|2,0:0|0:0|0:0,0:0:0:0:
332,360,52065,5,2,0:0:0:0:
389,352,52172,1,0,0:0:0:0:
415,301,52279,1,4,0:0:0:0:
389,250,52386,1,4,0:0:0:0:
331,243,52493,1,2,0:0:0:0:
212,244,52708,1,12,0:0:0:0:
408,144,52922,6,0,L|468:144,2,60,4|4|4,0:0|0:0|0:0,0:0:0:0:
280,148,53244,2,0,L|128:148,1,120,4|2,3:0|0:0,0:0:0:0:
100,148,53565,1,4,0:0:0:0:
292,368,53780,6,0,L|292:296,1,60,2|0,0:0|0:0,0:0:0:0:
228,312,53994,1,4,0:0:0:0:
168,312,54101,2,0,L|168:232,1,60,4|10,0:0|0:0,0:0:0:0:
288,248,54422,1,4,0:0:0:0:
84,188,54637,5,4,0:0:0:0:
24,192,54744,1,4,0:0:0:0:
84,188,54851,1,4,0:0:0:0:
212,144,54958,2,0,L|212:276,1,120,4|2,3:0|0:0,0:0:0:0:
136,264,55280,1,4,0:0:0:0:
416,360,55494,6,0,L|480:360,2,60,4|4|4,3:0|0:0|0:0,0:0:0:0:
236,360,55922,2,0,L|236:280,1,60,2|4,0:0|0:0,0:0:0:0:
356,280,56244,2,0,L|356:208,1,60,2|4,0:0|0:0,0:0:0:0:
236,208,56565,2,0,L|236:128,1,60,2|4,0:0|0:0,0:0:0:0:
416,132,56887,5,2,0:0:0:0:
288,60,57101,1,4,0:0:0:0:
464,360,57422,2,0,L|464:196,1,120,2|2,0:0|0:0,0:0:0:0:
380,240,57851,1,2,0:0:0:0:
184,312,58065,5,2,0:0:0:0:
128,295,58172,1,0,0:0:0:0:
102,243,58279,1,0,0:0:0:0:
124,189,58386,1,2,3:0:0:0:
179,170,58493,1,8,3:0:0:0:
456,168,58707,6,0,L|456:96,1,60,4|0,3:0|0:0,0:0:0:0:
396,112,58922,1,8,0:0:0:0:
336,116,59029,2,0,L|336:48,1,60,4|0,3:0|0:0,0:0:0:0:
396,56,59243,1,8,0:0:0:0:
456,56,59350,2,0,L|384:60,1,60,2|0,0:0|0:0,0:0:0:0:
96,364,59672,6,0,L|96:292,1,60,4|8,0:0|3:0,0:0:0:0:
156,304,59886,2,0,L|224:304,1,60,8|4,3:0|3:0,0:0:0:0:
276,308,60100,2,0,L|276:228,1,60,0|2,0:0|0:0,0:0:0:0:
216,248,60315,2,0,L|132:248,1,60,4|0,3:0|0:0,0:0:0:0:
436,232,60636,5,4,3:0:0:0:
488,207,60743,1,0,0:0:0:0:
507,151,60850,1,2,0:0:0:0:
481,99,60957,1,4,0:0:0:0:
425,82,61064,1,8,3:0:0:0:
124,92,61279,1,4,3:0:0:0:
380,360,62457,5,4,0:0:0:0:
444,324,62564,1,4,0:0:0:0:
444,262,62671,1,4,0:0:0:0:
380,224,62778,1,4,0:0:0:0:
100,328,62993,6,0,L|236:264,1,120,2|8,0:0|0:0,0:0:0:0:
260,248,63314,1,4,0:0:0:0:
304,208,63421,1,0,0:0:0:0:
256,164,63528,1,2,0:0:0:0:
136,224,63743,2,0,L|216:224,1,60,2|2,0:0|0:0,0:0:0:0:
388,328,64064,6,0,L|228:328,1,120,2|12,0:0|0:0,0:0:0:0:
208,328,64385,1,0,0:0:0:0:
208,268,64493,1,0,0:0:0:0:
268,268,64600,1,4,0:0:0:0:
388,268,64814,2,0,L|388:176,1,60,4|4,0:0|0:0,0:0:0:0:
112,368,65135,5,4,3:0:0:0:
73,323,65242,1,0,0:0:0:0:
62,264,65349,1,10,0:0:0:0:
83,209,65456,1,0,0:0:0:0:
129,172,65563,1,0,0:0:0:0:
187,163,65670,1,4,0:0:0:0:
64,164,65885,2,0,L|64:96,1,60,4|0,0:0|0:0,0:0:0:0:
344,368,66207,6,0,L|408:320,2,60,4|0|0,3:0|0:0|0:0,0:0:0:0:
284,368,66528,1,2,0:0:0:0:
220,364,66635,2,0,L|220:256,1,60,2|4,0:0|0:0,0:0:0:0:
328,300,66957,2,0,L|408:300,1,60,4|4,0:0|0:0,0:0:0:0:
184,356,67278,6,0,L|328:356,1,120,2|8,0:0|0:0,0:0:0:0:
364,356,67600,1,4,0:0:0:0:
364,296,67707,1,0,0:0:0:0:
304,296,67814,1,2,0:0:0:0:
184,296,68028,2,0,L|88:296,1,60,4|2,0:0|0:0,0:0:0:0:
328,236,68350,6,0,L|328:96,1,120,2|12,0:0|0:0,0:0:0:0:
268,120,68671,1,0,0:0:0:0:
208,120,68778,1,0,0:0:0:0:
148,120,68885,1,4,0:0:0:0:
268,120,69100,2,0,L|344:120,1,60,6|4,0:0|0:0,0:0:0:0:
44,356,69421,5,4,3:0:0:0:
24,296,69528,1,0,0:0:0:0:
44,232,69635,1,8,0:0:0:0:
88,180,69742,1,10,0:0:0:0:
144,160,69849,1,0,0:0:0:0:
204,156,69956,1,4,0:0:0:0:
88,88,70171,2,0,L|168:88,1,60,4|2,0:0|0:0,0:0:0:0:
428,360,70493,5,4,3:0:0:0:
488,340,70600,1,0,0:0:0:0:
488,280,70707,1,8,0:0:0:0:
428,280,70814,1,10,0:0:0:0:
368,280,70921,1,0,0:0:0:0:
308,280,71028,1,4,0:0:0:0:
368,280,71135,1,4,0:0:0:0:
428,280,71242,1,4,0:0:0:0:
368,280,71350,1,2,3:0:0:0:
76,360,71564,6,0,P|40:308|88:264,1,120,4|4,3:0|0:0,0:0:0:0:
128,268,71885,1,0,0:0:0:0:
188,268,71992,1,8,0:0:0:0:
68,268,72206,1,4,0:0:0:0:
260,264,72421,6,0,L|328:264,1,60,2|0,0:0|0:0,0:0:0:0:
380,260,72635,2,0,L|380:188,1,60,4|0,0:0|0:0,0:0:0:0:
320,204,72849,2,0,L|320:136,1,60,0|2,0:0|0:0,0:0:0:0:
380,144,73064,2,0,L|444:144,1,60,4|0,0:0|0:0,0:0:0:0:
320,96,73278,6,0,L|188:96,1,120,2|4,0:0|0:0,0:0:0:0:
388,92,73706,2,0,L|388:216,1,120,10|4,0:0|0:0,0:0:0:0:
112,368,74135,5,4,0:0:0:0:
55,351,74242,1,4,0:0:0:0:
14,307,74349,1,4,0:0:0:0:
0,250,74456,1,4,0:0:0:0:
17,193,74563,1,4,0:0:0:0:
60,152,74670,1,4,3:0:0:0:
118,138,74777,1,0,0:0:0:0:
400,352,74992,6,0,L|400:292,1,60,4|0,3:0|0:0,0:0:0:0:
340,288,75206,1,4,0:0:0:0:
280,288,75314,1,2,0:0:0:0:
400,292,75528,1,4,0:0:0:0:
136,224,75849,5,2,0:0:0:0:
134,165,75956,1,0,0:0:0:0:
194,165,76063,1,4,0:0:0:0:
254,165,76171,1,2,0:0:0:0:
134,165,76385,1,4,0:0:0:0:
400,104,76706,6,0,L|400:176,1,60,2|0,0:0|0:0,0:0:0:0:
340,164,76921,1,4,0:0:0:0:
280,164,77028,2,0,L|280:76,1,60,0|0,0:0|0:0,0:0:0:0:
340,104,77242,2,0,L|424:104,1,60,2|4,0:0|0:0,0:0:0:0:
120,348,77563,6,0,L|120:256,1,60,2|2,0:0|0:0,0:0:0:0:
188,284,77778,2,0,L|188:220,1,60,4|4,0:0|0:0,0:0:0:0:
128,224,77992,2,0,L|64:224,2,60,2|2|8,3:0|3:0|3:0,0:0:0:0:
416,228,78421,6,0,L|416:96,1,120,4|4,3:0|0:0,0:0:0:0:
356,112,78742,1,0,0:0:0:0:
296,112,78849,1,8,0:0:0:0:
416,112,79063,1,4,0:0:0:0:
216,372,79278,5,2,0:0:0:0:
160,355,79385,1,0,0:0:0:0:
135,303,79492,1,4,0:0:0:0:
159,250,79599,1,0,0:0:0:0:
215,233,79706,1,0,0:0:0:0:
276,232,79813,1,2,0:0:0:0:
276,172,79921,1,4,0:0:0:0:
216,172,80028,1,0,0:0:0:0:
96,180,80135,6,0,L|96:52,1,120,4|4,3:0|0:0,0:0:0:0:
280,64,80563,2,0,L|152:64,1,120,0|4,0:0|3:0,0:0:0:0:
448,360,80992,6,0,L|448:272,1,60,2|4,0:0|3:0,0:0:0:0:
380,304,81206,2,0,L|380:220,1,60,0|0,0:0|0:0,0:0:0:0:
440,244,81421,2,0,L|516:244,2,60,4|4|0,0:0|3:0|0:0,0:0:0:0:
148,256,81849,6,0,L|56:256,2,60,4|0|0,3:0|0:0|0:0,0:0:0:0:
208,256,82171,2,0,L|68:256,1,120,2|4,0:0|0:0,0:0:0:0:
352,180,82706,6,0,L|436:180,2,60,2|0|4,0:0|0:0|0:0,0:0:0:0:
292,184,83028,2,0,L|432:180,1,120,2|4,0:0|0:0,0:0:0:0:
136,364,83563,5,2,0:0:0:0:
85,338,83670,1,0,0:0:0:0:
84,281,83777,1,4,0:0:0:0:
134,253,83884,1,0,0:0:0:0:
196,256,83992,1,2,0:0:0:0:
136,256,84099,1,2,0:0:0:0:
76,256,84206,1,4,0:0:0:0:
352,168,84421,6,0,L|420:168,2,60,2|2|4,0:0|0:0|0:0,0:0:0:0:
232,172,84742,2,0,L|156:172,1,60,4|2,3:0|3:0,0:0:0:0:
112,172,84956,2,0,L|224:172,1,60,2|8,3:0|3:0,0:0:0:0:
452,360,85278,6,0,L|452:168,1,180,4|4,3:0|0:0,0:0:0:0:
168,360,85921,2,0,L|504:184,1,360,4|2,3:0|0:0,0:0:0:0:
486,192,86778,1,4,0:0:0:0:
288,368,86992,6,0,L|288:236,1,120,2|10,0:0|0:0,0:0:0:0:
348,248,87313,2,0,L|472:248,1,120,4|10,0:0|0:0,0:0:0:0:
408,252,87635,1,2,0:0:0:0:
24,368,87956,2,0,P|56:208|188:180,1,300,4|4,3:0|0:0,0:0:0:0:
456,360,88706,6,0,L|456:164,1,180,4|4,3:0|0:0,0:0:0:0:
176,360,89349,2,0,P|64:216|200:128,1,360,4|10,3:0|0:0,0:0:0:0:
292,120,90206,1,4,0:0:0:0:
96,376,90420,6,0,L|96:252,1,120,2|10,0:0|0:0,0:0:0:0:
176,260,90741,2,0,L|176:124,1,120,4|10,0:0|0:0,0:0:0:0:
96,260,91063,1,2,0:0:0:0:
488,360,91385,2,0,P|488:260|312:180,1,300,4|2,3:0|3:0,0:0:0:0:
48,356,92135,5,4,3:0:0:0:
336,356,92777,6,0,P|416:284|320:224,1,240,4|2,3:0|0:0,0:0:0:0:
156,228,93420,2,0,L|408:100,1,240,10|2,0:0|0:0,0:0:0:0:
188,368,94063,2,0,P|100:328|196:252,1,240,4|4,0:0|0:0,0:0:0:0:
368,244,94706,5,10,0:0:0:0:
429,230,94813,1,8,0:0:0:0:
457,173,94920,1,2,0:0:0:0:
430,116,95027,1,4,0:0:0:0:
369,102,95134,1,4,0:0:0:0:
80,368,95349,6,0,P|4:280|104:216,1,240,4|2,3:0|0:0,0:0:0:0:
248,208,95992,2,0,L|24:72,1,240,10|2,0:0|0:0,0:0:0:0:
220,360,96635,2,0,P|324:336|312:204,1,240,4|4,0:0|0:0,0:0:0:0:
144,372,97277,5,12,0:0:0:0:
83,352,97384,1,12,0:0:0:0:
57,295,97491,1,2,0:0:0:0:
81,237,97598,1,4,0:0:0:0:
141,216,97705,1,8,3:0:0:0:
432,372,97920,5,4,3:0:0:0:
480,324,98027,1,8,0:0:0:0:
496,264,98134,1,0,0:0:0:0:
472,208,98241,1,4,0:0:0:0:
412,168,98348,1,2,0:0:0:0:
216,376,98563,5,10,0:0:0:0:
152,348,98670,1,8,0:0:0:0:
120,292,98777,1,0,0:0:0:0:
152,232,98884,1,4,0:0:0:0:
216,204,98991,1,2,0:0:0:0:
396,200,99206,5,10,0:0:0:0:
343,170,99313,1,8,0:0:0:0:
285,160,99420,1,0,0:0:0:0:
226,168,99527,1,4,0:0:0:0:
173,196,99634,1,2,0:0:0:0:
372,280,99849,6,0,L|372:204,1,60,4|4,0:0|0:0,0:0:0:0:
312,220,100063,1,8,3:0:0:0:
372,220,100170,1,2,3:0:0:0:
432,220,100277,1,2,3:0:0:0:
96,384,100492,5,4,3:0:0:0:
43,348,100599,1,8,0:0:0:0:
24,287,100706,1,0,0:0:0:0:
49,228,100813,1,4,0:0:0:0:
106,199,100920,1,2,0:0:0:0:
384,220,101134,5,4,3:0:0:0:
324,220,101241,1,8,0:0:0:0:
264,220,101348,1,0,0:0:0:0:
204,220,101455,1,4,0:0:0:0:
144,220,101562,1,2,0:0:0:0:
424,364,101777,5,4,3:0:0:0:
478,330,101884,1,8,0:0:0:0:
501,271,101991,1,0,0:0:0:0:
481,210,102098,1,4,0:0:0:0:
429,174,102205,1,2,0:0:0:0:
152,232,102420,6,0,L|232:232,1,60,2|2,3:0|3:0,0:0:0:0:
272,232,102634,1,8,3:0:0:0:
332,232,102742,2,0,L|332:160,1,60,2|8,3:0|3:0,0:0:0:0:
48,132,103063,5,4,3:0:0:0:
264,140,103599,5,4,3:0:0:0:
56,140,104134,5,4,3:0:0:0:
456,192,104670,5,4,3:0:0:0:
256,192,104992,12,0,106920,0:0:0:0:
