osu file format v14

[General]
AudioFilename: audio.mp3
AudioLeadIn: 0
PreviewTime: 71564
Countdown: 0
SampleSet: Soft
StackLeniency: 0.7
Mode: 2
LetterboxInBreaks: 0
WidescreenStoryboard: 1

[Editor]
Bookmarks: 49494,106920
DistanceSpacing: 1.4
BeatDivisor: 4
GridSize: 4
TimelineZoom: 1.8

[Metadata]
Title:Ryoushi no Umi no Lindwurm
TitleUnicode:量子の海のリントヴルム
Artist:Kuroneko Dungeon
ArtistUnicode:黒猫ダンジョン
Creator:[_-Kukkai-_]
Version:Overdose
Source:jubeat copious
Tags:Daletto squirrelpascals PROG beatmania IIDX 23 copula bemani sdvx REFLEC BEAT limelight plus pop'n music SunnyPark ポップンリズミン rhythmin GITADORA SOUND VOLTEX III GRAVITY WARS ミライダガッキ FutureTomTom Ver.2 miraidagakki EPIC PROGRESSIVE エピックプログレ TOMOSUKE ORIGINAL SOUNDTRACK モード maud Dragon of Mordiford quantum sea Zektbach binary digits いそにん isonin Video Game Instrumental
BeatmapID:1830273
BeatmapSetID:857537

[Difficulty]
HPDrainRate:6
CircleSize:4
OverallDifficulty:9.4
ApproachRate:9.4
SliderMultiplier:1.5
SliderTickRate:1

[Events]
//Background and Video events
Video,-570,"umi.avi"
0,0,"bg.jpg",0,0
//Break Periods
//Storyboard Layer 0 (Background)
//Storyboard Layer 1 (Fail)
//Storyboard Layer 2 (Pass)
//Storyboard Layer 3 (Foreground)
//Storyboard Layer 4 (Overlay)
//Storyboard Sound Samples

[TimingPoints]
425,214.285714285714,7,2,1,30,1,0
4924,-100,7,2,1,40,0,0
16924,214.285714285714,4,2,1,30,1,0
23781,214.285714285714,3,2,1,40,1,0
28923,214.285714285714,4,2,1,40,1,0
32351,-100,4,2,1,30,0,0
38351,-100,4,2,1,35,0,0
39208,-100,4,2,1,40,0,0
49601,-100,4,2,1,30,0,0
52065,-100,4,2,1,40,0,0
55601,-100,4,2,1,30,0,0
58065,214.285714285714,3,2,1,40,1,0
61279,214.285714285714,4,2,1,40,1,0
62993,214.285714285714,5,2,1,30,1,0
70921,-100,5,2,1,40,0,0
71564,214.285714285714,4,2,1,50,1,0
71564,-90.9090909090909,4,2,1,50,0,1
85278,-90.9090909090909,4,2,1,40,0,0
92135,214.285714285714,3,2,1,30,1,0
104777,-100,3,2,1,5,0,0

[Colours]
Combo1 : 203,56,50
Combo2 : 160,194,203
Combo3 : 26,65,130

[HitObjects]
344,344,425,6,0,L|424:344,2,75,0|0|0,0:0|0:0|0:0,0:0:0:0:
232,344,746,1,0,0:0:0:0:
160,344,853,1,0,0:0:0:0:
88,344,960,1,0,0:0:0:0:
257,281,1067,6,0,L|257:201,1,75,8|0,0:0|0:0,0:0:0:0:
177,193,1282,2,0,L|177:89,1,75,0|0,0:0|0:0,0:0:0:0:
289,114,1496,2,0,L|385:114,2,75,0|0|0,0:0|0:0|0:0,0:0:0:0:
125,121,1817,6,0,L|45:121,1,75,8|0,0:0|0:0,0:0:0:0:
125,57,2032,2,0,L|213:57,1,75,0|0,0:0|0:0,0:0:0:0:
312,224,2246,1,0,0:0:0:0:
234,167,2353,2,0,L|234:79,1,75,0|0,0:0|0:0,0:0:0:0:
399,367,2567,6,0,L|399:279,1,75,8|0,0:0|0:0,0:0:0:0:
323,278,2782,2,0,L|235:278,1,75,0|0,0:0|0:0,0:0:0:0:
136,281,2996,2,0,L|136:193,1,75,0|0,0:0|0:0,0:0:0:0:
216,193,3210,1,0,0:0:0:0:
381,333,3317,6,0,L|381:237,1,75,8|0,0:0|0:0,0:0:0:0:
293,237,3532,2,0,L|205:237,1,75,0|0,0:0|0:0,0:0:0:0:
293,165,3746,2,0,L|381:165,2,75,0|0|0,0:0|0:0|0:0,0:0:0:0:
106,351,4067,6,0,L|106:263,1,75,8|0,0:0|0:0,0:0:0:0:
186,263,4282,2,0,L|266:263,1,75,0|0,0:0|0:0,0:0:0:0:
258,191,4496,2,0,L|162:191,1,75,0|0,0:0|0:0,0:0:0:0:
106,127,4710,2,0,L|194:127,1,75,0|8,0:0|0:0,0:0:0:0:
369,363,4924,6,0,P|417:339|361:283,1,150,2|0,0:0|0:0,0:0:0:0:
185,360,5246,2,0,L|185:192,1,150,2|2,0:0|0:0,0:0:0:0:
265,216,5567,1,0,0:0:0:0:
343,218,5674,1,4,0:0:0:0:
228,176,5782,2,0,L|228:80,1,75,0|4,0:0|0:0,0:0:0:0:
327,170,5996,2,0,L|325:81,1,75,2|0,0:0|0:0,0:0:0:0:
161,43,6210,1,0,0:0:0:0:
246,44,6317,1,0,0:0:0:0:
328,45,6424,5,0,0:0:0:0:
160,368,6532,2,0,L|160:272,1,75,4|0,0:0|0:0,0:0:0:0:
272,280,6746,2,0,L|272:184,1,75,2|0,0:0|0:0,0:0:0:0:
72,192,6960,2,0,L|72:104,1,75,4|0,0:0|0:0,0:0:0:0:
312,104,7174,2,0,L|400:104,2,75,4|0|2,0:0|0:0|0:0,0:0:0:0:
143,109,7496,2,0,L|47:109,2,75,4|0|2,0:0|0:0|0:0,0:0:0:0:
216,112,7817,2,0,L|264:112,1,37.5,4|4,0:0|0:0,0:0:0:0:
400,168,7924,6,0,L|400:272,1,75,4|0,3:0|0:0,0:0:0:0:
200,360,8139,2,0,L|112:360,1,75,4|0,0:0|0:0,0:0:0:0:
120,280,8353,2,0,L|216:280,1,75,0|2,0:0|0:0,0:0:0:0:
384,280,8567,2,0,L|376:192,1,75,4|0,0:0|0:0,0:0:0:0:
296,200,8782,1,2,0:0:0:0:
376,128,8889,2,0,L|464:128,2,75,4|2|4,0:0|0:0|0:0,0:0:0:0:
112,376,9210,1,4,0:0:0:0:
72,372,9263,1,4,0:0:0:0:
72,332,9317,1,4,0:0:0:0:
112,328,9370,1,4,0:0:0:0:
288,296,9424,6,0,P|344:264|272:224,1,150,2|2,0:0|0:0,0:0:0:0:
120,216,9746,2,0,P|72:192|128:136,1,150,2|2,0:0|0:0,0:0:0:0:
192,136,10067,1,0,0:0:0:0:
304,352,10174,1,4,0:0:0:0:
224,304,10282,2,0,L|224:216,1,75,0|4,0:0|0:0,0:0:0:0:
320,216,10496,2,0,L|328:112,1,75,2|0,0:0|0:0,0:0:0:0:
80,360,10710,2,0,L|64:264,1,75,2|0,0:0|0:0,0:0:0:0:
152,272,10924,5,2,0:0:0:0:
368,264,11032,2,0,L|368:176,1,75,4|0,0:0|0:0,0:0:0:0:
256,168,11246,2,0,L|176:168,1,75,2|0,0:0|0:0,0:0:0:0:
400,352,11460,2,0,L|424:272,1,75,4|0,0:0|0:0,0:0:0:0:
192,272,11674,2,0,L|88:272,2,75,4|0|2,0:0|0:0|0:0,0:0:0:0:
384,264,11996,2,0,L|466:265,2,75,4|0|2,0:0|0:0|0:0,0:0:0:0:
312,264,12317,2,0,L|264:264,1,37.5,4|4,0:0|0:0,0:0:0:0:
112,288,12424,6,0,L|208:288,1,75,4|0,3:0|0:0,0:0:0:0:
264,232,12639,2,0,L|264:128,1,75,4|0,0:0|0:0,0:0:0:0:
160,136,12853,2,0,L|160:32,1,75,2|2,0:0|0:0,0:0:0:0:
352,360,13067,2,0,L|448:360,2,75,4|0|10,0:0|0:0|0:0,0:0:0:0:
244,364,13389,2,0,L|244:260,1,75,4|0,0:0|0:0,0:0:0:0:
332,276,13603,1,10,0:0:0:0:
149,283,13710,1,4,0:0:0:0:
107,283,13764,1,4,0:0:0:0:
108,242,13817,1,4,0:0:0:0:
149,241,13871,1,4,0:0:0:0:
384,352,13924,6,0,P|432:320|376:272,1,150,4|0,0:3|0:0,0:0:0:0:
184,112,14246,2,0,L|368:112,1,150,4|2,0:0|0:0,0:0:0:0:
407,114,14567,1,0,0:0:0:0:
164,360,14674,5,4,0:0:0:0:
88,360,14782,2,0,L|88:267,1,75,4|0,0:0|0:0,0:0:0:0:
312,256,14996,2,0,L|152:256,1,150,4|8,3:0|3:0,0:0:0:0:
160,184,15317,1,8,3:0:0:0:
408,360,15424,6,0,P|456:328|400:280,1,150,4|0,3:0|0:0,0:0:0:0:
296,288,15746,2,0,L|296:200,1,75,4|0,0:0|0:0,0:0:0:0:
392,192,15960,2,0,L|392:112,1,75,2|0,0:0|0:0,0:0:0:0:
133,356,16174,5,4,0:0:0:0:
56,360,16282,2,0,L|56:280,1,75,4|0,0:0|0:0,0:0:0:0:
288,280,16496,2,0,P|344:240|280:200,1,150,4|4,0:0|0:0,0:0:0:0:
216,192,16817,1,4,0:0:0:0:
48,320,16924,6,0,L|48:232,1,75,4|0,3:0|0:0,0:0:0:0:
128,176,17138,2,0,L|216:176,1,75,8|0,0:0|0:0,0:0:0:0:
320,368,17352,2,0,L|320:288,1,75,0|0,0:0|0:0,0:0:0:0:
240,280,17566,2,0,L|160:280,1,75,8|0,0:0|0:0,0:0:0:0:
284,288,17781,6,0,L|372:288,1,75,0|0,0:0|0:0,0:0:0:0:
356,216,17995,2,0,L|268:216,1,75,8|0,0:0|0:0,0:0:0:0:
168,368,18209,2,0,P|112:352|176:312,1,150,0|8,0:0|0:0,0:0:0:0:
232,296,18531,1,0,0:0:0:0:
344,300,18638,6,0,L|344:204,1,75,0|0,0:0|0:0,0:0:0:0:
264,188,18852,2,0,L|264:108,1,75,8|0,0:0|0:0,0:0:0:0:
376,120,19066,2,0,L|464:120,1,75,0|0,0:0|0:0,0:0:0:0:
376,48,19281,2,0,L|280:48,1,75,8|0,0:0|0:0,0:0:0:0:
184,368,19495,6,0,L|264:368,1,75,0|0,0:0|0:0,0:0:0:0:
184,304,19709,2,0,L|104:304,1,75,8|8,0:0|3:0,0:0:0:0:
216,304,19923,2,0,L|320:304,1,75,2|8,3:0|3:0,0:0:0:0:
366,304,20138,2,0,L|278:304,1,75,8|8,3:0|3:0,0:0:0:0:
96,352,20352,6,0,L|192:352,1,75,4|0,3:0|0:0,0:0:0:0:
248,296,20566,2,0,L|248:200,1,75,8|0,0:0|0:0,0:0:0:0:
64,200,20781,2,0,L|64:104,1,75,4|0,3:0|0:0,0:0:0:0:
136,64,20995,2,0,L|48:64,1,75,8|0,0:0|0:0,0:0:0:0:
264,360,21209,6,0,L|344:360,1,75,4|0,3:0|0:0,0:0:0:0:
264,288,21423,2,0,L|168:288,1,75,8|0,0:0|0:0,0:0:0:0:
424,296,21638,2,0,L|424:208,1,75,4|0,3:0|0:0,0:0:0:0:
344,168,21852,2,0,L|440:168,1,75,8|0,0:0|0:0,0:0:0:0:
168,368,22066,6,0,L|168:272,1,75,4|0,3:0|0:0,0:0:0:0:
248,280,22281,2,0,L|352:280,1,75,8|0,0:0|0:0,0:0:0:0:
104,216,22495,2,0,L|16:216,1,75,4|0,3:0|0:0,0:0:0:0:
104,144,22709,2,0,L|192:144,1,75,8|0,0:0|0:0,0:0:0:0:
400,360,22923,6,0,L|312:360,1,75,4|0,3:0|0:0,0:0:0:0:
248,368,23138,2,0,L|200:368,2,37.5,2|0|2,3:0|0:0|3:0,0:0:0:0:
416,232,23352,2,0,L|328:232,2,75,8|8|8,3:0|3:0|3:0,0:0:0:0:
208,320,23781,6,0,L|208:160,1,150,4|0,3:0|0:0,0:0:0:0:
384,328,24102,2,0,P|425:286|372:218,1,150,12|8,0:0|0:0,0:0:0:0:
293,217,24423,6,0,L|208:216,2,75,8|8|0,0:0|0:0|0:0,0:0:0:0:
116,355,24745,2,0,P|76:323|117:250,1,150,4|8,0:0|0:0,0:0:0:0:
211,247,25066,6,0,L|211:167,1,75,8|8,0:0|0:0,0:0:0:0:
131,175,25280,1,0,0:0:0:0:
305,171,25388,2,0,L|147:170,1,150,4|8,0:0|0:0,0:0:0:0:
248,107,25709,6,0,L|248:11,1,75,8|8,0:0|0:0,0:0:0:0:
164,31,25923,1,0,0:0:0:0:
342,358,26030,2,0,P|389:329|336:271,1,150,4|8,0:0|0:0,0:0:0:0:
171,276,26352,6,0,L|75:276,2,75,8|8|2,0:0|0:0|0:0,0:0:0:0:
360,287,26673,2,0,L|360:199,1,75,4|0,0:0|0:0,0:0:0:0:
280,215,26888,1,12,0:0:0:0:
114,218,26995,6,0,L|10:218,2,75,12|0|2,0:0|0:0|0:0,0:0:0:0:
286,120,27316,1,4,0:0:0:0:
211,120,27423,1,0,0:0:0:0:
136,120,27530,1,0,0:0:0:0:
310,63,27638,6,0,L|390:63,2,75,12|2|0,0:0|0:0|0:0,0:0:0:0:
144,60,27959,2,0,L|56:60,2,75,12|4|10,0:0|0:0|0:0,0:0:0:0:
318,240,28280,5,4,0:0:0:0:
243,239,28387,1,0,0:0:0:0:
168,238,28494,1,8,3:0:0:0:
346,159,28602,2,0,L|170:159,1,150,4|0,0:0|0:0,0:0:0:0:
282,87,28923,1,4,0:0:0:0:
64,368,29030,2,0,L|64:208,1,150,4|4,0:0|0:0,0:0:0:0:
400,368,29458,6,0,P|448:336|352:240,1,225,0|2,0:0|0:0,0:0:0:0:
192,240,29887,2,0,L|112:240,1,75,4|4,0:0|0:0,0:0:0:0:
304,176,30101,2,0,L|392:176,1,75,4|4,0:0|0:0,0:0:0:0:
112,368,30315,6,0,P|56:352|136:256,1,225,4|2,3:0|0:0,0:0:0:0:
288,240,30744,2,0,L|288:152,1,75,4|2,0:0|3:0,0:0:0:0:
192,160,30958,1,4,0:0:0:0:
368,368,31172,6,0,L|136:368,1,225,4|2,3:0|0:0,0:0:0:0:
312,288,31601,2,0,L|408:288,1,75,4|4,0:0|0:0,0:0:0:0:
200,288,31815,2,0,L|104:288,1,75,4|4,0:0|0:0,0:0:0:0:
411,288,32030,2,0,L|411:200,1,75,4|8,3:0|3:0,0:0:0:0:
331,216,32244,1,0,0:0:0:0:
144,368,32351,6,0,L|144:288,1,75,4|0,3:0|0:0,0:0:0:0:
224,288,32565,1,4,0:0:0:0:
336,288,32672,2,0,L|432:288,2,75,2|0|0,0:0|0:0|0:0,0:0:0:0:
224,288,32994,6,0,L|136:288,2,75,4|0|0,0:0|0:0|0:0,0:0:0:0:
337,289,33315,1,2,0:0:0:0:
224,288,33422,2,0,L|224:192,1,75,4|0,0:0|0:0,0:0:0:0:
336,212,33637,2,0,L|336:124,1,75,8|8,0:0|0:0,0:0:0:0:
224,136,33851,1,4,0:0:0:0:
392,352,33958,6,0,L|472:352,2,75,2|0|0,0:0|0:0|0:0,0:0:0:0:
280,348,34280,2,0,L|280:260,1,75,4|0,0:0|0:0,0:0:0:0:
360,276,34494,1,0,0:0:0:0:
472,268,34601,2,0,L|472:180,1,75,2|4,0:0|0:0,0:0:0:0:
392,196,34815,1,0,0:0:0:0:
221,282,34922,5,2,0:0:0:0:
146,282,35029,1,0,0:0:0:0:
71,282,35136,1,4,0:0:0:0:
249,208,35244,2,0,L|329:208,2,75,4|8|8,0:0|0:0|0:0,0:0:0:0:
77,202,35565,2,0,L|77:114,1,75,4|0,0:0|0:0,0:0:0:0:
165,98,35780,2,0,L|69:98,2,75,0|0|2,0:0|0:0|0:0,0:0:0:0:
339,171,36101,6,0,L|427:171,1,75,4|0,0:0|0:0,0:0:0:0:
411,91,36315,1,0,0:0:0:0:
308,92,36422,2,0,L|212:92,2,75,4|0|0,2:0|0:0|0:0,0:0:0:0:
411,91,36744,1,2,2:0:0:0:
292,356,36851,2,0,L|168:356,1,75,4|0,0:0|0:0,0:0:0:0:
320,352,37065,2,0,L|320:264,1,75,8|8,0:0|0:0,0:0:0:0:
216,280,37280,1,2,0:0:0:0:
392,216,37387,6,0,L|392:136,1,75,4|0,0:0|0:0,0:0:0:0:
312,128,37601,1,0,0:0:0:0:
117,164,37708,1,4,0:0:0:0:
192,164,37815,1,0,0:0:0:0:
267,164,37922,1,0,0:0:0:0:
98,86,38030,2,0,L|18:86,2,75,4|0|0,0:0|0:0|0:0,0:0:0:0:
287,277,38351,5,2,0:0:0:0:
207,221,38458,1,0,0:0:0:0:
287,141,38565,2,0,L|391:141,2,75,4|4|4,0:0|0:0|0:0,0:0:0:0:
64,136,38887,2,0,L|160:136,2,75,2|4|8,3:0|0:0|3:0,0:0:0:0:
280,344,39208,5,4,3:0:0:0:
355,344,39315,1,0,0:0:0:0:
430,344,39422,1,2,0:0:0:0:
240,272,39530,1,4,0:0:0:0:
165,272,39637,1,0,0:0:0:0:
90,272,39744,1,0,0:0:0:0:
288,200,39851,6,0,L|376:200,2,75,4|0|2,0:0|0:0|0:0,0:0:0:0:
88,200,40172,2,0,L|88:120,1,75,4|0,0:0|0:0,0:0:0:0:
168,112,40387,1,0,0:0:0:0:
352,352,40494,2,0,L|248:352,1,75,8|8,0:0|0:0,0:0:0:0:
200,296,40708,2,0,L|200:208,1,75,12|0,0:0|0:0,0:0:0:0:
376,200,40922,6,0,L|464:200,1,75,2|0,0:0|0:0,0:0:0:0:
448,128,41137,1,4,0:0:0:0:
208,192,41244,2,0,L|296:192,1,75,2|0,0:0|0:0,0:0:0:0:
280,120,41458,1,4,0:0:0:0:
64,352,41565,2,0,L|64:264,1,75,2|0,0:0|0:0,0:0:0:0:
312,248,41780,6,0,L|232:248,2,75,4|4|4,0:0|0:0|0:0,0:0:0:0:
80,240,42101,2,0,P|48:200|120:136,1,150,4|0,3:0|0:0,0:0:0:0:
320,136,42422,1,4,0:0:0:0:
168,336,42637,5,2,0:0:0:0:
243,336,42744,1,0,0:0:0:0:
318,336,42851,1,4,0:0:0:0:
112,264,42958,2,0,L|24:264,2,75,0|8|0,0:0|0:0|0:0,0:0:0:0:
304,184,43280,1,4,0:0:0:0:
229,184,43387,1,0,0:0:0:0:
154,184,43494,5,2,0:0:0:0:
384,96,43601,2,0,L|480:96,2,75,0|4|0,0:0|0:0|0:0,0:0:0:0:
184,360,43922,2,0,L|184:272,1,75,8|8,0:0|0:0,0:0:0:0:
280,272,44137,2,0,L|280:168,1,75,4|0,0:0|0:0,0:0:0:0:
112,192,44351,6,0,L|32:192,2,75,2|0|4,0:0|0:0|0:0,0:0:0:0:
324,184,44672,1,2,0:0:0:0:
251,163,44779,1,0,0:0:0:0:
179,142,44886,1,4,0:0:0:0:
376,140,44994,2,0,L|456:140,1,75,2|0,0:0|0:0,0:0:0:0:
152,352,45208,6,0,L|240:352,2,75,4|4|4,0:0|0:0|0:0,0:0:0:0:
400,344,45530,2,0,P|448:304|400:240,1,150,4|8,3:0|3:0,0:0:0:0:
152,248,45851,1,4,0:0:0:0:
118,237,45904,1,0,0:0:0:0:
115,202,45958,1,4,0:0:0:0:
147,187,46011,1,0,0:0:0:0:
320,176,46065,6,0,L|408:176,1,75,4|0,3:0|0:0,0:0:0:0:
200,104,46280,2,0,L|120:104,2,75,4|0|8,0:0|0:0|0:0,0:0:0:0:
400,360,46601,2,0,L|400:272,1,75,2|4,0:0|0:0,0:0:0:0:
320,280,46815,1,0,0:0:0:0:
152,200,46922,5,2,0:0:0:0:
227,200,47029,1,4,0:0:0:0:
302,200,47136,1,4,0:0:0:0:
112,360,47244,2,0,L|16:360,2,75,2|0|0,0:0|0:0|0:0,0:0:0:0:
232,296,47565,2,0,L|232:216,1,75,4|0,0:0|0:0,0:0:0:0:
48,216,47780,6,0,L|128:216,1,75,2|0,0:0|0:0,0:0:0:0:
200,160,47994,1,4,0:0:0:0:
125,160,48101,1,0,0:0:0:0:
50,160,48208,1,8,0:0:0:0:
218,162,48315,2,0,L|306:162,2,75,2|4|0,0:0|0:0|0:0,0:0:0:0:
130,354,48637,6,0,L|50:354,2,75,4|4|2,0:0|0:0|0:0,0:0:0:0:
304,256,48958,2,0,L|216:256,2,75,4|0|2,3:0|0:0|0:0,0:0:0:0:
112,264,49280,2,0,L|112:168,1,75,4|0,0:0|0:0,0:0:0:0:
320,360,49494,1,4,3:0:0:0:
400,296,49601,5,4,0:0:0:0:
208,304,49708,1,4,0:0:0:0:
128,208,49922,1,2,0:0:0:0:
320,200,50030,1,4,0:0:0:0:
400,104,50244,1,2,0:0:0:0:
208,112,50351,1,4,0:0:0:0:
128,352,50565,1,2,0:0:0:0:
320,352,50672,1,4,0:0:0:0:
176,256,50887,6,0,L|328:256,1,150,2|4,0:0|0:0,0:0:0:0:
96,176,51422,1,2,0:0:0:0:
248,176,51637,1,2,0:0:0:0:
96,112,51851,1,2,0:0:0:0:
280,360,52065,6,0,L|368:360,2,75,2|0|4,0:0|0:0|0:0,0:0:0:0:
112,288,52387,1,4,0:0:0:0:
187,288,52494,1,2,0:0:0:0:
262,288,52601,1,0,0:0:0:0:
64,224,52708,2,0,L|64:128,1,75,12|8,0:0|0:0,0:0:0:0:
328,136,52922,6,0,L|248:136,2,75,4|4|4,0:0|0:0|0:0,0:0:0:0:
96,360,53244,2,0,P|56:336|112:280,1,150,4|2,3:0|0:0,0:0:0:0:
288,216,53565,2,0,L|192:216,1,75,4|0,0:0|0:0,0:0:0:0:
408,352,53780,6,0,L|496:352,2,75,2|0|0,0:0|0:0|0:0,0:0:0:0:
240,352,54101,2,0,L|240:264,1,75,4|10,0:0|0:0,0:0:0:0:
320,272,54315,1,0,0:0:0:0:
128,272,54422,2,0,L|129:170,1,75,4|0,0:0|0:0,0:0:0:0:
351,177,54637,5,4,0:0:0:0:
276,177,54744,1,4,0:0:0:0:
201,177,54851,1,4,0:0:0:0:
456,176,54958,2,0,P|488:136|432:64,1,150,4|2,3:0|0:0,0:0:0:0:
264,56,55280,2,0,L|352:56,2,75,4|2|4,0:0|0:0|3:0,0:0:0:0:
176,64,55601,5,4,0:0:0:0:
368,296,55708,1,4,0:0:0:0:
448,208,55922,1,2,0:0:0:0:
256,232,56030,1,4,0:0:0:0:
176,160,56244,1,2,0:0:0:0:
368,160,56351,1,4,0:0:0:0:
448,88,56565,1,2,0:0:0:0:
256,88,56672,1,4,0:0:0:0:
408,360,56887,6,0,L|248:360,1,150,2|4,0:0|0:0,0:0:0:0:
456,272,57422,1,2,0:0:0:0:
304,272,57637,1,2,0:0:0:0:
456,216,57851,1,2,0:0:0:0:
272,352,58065,5,2,0:0:0:0:
347,352,58172,1,0,0:0:0:0:
422,352,58279,1,0,0:0:0:0:
352,288,58386,1,2,3:0:0:0:
168,288,58493,2,0,L|80:288,1,75,8|8,3:0|3:0,0:0:0:0:
368,264,58707,6,0,L|448:264,2,75,4|0|8,3:0|0:0|0:0,0:0:0:0:
152,184,59029,2,0,L|56:184,2,75,4|0|8,3:0|0:0|0:0,0:0:0:0:
320,184,59350,5,2,0:0:0:0:
395,184,59457,1,0,0:0:0:0:
470,184,59564,1,2,0:0:0:0:
280,80,59672,1,4,0:0:0:0:
205,80,59779,1,8,3:0:0:0:
130,80,59886,1,8,3:0:0:0:
408,360,59993,6,0,L|408:264,1,75,4|0,3:0|0:0,0:0:0:0:
328,256,60207,1,2,0:0:0:0:
128,256,60315,2,0,L|128:168,1,75,4|0,3:0|0:0,0:0:0:0:
216,152,60529,1,2,0:0:0:0:
392,144,60636,6,0,L|392:64,1,75,4|0,3:0|0:0,0:0:0:0:
96,344,60850,1,2,0:0:0:0:
186,340,60957,1,4,0:0:0:0:
96,344,61064,1,8,3:0:0:0:
296,344,61172,1,8,3:0:0:0:
491,337,61279,1,4,3:0:0:0:
116,320,62457,6,0,L|20:320,3,75,4|4|4|4,0:0|0:0|0:0|0:0,0:0:0:0:
348,206,62993,5,2,0:0:0:0:
414,181,63100,1,0,0:0:0:0:
416,110,63207,1,8,0:0:0:0:
352,81,63314,1,4,0:0:0:0:
222,185,63421,2,0,L|222:82,1,75,0|2,0:0|0:0,0:0:0:0:
299,118,63635,1,0,0:0:0:0:
466,125,63743,2,0,L|465:26,1,75,2|2,0:0|0:0,0:0:0:0:
386,51,63957,1,0,0:0:0:0:
309,51,64064,5,2,0:0:0:0:
247,88,64171,1,0,0:0:0:0:
246,160,64278,1,12,0:0:0:0:
306,200,64385,1,0,0:0:0:0:
140,369,64493,2,0,L|61:369,1,75,0|4,0:0|0:0,0:0:0:0:
140,369,64707,2,0,L|239:371,1,75,0|4,0:0|0:0,0:0:0:0:
42,276,64921,2,0,L|25:190,1,75,4|2,0:0|0:0,0:0:0:0:
223,191,65135,6,0,L|322:191,1,75,4|0,3:0|0:0,0:0:0:0:
203,129,65350,2,0,L|105:128,2,75,10|2|0,0:0|0:0|0:0,0:0:0:0:
389,298,65671,2,0,L|468:297,1,75,4|0,0:0|0:0,0:0:0:0:
265,228,65885,2,0,L|265:135,1,75,4|0,0:0|0:0,0:0:0:0:
344,153,66100,1,2,0:0:0:0:
146,97,66207,6,0,L|224:97,1,75,4|0,3:0|0:0,0:0:0:0:
301,91,66421,2,0,L|301:182,1,75,0|2,0:0|0:0,0:0:0:0:
217,169,66635,1,2,0:0:0:0:
383,341,66743,2,0,L|480:341,1,75,4|0,0:0|0:0,0:0:0:0:
270,257,66957,1,4,0:0:0:0:
344,257,67064,1,4,0:0:0:0:
419,257,67171,1,4,0:0:0:0:
195,352,67278,5,2,0:0:0:0:
129,323,67385,1,0,0:0:0:0:
126,252,67492,1,8,0:0:0:0:
188,218,67599,1,4,0:0:0:0:
302,215,67707,1,0,0:0:0:0:
230,191,67814,1,2,0:0:0:0:
159,167,67921,1,0,0:0:0:0:
331,118,68028,2,0,L|436:119,2,75,4|2|0,0:0|0:0|0:0,0:0:0:0:
209,368,68350,6,0,L|209:266,1,75,2|0,0:0|0:0,0:0:0:0:
286,285,68564,2,0,L|287:177,1,75,12|0,0:0|0:0,0:0:0:0:
107,209,68778,1,0,0:0:0:0:
40,185,68885,1,4,0:0:0:0:
37,115,68992,1,0,0:0:0:0:
102,87,69099,1,6,0:0:0:0:
276,83,69207,2,0,L|193:83,1,75,4|2,0:0|0:0,0:0:0:0:
372,346,69421,6,0,L|372:239,1,75,4|0,3:0|0:0,0:0:0:0:
277,271,69635,2,0,L|183:271,2,75,8|10|0,0:0|0:0|0:0,0:0:0:0:
452,271,69957,2,0,L|499:179,1,75,4|0,0:0|0:0,0:0:0:0:
301,133,70171,1,4,0:0:0:0:
376,133,70278,1,2,0:0:0:0:
451,133,70385,1,2,0:0:0:0:
238,133,70492,6,0,L|143:132,2,75,4|0|8,3:0|0:0|0:0,0:0:0:0:
448,352,70814,2,0,L|448:248,1,75,10|0,0:0|0:0,0:0:0:0:
220,362,71028,5,4,0:0:0:0:
183,363,71081,1,4,0:0:0:0:
150,347,71135,1,4,0:0:0:0:
126,318,71188,1,4,0:0:0:0:
118,282,71242,1,4,0:0:0:0:
126,246,71295,1,0,0:0:0:0:
150,217,71349,1,2,3:0:0:0:
184,202,71403,1,0,3:0:0:0:
221,204,71456,1,2,3:0:0:0:
465,368,71564,6,0,L|465:272,1,82.5000025177003,4|0,3:0|0:0,0:0:0:0:
382,285,71778,2,0,L|470:285,1,82.5000025177003,4|0,0:0|0:0,0:0:0:0:
272,368,71992,2,0,L|273:260,1,82.5000025177003,8|2,0:0|0:0,0:0:0:0:
372,272,72206,2,0,L|372:164,1,82.5000025177003,4|0,0:0|0:0,0:0:0:0:
172,352,72421,6,0,L|78:352,2,82.5000025177003,2|0|4,0:0|0:0|0:0,0:0:0:0:
360,348,72742,2,0,L|360:252,1,82.5000025177003,0|0,0:0|0:0,0:0:0:0:
168,184,72956,1,2,0:0:0:0:
250,184,73063,1,4,0:0:0:0:
333,184,73170,1,0,0:0:0:0:
132,384,73278,6,0,L|132:280,1,82.5000025177003,2|0,0:0|0:0,0:0:0:0:
216,296,73492,2,0,L|328:296,1,82.5000025177003,4|0,0:0|0:0,0:0:0:0:
100,288,73706,2,0,L|20:216,1,82.5000025177003,10|0,0:0|0:0,0:0:0:0:
232,288,73921,2,0,L|288:208,1,82.5000025177003,4|0,0:0|0:0,0:0:0:0:
72,144,74135,6,0,L|168:144,2,82.5000025177003,4|4|4,0:0|0:0|0:0,0:0:0:0:
284,360,74456,2,0,L|284:272,1,82.5000025177003,4|4,0:0|0:0,0:0:0:0:
104,280,74671,1,4,3:0:0:0:
16,280,74778,1,8,3:0:0:0:
104,280,74885,1,8,3:0:0:0:
284,116,74992,5,4,3:0:0:0:
201,116,75099,1,0,0:0:0:0:
119,116,75206,1,4,0:0:0:0:
328,360,75314,2,0,L|328:256,1,82.5000025177003,2|0,0:0|0:0,0:0:0:0:
152,272,75528,2,0,L|152:168,1,82.5000025177003,4|0,0:0|0:0,0:0:0:0:
260,188,75742,1,8,0:0:0:0:
80,128,75849,5,2,0:0:0:0:
162,128,75956,1,0,0:0:0:0:
245,128,76063,1,4,0:0:0:0:
56,360,76171,2,0,L|56:272,1,82.5000025177003,2|0,0:0|0:0,0:0:0:0:
240,368,76385,2,0,L|240:280,1,82.5000025177003,4|0,0:0|0:0,0:0:0:0:
132,288,76599,1,8,0:0:0:0:
352,296,76706,6,0,L|435:296,3,82.5000025177003,2|0|4|0,0:0|0:0|0:0|0:0,0:0:0:0:
180,361,77135,2,0,L|180:273,1,82.5000025177003,0|2,0:0|0:0,0:0:0:0:
296,264,77349,2,0,L|296:176,1,82.5000025177003,4|0,0:0|0:0,0:0:0:0:
101,195,77563,6,0,L|208:196,2,82.5000025177003,2|2|4,0:0|0:0|0:0,0:0:0:0:
296,200,77885,2,0,L|396:200,1,82.5000025177003,4|2,0:0|3:0,0:0:0:0:
172,192,78099,1,2,3:0:0:0:
135,175,78152,1,0,0:0:0:0:
118,138,78206,1,8,3:0:0:0:
129,99,78259,1,0,0:0:0:0:
163,77,78313,1,8,3:0:0:0:
364,288,78421,6,0,L|276:288,1,82.5000025177003,4|0,3:0|0:0,0:0:0:0:
200,288,78635,2,0,L|200:192,1,82.5000025177003,4|0,0:0|0:0,0:0:0:0:
372,204,78849,2,0,B|372:104,1,82.5000025177003,8|2,0:0|0:0,0:0:0:0:
288,128,79063,2,0,L|176:128,1,82.5000025177003,4|0,0:0|0:0,0:0:0:0:
392,52,79278,6,0,L|492:52,2,82.5000025177003,2|0|4,0:0|0:0|0:0,0:0:0:0:
200,56,79599,2,0,L|200:168,1,82.5000025177003,0|0,0:0|0:0,0:0:0:0:
380,240,79813,1,2,0:0:0:0:
297,240,79920,1,0,0:0:0:0:
215,240,80027,1,0,0:0:0:0:
404,364,80135,6,0,L|404:276,1,82.5000025177003,4|0,3:0|0:0,0:0:0:0:
216,288,80349,2,0,L|216:192,1,82.5000025177003,4|4,0:0|3:0,0:0:0:0:
40,200,80563,2,0,L|40:108,1,82.5000025177003,0|4,0:0|0:0,0:0:0:0:
232,104,80778,2,0,L|340:104,1,82.5000025177003,4|0,3:0|0:0,0:0:0:0:
88,48,80992,6,0,L|184:48,2,82.5000025177003,2|4|0,0:0|3:0|0:0,0:0:0:0:
296,44,81313,2,0,L|392:44,2,82.5000025177003,0|4|4,0:0|0:0|3:0,0:0:0:0:
112,52,81635,2,0,L|112:160,1,82.5000025177003,0|0,0:0|0:0,0:0:0:0:
352,196,81849,6,0,L|444:196,2,82.5000025177003,4|0|0,3:0|0:0|0:0,0:0:0:0:
180,200,82171,2,0,L|180:104,1,82.5000025177003,2|0,0:0|0:0,0:0:0:0:
392,104,82385,2,0,L|492:104,2,82.5000025177003,4|0|8,0:0|0:0|0:0,0:0:0:0:
216,308,82706,6,0,L|112:308,2,82.5000025177003,2|0|4,0:0|0:0|0:0,0:0:0:0:
384,304,83028,2,0,L|384:192,1,82.5000025177003,2|0,0:0|0:0,0:0:0:0:
220,228,83242,2,0,L|220:112,1,82.5000025177003,4|0,0:0|0:0,0:0:0:0:
328,148,83456,1,8,0:0:0:0:
136,208,83563,6,0,L|23:210,3,82.5000025177003,2|0|4|0,0:0|0:0|0:0|0:0,0:0:0:0:
258,359,83992,2,0,L|259:253,1,82.5000025177003,2|2,0:0|0:0,0:0:0:0:
150,287,84206,2,0,L|151:194,1,82.5000025177003,4|0,0:0|0:0,0:0:0:0:
344,195,84421,5,2,0:0:0:0:
261,195,84528,1,2,0:0:0:0:
179,195,84635,1,4,0:0:0:0:
368,200,84742,2,0,L|368:88,1,82.5000025177003,4|2,3:0|3:0,0:0:0:0:
127,344,84956,1,2,3:0:0:0:
93,322,85009,1,0,0:0:0:0:
85,283,85063,1,4,3:2:0:0:
107,250,85116,1,4,0:2:0:0:
147,243,85170,1,4,3:2:0:0:
375,368,85278,6,0,L|468:315,2,82.5000025177003,4|0|10,3:0|0:0|0:0,0:0:0:0:
191,272,85599,2,0,L|103:225,2,82.5000025177003,4|0|0,0:0|0:0|0:0,0:0:0:0:
375,296,85921,5,4,3:0:0:0:
450,277,86028,1,0,0:0:0:0:
450,200,86135,1,0,0:0:0:0:
375,181,86242,1,2,0:0:0:0:
287,176,86349,2,0,L|287:88,1,82.5000025177003,4|0,0:0|0:0,0:0:0:0:
375,208,86563,2,0,L|375:112,1,82.5000025177003,2|2,0:0|0:0,0:0:0:0:
287,64,86778,2,0,L|383:64,1,82.5000025177003,4|4,0:0|0:0,0:0:0:0:
127,352,86992,6,0,L|36:320,2,82.5000025177003,2|0|10,0:0|0:0|0:0,0:0:0:0:
311,352,87313,2,0,L|392:328,2,82.5000025177003,4|0|10,0:0|0:0|0:0,0:0:0:0:
127,280,87635,2,0,B|127:188|127:188|208:160,1,165.000005035401,2|0,0:0|0:0,0:0:0:0:
415,320,87956,6,0,L|159:320,1,247.500007553101,4|4,3:0|0:0,0:0:0:0:
167,248,88385,1,0,0:0:0:0:
263,192,88492,2,0,L|263:96,1,82.5000025177003,4|8,0:0|3:0,0:0:0:0:
63,360,88706,6,0,L|4:287,2,82.5000025177003,4|0|10,3:0|0:0|0:0,0:0:0:0:
247,368,89028,2,0,L|319:300,2,82.5000025177003,4|0|10,0:0|0:0|0:0,0:0:0:0:
63,264,89349,5,4,3:0:0:0:
29,192,89456,1,0,0:0:0:0:
68,123,89563,1,0,0:0:0:0:
147,116,89670,1,0,0:0:0:0:
239,128,89778,2,0,L|327:128,1,82.5000025177003,4|2,0:0|0:0,0:0:0:0:
239,64,89992,2,0,L|151:64,1,82.5000025177003,10|2,0:0|0:0,0:0:0:0:
63,280,90206,2,0,L|63:176,1,82.5000025177003,4|4,0:0|0:0,0:0:0:0:
383,352,90421,6,0,L|464:316,2,82.5000025177003,2|0|10,0:0|0:0|0:0,0:0:0:0:
167,280,90742,2,0,L|80:244,2,82.5000025177003,4|0|10,0:0|0:0|0:0,0:0:0:0:
383,272,91063,2,0,B|382:182|382:182|304:184,1,165.000005035401,2|0,0:0|0:0,0:0:0:0:
103,360,91385,6,0,L|7:360,2,82.5000025177003,4|0|4,3:0|0:0|0:0,0:0:0:0:
191,360,91706,2,0,L|279:360,2,82.5000025177003,0|4|2,0:0|0:0|3:0,0:0:0:0:
297,296,92028,1,2,3:0:0:0:
127,288,92135,6,0,L|127:192,1,75,4|0,3:0|0:0,0:0:0:0:
215,208,92349,1,0,0:0:0:0:
303,208,92456,2,0,L|303:112,1,75,0|0,0:0|0:0,0:0:0:0:
215,120,92670,1,0,0:0:0:0:
415,352,92777,6,0,L|495:352,1,75,4|8,3:0|0:0,0:0:0:0:
415,288,92992,2,0,L|311:288,1,75,0|4,0:0|0:0,0:0:0:0:
71,296,93206,2,0,L|71:192,1,75,2|0,0:0|0:0,0:0:0:0:
239,216,93420,6,0,L|327:216,1,75,10|8,0:0|0:0,0:0:0:0:
319,144,93635,2,0,L|215:144,1,75,0|4,0:0|0:0,0:0:0:0:
455,360,93849,2,0,L|455:264,1,75,2|0,0:0|0:0,0:0:0:0:
279,272,94063,6,0,L|183:272,1,75,4|4,0:0|0:0,0:0:0:0:
129,272,94277,2,0,L|229:272,1,75,2|2,0:0|0:0,0:0:0:0:
423,184,94492,2,0,L|327:184,1,75,4|4,0:0|0:0,0:0:0:0:
127,352,94706,6,0,L|31:352,2,75,10|8|2,0:0|0:0|0:0,0:0:0:0:
327,344,95027,1,4,0:0:0:0:
231,288,95135,1,4,0:0:0:0:
327,280,95242,1,4,0:0:0:0:
111,272,95349,6,0,L|15:272,1,75,4|8,3:0|0:0,0:0:0:0:
111,208,95563,2,0,L|191:208,1,75,0|4,0:0|0:0,0:0:0:0:
431,360,95777,2,0,L|431:280,1,75,2|0,0:0|0:0,0:0:0:0:
239,264,95992,6,0,L|239:176,1,75,10|8,0:0|0:0,0:0:0:0:
335,184,96206,2,0,L|335:80,1,75,0|4,0:0|0:0,0:0:0:0:
143,104,96420,2,0,L|55:104,1,75,2|0,0:0|0:0,0:0:0:0:
295,360,96635,6,0,L|295:264,1,75,4|4,0:0|0:0,0:0:0:0:
199,232,96849,2,0,L|303:232,1,75,2|2,0:0|0:0,0:0:0:0:
104,260,97063,2,0,L|104:172,1,75,4|4,0:0|0:0,0:0:0:0:
319,272,97277,5,12,0:0:0:0:
239,200,97385,2,0,L|239:120,1,75,12|2,0:0|0:0,0:0:0:0:
447,112,97599,2,0,L|367:112,2,75,4|8|8,0:0|3:0|3:0,0:0:0:0:
239,360,97920,6,0,L|143:360,1,75,4|8,3:0|0:0,0:0:0:0:
87,304,98134,2,0,L|87:208,1,75,0|4,0:0|0:0,0:0:0:0:
343,224,98349,2,0,L|343:128,1,75,2|0,0:0|0:0,0:0:0:0:
159,312,98563,6,0,L|159:216,1,75,10|8,0:0|0:0,0:0:0:0:
247,216,98777,2,0,L|247:128,1,75,0|4,0:0|0:0,0:0:0:0:
47,144,98992,2,0,L|47:56,1,75,2|0,0:0|0:0,0:0:0:0:
271,360,99206,6,0,L|375:360,1,75,10|8,0:0|0:0,0:0:0:0:
271,296,99420,2,0,L|191:296,1,75,0|4,0:0|0:0,0:0:0:0:
367,232,99634,2,0,L|367:144,1,75,2|4,0:0|0:0,0:0:0:0:
119,248,99849,5,4,0:0:0:0:
194,248,99956,2,0,L|98:248,1,75,4|8,0:0|3:0,0:0:0:0:
351,352,100170,2,0,L|439:352,2,75,2|2|8,3:0|3:0|3:0,0:0:0:0:
151,352,100492,6,0,L|151:264,1,75,4|8,3:0|0:0,0:0:0:0:
247,272,100706,2,0,L|247:184,1,75,0|4,0:0|0:0,0:0:0:0:
71,176,100920,2,0,L|167:176,1,75,2|0,0:0|0:0,0:0:0:0:
407,368,101134,6,0,L|407:272,1,75,4|8,3:0|0:0,0:0:0:0:
327,232,101349,2,0,L|431:232,1,75,0|4,0:0|0:0,0:0:0:0:
191,232,101563,2,0,L|191:144,1,75,2|0,0:0|0:0,0:0:0:0:
383,160,101777,6,0,L|479:160,1,75,4|8,3:0|0:0,0:0:0:0:
383,88,101992,2,0,L|295:88,1,75,0|4,0:0|0:0,0:0:0:0:
119,368,102206,2,0,L|119:264,1,75,2|4,0:0|0:0,0:0:0:0:
351,288,102420,6,0,L|431:288,2,75,2|2|8,3:0|3:0|3:0,0:0:0:0:
151,208,102742,1,2,3:0:0:0:
241,207,102849,1,8,3:0:0:0:
333,208,102956,1,8,3:0:0:0:
89,210,103063,5,4,3:0:0:0:
337,114,103599,5,4,3:0:0:0:
49,90,104134,5,4,3:0:0:0:
369,74,104670,5,4,3:0:0:0:
256,192,104777,12,0,106920,0:0:0:0:
