osu file format v14

[General]
AudioFilename: audio.mp3
AudioLeadIn: 0
PreviewTime: 71564
Countdown: 0
SampleSet: Soft
StackLeniency: 0.7
Mode: 2
LetterboxInBreaks: 0
WidescreenStoryboard: 1

[Editor]
Bookmarks: 49494,106920
DistanceSpacing: 1.4
BeatDivisor: 4
GridSize: 4
TimelineZoom: 2.5

[Metadata]
Title:Ryoushi no Umi no Lindwurm
TitleUnicode:量子の海のリントヴルム
Artist:Kuroneko Dungeon
ArtistUnicode:黒猫ダンジョン
Creator:[_-Kukkai-_]
Version:Deluge
Source:jubeat copious
Tags:Daletto squirrelpascals PROG beatmania IIDX 23 copula bemani sdvx REFLEC BEAT limelight plus pop'n music SunnyPark ポップンリズミン rhythmin GITADORA SOUND VOLTEX III GRAVITY WARS ミライダガッキ FutureTomTom Ver.2 miraidagakki EPIC PROGRESSIVE エピックプログレ TOMOSUKE ORIGINAL SOUNDTRACK モード maud Dragon of Mordiford quantum sea Zektbach binary digits いそにん isonin Video Game Instrumental
BeatmapID:1830272
BeatmapSetID:857537

[Difficulty]
HPDrainRate:7
CircleSize:4.2
OverallDifficulty:9.6
ApproachRate:9.6
SliderMultiplier:1.6
SliderTickRate:2

[Events]
//Background and Video events
Video,-570,"umi.avi"
0,0,"bg.jpg",0,0
//Break Periods
//Storyboard Layer 0 (Background)
//Storyboard Layer 1 (Fail)
//Storyboard Layer 2 (Pass)
//Storyboard Layer 3 (Foreground)
//Storyboard Layer 4 (Overlay)
//Storyboard Sound Samples

[TimingPoints]
425,214.285714285714,7,2,1,30,1,0
4924,-100,7,2,1,40,0,0
16924,214.285714285714,4,2,1,30,1,0
23781,214.285714285714,3,2,1,40,1,0
28923,214.285714285714,4,2,1,40,1,0
32351,-100,4,2,1,30,0,0
38351,-100,4,2,1,35,0,0
39208,-100,4,2,1,40,0,0
49601,-100,4,2,1,30,0,0
52065,-100,4,2,1,40,0,0
55601,-100,4,2,1,30,0,0
58065,214.285714285714,3,2,1,40,1,0
61279,214.285714285714,4,2,1,40,1,0
62993,214.285714285714,5,2,1,30,1,0
70921,-100,5,2,1,40,0,0
71564,214.285714285714,4,2,1,50,1,0
71564,-90.9090909090909,4,2,1,50,0,1
85278,-90.9090909090909,4,2,1,40,0,0
92135,214.285714285714,3,2,1,30,1,0
104777,-100,3,2,1,5,0,0

[Colours]
Combo1 : 203,56,50
Combo2 : 160,194,203
Combo3 : 26,65,130

[HitObjects]
144,355,425,6,0,L|48:355,2,80,0|0|0,0:0|0:0|0:0,0:0:0:0:
312,352,746,2,0,L|312:256,1,80,0|0,0:0|0:0,0:0:0:0:
232,272,960,1,0,0:0:0:0:
399,270,1067,6,0,L|479:270,1,80,8|0,0:0|0:0,0:0:0:0:
479,198,1282,2,0,L|383:198,1,80,0|0,0:0|0:0,0:0:0:0:
231,197,1496,2,0,L|231:85,1,80,0|0,0:0|0:0,0:0:0:0:
311,109,1710,1,0,0:0:0:0:
136,216,1817,6,0,L|32:216,1,80,8|0,0:0|0:0,0:0:0:0:
56,216,2032,2,0,L|136:216,1,80,0|0,0:0|0:0,0:0:0:0:
304,224,2246,1,0,0:0:0:0:
224,224,2353,1,0,0:0:0:0:
144,224,2460,1,0,0:0:0:0:
392,216,2567,5,8,0:0:0:0:
458,179,2674,1,0,0:0:0:0:
452,104,2781,1,0,0:0:0:0:
381,78,2888,1,0,0:0:0:0:
208,64,2996,1,0,0:0:0:0:
288,64,3103,1,0,0:0:0:0:
368,64,3210,1,0,0:0:0:0:
120,352,3317,6,0,L|24:352,1,80,8|0,0:0|0:0,0:0:0:0:
128,280,3532,1,0,0:0:0:0:
202,296,3639,1,0,0:0:0:0:
250,237,3746,1,0,0:0:0:0:
218,168,3853,1,0,0:0:0:0:
143,164,3960,1,0,0:0:0:0:
384,352,4067,6,0,L|472:352,1,80,8|0,0:0|0:0,0:0:0:0:
384,288,4282,1,0,0:0:0:0:
307,286,4389,1,0,0:0:0:0:
272,216,4496,1,0,0:0:0:0:
312,152,4603,1,0,0:0:0:0:
392,152,4710,1,0,0:0:0:0:
336,80,4817,1,8,0:0:0:0:
168,376,4924,6,0,P|88:344|16:264,1,160,2|0,0:0|0:0,0:0:0:0:
240,272,5246,2,0,P|296:232|232:184,1,160,2|2,0:0|0:0,0:0:0:0:
160,184,5567,1,0,0:0:0:0:
360,184,5674,1,4,0:0:0:0:
256,112,5782,2,0,L|256:32,1,80,0|4,0:0|0:0,0:0:0:0:
360,112,5996,2,0,L|360:16,1,80,2|0,0:0|0:0,0:0:0:0:
192,360,6210,2,0,L|160:280,1,80,0|0,0:0|0:0,0:0:0:0:
256,280,6424,5,0,0:0:0:0:
72,264,6532,2,0,L|64:176,1,80,4|0,0:0|0:0,0:0:0:0:
272,168,6746,2,0,L|291:269,1,80,2|0,0:0|0:0,0:0:0:0:
110,359,6960,2,0,L|36:323,1,80,4|0,0:0|0:0,0:0:0:0:
280,280,7174,1,4,0:0:0:0:
200,280,7281,1,0,0:0:0:0:
120,280,7388,1,2,0:0:0:0:
368,200,7496,2,0,L|288:200,2,80,4|0|2,0:0|0:0|0:0,0:0:0:0:
152,200,7817,2,0,L|152:160,1,40,4|4,0:0|0:0,0:0:0:0:
304,360,7924,6,0,L|392:360,2,80,4|0|4,3:0|0:0|0:0,0:0:0:0:
192,360,8246,2,0,L|192:256,1,80,0|0,0:0|0:0,0:0:0:0:
272,272,8460,1,2,0:0:0:0:
72,272,8567,2,0,L|16:192,2,80,4|0|2,0:0|0:0|0:0,0:0:0:0:
304,192,8889,1,4,0:0:0:0:
224,192,8996,1,2,0:0:0:0:
144,192,9103,1,4,0:0:0:0:
376,360,9210,1,4,0:0:0:0:
405,335,9263,1,4,0:0:0:0:
399,298,9317,1,4,0:0:0:0:
364,284,9370,1,4,0:0:0:0:
160,280,9424,6,0,L|320:280,1,160,2|2,0:0|0:0,0:0:0:0:
112,360,9746,2,0,P|56:336|120:288,1,160,2|2,0:0|0:0,0:0:0:0:
192,288,10067,1,0,0:0:0:0:
364,284,10174,1,4,0:0:0:0:
152,216,10282,2,0,L|152:136,1,80,0|4,0:0|0:0,0:0:0:0:
352,216,10496,2,0,L|352:128,1,80,2|0,0:0|0:0,0:0:0:0:
248,136,10710,2,0,L|248:32,1,80,2|0,0:0|0:0,0:0:0:0:
336,56,10924,5,2,0:0:0:0:
128,360,11032,2,0,L|32:360,1,80,4|0,0:0|0:0,0:0:0:0:
272,304,11246,2,0,L|272:208,1,80,2|0,0:0|0:0,0:0:0:0:
56,200,11460,2,0,L|144:200,1,80,4|0,0:0|0:0,0:0:0:0:
328,192,11674,5,4,0:0:0:0:
248,192,11781,1,0,0:0:0:0:
168,192,11888,1,2,0:0:0:0:
384,200,11996,1,4,0:0:0:0:
300,200,12103,1,0,0:0:0:0:
384,200,12210,1,2,0:0:0:0:
184,272,12317,2,0,L|132:272,1,40,4|4,0:0|0:0,0:0:0:0:
300,356,12424,6,0,L|300:256,1,80,4|0,3:0|0:0,0:0:0:0:
216,276,12639,2,0,L|316:276,1,80,4|0,0:0|0:0,0:0:0:0:
208,272,12853,2,0,L|208:188,1,80,2|2,0:0|0:0,0:0:0:0:
440,360,13067,2,0,L|440:264,1,80,4|0,0:0|0:0,0:0:0:0:
352,280,13282,5,10,0:0:0:0:
440,216,13389,2,0,L|336:216,2,80,4|0|10,0:0|0:0|0:0,0:0:0:0:
168,360,13710,1,4,0:0:0:0:
132,347,13763,1,4,0:0:0:0:
134,310,13817,1,4,0:0:0:0:
170,301,13870,1,4,0:0:0:0:
328,304,13924,6,0,L|488:304,1,160,4|0,0:3|0:0,0:0:0:0:
240,224,14246,2,0,L|64:224,1,160,4|2,0:0|0:0,0:0:0:0:
162,234,14567,1,0,0:0:0:0:
331,230,14674,5,4,0:0:0:0:
104,360,14782,2,0,L|104:256,1,80,4|0,0:0|0:0,0:0:0:0:
304,272,14996,2,0,P|360:232|296:208,1,160,4|8,3:0|3:0,0:0:0:0:
224,208,15317,1,8,3:0:0:0:
48,208,15424,6,0,L|232:208,1,160,4|0,3:0|0:0,0:0:0:0:
424,368,15746,2,0,P|480:344|416:296,1,160,4|2,0:0|0:0,0:0:0:0:
344,296,16067,1,0,0:0:0:0:
104,296,16174,5,4,0:0:0:0:
280,224,16282,2,0,L|280:144,1,80,4|0,0:0|0:0,0:0:0:0:
104,184,16496,2,0,L|24:184,1,80,4|0,0:0|0:0,0:0:0:0:
104,120,16710,2,0,L|200:120,1,80,0|4,0:0|0:0,0:0:0:0:
416,368,16924,5,4,3:0:0:0:
486,343,17031,1,0,0:0:0:0:
478,270,17138,1,8,0:0:0:0:
404,261,17245,1,0,0:0:0:0:
280,256,17352,2,0,L|280:176,1,80,0|0,0:0|0:0,0:0:0:0:
368,160,17566,2,0,L|368:48,1,80,8|0,0:0|0:0,0:0:0:0:
248,288,17781,5,0,0:0:0:0:
179,256,17888,1,0,0:0:0:0:
185,181,17995,1,8,0:0:0:0:
257,160,18102,1,0,0:0:0:0:
376,360,18209,2,0,L|288:360,1,80,0|0,0:0|0:0,0:0:0:0:
208,296,18423,2,0,L|288:296,1,80,8|0,0:0|0:0,0:0:0:0:
408,292,18638,6,0,L|408:188,1,80,0|0,0:0|0:0,0:0:0:0:
320,156,18852,2,0,L|424:156,1,80,8|0,0:0|0:0,0:0:0:0:
296,248,19066,1,0,0:0:0:0:
365,219,19173,1,0,0:0:0:0:
364,144,19280,1,8,0:0:0:0:
293,118,19387,1,0,0:0:0:0:
168,352,19495,6,0,L|168:240,1,80,0|0,0:0|0:0,0:0:0:0:
248,264,19709,2,0,L|336:264,1,80,8|8,0:0|3:0,0:0:0:0:
432,216,19923,1,2,3:0:0:0:
344,216,20030,1,8,3:0:0:0:
256,216,20137,1,8,3:0:0:0:
168,216,20244,1,8,3:0:0:0:
408,208,20352,6,0,L|408:128,1,80,4|0,3:0|0:0,0:0:0:0:
320,80,20566,2,0,L|400:80,1,80,8|0,0:0|0:0,0:0:0:0:
136,360,20781,2,0,L|40:360,1,80,4|0,3:0|0:0,0:0:0:0:
176,296,20995,2,0,L|80:296,1,80,8|0,0:0|0:0,0:0:0:0:
320,288,21209,6,0,L|320:192,1,80,4|0,3:0|0:0,0:0:0:0:
224,200,21423,2,0,L|224:104,1,80,8|0,0:0|0:0,0:0:0:0:
408,200,21638,2,0,L|496:200,1,80,4|0,3:0|0:0,0:0:0:0:
400,136,21852,2,0,L|312:136,1,80,8|0,0:0|0:0,0:0:0:0:
104,368,22066,6,0,L|200:368,1,80,4|0,3:0|0:0,0:0:0:0:
104,304,22281,2,0,L|24:304,1,80,8|0,0:0|0:0,0:0:0:0:
264,304,22495,2,0,L|272:216,1,80,4|0,3:0|0:0,0:0:0:0:
176,216,22709,2,0,L|168:112,1,80,8|0,0:0|0:0,0:0:0:0:
384,344,22923,6,0,L|464:344,1,80,4|0,3:0|0:0,0:0:0:0:
216,288,23138,2,0,L|176:288,2,40,2|0|2,3:0|0:0|3:0,0:0:0:0:
296,280,23352,1,8,3:0:0:0:
216,216,23459,1,8,3:0:0:0:
416,216,23566,2,0,P|472:176|424:144,1,120,8|0,3:0|0:0,0:0:0:0:
184,360,23781,6,0,L|16:360,1,160,4|0,3:0|0:0,0:0:0:0:
280,288,24102,2,0,P|328:264|272:208,1,160,12|8,0:0|0:0,0:0:0:0:
88,216,24423,6,0,L|88:120,1,80,8|8,0:0|0:0,0:0:0:0:
184,134,24638,1,0,0:0:0:0:
368,368,24745,2,0,L|372:271,1,80,4|0,0:0|0:0,0:0:0:0:
259,297,24959,1,8,0:0:0:0:
371,288,25066,6,0,L|374:196,1,80,8|8,0:0|0:0,0:0:0:0:
269,211,25280,1,0,0:0:0:0:
88,204,25388,2,0,L|80:124,1,80,4|0,0:0|0:0,0:0:0:0:
312,60,25602,1,8,0:0:0:0:
232,64,25709,6,0,L|136:64,2,80,8|8|0,0:0|0:0|0:0,0:0:0:0:
408,368,26030,2,0,L|408:264,1,80,4|0,0:0|0:0,0:0:0:0:
316,288,26245,1,8,0:0:0:0:
144,280,26352,6,0,L|40:280,2,80,8|8|2,0:0|0:0|0:0,0:0:0:0:
320,272,26673,2,0,L|232:272,1,80,4|0,0:0|0:0,0:0:0:0:
416,148,26888,1,12,0:0:0:0:
160,368,26995,6,0,L|160:280,1,80,12|0,0:0|0:0,0:0:0:0:
244,288,27209,1,0,0:0:0:0:
124,232,27316,2,0,L|124:152,1,80,4|0,0:0|0:0,0:0:0:0:
352,144,27530,1,0,0:0:0:0:
144,136,27638,6,0,L|232:136,2,80,12|2|0,0:0|0:0|0:0,0:0:0:0:
336,360,27959,2,0,L|336:276,1,80,12|4,0:0|0:0,0:0:0:0:
156,288,28173,1,10,0:0:0:0:
416,288,28280,6,0,L|320:288,2,80,4|0|8,0:0|0:0|3:0,0:0:0:0:
160,296,28602,2,0,L|160:200,1,80,4|0,0:0|3:0,0:0:0:0:
248,216,28816,1,0,0:0:0:0:
432,208,28923,1,4,0:0:0:0:
184,368,29030,1,4,0:0:0:0:
344,272,29244,1,4,0:0:0:0:
72,272,29458,6,0,L|316:176,1,240,0|2,0:0|0:0,0:0:0:0:
112,200,29887,1,4,0:0:0:0:
208,200,29994,1,4,0:0:0:0:
32,120,30101,1,4,0:0:0:0:
128,120,30208,1,4,0:0:0:0:
352,360,30315,6,0,P|424:336|352:240,1,240,4|2,3:0|0:0,0:0:0:0:
184,244,30744,2,0,L|184:148,1,80,4|2,0:0|3:0,0:0:0:0:
384,152,30958,1,4,0:0:0:0:
108,364,31172,6,0,P|28:320|120:248,1,240,4|2,3:0|0:0,0:0:0:0:
312,280,31601,1,4,0:0:0:0:
216,288,31708,1,4,0:0:0:0:
400,208,31815,1,4,0:0:0:0:
304,208,31922,1,4,0:0:0:0:
104,208,32030,2,0,P|40:176|104:128,1,160,4|8,3:0|3:0,0:0:0:0:
376,369,32351,6,0,L|376:281,1,80,4|0,3:0|0:0,0:0:0:0:
290,291,32565,1,4,0:0:0:0:
110,284,32672,2,0,L|-2:284,2,80,2|0|0,0:0|0:0|0:0,0:0:0:0:
327,282,32994,5,4,0:0:0:0:
407,282,33101,1,0,0:0:0:0:
487,282,33208,1,0,0:0:0:0:
407,210,33315,1,2,0:0:0:0:
228,218,33422,2,0,L|228:114,1,80,4|0,0:0|0:0,0:0:0:0:
319,128,33637,2,0,L|319:40,1,80,8|8,0:0|0:0,0:0:0:0:
229,42,33851,1,4,0:0:0:0:
60,56,33958,6,0,L|61:165,1,80,2|0,0:0|0:0,0:0:0:0:
143,143,34172,1,0,0:0:0:0:
320,367,34280,2,0,L|320:271,1,80,4|0,0:0|0:0,0:0:0:0:
224,288,34494,1,0,0:0:0:0:
395,246,34601,2,0,L|487:247,2,80,2|4|0,0:0|0:0|0:0,0:0:0:0:
227,182,34922,5,2,0:0:0:0:
307,182,35029,1,0,0:0:0:0:
387,182,35136,1,4,0:0:0:0:
217,187,35244,2,0,L|115:187,2,80,4|8|8,0:0|0:0|0:0,0:0:0:0:
397,123,35565,5,4,0:0:0:0:
317,123,35672,1,0,0:0:0:0:
237,123,35779,1,0,0:0:0:0:
317,59,35887,1,0,0:0:0:0:
397,51,35994,1,2,0:0:0:0:
150,367,36101,6,0,L|166:271,1,80,4|0,0:0|0:0,0:0:0:0:
254,287,36315,1,0,0:0:0:0:
429,308,36422,2,0,L|405:220,1,80,4|0,2:0|0:0,0:0:0:0:
317,220,36637,1,0,0:0:0:0:
407,230,36744,1,2,2:0:0:0:
228,299,36851,6,0,L|228:203,1,80,4|0,0:0|0:0,0:0:0:0:
340,203,37065,2,0,L|340:107,1,80,8|8,0:0|0:0,0:0:0:0:
252,123,37280,1,2,0:0:0:0:
421,360,37387,6,0,L|509:360,2,80,4|0|0,0:0|0:0|0:0,0:0:0:0:
251,298,37708,1,4,0:0:0:0:
331,298,37815,1,0,0:0:0:0:
411,298,37922,1,0,0:0:0:0:
239,230,38030,2,0,L|150:230,1,80,4|0,0:0|0:0,0:0:0:0:
159,230,38244,1,0,0:0:0:0:
416,200,38351,5,2,0:0:0:0:
312,200,38458,1,0,0:0:0:0:
416,128,38565,1,4,0:0:0:0:
312,136,38672,1,4,0:0:0:0:
112,352,38780,2,0,L|16:352,1,80,4|2,0:0|3:0,0:0:0:0:
272,288,38994,2,0,L|368:288,1,80,4|8,0:0|3:0,0:0:0:0:
112,232,39208,6,0,L|208:232,2,80,4|0|2,3:0|0:0|0:0,0:0:0:0:
328,232,39530,2,0,L|328:144,1,80,4|0,0:0|0:0,0:0:0:0:
248,136,39744,1,0,0:0:0:0:
456,64,39851,6,0,L|376:64,2,80,4|0|2,0:0|0:0|0:0,0:0:0:0:
168,352,40172,1,4,0:0:0:0:
248,352,40279,1,0,0:0:0:0:
328,352,40386,1,0,0:0:0:0:
88,264,40494,2,0,L|200:264,3,80,8|8|12|0,0:0|0:0|0:0|0:0,0:0:0:0:
400,256,40922,6,0,L|320:256,2,80,2|0|4,0:0|0:0|0:0,0:0:0:0:
152,184,41244,1,2,0:0:0:0:
232,184,41351,1,0,0:0:0:0:
312,184,41458,1,4,0:0:0:0:
104,352,41565,2,0,L|8:352,1,80,2|0,0:0|0:0,0:0:0:0:
272,272,41780,6,0,L|184:272,2,80,4|4|4,0:0|0:0|0:0,0:0:0:0:
40,264,42101,2,0,L|40:168,1,80,4|0,3:0|0:0,0:0:0:0:
120,128,42315,1,0,0:0:0:0:
400,128,42422,1,4,0:0:0:0:
232,368,42637,6,0,L|320:368,2,80,2|0|4,0:0|0:0|0:0,0:0:0:0:
456,288,42958,2,0,L|376:288,2,80,0|8|0,0:0|0:0|0:0,0:0:0:0:
216,288,43280,1,4,0:0:0:0:
296,288,43387,1,0,0:0:0:0:
376,288,43494,5,2,0:0:0:0:
144,224,43601,2,0,L|32:224,2,80,0|4|0,0:0|0:0|0:0,0:0:0:0:
368,208,43922,2,0,L|456:208,3,80,8|8|4|0,0:0|0:0|0:0|0:0,0:0:0:0:
152,344,44351,6,0,L|152:248,1,80,2|0,0:0|0:0,0:0:0:0:
240,256,44565,1,4,0:0:0:0:
40,184,44672,2,0,L|128:184,1,80,2|0,0:0|0:0,0:0:0:0:
208,104,44887,2,0,L|112:104,2,80,4|2|0,0:0|0:0|0:0,0:0:0:0:
392,360,45208,6,0,L|312:360,1,80,4|4,0:0|0:0,0:0:0:0:
120,360,45422,1,4,0:0:0:0:
312,272,45530,2,0,P|352:240|288:160,1,160,4|8,3:0|3:0,0:0:0:0:
104,160,45851,1,4,0:0:0:0:
69,143,45904,1,0,0:0:0:0:
68,105,45958,1,4,0:0:0:0:
101,86,46011,1,0,0:0:0:0:
304,352,46065,6,0,L|400:352,1,80,4|0,3:0|0:0,0:0:0:0:
208,288,46280,2,0,L|128:288,2,80,4|0|8,0:0|0:0|0:0,0:0:0:0:
396,288,46601,2,0,L|396:200,1,80,2|4,0:0|0:0,0:0:0:0:
308,184,46815,1,0,0:0:0:0:
96,192,46922,5,2,0:0:0:0:
200,128,47030,1,4,0:0:0:0:
96,120,47137,1,4,0:0:0:0:
336,360,47244,1,2,0:0:0:0:
256,360,47351,1,0,0:0:0:0:
176,360,47458,1,0,0:0:0:0:
256,288,47565,2,0,L|256:200,1,80,4|0,0:0|0:0,0:0:0:0:
56,216,47780,5,2,0:0:0:0:
144,208,47887,2,0,L|232:152,1,80,0|4,0:0|0:0,0:0:0:0:
112,120,48101,2,0,L|104:32,1,80,0|8,0:0|0:0,0:0:0:0:
328,352,48315,2,0,L|240:352,2,80,2|4|0,0:0|0:0|0:0,0:0:0:0:
96,352,48637,5,4,0:0:0:0:
192,288,48744,1,4,0:0:0:0:
96,280,48851,1,2,0:0:0:0:
304,200,48958,1,4,3:0:0:0:
224,200,49065,1,0,0:0:0:0:
144,200,49172,1,2,0:0:0:0:
416,136,49280,2,0,L|416:40,1,80,4|0,0:0|0:0,0:0:0:0:
208,368,49494,1,4,3:0:0:0:
288,288,49601,5,4,0:0:0:0:
120,288,49708,1,4,0:0:0:0:
312,216,49922,1,2,0:0:0:0:
144,216,50029,1,4,0:0:0:0:
336,144,50244,1,2,0:0:0:0:
168,144,50351,1,4,0:0:0:0:
360,64,50565,1,2,0:0:0:0:
192,64,50672,1,4,0:0:0:0:
352,264,50887,5,2,0:0:0:0:
152,368,51101,1,4,0:0:0:0:
360,360,51422,1,2,0:0:0:0:
208,280,51637,1,2,0:0:0:0:
360,288,51851,1,2,0:0:0:0:
208,208,52065,6,0,L|208:112,1,80,2|0,0:0|0:0,0:0:0:0:
400,112,52280,2,0,L|304:112,1,80,4|4,0:0|0:0,0:0:0:0:
400,40,52494,2,0,L|488:40,1,80,2|0,0:0|0:0,0:0:0:0:
216,360,52708,2,0,L|120:360,1,80,12|8,0:0|0:0,0:0:0:0:
400,112,52922,5,4,0:0:0:0:
304,112,53030,1,4,0:0:0:0:
400,48,53137,1,4,0:0:0:0:
104,256,53244,2,0,L|256:184,1,160,4|2,3:0|0:0,0:0:0:0:
248,96,53565,1,4,0:0:0:0:
168,104,53672,1,0,0:0:0:0:
352,368,53780,6,0,L|256:368,1,80,2|0,0:0|0:0,0:0:0:0:
360,296,53994,2,0,L|464:296,1,80,4|4,0:0|0:0,0:0:0:0:
144,304,54208,2,0,L|56:304,1,80,10|0,0:0|0:0,0:0:0:0:
184,240,54422,2,0,L|96:240,1,80,4|0,0:0|0:0,0:0:0:0:
336,152,54637,5,4,0:0:0:0:
248,152,54744,1,4,0:0:0:0:
336,88,54851,1,4,0:0:0:0:
88,360,54958,2,0,L|88:200,1,160,4|2,3:0|0:0,0:0:0:0:
336,196,55280,2,0,L|432:196,1,80,4|2,0:0|0:0,0:0:0:0:
240,184,55494,1,4,3:0:0:0:
160,184,55601,5,4,0:0:0:0:
328,184,55708,1,4,0:0:0:0:
136,112,55922,1,2,0:0:0:0:
304,112,56029,1,4,0:0:0:0:
112,48,56244,1,2,0:0:0:0:
280,48,56351,1,4,0:0:0:0:
88,160,56565,1,2,0:0:0:0:
256,160,56672,1,4,0:0:0:0:
88,288,56887,5,2,0:0:0:0:
256,288,57101,1,4,0:0:0:0:
48,232,57422,1,2,0:0:0:0:
208,232,57637,1,2,0:0:0:0:
48,176,57851,1,2,0:0:0:0:
248,360,58065,6,0,L|352:360,2,80,2|0|0,0:0|0:0|0:0,0:0:0:0:
72,360,58386,1,2,3:0:0:0:
160,360,58493,1,8,3:0:0:0:
72,304,58600,1,8,3:0:0:0:
288,296,58707,5,4,3:0:0:0:
368,296,58814,1,0,0:0:0:0:
448,296,58921,1,8,0:0:0:0:
200,224,59029,1,4,3:0:0:0:
120,224,59136,1,0,0:0:0:0:
40,224,59243,1,8,0:0:0:0:
360,168,59350,5,2,0:0:0:0:
280,168,59457,1,0,0:0:0:0:
360,168,59565,1,2,0:0:0:0:
120,168,59672,1,4,0:0:0:0:
200,168,59779,1,8,3:0:0:0:
120,168,59886,1,8,3:0:0:0:
352,344,59993,6,0,L|272:296,2,80,4|0|2,3:0|0:0|0:0,0:0:0:0:
128,344,60315,2,0,L|208:296,2,80,4|0|2,3:0|0:0|0:0,0:0:0:0:
384,240,60636,6,0,L|288:240,2,80,4|0|2,3:0|0:0|0:0,0:0:0:0:
208,184,60957,1,4,0:0:0:0:
384,128,61064,1,8,3:0:0:0:
208,120,61172,1,8,3:0:0:0:
444,128,61279,1,4,3:0:0:0:
384,128,62457,5,4,0:0:0:0:
216,136,62564,1,4,0:0:0:0:
384,128,62671,1,4,0:0:0:0:
216,72,62779,1,4,0:0:0:0:
392,360,62993,6,0,L|392:264,1,80,2|0,0:0|0:0,0:0:0:0:
312,272,63207,2,0,L|208:272,1,80,8|4,0:0|0:0,0:0:0:0:
232,188,63421,1,0,0:0:0:0:
412,184,63528,2,0,L|496:184,1,80,2|0,0:0|0:0,0:0:0:0:
288,188,63743,2,0,L|184:188,2,80,2|2|0,0:0|0:0|0:0,0:0:0:0:
464,240,64064,6,0,L|464:136,1,80,2|0,0:0|0:0,0:0:0:0:
384,160,64278,2,0,L|496:160,1,80,12|0,0:0|0:0,0:0:0:0:
384,160,64493,1,0,0:0:0:0:
200,364,64600,2,0,L|200:268,1,80,4|0,0:0|0:0,0:0:0:0:
412,280,64814,1,4,0:0:0:0:
324,280,64921,1,4,0:0:0:0:
412,280,65028,1,2,0:0:0:0:
128,188,65135,6,0,L|216:188,1,80,4|0,3:0|0:0,0:0:0:0:
432,180,65350,1,10,0:0:0:0:
344,184,65457,1,2,0:0:0:0:
432,180,65564,1,0,0:0:0:0:
224,124,65671,2,0,L|332:124,1,80,4|0,0:0|0:0,0:0:0:0:
120,128,65885,2,0,L|16:128,2,80,4|0|2,0:0|0:0|0:0,0:0:0:0:
368,272,66207,6,0,L|368:164,1,80,4|0,3:0|0:0,0:0:0:0:
192,184,66421,1,0,0:0:0:0:
280,184,66528,1,2,0:0:0:0:
368,184,66635,1,2,0:0:0:0:
160,112,66743,1,4,0:0:0:0:
72,112,66850,1,0,0:0:0:0:
160,112,66957,1,4,0:0:0:0:
340,36,67064,1,4,0:0:0:0:
252,36,67171,1,4,0:0:0:0:
460,192,67278,6,0,L|460:80,1,80,2|0,0:0|0:0,0:0:0:0:
380,112,67493,2,0,L|476:112,2,80,8|4|0,0:0|0:0|0:0,0:0:0:0:
196,368,67814,2,0,L|92:368,1,80,2|0,0:0|0:0,0:0:0:0:
312,304,68028,2,0,L|396:304,2,80,4|2|0,0:0|0:0|0:0,0:0:0:0:
116,308,68350,5,2,0:0:0:0:
36,280,68457,1,0,0:0:0:0:
34,204,68564,1,12,0:0:0:0:
120,204,68671,2,0,L|28:204,1,80,0|0,0:0|0:0,0:0:0:0:
240,204,68885,2,0,L|340:204,1,80,4|0,0:0|0:0,0:0:0:0:
128,120,69100,1,6,0:0:0:0:
216,120,69207,1,4,0:0:0:0:
128,120,69314,1,2,0:0:0:0:
332,116,69421,6,0,L|440:116,1,80,4|0,3:0|0:0,0:0:0:0:
208,56,69635,1,8,0:0:0:0:
296,56,69742,1,10,0:0:0:0:
208,56,69850,1,0,0:0:0:0:
436,152,69957,2,0,L|340:152,1,80,4|0,0:0|0:0,0:0:0:0:
160,352,70171,1,4,0:0:0:0:
248,352,70278,1,2,0:0:0:0:
160,352,70385,1,2,0:0:0:0:
344,280,70492,6,0,L|456:280,1,80,4|0,3:0|0:0,0:0:0:0:
216,216,70707,2,0,L|124:216,1,80,8|10,0:0|0:0,0:0:0:0:
324,156,70921,5,0,0:0:0:0:
364,136,70974,1,0,0:0:0:0:
361,97,71028,1,4,0:0:0:0:
319,79,71081,1,4,0:0:0:0:
196,360,71135,1,4,0:0:0:0:
152,360,71188,1,4,0:0:0:0:
152,316,71242,1,4,0:0:0:0:
196,316,71295,1,0,0:0:0:0:
330,315,71350,2,0,L|376:316,1,40,2|0,3:0|3:0,0:0:0:0:
236,269,71457,2,0,L|188:269,1,40,2|0,3:0|3:0,0:0:0:0:
352,256,71564,5,4,3:0:0:0:
448,256,71671,1,0,0:0:0:0:
352,208,71778,1,4,0:0:0:0:
448,208,71885,1,0,0:0:0:0:
192,260,71992,2,0,L|96:260,1,88.000002685547,8|2,0:0|0:0,0:0:0:0:
304,256,72206,2,0,L|304:156,1,88.000002685547,4|0,0:0|0:0,0:0:0:0:
104,144,72421,6,0,L|192:144,2,88.000002685547,2|0|4,0:0|0:0|0:0,0:0:0:0:
304,64,72742,1,0,0:0:0:0:
208,68,72849,1,0,0:0:0:0:
112,68,72956,1,2,0:0:0:0:
312,68,73064,2,0,L|428:68,1,88.000002685547,4|0,0:0|0:0,0:0:0:0:
172,376,73278,6,0,L|172:280,1,88.000002685547,2|0,0:0|0:0,0:0:0:0:
284,272,73492,2,0,L|284:172,1,88.000002685547,4|0,0:0|0:0,0:0:0:0:
76,372,73706,2,0,L|16:300,1,88.000002685547,10|0,0:0|0:0,0:0:0:0:
312,276,73921,2,0,L|416:276,1,88.000002685547,4|0,0:0|0:0,0:0:0:0:
160,204,74135,5,4,0:0:0:0:
256,204,74242,1,4,0:0:0:0:
160,204,74349,1,4,0:0:0:0:
356,148,74456,2,0,L|448:148,1,88.000002685547,4|4,0:0|0:0,0:0:0:0:
240,96,74671,1,4,3:0:0:0:
328,96,74778,1,8,3:0:0:0:
416,96,74885,1,8,3:0:0:0:
152,192,74992,5,4,3:0:0:0:
248,192,75099,1,0,0:0:0:0:
152,192,75206,1,4,0:0:0:0:
368,372,75314,2,0,L|368:280,1,88.000002685547,2|0,0:0|0:0,0:0:0:0:
156,280,75528,2,0,L|48:280,2,88.000002685547,4|0|8,0:0|0:0|0:0,0:0:0:0:
368,204,75849,5,2,0:0:0:0:
272,204,75956,1,0,0:0:0:0:
368,204,76064,1,4,0:0:0:0:
164,368,76171,2,0,L|164:264,1,88.000002685547,2|0,0:0|0:0,0:0:0:0:
360,264,76385,2,0,L|456:264,2,88.000002685547,4|0|8,0:0|0:0|0:0,0:0:0:0:
124,268,76706,6,0,L|220:268,1,88.000002685547,2|0,0:0|0:0,0:0:0:0:
124,268,76921,2,0,L|124:156,1,88.000002685547,4|0,0:0|0:0,0:0:0:0:
352,176,77135,2,0,L|248:176,1,88.000002685547,0|2,0:0|0:0,0:0:0:0:
56,168,77349,2,0,L|152:168,1,88.000002685547,4|0,0:0|0:0,0:0:0:0:
392,112,77563,5,2,0:0:0:0:
296,116,77671,1,2,0:0:0:0:
392,112,77778,1,4,0:0:0:0:
176,56,77885,1,4,0:0:0:0:
272,56,77992,1,2,3:0:0:0:
68,336,78099,1,2,3:0:0:0:
240,340,78206,1,8,3:0:0:0:
68,336,78313,1,8,3:0:0:0:
320,248,78421,6,0,L|440:248,1,88.000002685547,4|0,3:0|0:0,0:0:0:0:
312,248,78635,1,4,0:0:0:0:
408,248,78742,1,0,0:0:0:0:
216,256,78849,2,0,L|216:144,1,88.000002685547,8|2,0:0|0:0,0:0:0:0:
408,152,79063,2,0,L|408:40,1,88.000002685547,4|0,0:0|0:0,0:0:0:0:
196,68,79278,5,2,0:0:0:0:
292,68,79385,1,0,0:0:0:0:
388,72,79492,1,4,0:0:0:0:
160,360,79599,2,0,L|160:264,1,88.000002685547,0|0,0:0|0:0,0:0:0:0:
408,260,79813,2,0,L|320:260,2,88.000002685547,2|4|0,0:0|0:0|0:0,0:0:0:0:
128,312,80135,6,0,L|128:216,1,88.000002685547,4|0,3:0|0:0,0:0:0:0:
308,316,80349,2,0,L|308:208,1,88.000002685547,4|4,0:0|3:0,0:0:0:0:
496,320,80563,2,0,L|496:208,1,88.000002685547,0|4,0:0|0:0,0:0:0:0:
304,216,80778,2,0,L|304:96,1,88.000002685547,4|0,3:0|0:0,0:0:0:0:
92,128,80992,5,2,0:0:0:0:
188,132,81099,1,4,3:0:0:0:
92,132,81206,1,0,0:0:0:0:
300,64,81313,1,0,0:0:0:0:
204,64,81421,1,4,0:0:0:0:
400,56,81528,2,0,L|504:56,2,88.000002685547,4|0|0,3:0|0:0|0:0,0:0:0:0:
196,368,81849,6,0,L|196:256,1,88.000002685547,4|0,3:0|0:0,0:0:0:0:
292,280,82063,1,4,0:0:0:0:
64,208,82171,2,0,L|172:208,1,88.000002685547,2|0,0:0|0:0,0:0:0:0:
340,204,82385,2,0,L|340:104,1,88.000002685547,4|0,0:0|0:0,0:0:0:0:
244,116,82599,1,8,0:0:0:0:
444,64,82706,5,2,0:0:0:0:
348,64,82813,1,0,0:0:0:0:
444,64,82921,1,4,0:0:0:0:
216,364,83028,2,0,L|216:256,1,88.000002685547,2|0,0:0|0:0,0:0:0:0:
408,276,83242,1,4,0:0:0:0:
320,276,83349,1,0,0:0:0:0:
232,276,83456,1,8,0:0:0:0:
440,128,83563,6,0,L|440:236,1,88.000002685547,2|0,0:0|0:0,0:0:0:0:
344,216,83778,1,4,0:0:0:0:
440,216,83885,1,0,0:0:0:0:
236,220,83992,2,0,L|144:220,1,88.000002685547,2|2,0:0|0:0,0:0:0:0:
348,104,84206,2,0,L|456:104,1,88.000002685547,4|0,0:0|0:0,0:0:0:0:
192,60,84421,5,2,0:0:0:0:
288,60,84528,1,2,0:0:0:0:
192,60,84635,1,4,0:0:0:0:
416,364,84742,2,0,L|416:244,1,88.000002685547,4|2,3:0|3:0,0:0:0:0:
208,280,84956,2,0,L|160:248,1,44.0000013427735,2|0,3:0|3:0,3:0:0:0:
300,272,85063,1,4,3:2:0:0:
348,272,85116,1,4,3:2:0:0:
348,224,85170,1,4,3:2:0:0:
300,224,85223,1,4,3:2:0:0:
88,200,85278,6,0,L|1:137,2,88.000002685547,4|0|10,3:0|0:0|0:0,0:0:0:0:
296,120,85599,2,0,L|365:55,2,88.000002685547,4|0|0,0:0|0:0|0:0,0:0:0:0:
104,368,85921,6,0,L|104:264,1,88.000002685547,4|0,3:0|0:0,0:0:0:0:
208,280,86135,2,0,L|312:280,1,88.000002685547,0|2,0:0|0:0,0:0:0:0:
208,208,86349,2,0,L|104:208,1,88.000002685547,4|0,0:0|0:0,0:0:0:0:
32,152,86563,2,0,L|32:64,1,88.000002685547,2|2,0:0|0:0,0:0:0:0:
120,64,86778,2,0,L|16:64,1,88.000002685547,4|4,0:0|0:0,0:0:0:0:
288,224,86992,6,0,L|384:228,1,88.000002685547,2|0,0:0|0:0,0:0:0:0:
288,224,87206,1,10,0:0:0:0:
120,368,87313,2,0,L|68:272,1,88.000002685547,4|0,0:0|0:0,0:0:0:0:
172,228,87528,1,10,0:0:0:0:
384,208,87635,2,0,P|424:168|360:80,1,176.000005371094,2|0,0:0|0:0,0:0:0:0:
152,360,87956,6,0,P|80:336|176:208,1,264.000008056641,4|4,3:0|0:0,0:0:0:0:
224,196,88385,1,0,0:0:0:0:
312,200,88492,2,0,L|312:104,1,88.000002685547,4|8,0:0|3:0,0:0:0:0:
72,360,88706,6,0,L|5:295,2,88.000002685547,4|0|10,3:0|0:0|0:0,0:0:0:0:
304,359,89028,2,0,L|373:297,2,88.000002685547,4|0|10,0:0|0:0|0:0,0:0:0:0:
120,216,89349,6,0,L|232:216,1,88.000002685547,4|0,3:0|0:0,0:0:0:0:
128,152,89563,1,0,0:0:0:0:
47,154,89670,1,0,0:0:0:0:
34,75,89777,1,4,0:0:0:0:
111,51,89884,1,0,0:0:0:0:
208,224,89992,2,0,L|96:224,1,88.000002685547,10|2,0:0|0:0,0:0:0:0:
32,152,90206,2,0,L|120:152,1,88.000002685547,4|4,0:0|0:0,0:0:0:0:
392,368,90421,6,0,L|392:272,1,88.000002685547,2|0,0:0|0:0,0:0:0:0:
328,240,90635,1,10,0:0:0:0:
136,368,90742,2,0,L|100:264,1,88.000002685547,4|0,0:0|0:0,0:0:0:0:
196,248,90956,1,10,0:0:0:0:
416,128,91063,2,0,L|232:128,1,176.000005371094,2|0,0:0|0:0,0:0:0:0:
456,368,91385,6,0,L|456:256,1,88.000002685547,4|0,3:0|0:0,0:0:0:0:
368,272,91599,2,0,L|368:184,1,88.000002685547,4|0,0:0|0:0,0:0:0:0:
464,168,91813,2,0,L|368:168,1,88.000002685547,4|2,0:0|3:0,0:0:0:0:
464,112,92028,1,2,3:0:0:0:
152,352,92135,6,0,L|152:240,1,80,4|0,3:0|0:0,0:0:0:0:
232,264,92349,1,0,0:0:0:0:
328,264,92456,2,0,L|328:176,1,80,0|0,0:0|0:0,0:0:0:0:
248,168,92670,1,0,0:0:0:0:
440,344,92777,6,0,L|440:256,1,80,4|8,3:0|0:0,0:0:0:0:
360,264,92992,2,0,L|440:264,1,80,0|4,0:0|0:0,0:0:0:0:
200,352,93206,2,0,L|200:256,1,80,2|0,0:0|0:0,0:0:0:0:
376,184,93420,6,0,L|272:184,1,80,10|8,0:0|0:0,0:0:0:0:
216,112,93635,2,0,L|304:112,1,80,0|4,0:0|0:0,0:0:0:0:
464,112,93849,2,0,L|464:24,1,80,2|0,0:0|0:0,0:0:0:0:
160,368,94063,6,0,L|248:368,1,80,4|4,0:0|0:0,0:0:0:0:
136,280,94277,2,0,L|224:280,1,80,2|2,0:0|0:0,0:0:0:0:
400,272,94492,2,0,L|296:272,1,80,4|4,0:0|0:0,0:0:0:0:
72,360,94706,6,0,L|184:360,2,80,10|8|2,0:0|0:0|0:0,0:0:0:0:
296,264,95027,2,0,L|192:264,2,80,4|4|4,0:0|0:0|0:0,0:0:0:0:
48,256,95349,6,0,L|48:176,1,80,4|8,3:0|0:0,0:0:0:0:
120,112,95563,2,0,L|200:112,1,80,0|4,0:0|0:0,0:0:0:0:
384,112,95777,2,0,L|272:112,1,80,2|0,0:0|0:0,0:0:0:0:
128,368,95992,6,0,L|224:368,1,80,10|8,0:0|0:0,0:0:0:0:
288,312,96206,2,0,L|200:312,1,80,0|4,0:0|0:0,0:0:0:0:
408,248,96420,2,0,L|416:160,1,80,2|0,0:0|0:0,0:0:0:0:
200,160,96635,6,0,L|280:160,1,80,4|4,0:0|0:0,0:0:0:0:
368,96,96849,2,0,L|264:96,1,80,2|2,0:0|0:0,0:0:0:0:
120,368,97063,2,0,L|216:368,1,80,4|4,0:0|0:0,0:0:0:0:
384,368,97277,5,12,0:0:0:0:
200,288,97385,2,0,L|200:184,1,80,12|2,0:0|0:0,0:0:0:0:
400,136,97599,2,0,L|312:136,2,80,4|8|8,0:0|3:0|3:0,0:0:0:0:
128,360,97920,6,0,L|32:360,1,80,4|8,3:0|0:0,0:0:0:0:
128,296,98134,2,0,L|224:296,1,80,0|4,0:0|0:0,0:0:0:0:
408,288,98349,2,0,L|408:208,1,80,2|0,0:0|0:0,0:0:0:0:
232,184,98563,6,0,L|320:184,1,80,10|8,0:0|0:0,0:0:0:0:
208,120,98777,2,0,L|320:120,1,80,0|4,0:0|0:0,0:0:0:0:
56,360,98992,2,0,L|48:272,1,80,2|0,0:0|0:0,0:0:0:0:
272,272,99206,6,0,L|176:272,1,80,10|8,0:0|0:0,0:0:0:0:
112,208,99420,2,0,L|192:208,1,80,0|4,0:0|0:0,0:0:0:0:
360,200,99634,2,0,L|280:200,1,80,2|4,0:0|0:0,0:0:0:0:
104,336,99849,5,4,0:0:0:0:
304,336,99956,2,0,L|216:336,1,80,4|8,0:0|3:0,0:0:0:0:
24,256,100170,1,2,3:0:0:0:
120,256,100277,1,2,3:0:0:0:
24,176,100384,1,8,3:0:0:0:
304,264,100492,6,0,L|304:168,1,80,4|8,3:0|0:0,0:0:0:0:
208,168,100706,2,0,L|208:80,1,80,0|4,0:0|0:0,0:0:0:0:
384,80,100920,2,0,L|280:80,1,80,2|0,0:0|0:0,0:0:0:0:
120,352,101134,6,0,L|224:352,1,80,4|8,3:0|0:0,0:0:0:0:
288,296,101349,2,0,L|192:296,1,80,0|4,0:0|0:0,0:0:0:0:
400,296,101563,2,0,L|416:200,1,80,2|0,0:0|0:0,0:0:0:0:
200,208,101777,6,0,L|112:208,1,80,4|8,3:0|0:0,0:0:0:0:
232,144,101992,2,0,L|144:144,1,80,0|4,0:0|0:0,0:0:0:0:
376,144,102206,2,0,L|376:56,1,80,2|4,0:0|0:0,0:0:0:0:
136,360,102420,6,0,L|48:360,2,80,2|2|8,3:0|3:0|3:0,0:0:0:0:
344,288,102742,1,2,3:0:0:0:
264,288,102849,1,8,3:0:0:0:
184,288,102956,1,8,3:0:0:0:
424,200,103063,5,4,3:0:0:0:
48,200,103599,5,4,3:0:0:0:
464,128,104134,5,4,3:0:0:0:
56,136,104670,5,4,3:0:0:0:
256,192,104777,12,0,106920,0:0:0:0:
