osu file format v14

[General]
AudioFilename: audio.mp3
AudioLeadIn: 0
PreviewTime: 71564
Countdown: 0
SampleSet: Soft
StackLeniency: 0.7
Mode: 2
LetterboxInBreaks: 0
WidescreenStoryboard: 1

[Editor]
Bookmarks: 1817,7174,7924,20352,49494,90742,106920
DistanceSpacing: 1.2
BeatDivisor: 4
GridSize: 8
TimelineZoom: 1.8

[Metadata]
Title:Ryoushi no Umi no Lindwurm
TitleUnicode:量子の海のリントヴルム
Artist:Kuroneko Dungeon
ArtistUnicode:黒猫ダンジョン
Creator:[_-Kukkai-_]
Version:Daletto's Cup
Source:jubeat copious
Tags:Daletto squirrelpascals PROG beatmania IIDX 23 copula bemani sdvx REFLEC BEAT limelight plus pop'n music SunnyPark ポップンリズミン rhythmin GITADORA SOUND VOLTEX III GRAVITY WARS ミライダガッキ FutureTomTom Ver.2 miraidagakki EPIC PROGRESSIVE エピックプログレ TOMOSUKE ORIGINAL SOUNDTRACK モード maud Dragon of Mordiford quantum sea Zektbach binary digits いそにん isonin Video Game Instrumental
BeatmapID:1925301
BeatmapSetID:857537

[Difficulty]
HPDrainRate:3
CircleSize:2.5
OverallDifficulty:6
ApproachRate:6
SliderMultiplier:1
SliderTickRate:0.5

[Events]
//Background and Video events
0,0,"bg.jpg",0,0
Video,-570,"umi.avi"
//Break Periods
2,17124,19302
//Storyboard Layer 0 (Background)
//Storyboard Layer 1 (Fail)
//Storyboard Layer 2 (Pass)
//Storyboard Layer 3 (Foreground)
//Storyboard Layer 4 (Overlay)
//Storyboard Sound Samples

[TimingPoints]
425,214.285714285714,7,2,1,30,1,0
4924,-100,7,2,1,40,0,0
16924,214.285714285714,4,2,1,30,1,0
20352,-100,4,2,1,30,0,0
23781,214.285714285714,3,2,1,40,1,0
28923,214.285714285714,4,2,1,40,1,0
32351,-100,4,2,1,30,0,0
38351,-100,4,2,1,35,0,0
39208,-100,4,2,1,40,0,0
49601,-100,4,2,1,30,0,0
52065,-100,4,2,1,40,0,0
55601,-100,4,2,1,30,0,0
58065,214.285714285714,3,2,1,40,1,0
61279,214.285714285714,4,2,1,40,1,0
62993,214.285714285714,5,2,1,30,1,0
70921,-100,5,2,1,40,0,0
71564,214.285714285714,4,2,1,50,1,0
71564,-100,4,2,1,50,0,1
85278,-100,4,2,1,50,0,0
92135,214.285714285714,3,2,1,40,1,0
104992,-100,3,2,1,5,0,0

[Colours]
Combo1 : 203,56,50
Combo2 : 160,194,203
Combo3 : 26,65,130

[HitObjects]
216,208,425,6,0,P|192:208|128:112,2,150,0|0|8,0:0|0:0|0:0,0:0:0:0:
376,280,1496,2,0,L|384:128,1,150,0|8,0:0|0:0,0:0:0:0:
224,240,2246,6,0,L|344:120,1,150,0|8,0:0|0:0,0:0:0:0:
488,256,2996,2,0,L|368:136,1,150,0|8,0:0|0:0,0:0:0:0:
224,248,3746,6,0,P|168:192|208:152,1,150,0|8,0:0|0:0,0:0:0:0:
368,216,4496,1,0,0:0:0:0:
208,240,4924,6,0,P|208:184|280:112,1,150,2|2,0:0|0:0,0:0:0:0:
352,128,5460,1,2,0:0:0:0:
272,288,5674,2,0,L|152:168,1,150,4|2,0:0|0:0,0:0:0:0:
248,208,6210,1,0,0:0:0:0:
328,208,6424,6,0,L|336:152,1,50,0|4,0:0|0:0,0:0:0:0:
256,176,6746,2,0,L|248:72,1,100,2|4,0:0|0:0,0:0:0:0:
328,248,7174,2,0,P|368:208|253:92,1,250,4|2,0:0|0:0,0:0:0:0:
184,104,7924,5,4,3:0:0:0:
288,264,9424,6,0,L|400:152,1,150,2|2,0:0|0:0,0:0:0:0:
320,136,9960,1,2,0:0:0:0:
248,240,10174,2,0,L|240:88,1,150,4|2,0:0|0:0,0:0:0:0:
320,120,10710,1,2,0:0:0:0:
400,136,10924,6,0,L|352:88,1,50,2|4,0:0|0:0,0:0:0:0:
280,280,11246,2,0,L|288:176,1,100,2|4,0:0|0:0,0:0:0:0:
368,256,11674,2,0,L|184:72,1,250,4|2,0:0|0:0,0:0:0:0:
288,104,12424,5,4,3:0:0:0:
184,232,13924,6,0,P|152:232|64:144,1,150,4|4,0:3|0:0,0:0:0:0:
144,144,14460,1,2,0:0:0:0:
216,152,14674,2,0,L|224:96,1,50,4|4,0:0|0:0,0:0:0:0:
144,104,14996,1,4,3:0:0:0:
312,248,15424,6,0,L|320:96,1,150,4|4,3:0|0:0,0:0:0:0:
240,96,15960,1,2,0:0:0:0:
160,96,16174,2,0,L|152:152,1,50,4|4,0:0|0:0,0:0:0:0:
232,144,16496,2,0,L|312:64,1,100,4|4,0:0|0:0,0:0:0:0:
208,136,16924,5,4,3:0:0:0:
360,288,20352,6,0,P|432:216|376:160,1,200,4|4,3:0|3:0,0:0:0:0:
224,248,21209,2,0,L|376:96,1,200,4|4,3:0|3:0,0:0:0:0:
216,288,22066,6,0,P|144:216|200:160,1,200,4|4,3:0|3:0,0:0:0:0:
352,240,22923,2,0,L|200:88,1,200,4|8,3:0|3:0,0:0:0:0:
288,120,23566,1,8,3:0:0:0:
368,128,23781,6,0,P|408:88|352:32,1,150,4|12,3:0|0:0,0:0:0:0:
272,160,24316,2,0,L|264:104,1,50,8|8,0:0|0:0,0:0:0:0:
344,152,24638,2,0,L|352:96,1,50,0|4,0:0|0:0,0:0:0:0:
232,232,25066,6,0,L|112:112,1,150,8|4,0:0|0:0,0:0:0:0:
240,240,25709,2,0,L|360:120,1,150,8|4,0:0|0:0,0:0:0:0:
224,240,26352,6,0,L|216:88,1,150,8|4,0:0|0:0,0:0:0:0:
296,104,26888,2,0,L|304:208,1,100,12|0,0:0|0:0,0:0:0:0:
224,168,27316,2,0,L|216:64,1,100,4|12,0:0|0:0,0:0:0:0:
264,64,27638,5,12,0:0:0:0:
336,152,27852,2,0,L|296:112,1,50,0|12,0:0|0:0,0:0:0:0:
176,224,28280,2,0,P|120:168|160:128,1,150,4|4,0:0|0:0,0:0:0:0:
280,176,28923,5,4,0:0:0:0:
320,176,29030,2,0,L|328:72,1,100,4|4,0:0|0:0,0:0:0:0:
240,80,29458,1,0,0:0:0:0:
360,192,29780,5,2,0:0:0:0:
400,184,29887,2,0,P|456:128|384:56,1,200,4|4,0:0|3:0,0:0:0:0:
256,200,30637,5,2,0:0:0:0:
216,200,30744,2,0,L|208:96,1,100,4|4,0:0|0:0,0:0:0:0:
296,104,31172,1,4,3:0:0:0:
176,216,31494,5,2,0:0:0:0:
136,208,31601,2,0,P|80:152|152:80,1,200,4|4,0:0|3:0,0:0:0:0:
288,208,32351,6,0,P|312:208|376:112,2,150,4|2|4,3:0|0:0|0:0,0:0:0:0:
176,152,33315,2,0,L|168:96,1,50,2|4,0:0|0:0,0:0:0:0:
248,136,33637,2,0,L|256:80,1,50,8|8,0:0|0:0,0:0:0:0:
176,208,33958,6,0,P|152:208|88:112,2,150,2|4|2,0:0|0:0|0:0,0:0:0:0:
304,176,34922,2,0,L|312:24,1,150,2|4,0:0|0:0,0:0:0:0:
192,248,35565,6,0,P|192:144|296:40,1,250,4|4,0:0|0:0,0:0:0:0:
416,200,36422,2,0,L|424:48,1,150,4|2,2:0|2:0,0:0:0:0:
376,96,36851,2,0,L|296:176,1,100,4|8,0:0|0:0,0:0:0:0:
184,208,37387,6,0,P|160:208|96:112,2,150,4|4|4,0:0|0:0|0:0,0:0:0:0:
304,224,38351,2,0,L|312:120,1,100,2|4,0:0|0:0,0:0:0:0:
232,152,38780,2,0,L|224:48,1,100,4|4,0:0|0:0,0:0:0:0:
312,224,39208,6,0,P|368:168|328:128,1,150,4|4,3:0|0:0,0:0:0:0:
216,224,39851,2,0,P|160:168|200:128,1,150,4|4,0:0|0:0,0:0:0:0:
320,248,40494,2,0,L|328:144,1,100,8|12,0:0|0:0,0:0:0:0:
232,248,40922,6,0,L|120:136,1,150,2|2,0:0|0:0,0:0:0:0:
248,200,41565,2,0,L|360:88,1,150,2|4,0:0|0:0,0:0:0:0:
272,272,42101,2,0,L|264:120,1,150,4|4,3:0|0:0,0:0:0:0:
344,224,42637,6,0,P|384:184|328:128,1,150,2|0,0:0|0:0,0:0:0:0:
208,264,43280,2,0,L|200:112,1,150,4|0,0:0|0:0,0:0:0:0:
320,200,43922,2,0,L|392:128,1,100,8|4,0:0|0:0,0:0:0:0:
296,192,44351,6,0,P|272:192|272:96,1,150,2|2,0:0|0:0,0:0:0:0:
384,192,44994,2,0,P|408:192|408:96,1,150,2|4,0:0|0:0,0:0:0:0:
328,176,45530,2,0,L|440:64,1,150,4|4,3:0|0:0,0:0:0:0:
344,272,46065,6,0,P|288:272|288:152,1,200,4|8,3:0|0:0,0:0:0:0:
440,216,46922,2,0,L|448:112,1,100,2|4,0:0|0:0,0:0:0:0:
400,144,47244,2,0,L|288:32,1,150,2|4,0:0|0:0,0:0:0:0:
208,256,47780,6,0,L|360:104,1,200,2|8,0:0|0:0,0:0:0:0:
200,272,48637,2,0,L|192:168,1,100,4|2,0:0|0:0,0:0:0:0:
240,200,48959,2,0,L|352:88,1,150,4|4,3:0|0:0,0:0:0:0:
256,296,49494,6,0,L|248:192,1,100,4|4,3:0|0:0,0:0:0:0:
328,216,49922,2,0,L|280:168,1,50,2|4,0:0|0:0,0:0:0:0:
208,216,50244,2,0,L|256:168,1,50,2|4,0:0|0:0,0:0:0:0:
328,200,50565,5,2,0:0:0:0:
336,192,50672,2,0,P|312:192|256:136,2,100,4|2|4,0:0|0:0|0:0,0:0:0:0:
216,192,51422,2,0,P|192:192|136:136,2,100,2|2|2,0:0|0:0|0:0,0:0:0:0:
312,312,52065,6,0,P|384:240|328:184,1,200,2|2,0:0|0:0,0:0:0:0:
168,216,52922,2,0,L|280:104,1,150,4|4,0:0|3:0,0:0:0:0:
360,152,53458,2,0,L|368:96,1,50,2|4,0:0|0:0,0:0:0:0:
280,232,53780,6,0,P|224:232|224:112,1,200,2|10,0:0|0:0,0:0:0:0:
384,216,54637,2,0,P|440:160|400:120,1,150,4|4,0:0|3:0,0:0:0:0:
320,144,55172,2,0,L|312:88,1,50,2|4,0:0|0:0,0:0:0:0:
408,192,55494,6,0,L|416:88,1,100,4|4,3:0|0:0,0:0:0:0:
336,136,55922,2,0,L|328:80,1,50,2|4,0:0|0:0,0:0:0:0:
248,128,56244,2,0,L|296:80,1,50,2|4,0:0|0:0,0:0:0:0:
376,128,56565,5,2,0:0:0:0:
384,120,56672,2,0,P|360:120|304:64,2,100,4|2|4,0:0|0:0|0:0,0:0:0:0:
264,152,57422,1,2,0:0:0:0:
184,152,57637,1,2,0:0:0:0:
104,152,57851,1,2,0:0:0:0:
192,152,58065,6,0,L|336:8,1,200,2|8,0:0|3:0,0:0:0:0:
248,264,58707,6,0,P|208:264|208:176,1,150,4|4,3:0|3:0,0:0:0:0:
336,264,59350,2,0,L|216:144,1,150,2|4,0:0|0:0,0:0:0:0:
352,240,59993,6,0,L|344:88,1,150,4|4,3:0|3:0,0:0:0:0:
224,240,60636,2,0,P|168:184|216:136,1,150,4|4,3:0|0:0,0:0:0:0:
352,168,61279,5,4,3:0:0:0:
112,240,62993,6,0,P|72:200|184:88,1,250,2|2,0:0|0:0,0:0:0:0:
256,88,63743,1,2,0:0:0:0:
376,240,64064,6,0,P|416:200|304:88,1,250,2|4,0:0|0:0,0:0:0:0:
232,88,64814,1,4,0:0:0:0:
360,304,65135,6,0,L|368:48,1,250,4|4,3:0|0:0,0:0:0:0:
280,128,65885,1,4,0:0:0:0:
152,248,66207,6,0,L|336:64,1,250,4|4,3:0|0:0,0:0:0:0:
416,80,66957,1,4,0:0:0:0:
288,312,67278,6,0,L|280:56,1,250,2|2,0:0|0:0,0:0:0:0:
368,136,68028,1,4,0:0:0:0:
488,256,68350,6,0,L|304:72,1,250,2|4,0:0|0:0,0:0:0:0:
224,88,69100,1,6,0:0:0:0:
352,272,69421,6,0,P|392:232|280:120,1,250,4|4,3:0|0:0,0:0:0:0:
208,120,70171,1,4,0:0:0:0:
88,272,70492,6,0,P|48:232|136:144,1,200,4|0,3:0|0:0,0:0:0:0:
208,176,71135,2,0,L|216:72,1,100,4|2,0:0|3:0,0:0:0:0:
112,208,71564,6,0,L|256:64,1,200,4|8,3:0|0:0,0:0:0:0:
336,88,72206,1,4,0:0:0:0:
408,152,72421,2,0,L|416:256,1,100,2|4,0:0|0:0,0:0:0:0:
336,240,72849,2,0,L|256:160,1,100,0|4,0:0|0:0,0:0:0:0:
352,192,73278,6,0,P|392:152|304:64,1,200,2|10,0:0|0:0,0:0:0:0:
232,64,73921,1,4,0:0:0:0:
144,72,74135,2,0,L|136:176,1,100,4|4,0:0|0:0,0:0:0:0:
224,144,74564,1,4,0:0:0:0:
232,136,74671,1,4,3:0:0:0:
224,144,74778,1,8,3:0:0:0:
120,216,74992,6,0,L|112:64,1,150,4|2,3:0|0:0,0:0:0:0:
192,80,75528,1,4,0:0:0:0:
328,216,75849,6,0,L|336:64,1,150,2|2,0:0|0:0,0:0:0:0:
256,80,76385,1,4,0:0:0:0:
120,192,76706,6,0,L|192:120,1,100,2|4,0:0|0:0,0:0:0:0:
272,160,77135,2,0,L|200:88,1,100,0|4,0:0|0:0,0:0:0:0:
112,104,77563,5,2,0:0:0:0:
104,96,77671,1,2,0:0:0:0:
96,88,77778,1,4,0:0:0:0:
184,120,77992,1,2,3:0:0:0:
192,112,78099,1,2,3:0:0:0:
200,104,78206,1,8,3:0:0:0:
304,192,78421,6,0,P|336:192|336:64,1,200,4|8,3:0|0:0,0:0:0:0:
256,120,79063,1,4,0:0:0:0:
168,136,79278,2,0,L|240:64,1,100,2|4,0:0|0:0,0:0:0:0:
328,104,79706,2,0,L|248:24,1,100,0|4,0:0|0:0,0:0:0:0:
160,208,80135,6,0,P|136:208|136:80,1,200,4|0,3:0|0:0,0:0:0:0:
216,104,80778,1,4,3:0:0:0:
304,152,80992,2,0,L|376:80,1,100,2|0,0:0|0:0,0:0:0:0:
288,88,81421,2,0,L|280:144,1,50,4|4,0:0|0:0,0:0:0:0:
384,208,81849,6,0,P|384:184|296:96,1,150,4|2,3:0|0:0,0:0:0:0:
224,96,82385,1,4,0:0:0:0:
104,200,82706,6,0,P|104:176|192:88,1,150,2|2,0:0|0:0,0:0:0:0:
264,88,83242,1,4,0:0:0:0:
136,208,83563,6,0,L|128:104,1,100,2|4,0:0|0:0,0:0:0:0:
216,152,83992,2,0,L|288:80,1,100,2|4,0:0|0:0,0:0:0:0:
200,96,84421,5,2,0:0:0:0:
192,88,84528,1,2,0:0:0:0:
184,80,84635,1,4,0:0:0:0:
272,96,84849,1,2,3:0:0:0:
280,88,84956,1,2,3:0:0:0:
288,80,85063,1,8,3:0:0:0:
184,272,85278,6,0,L|64:152,1,150,4|4,3:0|0:0,0:0:0:0:
208,256,85921,2,0,P|320:144|240:64,1,300,4|2,3:0|0:0,0:0:0:0:
80,216,86992,6,0,L|200:96,1,150,2|4,0:0|0:0,0:0:0:0:
272,136,87528,2,0,L|280:80,1,50,10|2,0:0|0:0,0:0:0:0:
152,96,87956,2,0,P|80:168|136:224,1,200,4|0,3:0|0:0,0:0:0:0:
288,272,88706,6,0,L|296:120,1,150,4|4,3:0|0:0,0:0:0:0:
168,256,89349,2,0,P|56:144|136:64,1,300,4|10,3:0|0:0,0:0:0:0:
296,200,90421,6,0,P|336:160|280:104,1,150,2|4,0:0|0:0,0:0:0:0:
200,128,90956,2,0,L|192:72,1,50,10|2,0:0|0:0,0:0:0:0:
320,216,91385,2,0,L|168:64,1,200,4|4,3:0|0:0,0:0:0:0:
320,152,92135,5,4,3:0:0:0:
136,240,92777,6,0,P|112:240|112:112,1,200,4|2,3:0|0:0,0:0:0:0:
192,240,93420,2,0,P|216:240|216:112,1,200,10|2,0:0|0:0,0:0:0:0:
136,208,94063,6,0,L|280:56,1,200,4|4,0:0|0:0,0:0:0:0:
360,144,94706,2,0,L|368:88,1,50,10|8,0:0|0:0,0:0:0:0:
288,152,95027,2,0,L|280:96,1,50,4|4,0:0|0:0,0:0:0:0:
376,232,95349,6,0,L|232:88,1,200,4|2,3:0|0:0,0:0:0:0:
320,160,95992,2,0,P|392:88|336:32,1,200,10|2,0:0|0:0,0:0:0:0:
256,232,96635,6,0,L|408:80,1,200,4|4,0:0|0:0,0:0:0:0:
312,168,97277,2,0,L|304:112,1,50,12|12,0:0|0:0,0:0:0:0:
392,144,97599,2,0,L|344:96,1,50,4|8,0:0|3:0,0:0:0:0:
264,272,97920,6,0,P|240:272|240:144,1,200,4|2,3:0|0:0,0:0:0:0:
320,224,98563,2,0,L|168:72,1,200,10|2,0:0|0:0,0:0:0:0:
96,224,99206,6,0,L|248:72,1,200,10|2,0:0|0:0,0:0:0:0:
320,96,99849,2,0,L|328:40,1,50,4|4,0:0|0:0,0:0:0:0:
240,64,100170,2,0,L|200:24,1,50,2|2,3:0|3:0,0:0:0:0:
296,200,100492,6,0,P|352:200|352:80,1,200,4|2,3:0|0:0,0:0:0:0:
272,264,101134,2,0,L|264:64,1,200,4|2,3:0|0:0,0:0:0:0:
344,200,101777,6,0,L|200:56,1,200,4|2,3:0|0:0,0:0:0:0:
128,88,102420,1,2,3:0:0:0:
88,88,102634,1,8,3:0:0:0:
120,88,102849,1,8,3:0:0:0:
216,240,103063,6,0,P|240:240|392:88,2,250,4|4|4,3:0|3:0|3:0,0:0:0:0:
456,192,104670,5,4,3:0:0:0:
256,192,104992,12,0,106920,0:0:0:0:
