osu file format v14

[General]
AudioFilename: audio.mp3
AudioLeadIn: 0
PreviewTime: 81340
Countdown: 0
SampleSet: Drum
StackLeniency: 0.7
Mode: 0
LetterboxInBreaks: 0
WidescreenStoryboard: 1

[Editor]
DistanceSpacing: 1.2
BeatDivisor: 4
GridSize: 4
TimelineZoom: 2.799999

[Metadata]
Title:Lilieze to Enryuu Laevateinn
TitleUnicode:リリーゼと炎龍レーヴァテイン
Artist:Kuroneko Dungeon
ArtistUnicode:黒猫ダンジョン
Creator:sYreNn
Version:Little's Easy
Source:REFLEC BEAT colette -Summer-
Tags:zektbach beatmania iidx 22 pendual tomosuke funaki oldstyle gamemusic beatstream アニムトライヴ pop'n music うさぎと猫と少年の夢 maya takamura 高村真耶 video game little shifu touka enkypton cloudsplash16 GAO HAO MyLonelyAlpaca Doug China AJiSAI
BeatmapID:2345291
BeatmapSetID:596926

[Difficulty]
HPDrainRate:2
CircleSize:3
OverallDifficulty:2
ApproachRate:2.5
SliderMultiplier:0.7
SliderTickRate:1

[Events]
//Background and Video events
0,0,"0PToNdx.jpg",0,0
//Break Periods
//Storyboard Layer 0 (Background)
//Storyboard Layer 1 (Fail)
//Storyboard Layer 2 (Pass)
//Storyboard Layer 3 (Foreground)
//Storyboard Layer 4 (Overlay)
//Storyboard Sound Samples

[TimingPoints]
513,300,4,3,0,60,1,0
6813,-100,4,3,0,65,0,0
8313,-100,4,3,0,70,0,0
19713,-100,4,3,0,80,0,0
29313,-100,4,3,0,70,0,0
34713,300,4,3,0,85,1,0
44313,-100,4,3,0,85,0,1
62913,-100,4,3,0,85,0,0
81513,-100,4,3,0,90,0,1
98313,-100,4,3,0,70,0,0
103188,-100,4,3,0,50,0,0
103563,-100,4,3,0,55,0,0
104013,-100,4,3,0,60,0,0
104463,-100,4,3,0,65,0,0
104913,-100,4,3,0,70,0,0
105363,-100,4,3,0,75,0,0
105813,-100,4,3,0,80,0,0

[Colours]
Combo1 : 128,0,0
Combo2 : 225,0,5
Combo3 : 225,73,0
Combo4 : 198,198,0

[HitObjects]
112,124,513,6,0,L|102:227,2,105,8|8|8,0:0|0:0|0:0,0:0:0:0:
176,68,1713,5,4,0:2:0:0:
344,52,2313,1,0,0:0:0:0:
441,189,2913,1,0,0:0:0:0:
370,341,3513,1,0,0:0:0:0:
202,355,4113,1,0,0:0:0:0:
105,216,4713,1,0,0:0:0:0:
272,200,5313,6,0,P|290:118|226:64,1,175,4|0,0:2|0:0,0:0:0:0:
44,176,6813,2,0,L|70:348,1,175
280,364,8313,2,0,B|324:324|387:329|387:329|414:277,1,175
164,124,10113,5,4,0:2:0:0:
316,192,10713,1,0,0:0:0:0:
182,289,11313,1,0,0:0:0:0:
299,26,12513,5,4,0:2:0:0:
316,192,13113,1,0,0:0:0:0:
164,124,13713,1,0,0:0:0:0:
451,94,14913,5,4,0:2:0:0:
316,192,15513,1,0,0:0:0:0:
299,26,16113,1,0,0:0:0:0:
468,259,17313,5,4,0:2:0:0:
316,192,17913,1,0,0:0:0:0:
451,94,18513,1,0,0:0:0:0:
334,358,19713,6,0,P|273:327|208:348,1,140,4|0,0:2|0:0,0:0:0:0:
40,348,20913,2,0,P|22:288|83:278,1,140
244,228,22113,6,0,P|265:163|234:102,1,140,4|0,0:2|0:0,0:0:0:0:
74,152,23313,2,0,P|52:216|83:277,1,140
240,340,24513,6,0,L|379:327,1,140,4|0,0:2|0:0,0:0:0:0:
440,172,25713,2,0,L|300:159,1,140
148,228,26913,6,0,B|141:267|141:267|149:309|149:309|139:365,1,140,4|0,0:2|0:0,0:0:0:0:
0,272,28113,2,0,B|6:232|6:232|-1:190|-1:190|8:134,1,140
144,36,29313,6,0,P|177:27|211:35,1,70
292,60,29913,2,0,P|325:67|359:59,1,70
440,84,30513,2,0,L|446:153,1,70
396,220,31113,2,0,L|402:289,1,70
356,360,31713,6,0,P|322:368|288:360,1,70
208,336,32313,2,0,P|174:328|140:336,1,70
60,312,32913,2,0,L|53:242,1,70
104,176,33513,2,0,L|97:106,1,70
252,40,34413,6,0,L|258:109,1,70,8|4,0:0|0:0,0:0:0:0:
304,180,35013,6,0,L|294:284,1,105,0|0,1:0|0:0,0:0:0:0:
184,348,35913,2,0,P|138:324|87:333,2,105,0|0|0,0:0|0:0|1:0,0:0:0:0:
272,204,37413,6,0,P|226:227|175:218,1,105,0|0,1:0|0:0,0:0:0:0:
88,128,38313,2,0,L|78:23,2,105,0|0|0,0:0|0:0|1:0,0:0:0:0:
228,224,39813,6,0,L|237:328,1,105,0|0,1:0|0:0,0:0:0:0:
360,360,40713,2,0,B|392:352|392:352|428:360|428:360|462:352,2,105,0|0|0,0:0|0:0|1:0,0:0:0:0:
428,208,42213,6,0,L|418:103,1,105,0|0,1:0|0:0,0:0:0:0:
296,72,43113,2,0,B|264:80|264:80|228:72|228:72|193:79,2,105,4|0|0,0:2|0:0|1:0,0:0:0:0:
376,96,44313,6,0,L|383:166,1,70,4|0,0:2|0:0,0:0:0:0:
346,241,44913,2,0,L|352:310,1,70
270,321,45513,2,0,L|263:251,1,70
214,183,46113,2,0,L|208:113,1,70
132,80,46713,6,0,P|72:113|63:179,1,140,4|2,0:2|0:0,0:0:0:0:
180,300,47913,2,0,L|185:369,2,70,4|0|0,0:2|0:0|0:0,0:0:0:0:
296,180,49113,6,0,P|330:175|363:186,1,70,4|0,0:2|0:0,0:0:0:0:
440,152,49713,2,0,P|447:118|440:84,1,70
364,48,50313,2,0,P|331:58|296:54,1,70
216,32,50913,2,0,P|183:21|148:25,1,70
76,68,51513,6,0,L|51:205,1,140,4|2,0:2|0:0,0:0:0:0:
148,344,52713,2,0,P|182:348|215:337,1,70,0|0,0:2|0:0,0:0:0:0:
292,304,53313,2,0,P|326:299|359:310,1,70,0|8,0:2|0:0,0:0:0:0:
444,300,53913,6,0,P|463:252|447:203,1,105,4|8,0:2|0:0,0:0:0:0:
344,132,54813,2,0,L|239:122,1,105,4|4,0:2|0:2,0:0:0:0:
88,316,56313,6,0,L|192:325,1,105,4|8,0:2|0:0,0:0:0:0:
304,268,57213,2,0,B|316:228|316:228|304:165,1,105,4|4,0:2|0:2,0:0:0:0:
68,84,58713,6,0,P|48:131|64:180,1,105,4|8,0:2|0:0,0:0:0:0:
168,252,59613,2,0,L|272:261,1,105,4|4,0:2|0:2,0:0:0:0:
424,68,61113,6,0,L|319:58,1,105,4|8,0:2|0:0,0:0:0:0:
208,116,62013,2,0,B|196:156|196:156|207:218,1,105,4|4,0:2|0:2,0:0:0:0:
428,339,63513,6,0,L|447:200,1,140,4|0,0:2|1:0,0:0:0:0:
386,45,64713,2,0,P|320:26|265:65,1,140,0|0,0:0|1:0,0:0:0:0:
224,228,65913,6,0,L|234:297,2,70,0|0|0,0:0|0:0|1:0,0:0:0:0:
98,116,67113,2,0,L|108:46,2,70,0|0|0,0:0|0:0|1:0,0:0:0:0:
113,282,68313,6,0,P|170:318|234:296,1,140,4|0,0:2|1:0,0:0:0:0:
348,172,69513,2,0,B|351:132|351:132|345:107|345:107|352:33,1,140,0|0,0:0|1:0,0:0:0:0:
488,132,70713,6,0,P|466:158|433:171,1,70,4|2,0:2|0:0,0:0:0:0:
348,172,71313,2,0,L|279:166,1,70,0|2,1:0|0:0,0:0:0:0:
195,155,71913,2,0,P|110:133|125:220,1,210,0|2,0:0|0:0,0:0:0:0:
208,244,73113,6,0,P|237:305|209:366,1,140,4|4,0:1|0:2,0:0:0:0:
20,252,74913,6,0,P|-9:190|18:129,1,140,4|4,0:1|0:2,0:0:0:0:
240,76,76713,6,0,L|246:145,1,70,4|0,0:1|0:0,0:0:0:0:
252,228,77313,1,4,0:2:0:0:
396,316,77913,6,0,L|402:247,1,70,4|0,0:1|0:0,0:0:0:0:
408,164,78513,1,4,0:2:0:0:
252,228,79113,6,0,L|183:222,1,70,4|0,0:1|0:0,0:0:0:0:
100,216,79713,1,4,0:2:0:0:
404,76,81513,6,0,P|468:152|435:247,1,210,4|0,0:2|1:0,0:0:0:0:
364,292,82713,2,0,P|331:301|297:293,1,70,0|0,0:0|1:0,0:0:0:0:
216,268,83313,2,0,P|183:259|149:267,1,70,0|0,0:0|1:0,0:0:0:0:
64,272,83913,6,0,B|56:228|56:228|66:170|66:170|44:65,1,210,4|0,0:2|1:0,0:0:0:0:
123,39,85113,2,0,P|181:76|247:59,1,140,8|2,0:0|0:0,0:0:0:0:
404,120,86313,6,0,B|424:184|376:232|376:232|293:200,1,210,4|0,0:2|1:0,0:0:0:0:
209,200,87513,2,0,L|143:224,1,70,0|0,0:0|1:0,0:0:0:0:
116,144,88113,2,0,L|181:119,1,70,0|0,0:0|1:0,0:0:0:0:
263,131,88713,6,0,P|294:192|274:257,1,140,4|0,0:2|0:0,0:0:0:0:
204,304,89613,1,0,1:0:0:0:
280,340,89913,2,0,B|331:363|367:315|416:338,1,140,8|2,0:0|0:0,0:0:0:0:
444,172,91113,6,0,B|352:120|352:120|261:171,1,210,4|0,0:2|1:0,0:0:0:0:
180,196,92313,2,0,P|145:196|115:179,1,70,0|0,0:0|1:0,0:0:0:0:
114,95,92913,2,0,P|144:78|179:78,1,70,0|0,0:0|1:0,0:0:0:0:
261,96,93513,6,0,B|352:148|352:148|444:96,1,210,4|0,0:2|1:0,0:0:0:0:
492,164,94713,2,0,L|370:233,1,140,8|2,0:0|0:0,0:0:0:0:
216,166,95913,6,0,P|137:224|175:314,1,210,4|0,0:2|1:0,0:0:0:0:
256,340,97113,2,0,L|326:333,1,70,4|0,0:2|1:0,0:0:0:0:
408,348,97713,2,0,L|436:283,1,70,0|0,0:0|1:0,0:0:0:0:
472,208,98313,5,4,0:2:0:0:
434,88,98763,1,4,0:2:0:0:
307,86,99213,1,4,0:2:0:0:
266,205,99663,1,4,0:2:0:0:
366,281,100113,1,4,0:2:0:0:
366,281,100713,5,4,0:2:0:0:
330,160,101163,1,4,0:2:0:0:
204,156,101613,1,4,0:2:0:0:
160,274,102063,1,4,0:2:0:0:
258,352,102513,1,4,0:2:0:0:
256,192,103113,12,0,105813,0:0:0:0:
