osu file format v14

[General]
AudioFilename: audio.mp3
AudioLeadIn: 0
PreviewTime: 81340
Countdown: 0
SampleSet: Normal
StackLeniency: 0.6
Mode: 0
LetterboxInBreaks: 0
WidescreenStoryboard: 1

[Editor]
Bookmarks: 9963,13713,19713,29513,44313,53988,63513,98238
DistanceSpacing: 0.7
BeatDivisor: 4
GridSize: 4
TimelineZoom: 1.740002

[Metadata]
Title:Lilieze to Enryuu Laevateinn
TitleUnicode:リリーゼと炎龍レーヴァテイン
Artist:Kuroneko Dungeon
ArtistUnicode:黒猫ダンジョン
Creator:sYreNn
Version:Doug's Hyper
Source:REFLEC BEAT colette -Summer-
Tags:zektbach beatmania iidx 22 pendual tomosuke funaki oldstyle gamemusic beatstream アニムトライヴ pop'n music うさぎと猫と少年の夢 maya takamura 高村真耶 video game little shifu touka enkypton cloudsplash16 GAO HAO MyLonelyAlpaca Doug China AJiSAI
BeatmapID:2351420
BeatmapSetID:596926

[Difficulty]
HPDrainRate:6
CircleSize:4.5
OverallDifficulty:6
ApproachRate:9
SliderMultiplier:1.5
SliderTickRate:1

[Events]
//Background and Video events
0,0,"0PToNdx.jpg",0,0
//Break Periods
//Storyboard Layer 0 (Background)
//Storyboard Layer 1 (Fail)
//Storyboard Layer 2 (Pass)
//Storyboard Layer 3 (Foreground)
//Storyboard Layer 4 (Overlay)
//Storyboard Sound Samples

[TimingPoints]
513,300,4,2,0,50,1,0
513,-100,4,1,0,50,0,0
5313,-200,4,1,0,50,0,0
6063,-166.666666666667,4,1,0,50,0,0
6813,-142.857142857143,4,1,0,50,0,0
7563,-125,4,1,0,50,0,0
10113,-100,4,1,0,50,0,0
34413,-200,4,1,0,50,0,0
34713,300,4,2,0,50,1,0
34713,-83.3333333333333,4,1,0,50,0,0
36363,-100,4,1,0,50,0,0
36813,-125,4,1,0,50,0,0
37113,-83.3333333333333,4,1,0,50,0,0
38913,-200,4,1,0,50,0,0
39513,-83.3333333333333,4,1,0,50,0,0
41163,-100,4,1,0,50,0,0
41613,-125,4,1,0,50,0,0
41913,-83.3333333333333,4,1,0,50,0,0
43713,-200,4,1,0,50,0,0
44313,-76.9230769230769,4,1,0,50,0,1
56013,-200,4,1,0,50,0,1
56313,-76.9230769230769,4,1,0,50,0,1
60813,-200,4,1,0,50,0,1
61113,-76.9230769230769,4,1,0,50,0,1
62913,-76.9230769230769,4,1,0,50,0,0
63513,-100,4,1,0,50,0,0
65913,-200,4,1,0,50,0,0
67113,-100,4,1,0,50,0,0
70713,-200,4,1,0,50,0,0
71913,-100,4,1,0,50,0,0
73113,-83.3333333333333,4,1,0,50,0,0
74013,-90.9090909090909,4,1,0,50,0,0
74313,-100,4,1,0,50,0,0
74613,-111.111111111111,4,1,0,50,0,0
74913,-83.3333333333333,4,1,0,50,0,0
75813,-90.9090909090909,4,1,0,50,0,0
76113,-100,4,1,0,50,0,0
76413,-111.111111111111,4,1,0,50,0,0
76713,-83.3333333333333,4,1,0,50,0,0
77613,-90.9090909090909,4,1,0,50,0,0
78813,-100,4,1,0,50,0,0
80013,-111.111111111111,4,1,0,50,0,0
80313,-142.857142857143,4,1,0,50,0,0
80613,-142.857142857143,4,1,0,50,0,0
80913,-90.9090909090909,4,1,0,50,0,0
81213,-76.9230769230769,4,1,0,50,0,0
81513,-76.9230769230769,4,1,0,50,0,1
84813,-100,4,1,0,50,0,1
86313,-76.9230769230769,4,1,0,50,0,1
89913,-100,4,1,0,50,0,1
90213,-111.111111111111,4,1,0,50,0,1
90513,-90.9090909090909,4,1,0,50,0,1
90813,-76.9230769230769,4,1,0,50,0,1
94413,-100,4,1,0,50,0,1
95913,-76.9230769230769,4,1,0,50,0,1
98313,-200,4,1,0,50,0,0
103563,-166.666666666667,4,1,0,50,0,0
104013,-142.857142857143,4,1,0,50,0,0
104463,-125,4,1,0,50,0,0
104913,-111.111111111111,4,1,0,50,0,0
105363,-100,4,1,0,50,0,0

[Colours]
Combo1 : 128,0,0
Combo2 : 225,0,5
Combo3 : 225,73,0
Combo4 : 198,198,0

[HitObjects]
160,163,513,5,0,0:0:0:0:
160,163,588,1,0,0:0:0:0:
160,163,663,1,0,0:0:0:0:
159,259,813,1,0,0:0:0:0:
271,135,963,5,0,0:0:0:0:
271,135,1038,1,0,0:0:0:0:
271,135,1113,1,0,0:0:0:0:
222,217,1263,1,0,0:0:0:0:
201,65,1413,5,0,0:0:0:0:
201,65,1488,1,0,0:0:0:0:
201,65,1563,1,0,0:0:0:0:
201,65,1638,1,0,0:0:0:0:
201,65,1713,6,0,P|158:94|114:94,1,75
45,88,2013,1,0,0:0:0:0:
45,88,2163,1,0,0:0:0:0:
134,172,2313,2,0,P|150:221|139:263,1,75
120,332,2613,1,0,0:0:0:0:
120,332,2763,1,0,0:0:0:0:
220,263,2913,6,0,P|270:272|302:304,1,75
322,380,3213,1,0,0:0:0:0:
322,380,3363,1,0,0:0:0:0:
344,241,3513,2,0,P|378:201|420:190,1,75
496,211,3813,1,0,0:0:0:0:
496,211,3963,1,0,0:0:0:0:
419,120,4113,6,0,P|381:117|347:131,1,75
282,208,4413,1,0,0:0:0:0:
282,208,4563,1,0,0:0:0:0:
270,92,4713,2,0,P|294:64|328:49,1,75
432,50,5013,5,0,0:0:0:0:
432,50,5088,1,0,0:0:0:0:
432,50,5163,1,0,0:0:0:0:
432,50,5238,1,0,0:0:0:0:
432,50,5313,6,0,P|408:38|386:39,4,37.5
400,150,6063,6,0,P|398:123|381:102,4,44.999998626709
277,204,6813,6,0,P|299:189|310:162,4,52.4999983978272
152,114,7563,6,0,P|175:126|211:121,4,60,0|0|0|0|0,2:0|2:0|2:0|2:0|2:0,2:0:0:0:
218,0,8313,5,0,0:0:0:0:
211,16,8463,1,0,0:0:0:0:
205,30,8613,1,0,0:0:0:0:
198,47,8763,1,0,0:0:0:0:
193,60,8913,1,0,0:0:0:0:
253,228,9063,5,0,0:0:0:0:
206,162,9213,1,0,0:0:0:0:
128,187,9363,1,0,0:0:0:0:
128,268,9513,1,0,0:0:0:0:
206,294,9663,1,0,0:0:0:0:
150,347,9813,1,0,0:0:0:0:
190,226,9963,5,0,0:0:0:0:
190,226,10038,1,0,0:0:0:0:
190,226,10113,2,0,P|241:233|271:321,1,150
226,156,10613,1,0,0:0:0:0:
226,156,10713,2,0,P|266:157|341:236,1,150
288,87,11213,1,0,0:0:0:0:
288,87,11313,2,0,P|328:88|424:146,1,150
344,14,11813,1,0,0:0:0:0:
344,14,11913,2,0,P|384:15|493:43,1,150
512,194,12413,5,0,0:0:0:0:
511,194,12513,2,0,P|460:139|398:96,1,150
400,246,13013,1,0,0:0:0:0:
401,246,13113,2,0,P|371:177|313:131,1,150
286,282,13613,1,0,0:0:0:0:
287,283,13713,2,0,P|280:210|225:161,1,150
185,324,14213,1,0,0:0:0:0:
185,324,14313,2,0,P|196:279|185:259,2,50
123,286,14613,2,0,P|96:261|90:277,2,50
49,312,14913,6,0,P|70:347|63:318,1,150
77,145,15413,1,0,0:0:0:0:
77,145,15513,2,0,P|48:157|109:184,1,150
179,37,16013,1,0,0:0:0:0:
179,37,16113,2,0,P|152:46|201:122,1,150
305,1,16613,1,0,0:0:0:0:
305,1,16713,2,0,P|278:10|266:86,1,100
331,71,17013,2,0,P|355:72|367:96,2,50
258,73,17313,6,0,P|238:116|262:158,1,100
336,183,17613,2,0,P|356:195|366:224,2,50
262,158,17913,2,0,P|234:152|224:222,1,100
248,268,18213,2,0,P|258:290|261:317,2,50
209,207,18513,2,0,P|197:178|156:221,1,100
156,277,18813,2,0,P|154:301|151:328,2,50
149,203,19113,5,0,0:0:0:0:
126,191,19213,1,0,0:0:0:0:
104,203,19313,1,0,0:0:0:0:
89,223,19413,2,0,L|79:272,2,50
40,163,19713,6,0,L|49:113,2,50
119,124,20013,2,0,L|115:74,2,50
186,58,20313,2,0,L|158:16,2,50
238,8,20613,5,0,0:0:0:0:
251,29,20713,1,0,0:0:0:0:
265,49,20813,1,0,0:0:0:0:
277,70,20913,2,0,L|305:112,2,50
219,177,21213,2,0,L|196:222,2,50
306,268,21513,2,0,L|309:318,2,50
236,335,21813,2,0,L|238:385,2,50
304,246,22113,6,0,L|301:195,2,50
379,192,22413,2,0,L|363:143,2,50
426,109,22713,1,0,0:0:0:0:
407,91,22813,1,0,0:0:0:0:
389,73,22913,1,0,0:0:0:0:
370,56,23013,2,0,L|332:22,2,50
268,109,23313,6,0,L|234:146,2,50
305,217,23613,2,0,L|294:266,2,50
192,251,23913,2,0,L|169:295,2,50
237,336,24213,2,0,L|214:380,2,50
205,224,24513,6,0,L|228:179,2,50
175,133,24813,2,0,L|217:105,2,50
223,28,25113,2,0,L|267:51,2,50
138,66,25413,2,0,L|95:93,2,50
248,135,25713,2,0,L|285:168,2,50
156,149,26013,2,0,L|107:164,2,50
210,269,26313,5,0,0:0:0:0:
217,292,26413,1,0,0:0:0:0:
225,315,26513,1,0,0:0:0:0:
233,337,26613,2,0,L|251:384,2,50
127,282,26913,2,0,L|112:234,2,50
177,206,27213,2,0,L|150:163,2,50
297,184,27513,5,0,0:0:0:0:
279,203,27613,1,0,0:0:0:0:
262,222,27713,1,0,0:0:0:0:
246,241,27813,2,0,L|211:277,2,50
334,251,28113,5,0,0:0:0:0:
328,277,28213,1,0,0:0:0:0:
323,302,28313,1,0,0:0:0:0:
319,326,28413,2,0,L|307:375,2,50
417,260,28713,6,0,L|428:302,3,37.5
431,314,29013,2,0,L|442:356,3,37.5
476,337,29313,2,0,P|476:294|431:255,1,75
390,202,29613,5,0,0:0:0:0:
390,202,29763,1,0,0:0:0:0:
390,202,29913,2,0,P|352:180|341:122,1,75
316,60,30213,5,0,0:0:0:0:
316,60,30363,1,0,0:0:0:0:
316,60,30513,2,0,P|294:97|236:108,1,75
174,134,30813,5,0,0:0:0:0:
174,134,30963,1,0,0:0:0:0:
174,134,31113,2,0,P|152:171|171:227,1,75
180,293,31413,5,0,0:0:0:0:
180,293,31563,1,0,0:0:0:0:
251,189,31713,2,0,P|282:169|319:171,1,75
397,227,32013,5,0,0:0:0:0:
397,227,32163,1,0,0:0:0:0:
302,300,32313,2,0,P|281:331|283:367,1,75
373,348,32613,5,0,0:0:0:0:
373,348,32763,1,0,0:0:0:0:
320,225,32913,2,0,P|283:223|251:242,1,75
295,323,33213,5,0,0:0:0:0:
295,323,33363,1,0,0:0:0:0:
182,260,33513,1,0,0:0:0:0:
107,304,33663,1,0,0:0:0:0:
176,354,33813,1,0,0:0:0:0:
115,232,33963,1,0,0:0:0:0:
115,232,34263,5,0,0:0:0:0:
88,235,34338,1,0,0:0:0:0:
67,233,34413,2,0,P|49:232|38:222,3,18.75
33,220,34713,6,0,P|56:286|42:350,1,134.999995880127
25,362,35013,2,0,L|145:286,1,134.999995880127
161,280,35313,1,0,0:0:0:0:
161,280,35463,1,0,0:0:0:0:
281,293,35613,2,0,L|201:342,1,89.9999972534181
212,205,35913,6,0,P|220:144|254:71,1,134.999995880127
264,59,36213,1,0,0:0:0:0:
311,185,36363,6,0,P|341:132|392:104,1,112.5
418,106,36663,1,0,0:0:0:0:
418,230,36813,6,0,P|457:199|492:232,1,90
462,282,37113,6,0,L|431:151,1,134.999995880127
428,141,37413,2,0,L|459:272,1,134.999995880127
466,293,37713,1,0,0:0:0:0:
466,293,37863,1,0,0:0:0:0:
380,239,38013,1,0,0:0:0:0:
380,239,38163,1,0,0:0:0:0:
512,211,38313,6,0,L|481:80,1,134.999995880127
468,36,38613,1,0,0:0:0:0:
437,26,38688,1,0,0:0:0:0:
407,35,38763,1,0,0:0:0:0:
385,58,38838,1,0,0:0:0:0:
367,90,38913,2,0,P|353:101|336:100,3,18.75
326,104,39213,2,0,P|308:97|301:81,3,18.75
289,74,39513,6,0,P|312:140|298:204,1,134.999995880127
282,217,39813,2,0,L|402:141,1,134.999995880127
418,135,40113,1,0,0:0:0:0:
418,135,40263,1,0,0:0:0:0:
410,229,40413,2,0,L|323:287,1,89.9999972534181
234,204,40713,6,0,P|173:172|99:159,1,134.999995880127
62,159,41013,1,0,0:0:0:0:
158,244,41163,6,0,P|205:298|203:351,1,112.5
200,372,41463,1,0,0:0:0:0:
102,293,41613,6,0,P|32:298|22:319,1,90
75,353,41913,6,0,L|47:221,1,134.999995880127
46,210,42213,2,0,L|73:341,1,134.999995880127
76,364,42513,1,0,0:0:0:0:
76,364,42663,1,0,0:0:0:0:
132,288,42813,1,0,0:0:0:0:
132,288,42963,1,0,0:0:0:0:
0,316,43113,6,0,L|131:289,1,134.999995880127
177,280,43413,1,0,0:0:0:0:
208,284,43488,1,0,0:0:0:0:
229,306,43563,1,0,0:0:0:0:
230,337,43638,1,0,0:0:0:0:
212,361,43713,2,0,P|198:369|184:360,3,18.75
167,358,44013,2,0,P|159:344|168:330,3,18.75
185,314,44313,6,0,B|130:325|130:325|48:279,1,146.249993305207
86,264,44613,2,0,B|133:293|133:293|226:277,1,146.249993305207
250,249,44913,1,0,0:0:0:0:
114,236,45063,1,0,0:0:0:0:
221,236,45213,1,0,0:0:0:0:
139,228,45363,1,0,0:0:0:0:
179,225,45513,6,0,B|186:151|186:151|150:81,1,146.249993305207
128,117,45813,2,0,B|195:86|195:86|238:19,1,146.249993305207
196,18,46113,1,0,0:0:0:0:
258,60,46263,1,0,0:0:0:0:
382,57,46413,1,0,0:0:0:0:
320,15,46563,1,0,0:0:0:0:
382,146,46713,6,0,B|319:106|319:106|248:152,1,146.249993305207
234,176,47013,1,0,0:0:0:0:
234,176,47163,1,0,0:0:0:0:
342,200,47313,6,0,B|320:188|320:188|271:219,3,48.7499977684022
327,270,47613,1,0,0:0:0:0:
327,270,47763,1,0,0:0:0:0:
258,370,47913,5,0,0:0:0:0:
394,368,48063,1,0,0:0:0:0:
287,359,48213,1,0,0:0:0:0:
369,358,48363,1,0,0:0:0:0:
330,351,48513,1,0,0:0:0:0:
330,351,48663,1,0,0:0:0:0:
327,227,48813,5,0,0:0:0:0:
326,192,48888,1,0,0:0:0:0:
324,157,48963,1,0,0:0:0:0:
323,122,49038,1,0,0:0:0:0:
322,89,49113,2,0,B|267:150|267:150|174:165,1,146.249993305207
187,136,49413,2,0,B|268:123|268:123|349:172,1,146.249993305207
326,192,49713,5,0,0:0:0:0:
324,56,49863,1,0,0:0:0:0:
400,137,50013,1,0,0:0:0:0:
358,66,50163,1,0,0:0:0:0:
394,73,50313,6,0,B|427:138|427:138|386:243,1,146.249993305207
434,205,50613,2,0,B|461:137|461:137|428:71,1,146.249993305207
462,71,50913,1,0,0:0:0:0:
500,134,51063,1,0,0:0:0:0:
468,272,51213,1,0,0:0:0:0:
503,207,51363,1,0,0:0:0:0:
397,265,51513,6,0,B|441:306|441:306|441:402,1,146.249993305207
476,382,51813,1,0,0:0:0:0:
476,382,51963,1,0,0:0:0:0:
349,324,52113,6,0,B|360:336|360:336|359:369,3,48.7499977684022
289,361,52413,1,0,0:0:0:0:
289,361,52563,1,0,0:0:0:0:
249,208,52713,5,0,0:0:0:0:
182,326,52863,1,0,0:0:0:0:
157,218,53013,1,0,0:0:0:0:
158,301,53163,1,0,0:0:0:0:
132,279,53313,5,0,0:0:0:0:
132,279,53463,1,0,0:0:0:0:
277,310,53613,1,0,0:0:0:0:
277,310,53763,1,0,0:0:0:0:
258,193,53913,6,0,P|328:139|371:157,1,97.4999955368044
338,230,54213,1,0,0:0:0:0:
266,123,54363,2,0,P|184:88|147:117,1,97.4999955368044
190,181,54663,1,0,0:0:0:0:
248,57,54813,5,0,0:0:0:0:
322,31,54963,1,0,0:0:0:0:
391,58,55113,1,0,0:0:0:0:
321,7,55263,1,0,0:0:0:0:
245,0,55413,1,0,0:0:0:0:
178,30,55563,1,0,0:0:0:0:
141,99,55713,5,0,0:0:0:0:
141,99,55788,1,0,0:0:0:0:
141,99,55863,1,0,0:0:0:0:
141,99,55938,1,0,0:0:0:0:
141,99,56013,2,0,P|138:115|143:129,3,18.75
149,150,56313,6,0,P|125:140|53:175,1,97.4999955368044
118,240,56613,1,0,0:0:0:0:
232,224,56763,2,0,P|257:227|302:293,1,97.4999955368044
212,313,57063,1,0,0:0:0:0:
76,323,57213,1,0,0:0:0:0:
76,323,57363,1,0,0:0:0:0:
190,379,57513,1,0,0:0:0:0:
190,379,57663,1,0,0:0:0:0:
247,258,57813,1,0,0:0:0:0:
247,258,57963,1,0,0:0:0:0:
367,312,58113,5,0,0:0:0:0:
332,376,58263,1,0,0:0:0:0:
258,377,58413,1,0,0:0:0:0:
292,313,58563,1,0,0:0:0:0:
186,221,58713,6,0,P|180:291|211:327,1,97.4999955368044
258,377,59013,1,0,0:0:0:0:
176,292,59163,2,0,P|109:268|67:288,1,97.4999955368044
4,320,59463,1,0,0:0:0:0:
110,263,59613,5,0,0:0:0:0:
110,189,59763,1,0,0:0:0:0:
71,126,59913,1,0,0:0:0:0:
139,186,60063,1,0,0:0:0:0:
212,183,60213,1,0,0:0:0:0:
280,151,60363,1,0,0:0:0:0:
342,110,60513,5,0,0:0:0:0:
342,110,60588,1,0,0:0:0:0:
342,110,60663,1,0,0:0:0:0:
342,110,60738,1,0,0:0:0:0:
342,110,60813,2,0,P|356:99|368:102,3,18.75
396,87,61113,6,0,P|356:56|342:7,1,97.4999955368044
267,59,61413,1,0,0:0:0:0:
279,162,61563,2,0,P|228:155|192:119,1,97.4999955368044
161,204,61863,1,0,0:0:0:0:
233,264,62013,5,0,0:0:0:0:
233,264,62163,1,0,0:0:0:0:
173,336,62313,1,0,0:0:0:0:
173,336,62463,1,0,0:0:0:0:
101,276,62613,1,0,0:0:0:0:
101,276,62763,1,0,0:0:0:0:
167,195,62913,1,0,0:0:0:0:
167,195,63063,1,0,0:0:0:0:
97,289,63213,1,0,0:0:0:0:
97,289,63363,1,0,0:0:0:0:
194,361,63513,6,0,L|279:254,1,112.5
277,249,63813,2,0,L|195:353,1,112.5
210,371,64113,1,0,0:0:0:0:
210,371,64263,1,0,0:0:0:0:
190,247,64413,1,0,0:0:0:0:
190,247,64713,6,0,L|271:137,1,112.5
277,138,65013,2,0,L|197:244,1,112.5
176,238,65313,1,0,0:0:0:0:
176,238,65388,1,0,0:0:0:0:
176,238,65463,1,0,0:0:0:0:
301,222,65613,1,0,0:0:0:0:
301,222,65913,6,0,L|317:195,3,18.75
322,211,66213,2,0,L|338:184,3,18.75
344,198,66513,2,0,L|360:171,3,18.75
365,186,66813,2,0,L|381:159,3,18.75
365,186,67113,6,0,L|388:150,3,37.5
344,198,67413,2,0,L|369:149,3,37.5
323,209,67713,2,0,L|348:160,3,37.5
303,223,68013,1,0,0:0:0:0:
289,245,68088,1,0,0:0:0:0:
275,267,68163,1,0,0:0:0:0:
262,290,68238,1,0,0:0:0:0:
249,313,68313,6,0,L|250:180,1,112.5
256,174,68613,2,0,L|254:306,1,112.5
226,309,68913,1,0,0:0:0:0:
226,309,69063,1,0,0:0:0:0:
352,279,69213,1,0,0:0:0:0:
352,279,69513,6,0,L|287:163,1,112.5
288,155,69813,2,0,L|352:270,1,112.5
330,286,70113,1,0,0:0:0:0:
330,286,70188,1,0,0:0:0:0:
330,286,70263,1,0,0:0:0:0:
424,198,70413,1,0,0:0:0:0:
424,198,70713,6,0,L|399:186,3,18.75
418,182,71013,2,0,L|429:157,3,18.75
435,155,71313,2,0,L|410:143,3,18.75
429,140,71613,2,0,L|440:115,3,18.75
429,140,71913,6,0,L|450:102,3,37.5
435,155,72213,2,0,L|402:136,3,37.5
418,182,72513,2,0,L|440:140,3,37.5
423,201,72813,1,0,0:0:0:0:
400,187,72888,1,0,0:0:0:0:
377,173,72963,1,0,0:0:0:0:
354,159,73038,1,0,0:0:0:0:
331,145,73113,6,0,L|213:75,1,134.999995880127
185,65,73413,2,0,P|248:106|287:158,1,134.999995880127
292,183,73713,2,0,P|294:143|318:105,2,59.9999981689454
367,174,74013,2,0,P|401:150|435:152,2,55.0000016784668
422,221,74313,2,0,P|462:236|470:253,2,50
415,294,74613,2,0,P|422:324|419:339,2,44.999998626709
348,332,74913,6,0,L|230:334,1,89.9999972534181
252,302,75138,2,0,P|190:298|138:313,1,89.9999972534181
140,324,75363,1,0,0:0:0:0:
140,324,75513,2,0,P|189:294|199:218,1,134.999995880127
189,194,75813,2,0,P|207:230|231:247,2,55.0000016784668
260,182,76113,2,0,P|300:184|313:178,2,50
288,115,76413,2,0,P|303:89|307:73,2,44.999998626709
231,72,76713,6,0,L|62:78,1,134.999995880127
65,82,77013,2,0,P|152:96|213:132,1,134.999995880127
218,136,77313,2,0,P|183:151|159:175,2,59.9999981689454
229,206,77613,2,0,P|264:221|288:247,2,55.0000016784668
219,281,77913,6,0,L|150:387,1,123.75000377655
179,375,78213,2,0,P|241:360|305:386,1,123.75000377655
277,357,78513,2,0,P|257:334|249:295,2,55.0000016784668
326,303,78813,2,0,P|346:326|352:364,2,50
277,248,79113,6,0,L|370:177,1,112.5
389,166,79413,2,0,P|329:169|270:153,1,112.5
259,138,79713,2,0,P|233:123|198:130,2,50
215,193,80013,2,0,P|184:193|161:214,2,44.999998626709
208,263,80313,2,0,P|193:289|197:308,2,34.9999989318848
294,310,80613,6,0,P|263:310|249:322,2,34.9999989318848
385,273,80913,6,0,P|369:247|333:234,2,55.0000016784668
474,336,81213,6,0,P|489:310|478:269,2,64.9999970245363
435,214,81513,6,0,L|444:59,1,146.249993305207
445,33,81813,1,0,0:0:0:0:
502,162,81963,6,0,P|432:143|362:163,1,146.249993305207
334,184,82263,1,0,0:0:0:0:
287,233,82413,1,0,0:0:0:0:
315,295,82563,1,0,0:0:0:0:
322,157,82713,6,0,P|386:121|463:123,1,146.249993305207
475,92,83013,2,0,P|401:85|352:134,1,146.249993305207
318,132,83313,2,0,P|359:69|428:100,1,146.249993305207
407,157,83613,1,0,0:0:0:0:
407,157,83913,6,0,P|416:209|380:166,1,146.249993305207
366,101,84213,1,0,0:0:0:0:
353,223,84363,2,0,P|417:240|454:164,1,146.249993305207
390,163,84663,1,0,0:0:0:0:
423,273,84813,6,0,L|449:358,1,75
315,384,85113,2,0,L|366:329,1,75
272,228,85413,2,0,L|293:299,1,75
423,273,85713,1,0,0:0:0:0:
366,329,85863,1,0,0:0:0:0:
293,299,86013,1,0,0:0:0:0:
319,170,86163,5,0,0:0:0:0:
319,170,86238,1,0,0:0:0:0:
319,170,86313,2,0,L|371:339,1,146.249993305207
371,342,86613,1,0,0:0:0:0:
416,227,86763,2,0,P|343:226|282:264,1,146.249993305207
262,291,87063,1,0,0:0:0:0:
245,357,87213,1,0,0:0:0:0:
310,376,87363,1,0,0:0:0:0:
188,308,87513,6,0,B|139:318|139:318|30:369,1,146.249993305207
78,380,87813,2,0,B|122:357|122:357|187:257,1,146.249993305207
153,249,88113,2,0,B|129:292|129:292|167:411,1,146.249993305207
178,355,88413,2,0,B|163:307|163:307|40:288,1,146.249993305207
34,289,88713,1,0,0:0:0:0:
69,175,88863,1,0,0:0:0:0:
69,175,88938,1,0,0:0:0:0:
69,175,89013,1,0,0:0:0:0:
169,179,89163,5,0,0:0:0:0:
87,91,89313,1,0,0:0:0:0:
87,91,89388,1,0,0:0:0:0:
87,91,89463,1,0,0:0:0:0:
135,9,89613,1,0,0:0:0:0:
135,9,89763,1,0,0:0:0:0:
207,116,89913,6,0,B|160:84|160:84|208:51,1,112.5
273,81,90213,6,0,B|284:101|284:101|279:126,3,33.7499989700318
351,180,90513,6,0,B|339:199|339:199|306:208,3,41.2500012588501
295,313,90813,6,0,B|272:312|272:312|239:279,3,48.7499977684022
196,185,91113,6,0,L|178:342,1,146.249993305207
178,364,91413,1,0,0:0:0:0:
256,259,91563,2,0,P|187:233|116:247,1,146.249993305207
85,265,91863,1,0,0:0:0:0:
34,310,92013,1,0,0:0:0:0:
57,374,92163,1,0,0:0:0:0:
76,237,92313,6,0,P|142:206|219:215,1,146.249993305207
237,238,92613,2,0,P|165:225|121:164,1,146.249993305207
122,135,92913,2,0,P|172:188|148:253,1,146.249993305207
84,271,93213,1,0,0:0:0:0:
84,271,93513,6,0,P|140:256|113:308,1,146.249993305207
46,333,93813,1,0,0:0:0:0:
91,227,93963,2,0,P|155:243|128:328,1,146.249993305207
108,378,94263,1,0,0:0:0:0:
154,252,94413,6,0,L|239:193,1,75
297,311,94713,2,0,L|203:266,1,75
283,150,95013,2,0,L|291:253,1,75
154,252,95313,1,0,0:0:0:0:
214,208,95463,1,0,0:0:0:0:
290,225,95613,1,0,0:0:0:0:
263,365,95763,5,0,0:0:0:0:
263,365,95838,1,0,0:0:0:0:
263,365,95913,2,0,L|211:196,1,146.249993305207
211,193,96213,1,0,0:0:0:0:
166,308,96363,2,0,P|239:309|300:271,1,146.249993305207
320,244,96663,1,0,0:0:0:0:
337,178,96813,1,0,0:0:0:0:
272,159,96963,1,0,0:0:0:0:
392,228,97113,2,0,B|407:180|407:180|418:60,1,146.249993305207
445,68,97413,2,0,B|441:117|441:117|490:219,1,146.249993305207
468,235,97713,2,0,B|445:190|445:190|336:151,1,146.249993305207
342,125,98013,2,0,B|389:140|389:140|472:64,1,146.249993305207
473,70,98313,5,0,0:0:0:0:
420,155,98463,1,0,0:0:0:0:
420,155,98763,5,0,0:0:0:0:
473,70,98913,1,0,0:0:0:0:
473,70,99213,5,0,0:0:0:0:
420,155,99363,1,0,0:0:0:0:
420,155,99663,5,0,0:0:0:0:
473,70,99813,2,0,L|460:94,3,18.75
458,98,100113,1,0,0:0:0:0:
372,47,100263,1,0,0:0:0:0:
298,221,100713,5,0,0:0:0:0:
345,132,100863,1,0,0:0:0:0:
345,132,101163,5,0,0:0:0:0:
298,221,101313,1,0,0:0:0:0:
298,221,101613,5,0,0:0:0:0:
345,132,101763,1,0,0:0:0:0:
345,132,102063,5,0,0:0:0:0:
298,221,102213,2,0,L|312:197,3,18.75
314,194,102513,1,0,0:0:0:0:
227,145,102663,1,0,0:0:0:0:
170,220,102813,6,0,L|148:249,3,18.75
153,247,103113,2,0,L|123:288,1,37.5
88,352,103413,1,0,0:0:0:0:
121,246,103563,2,0,L|87:295,1,44.999998626709
50,357,103863,1,0,0:0:0:0:
91,244,104013,2,0,L|53:300,1,52.4999983978272
18,361,104313,1,0,0:0:0:0:
95,282,104463,6,0,L|135:219,1,60
171,154,104763,1,0,0:0:0:0:
130,277,104913,2,0,L|177:205,1,67.4999979400635
212,146,105213,1,0,0:0:0:0:
90,173,105363,5,0,0:0:0:0:
60,180,105513,1,0,0:0:0:0:
32,185,105663,1,0,0:0:0:0:
28,5,105813,5,0,0:0:0:0:
28,5,105963,1,0,0:0:0:0:
