osu file format v14

[General]
AudioFilename: audio.mp3
AudioLeadIn: 0
PreviewTime: 81340
Countdown: 0
SampleSet: Soft
StackLeniency: 0.7
Mode: 0
LetterboxInBreaks: 0
WidescreenStoryboard: 1

[Editor]
Bookmarks: 12490,85352
DistanceSpacing: 3.3
BeatDivisor: 4
GridSize: 4
TimelineZoom: 2.6

[Metadata]
Title:Lilieze to Enryuu Laevateinn
TitleUnicode:リリーゼと炎龍レーヴァテイン
Artist:Kuroneko Dungeon
ArtistUnicode:黒猫ダンジョン
Creator:sYreNn
Version:Alpaca's Insane
Source:REFLEC BEAT colette -Summer-
Tags:zektbach beatmania iidx 22 pendual tomosuke funaki oldstyle gamemusic beatstream アニムトライヴ pop'n music うさぎと猫と少年の夢 maya takamura 高村真耶 video game little shifu touka enkypton cloudsplash16 GAO HAO MyLonelyAlpaca Doug China AJiSAI
BeatmapID:2345288
BeatmapSetID:596926

[Difficulty]
HPDrainRate:5
CircleSize:3.2
OverallDifficulty:8
ApproachRate:9.2
SliderMultiplier:1.6
SliderTickRate:1

[Events]
//Background and Video events
0,0,"0PToNdx.jpg",0,0
//Break Periods
//Storyboard Layer 0 (Background)
//Storyboard Layer 1 (Fail)
//Storyboard Layer 2 (Pass)
//Storyboard Layer 3 (Foreground)
//Storyboard Layer 4 (Overlay)
//Storyboard Sound Samples

[TimingPoints]
513,300,4,2,0,50,1,0
10090,-133.333333333333,4,2,0,50,0,0
19690,-100,4,2,0,50,0,0
29290,-125,4,2,0,50,0,0
34690,300,4,1,0,50,1,0
34690,-100,4,1,0,50,0,0
53890,-86.9565217391304,4,1,0,50,0,0
73090,-111.111111111111,4,1,0,50,0,0
81490,-83.3333333333333,4,1,0,50,0,1
98290,-83.3333333333333,4,1,0,50,0,0

[Colours]
Combo1 : 128,0,0
Combo2 : 225,0,5
Combo3 : 225,73,0
Combo4 : 198,198,0

[HitObjects]
63,296,513,5,0,0:0:0:0:
63,296,588,1,0,0:0:0:0:
63,296,663,2,0,L|64:238,1,40
162,167,813,2,0,L|163:225,1,40
70,171,963,5,0,0:0:0:0:
70,171,1038,1,0,0:0:0:0:
70,171,1113,2,0,L|12:163,1,40
161,295,1263,2,0,L|219:287,1,40
162,167,1413,5,0,0:0:0:0:
160,127,1488,1,0,0:0:0:0:
139,93,1563,1,0,0:0:0:0:
104,75,1638,1,0,0:0:0:0:
59,83,1713,6,0,B|38:88|38:88|46:153,1,80
168,15,2013,1,0,0:0:0:0:
168,15,2163,1,0,0:0:0:0:
282,53,2313,6,0,L|386:60,1,80
460,121,2613,1,0,0:0:0:0:
460,121,2763,1,0,0:0:0:0:
410,220,2913,6,0,P|396:281|407:321,1,80
476,367,3213,1,0,0:0:0:0:
476,367,3363,1,0,0:0:0:0:
314,312,3513,6,0,L|219:304,1,80
144,349,3813,1,0,0:0:0:0:
144,349,3963,1,0,0:0:0:0:
82,250,4113,6,0,P|69:202|81:159,1,80
148,74,4413,1,0,0:0:0:0:
148,74,4563,1,0,0:0:0:0:
213,161,4713,6,0,P|226:209|214:252,1,80
145,349,5013,1,0,0:0:0:0:
305,298,5163,1,0,0:0:0:0:
305,298,5238,1,0,0:0:0:0:
305,298,5313,6,0,L|399:294,1,80
486,346,5613,1,0,0:0:0:0:
305,298,5763,2,0,L|399:294,1,80
351,206,6063,6,0,P|306:178|259:177,1,80
172,206,6363,1,0,0:0:0:0:
351,206,6513,2,0,P|306:178|259:177,1,80
436,138,6813,6,0,L|456:229,1,80
428,336,7113,1,0,0:0:0:0:
436,138,7263,2,0,L|456:229,1,80
330,183,7563,6,0,P|316:130|326:88,1,80
399,8,7863,1,0,0:0:0:0:
330,183,8013,2,0,P|316:130|326:88,1,80
264,34,8313,6,0,L|171:41,1,80
74,97,8613,1,0,0:0:0:0:
264,34,8763,2,0,L|171:41,1,80
151,222,9063,6,0,P|174:162|168:131,1,80
74,97,9288,1,0,0:0:0:0:
74,97,9363,1,0,0:0:0:0:
235,125,9513,1,0,0:0:0:0:
111,241,9663,1,0,0:0:0:0:
165,76,9813,1,0,0:0:0:0:
261,212,9963,5,0,0:0:0:0:
261,212,10038,1,0,0:0:0:0:
261,212,10113,2,0,L|274:348,1,120.000004577637
370,264,10613,1,0,0:0:0:0:
370,264,10713,2,0,L|380:134,1,120.000004577637
461,76,11313,2,0,P|478:131|464:205,1,120.000004577637
379,144,11913,5,0,0:0:0:0:
343,126,12013,1,0,0:0:0:0:
303,125,12113,1,0,0:0:0:0:
265,136,12213,1,0,0:0:0:0:
226,146,12313,1,0,0:0:0:0:
186,147,12413,1,0,0:0:0:0:
150,135,12513,6,0,L|140:270,1,120.000004577637
29,194,13013,1,0,0:0:0:0:
29,194,13113,2,0,L|15:67,1,120.000004577637
112,67,13713,2,0,P|165:49|232:99,1,120.000004577637
298,157,14313,5,0,0:0:0:0:
300,137,14413,1,0,0:0:0:0:
302,117,14513,1,0,0:0:0:0:
304,97,14613,1,0,0:0:0:0:
306,77,14713,1,0,0:0:0:0:
308,57,14813,1,0,0:0:0:0:
311,36,14913,6,0,P|353:16|425:52,1,120.000004577637
481,163,15413,1,0,0:0:0:0:
481,163,15513,2,0,L|497:34,1,120.000004577637
367,118,16113,2,0,L|376:256,1,120.000004577637
451,295,16713,5,0,0:0:0:0:
441,316,16813,1,0,0:0:0:0:
425,334,16913,1,0,0:0:0:0:
404,346,17013,1,0,0:0:0:0:
380,350,17113,1,0,0:0:0:0:
357,346,17213,1,0,0:0:0:0:
330,333,17313,6,0,P|278:313|194:342,1,120.000004577637
128,369,17813,1,0,0:0:0:0:
128,369,17913,2,0,L|120:238,1,120.000004577637
45,172,18513,2,0,P|19:226|35:310,1,120.000004577637
120,249,19113,5,0,0:0:0:0:
121,240,19188,1,0,0:0:0:0:
122,231,19263,1,0,0:0:0:0:
123,222,19338,1,0,0:0:0:0:
124,213,19413,1,0,0:0:0:0:
126,204,19488,1,0,0:0:0:0:
127,195,19563,1,0,0:0:0:0:
128,186,19638,1,0,0:0:0:0:
132,172,19713,6,0,L|130:104,3,40
68,63,20013,2,0,P|51:113|52:121,3,40
144,103,20313,5,0,0:0:0:0:
177,82,20388,1,0,0:0:0:0:
217,82,20463,1,0,0:0:0:0:
250,104,20538,1,0,0:0:0:0:
269,142,20613,6,0,L|267:192,3,40
339,229,20913,2,0,L|328:286,3,40
237,259,21213,2,0,L|247:314,3,40
313,374,21513,5,0,0:0:0:0:
285,374,21588,1,0,0:0:0:0:
257,374,21663,1,0,0:0:0:0:
229,375,21738,1,0,0:0:0:0:
193,374,21813,6,0,L|182:328,3,40
102,293,22113,2,0,L|111:238,3,40
51,182,22413,2,0,L|76:138,3,40
146,78,22713,5,0,0:0:0:0:
180,51,22788,1,0,0:0:0:0:
223,45,22863,1,0,0:0:0:0:
264,61,22938,1,0,0:0:0:0:
296,98,23013,6,0,L|312:43,3,40
385,12,23313,2,0,P|394:56|390:69,3,40
390,147,23613,2,0,L|462:135,3,40
508,180,23913,5,0,0:0:0:0:
508,199,23988,1,0,0:0:0:0:
509,219,24063,1,0,0:0:0:0:
509,239,24138,1,0,0:0:0:0:
511,263,24213,6,0,L|510:314,3,40
422,329,24513,2,0,L|434:380,3,40
329,326,24813,2,0,L|333:279,3,40
312,190,25113,5,0,0:0:0:0:
277,157,25188,1,0,0:0:0:0:
230,147,25263,1,0,0:0:0:0:
186,163,25338,1,0,0:0:0:0:
157,203,25413,6,0,L|164:262,3,40
88,288,25713,2,0,L|85:340,3,40
3,275,26013,2,0,L|0:220,3,40
46,153,26313,5,0,0:0:0:0:
73,150,26388,1,0,0:0:0:0:
101,148,26463,1,0,0:0:0:0:
129,146,26538,1,0,0:0:0:0:
161,145,26613,6,0,L|166:93,3,40
233,41,26913,2,0,P|244:101|240:115,3,40
330,97,27213,2,0,P|326:146|324:152,3,40
250,197,27513,5,0,0:0:0:0:
245,216,27588,1,0,0:0:0:0:
242,236,27663,1,0,0:0:0:0:
243,256,27738,1,0,0:0:0:0:
250,276,27813,6,0,L|211:298,3,40
345,285,28113,2,0,L|326:338,3,40
435,241,28413,2,0,L|439:298,3,40
491,363,28713,1,0,0:0:0:0:
361,192,28863,5,0,0:0:0:0:
362,168,28938,1,0,0:0:0:0:
363,144,29013,1,0,0:0:0:0:
365,120,29088,1,0,0:0:0:0:
366,96,29163,1,0,0:0:0:0:
368,72,29238,1,0,0:0:0:0:
369,49,29313,6,0,L|294:55,1,64
219,132,29613,2,0,L|291:143,1,64
352,210,29913,2,0,P|370:171|364:123,1,64
446,249,30213,2,0,P|439:302|449:332,1,64
348,294,30513,2,0,L|272:290,1,64
169,364,30813,2,0,L|236:358,1,64
176,272,31113,2,0,P|137:262|96:276,1,64
18,356,31413,2,0,P|70:359|89:351,1,64
21,258,31713,6,0,L|12:188,1,64
100,175,32013,2,0,L|111:105,1,64
195,59,32313,2,0,P|203:117|197:144,1,64
276,188,32613,2,0,P|268:236|253:269,1,64
197,347,32913,2,0,L|282:340,1,64
112,249,33213,2,0,L|190:262,1,64
98,346,33513,5,0,0:0:0:0:
23,185,33663,1,0,0:0:0:0:
121,235,33813,1,0,0:0:0:0:
166,93,33963,1,0,0:0:0:0:
166,93,34263,5,0,0:0:0:0:
185,92,34338,1,0,0:0:0:0:
204,92,34413,1,0,0:0:0:0:
223,91,34488,1,0,0:0:0:0:
242,91,34563,1,0,0:0:0:0:
261,90,34638,1,0,0:0:0:0:
283,92,34690,6,0,P|294:140|281:184,1,80
225,257,34990,1,0,0:0:0:0:
322,332,35140,2,0,L|425:330,1,80
225,257,35440,1,0,0:0:0:0:
322,332,35590,2,0,L|425:330,1,80
225,257,35890,5,0,0:0:0:0:
213,370,36040,1,0,0:0:0:0:
303,187,36190,1,0,0:0:0:0:
109,205,36340,1,0,0:0:0:0:
101,223,36415,1,0,0:0:0:0:
98,243,36490,1,0,0:0:0:0:
98,263,36565,1,0,0:0:0:0:
102,284,36640,6,0,L|191:281,1,80
276,207,36940,1,0,0:0:0:0:
317,349,37090,1,0,0:0:0:0:
407,235,37240,1,0,0:0:0:0:
259,228,37390,5,0,0:0:0:0:
300,118,37540,2,0,P|310:60|297:14,1,80
259,228,37840,1,0,0:0:0:0:
300,118,37990,2,0,P|310:60|297:14,1,80
259,228,38290,5,0,0:0:0:0:
185,81,38440,1,0,0:0:0:0:
336,120,38590,1,0,0:0:0:0:
230,261,38740,1,0,0:0:0:0:
269,56,38890,6,0,L|279:8,3,40
363,63,39190,1,0,0:0:0:0:
364,90,39265,1,0,0:0:0:0:
365,118,39340,1,0,0:0:0:0:
366,146,39415,1,0,0:0:0:0:
369,175,39490,2,0,L|378:273,1,80
445,364,39790,5,0,0:0:0:0:
316,318,39940,2,0,P|265:307|227:325,1,80
445,364,40240,1,0,0:0:0:0:
316,318,40390,2,0,P|265:307|227:325,1,80
445,364,40690,1,0,0:0:0:0:
316,318,40840,2,0,P|265:307|227:325,1,80
132,378,41140,5,0,0:0:0:0:
132,378,41215,1,0,0:0:0:0:
132,378,41290,1,0,0:0:0:0:
105,212,41440,1,0,0:0:0:0:
193,279,41590,1,0,0:0:0:0:
208,255,41665,1,0,0:0:0:0:
215,228,41740,1,0,0:0:0:0:
214,200,41815,1,0,0:0:0:0:
203,175,41890,6,0,P|185:122|195:73,1,80
266,11,42190,1,0,0:0:0:0:
305,165,42340,1,0,0:0:0:0:
305,165,42415,1,0,0:0:0:0:
305,165,42490,2,0,P|325:113|317:79,1,80
266,11,42790,1,0,0:0:0:0:
445,82,42940,1,0,0:0:0:0:
388,214,43090,6,0,P|380:269|393:318,1,80
484,247,43390,1,0,0:0:0:0:
445,82,43540,1,0,0:0:0:0:
445,82,43615,1,0,0:0:0:0:
445,82,43690,1,0,0:0:0:0:
374,185,43840,1,0,0:0:0:0:
284,111,43990,5,0,0:0:0:0:
247,86,44065,1,0,0:0:0:0:
205,74,44140,1,0,0:0:0:0:
161,76,44215,1,0,0:0:0:0:
121,95,44290,6,0,L|111:193,1,80
158,265,44590,2,0,P|199:215|201:182,1,80
121,95,44890,2,0,L|111:193,1,80
158,265,45190,2,0,P|199:215|201:182,1,80
47,288,45490,5,0,0:0:0:0:
163,379,45640,1,0,0:0:0:0:
149,207,45790,1,0,0:0:0:0:
80,369,45940,1,0,0:0:0:0:
241,355,46090,5,0,0:0:0:0:
50,222,46240,1,0,0:0:0:0:
243,151,46390,1,0,0:0:0:0:
163,379,46540,1,0,0:0:0:0:
149,207,46690,6,0,L|145:110,1,80
254,172,46990,2,0,L|265:265,1,80
318,351,47290,5,0,0:0:0:0:
318,351,47365,1,0,0:0:0:0:
318,351,47440,1,0,0:0:0:0:
361,204,47590,1,0,0:0:0:0:
452,327,47740,1,0,0:0:0:0:
263,251,47890,6,0,P|255:185|265:153,1,80
361,204,48190,2,0,P|369:270|359:302,1,80
318,351,48415,1,0,0:0:0:0:
318,351,48490,1,0,0:0:0:0:
452,327,48640,1,0,0:0:0:0:
361,204,48790,5,0,0:0:0:0:
343,182,48865,1,0,0:0:0:0:
333,156,48940,1,0,0:0:0:0:
330,128,49015,1,0,0:0:0:0:
338,101,49090,6,0,L|257:94,1,80
154,148,49390,1,0,0:0:0:0:
154,148,49540,1,0,0:0:0:0:
57,97,49690,2,0,P|39:153|58:204,1,80
154,148,49990,2,0,P|170:105|161:64,1,80
86,9,50290,5,0,0:0:0:0:
253,68,50440,1,0,0:0:0:0:
128,159,50590,2,0,P|117:210|134:259,1,80
204,313,50815,1,0,0:0:0:0:
204,313,50890,1,0,0:0:0:0:
46,272,51040,1,0,0:0:0:0:
103,380,51190,1,0,0:0:0:0:
145,183,51340,1,0,0:0:0:0:
269,329,51490,6,0,L|365:335,1,80
496,251,51790,2,0,L|391:257,1,80
307,220,52090,1,0,0:0:0:0:
307,220,52165,1,0,0:0:0:0:
307,220,52240,1,0,0:0:0:0:
435,137,52390,1,0,0:0:0:0:
396,285,52540,1,0,0:0:0:0:
334,124,52690,6,0,P|318:80|326:35,1,80
452,143,52990,2,0,P|464:195|453:229,1,80
396,285,53215,1,0,0:0:0:0:
396,285,53290,1,0,0:0:0:0:
325,101,53440,1,0,0:0:0:0:
307,220,53590,1,0,0:0:0:0:
437,113,53740,1,0,0:0:0:0:
271,31,53890,6,0,L|167:36,1,92.0000017547608
60,109,54190,1,0,0:0:0:0:
153,4,54340,1,0,0:0:0:0:
205,133,54490,1,0,0:0:0:0:
205,155,54565,1,0,0:0:0:0:
205,178,54640,1,0,0:0:0:0:
206,201,54715,1,0,0:0:0:0:
207,223,54790,6,0,L|212:328,1,92.0000017547608
300,384,55090,1,0,0:0:0:0:
135,312,55240,1,0,0:0:0:0:
286,226,55390,1,0,0:0:0:0:
211,361,55540,1,0,0:0:0:0:
361,312,55690,5,0,0:0:0:0:
383,311,55765,1,0,0:0:0:0:
406,311,55840,1,0,0:0:0:0:
429,310,55915,1,0,0:0:0:0:
451,310,55990,2,0,L|460:243,3,46.0000008773804
394,193,56290,6,0,P|371:249|375:292,1,92.0000017547608
484,226,56590,1,0,0:0:0:0:
418,95,56740,1,0,0:0:0:0:
324,194,56890,1,0,0:0:0:0:
301,195,56965,1,0,0:0:0:0:
278,197,57040,1,0,0:0:0:0:
255,199,57115,1,0,0:0:0:0:
229,203,57190,2,0,P|201:147|210:109,1,92.0000017547608
278,34,57490,5,0,0:0:0:0:
110,98,57640,1,0,0:0:0:0:
289,119,57790,1,0,0:0:0:0:
165,17,57940,1,0,0:0:0:0:
152,175,58090,5,0,0:0:0:0:
153,197,58165,1,0,0:0:0:0:
155,220,58240,1,0,0:0:0:0:
157,243,58315,1,0,0:0:0:0:
161,269,58390,2,0,L|170:332,3,46.0000008773804
81,360,58690,6,0,L|62:247,1,92.0000017547608
122,169,58990,1,0,0:0:0:0:
184,294,59140,1,0,0:0:0:0:
243,174,59290,1,0,0:0:0:0:
243,151,59365,1,0,0:0:0:0:
244,128,59440,1,0,0:0:0:0:
245,105,59515,1,0,0:0:0:0:
247,82,59590,6,0,P|287:61|341:98,1,92.0000017547608
387,180,59890,1,0,0:0:0:0:
420,17,60040,1,0,0:0:0:0:
502,156,60190,1,0,0:0:0:0:
340,56,60340,1,0,0:0:0:0:
495,68,60490,5,0,0:0:0:0:
496,90,60565,1,0,0:0:0:0:
498,113,60640,1,0,0:0:0:0:
500,136,60715,1,0,0:0:0:0:
502,156,60790,2,0,L|508:209,3,46.0000008773804
457,297,61090,6,0,P|397:268|341:300,1,92.0000017547608
299,344,61390,1,0,0:0:0:0:
261,167,61540,1,0,0:0:0:0:
186,273,61690,1,0,0:0:0:0:
184,295,61765,1,0,0:0:0:0:
182,317,61840,1,0,0:0:0:0:
181,340,61915,1,0,0:0:0:0:
179,358,61990,6,0,L|77:348,1,92.0000017547608
25,274,62290,1,0,0:0:0:0:
176,231,62440,1,0,0:0:0:0:
55,150,62590,1,0,0:0:0:0:
141,333,62740,1,0,0:0:0:0:
201,193,62890,5,0,0:0:0:0:
201,160,62965,1,0,0:0:0:0:
201,128,63040,1,0,0:0:0:0:
201,96,63115,1,0,0:0:0:0:
201,66,63190,2,0,L|272:47,3,46.0000008773804
328,0,63490,6,0,P|348:58|332:103,1,92.0000017547608
271,149,63715,1,0,0:0:0:0:
271,149,63790,1,0,0:0:0:0:
413,106,63940,1,0,0:0:0:0:
413,106,64015,1,0,0:0:0:0:
413,106,64090,1,0,0:0:0:0:
341,248,64240,1,0,0:0:0:0:
341,248,64315,1,0,0:0:0:0:
341,248,64390,2,0,P|316:186|320:144,1,92.0000017547608
423,193,64690,5,0,0:0:0:0:
406,334,64840,1,0,0:0:0:0:
406,334,64915,1,0,0:0:0:0:
406,334,64990,2,0,L|311:326,1,92.0000017547608
208,240,65290,1,0,0:0:0:0:
208,240,65365,1,0,0:0:0:0:
208,240,65440,2,0,L|312:226,1,92.0000017547608
398,272,65740,5,0,0:0:0:0:
336,161,65890,1,0,0:0:0:0:
326,140,65965,1,0,0:0:0:0:
322,117,66040,1,0,0:0:0:0:
322,94,66115,1,0,0:0:0:0:
330,69,66190,2,0,L|388:55,3,46.0000008773804
459,96,66490,2,0,P|468:43|450:4,1,92.0000017547608
350,135,66790,2,0,P|341:188|359:227,1,92.0000017547608
424,177,67090,1,0,0:0:0:0:
273,242,67240,5,0,0:0:0:0:
250,243,67315,1,0,0:0:0:0:
227,244,67390,1,0,0:0:0:0:
204,245,67465,1,0,0:0:0:0:
177,248,67540,2,0,L|160:300,1,46.0000008773804
86,354,67690,5,0,0:0:0:0:
75,323,67765,1,0,0:0:0:0:
70,291,67840,1,0,0:0:0:0:
73,259,67915,1,0,0:0:0:0:
85,228,67990,2,0,L|94:168,3,46.0000008773804
173,112,68290,6,0,P|190:176|178:225,1,92.0000017547608
114,273,68515,1,0,0:0:0:0:
114,273,68590,1,0,0:0:0:0:
278,220,68740,1,0,0:0:0:0:
278,220,68815,1,0,0:0:0:0:
278,220,68890,1,0,0:0:0:0:
210,376,69040,5,0,0:0:0:0:
210,376,69115,1,0,0:0:0:0:
210,376,69190,1,0,0:0:0:0:
278,220,69340,2,0,B|352:195,2,46.0000008773804
114,273,69640,1,0,0:0:0:0:
114,273,69715,1,0,0:0:0:0:
114,273,69790,1,0,0:0:0:0:
173,154,69940,5,0,0:0:0:0:
184,134,70015,1,0,0:0:0:0:
190,111,70090,1,0,0:0:0:0:
191,89,70165,1,0,0:0:0:0:
187,67,70240,2,0,L|176:11,3,46.0000008773804
88,56,70540,5,0,0:0:0:0:
88,56,70615,1,0,0:0:0:0:
88,56,70690,2,0,L|75:118,3,46.0000008773804
140,175,70990,2,0,L|153:239,3,46.0000008773804
206,313,71290,5,0,0:0:0:0:
174,316,71365,1,0,0:0:0:0:
142,320,71440,1,0,0:0:0:0:
110,324,71515,1,0,0:0:0:0:
74,328,71590,2,0,L|56:274,3,46.0000008773804
108,197,71890,5,0,0:0:0:0:
134,159,71965,1,0,0:0:0:0:
140,114,72040,1,0,0:0:0:0:
125,71,72115,1,0,0:0:0:0:
87,45,72190,2,0,L|78:0,3,46.0000008773804
19,121,72490,5,0,0:0:0:0:
19,153,72565,1,0,0:0:0:0:
19,185,72640,1,0,0:0:0:0:
19,217,72715,1,0,0:0:0:0:
21,252,72790,2,0,L|23:314,3,46.0000008773804
107,178,73090,6,0,P|170:156|217:196,1,95.9999970703126
282,235,73390,2,0,L|292:118,1,95.9999970703126
353,55,73690,1,0,0:0:0:0:
353,55,74290,5,0,0:0:0:0:
353,93,74390,1,0,0:0:0:0:
353,131,74490,1,0,0:0:0:0:
353,170,74590,1,0,0:0:0:0:
353,208,74690,1,0,0:0:0:0:
353,247,74790,1,0,0:0:0:0:
352,289,74890,6,0,L|263:278,1,47.9999985351563
224,338,75090,2,0,L|199:280,1,47.9999985351563
113,277,75290,2,0,L|126:213,1,47.9999985351563
54,156,75490,1,0,0:0:0:0:
138,40,75715,1,0,0:0:0:0:
138,40,75790,2,0,P|156:98|151:145,1,95.9999970703126
113,277,76090,5,0,0:0:0:0:
141,276,76190,1,0,0:0:0:0:
170,275,76290,1,0,0:0:0:0:
199,274,76390,1,0,0:0:0:0:
228,273,76490,1,0,0:0:0:0:
256,272,76590,1,0,0:0:0:0:
282,272,76690,6,0,P|297:202|285:171,1,95.9999970703126
199,274,76990,2,0,P|183:339|199:386,1,95.9999970703126
113,277,77290,2,0,L|104:143,1,95.9999970703126
58,104,77590,1,0,0:0:0:0:
58,104,77890,6,0,P|115:84|149:32,1,95.9999970703126
223,7,78190,2,0,L|230:124,1,95.9999970703126
162,163,78490,1,0,0:0:0:0:
162,163,79090,6,0,L|281:143,1,95.9999970703126
253,236,79390,2,0,L|362:253,1,95.9999970703126
349,160,79690,1,0,0:0:0:0:
349,160,80290,5,0,0:0:0:0:
318,123,80390,1,0,0:0:0:0:
275,103,80490,1,0,0:0:0:0:
227,103,80590,1,0,0:0:0:0:
184,124,80690,1,0,0:0:0:0:
155,161,80790,1,0,0:0:0:0:
141,209,80890,2,0,L|151:265,3,35.9999989013672
203,316,81190,5,0,0:0:0:0:
246,312,81265,1,0,0:0:0:0:
289,309,81340,1,0,0:0:0:0:
332,306,81415,1,0,0:0:0:0:
374,303,81490,6,0,L|386:103,1,191.999994140625
457,15,81940,1,0,0:0:0:0:
491,200,82090,1,0,0:0:0:0:
360,84,82240,1,0,0:0:0:0:
264,194,82390,2,0,B|191:193|191:193|149:216|149:216|64:215,1,191.999994140625
122,133,82840,5,0,0:0:0:0:
224,274,82990,1,0,0:0:0:0:
50,232,83140,1,0,0:0:0:0:
135,26,83290,1,0,0:0:0:0:
268,165,83440,1,0,0:0:0:0:
49,137,83590,5,0,0:0:0:0:
49,161,83665,1,0,0:0:0:0:
49,185,83740,1,0,0:0:0:0:
49,209,83815,1,0,0:0:0:0:
50,232,83890,2,0,P|106:277|202:220,1,191.999994140625
283,146,84340,2,0,L|296:273,1,95.9999970703126
360,336,84640,1,0,0:0:0:0:
205,290,84790,6,0,P|148:271|54:354,1,191.999994140625
145,356,85240,1,0,0:0:0:0:
13,223,85390,1,0,0:0:0:0:
200,247,85540,1,0,0:0:0:0:
279,78,85690,2,0,P|291:143|272:183,1,95.9999970703126
176,114,85990,1,0,0:0:0:0:
178,90,86065,1,0,0:0:0:0:
180,66,86140,1,0,0:0:0:0:
183,42,86215,1,0,0:0:0:0:
186,17,86290,6,0,L|84:20,1,95.9999970703126
14,94,86590,1,0,0:0:0:0:
72,186,86740,2,0,P|96:247|55:365,1,191.999994140625
6,265,87190,1,0,0:0:0:0:
238,218,87340,1,0,0:0:0:0:
117,359,87490,6,0,P|107:302|117:256,1,95.9999970703126
229,125,87790,2,0,P|243:189|236:222,1,95.9999970703126
101,161,88090,2,0,L|-5:155,1,95.9999970703126
249,335,88390,2,0,L|358:332,1,95.9999970703126
455,365,88690,5,0,0:0:0:0:
387,219,88840,5,0,0:0:0:0:
375,197,88915,1,0,0:0:0:0:
372,174,88990,1,0,0:0:0:0:
375,150,89065,1,0,0:0:0:0:
390,130,89140,2,0,L|288:123,1,95.9999970703126
193,63,89440,1,0,0:0:0:0:
247,297,89590,6,0,P|261:238|253:188,1,95.9999970703126
193,63,89890,2,0,P|174:138|183:170,1,95.9999970703126
295,119,90190,1,0,0:0:0:0:
67,154,90340,1,0,0:0:0:0:
173,348,90490,5,0,0:0:0:0:
174,314,90565,1,0,0:0:0:0:
176,280,90640,1,0,0:0:0:0:
178,247,90715,1,0,0:0:0:0:
179,220,90790,2,0,L|183:153,3,47.9999985351563
260,118,91090,6,0,P|230:79|104:118,1,191.999994140625
180,159,91540,1,0,0:0:0:0:
301,23,91690,1,0,0:0:0:0:
327,232,91840,1,0,0:0:0:0:
245,90,91990,1,0,0:0:0:0:
196,245,92140,1,0,0:0:0:0:
393,163,92290,6,0,P|419:226|409:270,1,95.9999970703126
126,313,92590,2,0,P|102:250|113:207,1,95.9999970703126
245,90,92890,1,0,0:0:0:0:
245,90,92965,1,0,0:0:0:0:
245,90,93040,2,0,L|264:203,1,95.9999970703126
303,355,93340,1,0,0:0:0:0:
303,355,93415,1,0,0:0:0:0:
303,355,93490,6,0,P|237:295|137:338,1,191.999994140625
215,376,93940,1,0,0:0:0:0:
190,192,94090,1,0,0:0:0:0:
114,341,94240,1,0,0:0:0:0:
224,159,94390,2,0,L|227:29,1,95.9999970703126
319,126,94690,2,0,P|332:180|305:237,1,95.9999970703126
124,89,94990,2,0,P|108:33|125:-7,1,95.9999970703126
318,32,95290,5,0,0:0:0:0:
123,179,95440,1,0,0:0:0:0:
223,59,95590,1,0,0:0:0:0:
223,92,95665,1,0,0:0:0:0:
223,126,95740,1,0,0:0:0:0:
224,159,95815,1,0,0:0:0:0:
226,195,95890,6,0,L|329:202,1,95.9999970703126
438,229,96190,1,0,0:0:0:0:
350,301,96340,2,0,B|269:342|247:260|156:308,1,191.999994140625
210,376,96790,5,0,0:0:0:0:
73,199,96940,1,0,0:0:0:0:
105,356,97090,1,0,0:0:0:0:
208,89,97240,1,0,0:0:0:0:
186,267,97390,1,0,0:0:0:0:
53,27,97540,5,0,0:0:0:0:
53,27,97615,1,0,0:0:0:0:
53,27,97690,1,0,0:0:0:0:
73,199,97840,1,0,0:0:0:0:
73,199,97915,1,0,0:0:0:0:
73,199,97990,1,0,0:0:0:0:
208,89,98140,1,0,0:0:0:0:
208,89,98215,1,0,0:0:0:0:
208,89,98290,6,0,L|93:77,1,95.9999970703126
328,197,98740,2,0,L|234:211,1,95.9999970703126
208,89,99190,2,0,L|93:77,1,95.9999970703126
328,197,99640,2,0,L|234:211,1,95.9999970703126
122,295,99940,5,0,0:0:0:0:
122,295,100015,1,0,0:0:0:0:
122,295,100090,1,0,0:0:0:0:
84,138,100240,1,0,0:0:0:0:
196,224,100690,6,0,P|224:271|216:327,1,95.9999970703126
58,367,101140,2,0,P|27:321|35:270,1,95.9999970703126
196,224,101590,2,0,P|224:271|216:327,1,95.9999970703126
58,367,102040,2,0,P|27:321|35:270,1,95.9999970703126
122,295,102340,5,0,0:0:0:0:
122,295,102415,1,0,0:0:0:0:
122,295,102490,1,0,0:0:0:0:
84,138,102640,1,0,0:0:0:0:
196,224,102790,5,0,0:0:0:0:
219,221,102865,1,0,0:0:0:0:
243,218,102940,1,0,0:0:0:0:
267,215,103015,1,0,0:0:0:0:
291,212,103090,1,0,0:0:0:0:
419,265,103540,5,0,0:0:0:0:
377,182,103690,1,0,0:0:0:0:
377,182,103840,1,0,0:0:0:0:
419,265,103990,5,0,0:0:0:0:
459,143,104140,1,0,0:0:0:0:
459,143,104290,1,0,0:0:0:0:
419,265,104440,5,0,0:0:0:0:
358,97,104590,1,0,0:0:0:0:
358,97,104740,1,0,0:0:0:0:
419,265,104890,5,0,0:0:0:0:
466,53,105040,1,0,0:0:0:0:
466,53,105190,1,0,0:0:0:0:
419,265,105340,5,0,0:0:0:0:
353,12,105490,1,0,0:0:0:0:
353,12,105640,1,0,0:0:0:0:
196,208,105790,5,0,0:0:0:0:
419,265,105940,1,0,0:0:0:0:
