osu file format v14

[General]
AudioFilename: audio.mp3
AudioLeadIn: 0
PreviewTime: 53900
Countdown: 0
SampleSet: Soft
StackLeniency: 0.7
Mode: 0
LetterboxInBreaks: 0
WidescreenStoryboard: 1

[Editor]
Bookmarks: 1700,10100,29300,34700,44300,53900,63500,73100,81500,98300,103100
DistanceSpacing: 0.8
BeatDivisor: 3
GridSize: 4
TimelineZoom: 2

[Metadata]
Title:Lilieze to Enryuu Laevateinn
TitleUnicode:リリーゼと炎龍レーヴァテイン
Artist:Kuroneko Dungeon
ArtistUnicode:黒猫ダンジョン
Creator:mithew
Version:sdafsf' Another
Source:REFLEC BEAT colette -Summer-
Tags:beatmania IIDX 22 PENDUAL Tomosuke Funaki OLDSTYLE GAMEMUSIC BeatStream アニムトライヴ pop'n music うさぎと猫と少年の夢 plus KONAMI BEMANI sdafsf
BeatmapID:1414988
BeatmapSetID:637301

[Difficulty]
HPDrainRate:6
CircleSize:4
OverallDifficulty:8
ApproachRate:9
SliderMultiplier:1.6
SliderTickRate:1

[Events]
//Background and Video events
0,0,"36528051_p0.jpg",0,0
//Break Periods
//Storyboard Layer 0 (Background)
//Storyboard Layer 1 (Fail)
//Storyboard Layer 2 (Pass)
//Storyboard Layer 3 (Foreground)
//Storyboard Sound Samples

[TimingPoints]
500,300,4,2,1,80,1,0
500,-111.111111111111,4,2,1,80,0,0
5300,-200,4,2,1,80,0,0
6050,-166.666666666666,4,2,1,80,0,0
6800,-142.857142857143,4,2,1,80,0,0
7550,-125,4,2,1,80,0,0
8300,-111.111111111111,4,2,1,80,0,0
9050,-100,4,2,1,80,0,0
18500,-100,4,2,1,80,0,0
34700,300,4,2,1,80,1,0
35000,-80,4,2,1,80,0,0
44300,-100,4,2,1,80,0,0
53900,-80,4,2,1,80,0,1
63500,-90.9090909090909,4,2,1,80,0,0
73100,-90.9090909090909,4,2,1,80,0,0
73700,-90.9090909090909,4,2,1,80,0,0
81500,-90.9090909090909,4,2,1,80,0,1
98300,-90.9090909090909,4,2,1,80,0,0
103100,-90.9090909090909,4,2,2,80,0,0
103550,-90.9090909090909,4,2,1,80,0,0
105725,-90.9090909090909,4,2,1,5,0,0
105800,-90.9090909090909,4,2,1,80,0,0

[Colours]
Combo1 : 186,79,63
Combo2 : 245,75,75
Combo3 : 186,120,120
Combo4 : 251,0,0

[HitObjects]
41,105,500,6,0,L|36:163,3,35.9999989013672,8|8|0|0,0:0|0:0|1:0|0:0,1:1:0:0:
34,171,800,1,0,1:0:0:0:
143,192,950,2,0,L|148:250,3,35.9999989013672,8|8|0|0,0:0|0:0|1:0|0:0,1:1:0:0:
150,258,1250,1,0,1:0:0:0:
236,298,1400,1,8,0:0:0:0:
264,276,1475,1,8,0:0:0:0:
298,267,1550,1,8,0:0:0:0:
334,272,1625,1,8,0:0:0:0:
364,292,1700,6,0,L|356:215,2,71.9999978027344,4|0|0,1:0|0:0|0:0,0:0:0:0:
417,166,2150,1,8,0:0:0:0:
469,281,2300,6,0,L|476:204,2,71.9999978027344,0|0|0,0:0|0:0|0:0,0:0:0:0:
416,155,2750,1,8,0:0:0:0:
364,270,2900,6,0,L|356:193,2,71.9999978027344,0|0|0,0:0|0:0|0:0,0:0:0:0:
417,144,3350,1,8,0:0:0:0:
469,259,3500,6,0,L|476:182,1,71.9999978027344,0|0,0:0|0:0,0:0:0:0:
357,198,3800,1,8,0:0:0:0:
417,133,3950,1,0,0:0:0:0:
313,103,4100,6,0,L|227:103,1,71.9999978027344,0|0,0:0|1:0,0:0:0:0:
356,34,4400,2,0,L|442:34,2,71.9999978027344,8|0|0,0:0|0:0|1:0,0:0:0:0:
494,95,4850,1,8,0:0:0:0:
417,124,5000,1,0,1:0:0:0:
491,230,5150,1,8,0:0:0:0:
491,230,5225,1,8,0:0:0:0:
491,230,5300,6,0,L|487:275,4,40,4|0|8|0|8,1:0|1:0|0:0|1:0|0:0,0:0:0:0:
411,318,6050,6,0,L|415:367,4,47.9999985351563,0|0|8|0|8,0:0|1:0|0:0|1:0|0:0,0:0:0:0:
328,260,6800,6,0,L|332:204,4,55.9999982910157,0|0|12|0|8,0:0|1:0|0:0|1:0|0:0,0:0:0:0:
254,315,7550,6,0,L|259:378,4,64,0|0|8|0|8,0:0|1:0|0:0|1:0|0:0,0:0:0:0:
180,255,8300,6,0,L|187:173,4,71.9999978027344,0|0|8|0|8,0:0|1:0|0:0|1:0|0:0,0:0:0:0:
98,328,9050,5,0,1:0:0:0:
30,260,9200,1,8,0:0:0:0:
30,260,9275,1,8,0:0:0:0:
30,260,9350,2,0,P|19:209|31:171,1,80,8|0,0:0|1:0,0:0:0:0:
143,95,9650,1,8,0:0:0:0:
101,213,9800,1,8,0:0:0:0:
38,65,9950,1,8,0:0:0:0:
38,65,10025,1,0,0:0:0:0:
38,65,10100,6,0,P|88:80|151:65,1,106.666666666667,4|0,1:0|0:0,0:0:0:0:
175,45,10400,2,0,L|177:-15,2,53.3333333333333,8|0|0,1:2|0:0|0:0,0:0:0:0:
211,67,10700,2,0,P|261:82|321:69,1,106.666666666667,0|0,1:0|0:0,0:0:0:0:
346,44,11000,1,8,1:2:0:0:
464,96,11300,6,0,L|526:89,2,53.3333333333333,0|0|0,1:0|0:0|0:0,0:0:0:0:
390,161,11600,2,0,L|328:154,2,53.3333333333333,8|0|0,1:2|0:0|0:0,0:0:0:0:
460,230,11900,2,0,L|522:223,2,53.3333333333333,0|0|0,1:0|0:0|0:0,0:0:0:0:
374,277,12200,1,8,1:2:0:0:
334,294,12300,1,0,1:0:0:0:
291,288,12400,1,0,1:0:0:0:
252,269,12500,6,0,P|266:211|238:156,1,106.666666666667,4|0,1:0|1:0,0:0:0:0:
213,145,12800,2,0,L|214:87,2,53.3333333333333,8|0|0,1:2|0:0|1:0,0:0:0:0:
175,165,13100,2,0,P|161:223|189:278,1,106.666666666667,0|0,1:0|0:0,0:0:0:0:
212,291,13400,1,8,1:2:0:0:
374,217,13700,6,0,L|429:225,2,53.3333333333333,0|0|0,1:0|0:0|1:0,0:0:0:0:
307,163,14000,2,0,L|252:171,2,53.3333333333333,8|0|0,1:2|0:0|1:0,0:0:0:0:
374,109,14300,2,0,L|429:117,2,53.3333333333333,0|0|0,1:0|0:0|0:0,0:0:0:0:
294,50,14600,1,8,1:2:0:0:
254,65,14700,1,0,1:0:0:0:
211,65,14800,1,0,1:0:0:0:
175,42,14900,6,0,P|180:99|147:155,1,106.666666666667,4|0,1:1|0:0,1:1:0:0:
129,172,15200,2,0,L|66:171,2,53.3333333333333,8|0|0,1:2|0:0|0:0,1:1:0:0:
155,206,15500,2,0,P|175:254|169:306,1,106.666666666667,0|0,1:0|0:0,1:1:0:0:
137,334,15800,1,8,1:2:0:0:
298,351,16100,6,0,L|356:361,2,53.3333333333333,0|0|0,1:0|0:0|0:0,1:1:0:0:
222,297,16400,2,0,L|164:307,2,53.3333333333333,8|0|0,1:2|0:0|0:0,1:1:0:0:
309,254,16700,2,0,L|373:264,2,53.3333333333333,0|0|0,1:0|0:0|0:0,1:1:0:0:
220,204,17000,1,8,1:2:0:0:
200,166,17100,1,0,1:0:0:0:
198,123,17200,1,0,1:0:0:0:
214,83,17300,6,0,L|210:17,2,53.3333333333333,4|0|0,1:0|0:0|1:0,1:1:0:0:
283,147,17600,2,0,L|279:200,2,53.3333333333333,8|0|0,1:2|0:0|1:0,1:1:0:0:
342,79,17900,2,0,L|338:13,2,53.3333333333333,0|0|0,1:0|0:0|0:0,1:1:0:0:
395,151,18200,1,8,1:2:0:0:
333,229,18500,6,0,L|273:233,2,53.3333333333333,0|0|0,1:0|1:0|1:0,0:0:0:0:
419,286,18800,2,0,L|479:290,2,53.3333333333333,8|0|0,1:2|1:0|1:0,0:0:0:0:
339,347,19100,6,0,L|343:392,3,40,0|0|0|0,1:0|1:0|1:0|1:0,0:0:0:0:
245,307,19400,1,8,0:0:0:0:
208,290,19475,1,8,0:0:0:0:
169,289,19550,1,8,0:0:0:0:
132,305,19625,1,8,0:0:0:0:
105,334,19700,6,0,L|107:379,3,40,4|0|0|0,1:0|0:0|0:0|0:0,0:0:0:0:
19,263,20000,2,0,L|17:308,3,40,8|0|0|0,0:0|0:0|0:0|0:0,0:0:0:0:
105,192,20300,2,0,L|107:237,3,40,0|0|0|0,1:0|0:0|0:0|0:0,0:0:0:0:
29,133,20600,1,8,0:0:0:0:
61,109,20675,1,0,0:0:0:0:
100,101,20750,1,0,0:0:0:0:
139,109,20825,1,0,0:0:0:0:
171,132,20900,5,0,1:0:0:0:
188,142,20975,1,0,0:0:0:0:
208,146,21050,1,0,0:0:0:0:
228,145,21125,1,0,0:0:0:0:
248,137,21200,2,0,L|242:88,3,40,8|0|0|0,0:0|0:0|0:0|0:0,0:0:0:0:
322,212,21500,2,0,L|328:163,3,40,0|0|0|0,1:0|0:0|0:0|0:0,0:0:0:0:
248,287,21800,2,0,L|242:238,3,40,8|8|8|8,0:0|0:0|0:0|0:0,0:0:0:0:
372,320,22100,6,0,L|317:327,3,40,4|0|0|0,1:0|0:0|0:0|0:0,0:0:0:0:
443,267,22400,2,0,L|498:274,3,40,8|0|0|0,0:0|0:0|0:0|0:0,0:0:0:0:
359,234,22700,1,0,1:0:0:0:
335,201,22775,1,0,0:0:0:0:
327,162,22850,1,0,0:0:0:0:
335,123,22925,1,0,0:0:0:0:
358,91,23000,1,8,0:0:0:0:
368,74,23075,1,0,0:0:0:0:
372,54,23150,1,0,0:0:0:0:
371,34,23225,1,0,0:0:0:0:
363,15,23300,6,0,L|314:21,3,40,0|0|0|0,1:0|0:0|0:0|0:0,0:0:0:0:
275,92,23600,2,0,L|226:86,3,40,8|0|0|0,0:0|0:0|0:0|0:0,0:0:0:0:
187,15,23900,2,0,L|138:21,3,40,0|0|0|0,1:0|0:0|0:0|0:0,0:0:0:0:
99,92,24200,2,0,L|50:86,3,40,8|0|0|0,0:0|1:0|1:0|1:0,0:0:0:0:
175,145,24500,6,0,L|169:194,3,40,4|0|0|0,1:0|0:0|0:0|0:0,0:0:0:0:
98,233,24800,2,0,L|104:282,3,40,8|0|0|0,0:0|0:0|0:0|0:0,0:0:0:0:
187,322,25100,1,0,1:0:0:0:
213,307,25175,1,0,0:0:0:0:
242,300,25250,1,0,0:0:0:0:
271,303,25325,1,0,0:0:0:0:
299,314,25400,6,0,L|305:359,3,40,8|0|0|0,0:0|0:0|0:0|0:0,0:0:0:0:
386,256,25700,2,0,L|380:300,3,40,0|0|0|0,1:0|0:0|0:0|0:0,0:0:0:0:
299,197,26000,2,0,L|304:241,3,40,8|0|0|0,0:0|0:0|0:0|0:0,0:0:0:0:
386,138,26300,6,0,L|436:145,3,40,0|0|0|0,1:0|0:0|0:0|0:0,0:0:0:0:
237,132,26600,1,8,0:0:0:0:
219,155,26675,1,0,1:0:0:0:
211,184,26750,1,0,1:0:0:0:
214,214,26825,1,0,1:0:0:0:
228,240,26900,5,4,1:0:0:0:
248,274,26975,1,0,0:0:0:0:
254,313,27050,1,0,0:0:0:0:
245,352,27125,1,0,0:0:0:0:
221,384,27200,2,0,L|176:378,3,40,8|0|0|0,0:0|0:0|0:0|0:0,0:0:0:0:
136,306,27500,2,0,L|91:312,3,40,0|0|0|0,1:0|0:0|0:0|0:0,0:0:0:0:
26,256,27800,6,0,L|32:201,3,40,8|0|0|0,0:0|0:0|0:0|0:0,0:0:0:0:
117,187,28100,2,0,L|111:132,3,40,0|0|0|0,1:0|0:0|0:0|0:0,0:0:0:0:
171,79,28400,1,8,0:0:0:0:
204,57,28475,1,0,0:0:0:0:
243,50,28550,1,0,0:0:0:0:
282,58,28625,1,0,0:0:0:0:
316,79,28700,6,0,L|321:132,1,40,8|8,0:0|0:0,0:0:0:0:
263,231,28850,2,0,L|266:191,1,40,8|8,0:0|0:0,0:0:0:0:
366,187,29000,1,0,1:0:0:0:
385,186,29075,1,0,1:0:0:0:
405,186,29150,1,0,1:0:0:0:
425,186,29225,1,0,1:0:0:0:
447,185,29300,6,0,L|456:100,1,80,12|0,0:0|0:0,0:0:0:0:
358,22,29600,2,0,L|366:101,1,80,8|0,0:0|0:0,0:0:0:0:
333,202,29900,2,0,P|280:212|230:196,1,80,8|0,0:0|0:0,0:0:0:0:
142,137,30200,2,0,P|195:127|245:143,1,80,8|0,0:0|0:0,0:0:0:0:
253,234,30500,6,0,L|257:333,1,80,8|0,0:0|0:0,0:0:0:0:
152,370,30800,2,0,L|156:271,1,80,8|0,0:0|0:0,0:0:0:0:
265,329,31100,2,0,P|312:340|358:325,1,80,8|0,0:0|0:0,0:0:0:0:
457,269,31400,2,0,P|410:258|364:273,1,80,8|0,0:0|0:0,0:0:0:0:
265,329,31700,6,0,L|173:336,1,80,8|0,0:0|0:0,0:0:0:0:
63,256,32000,2,0,L|155:263,1,80,8|0,0:0|0:0,0:0:0:0:
240,221,32300,2,0,P|248:167|233:125,1,80,8|0,0:0|0:0,0:0:0:0:
166,32,32600,2,0,P|158:86|173:128,1,80,8|0,0:0|0:0,0:0:0:0:
262,141,32900,6,0,L|347:147,1,80,8|0,0:0|0:0,0:0:0:0:
466,76,33200,2,0,L|381:82,1,80,8|0,0:0|0:0,0:0:0:0:
326,233,33500,5,8,0:0:0:0:
432,178,33650,1,8,0:0:0:0:
305,112,33800,1,8,0:0:0:0:
318,218,33950,1,8,0:0:0:0:
331,224,34250,6,0,L|331:273,1,40,0|0,1:0|1:0,0:0:0:0:
262,331,34400,1,8,0:0:0:0:
228,309,34475,1,8,0:0:0:0:
189,300,34550,1,0,1:0:0:0:
150,307,34625,1,0,1:0:0:0:
116,326,34700,6,0,B|115:221,1,80,4|0,1:0|0:0,0:0:0:0:
46,113,35000,2,0,P|33:165|54:214,1,100,10|0,0:0|0:0,0:0:0:0:
189,222,35300,1,0,1:0:0:0:
144,93,35450,2,0,L|26:116,1,100,2|0,1:2|0:0,0:0:0:0:
115,247,35750,1,0,0:0:0:0:
220,147,35900,6,0,P|270:132|332:150,1,100,2|0,1:2|0:0,0:0:0:0:
367,239,36200,1,8,0:0:0:0:
204,232,36350,1,2,1:2:0:0:
204,232,36425,1,8,0:0:0:0:
204,232,36500,2,0,L|140:240,2,50,0|0|0,1:0|0:0|1:0,0:0:0:0:
287,284,36800,2,0,L|287:393,1,100,10|0,0:0|0:0,0:0:0:0:
433,292,37100,6,0,P|448:234|417:177,1,100,0|0,1:0|0:0,0:0:0:0:
265,145,37400,2,0,L|375:157,1,100,10|0,0:0|0:0,0:0:0:0:
423,37,37700,1,0,1:0:0:0:
274,51,37850,2,0,P|255:114|286:171,1,100,2|0,1:2|0:0,0:0:0:0:
328,258,38150,1,0,0:0:0:0:
474,247,38300,6,0,P|487:300|459:356,1,100,2|0,1:2|0:0,0:0:0:0:
340,289,38600,1,8,0:0:0:0:
458,231,38750,1,0,1:0:0:0:
397,353,38900,1,0,1:0:0:0:
364,370,38975,1,8,0:0:0:0:
327,373,39050,1,0,1:0:0:0:
292,360,39125,1,0,0:0:0:0:
266,334,39200,2,0,L|260:267,1,50,8|8,0:0|0:0,0:0:0:0:
196,180,39350,2,0,L|191:229,1,50,8|8,0:0|0:0,0:0:0:0:
164,339,39500,6,0,P|106:350|52:325,1,100,4|0,1:0|0:0,0:0:0:0:
61,160,39800,2,0,L|66:276,1,100,10|0,0:0|0:0,0:0:0:0:
189,260,40100,1,0,1:0:0:0:
153,143,40250,2,0,P|100:138|51:171,1,100,2|0,1:2|0:0,0:0:0:0:
69,289,40550,1,0,0:0:0:0:
207,250,40700,6,0,P|259:235|322:263,1,100,2|0,1:2|0:0,0:0:0:0:
364,356,41000,1,8,0:0:0:0:
258,342,41150,1,2,1:2:0:0:
258,342,41225,1,8,0:0:0:0:
258,342,41300,2,0,L|202:333,2,50,0|0|0,1:0|0:0|1:0,0:0:0:0:
354,343,41600,2,0,L|459:352,1,100,10|0,0:0|0:0,0:0:0:0:
422,179,41900,6,0,P|432:227|411:271,1,100,4|0,1:0|0:0,0:0:0:0:
354,93,42200,2,0,L|453:101,1,100,10|0,0:0|0:0,0:0:0:0:
509,216,42500,1,0,1:0:0:0:
343,185,42650,2,0,P|332:136|353:92,1,100,2|8,1:2|0:0,0:0:0:0:
441,195,42950,1,0,0:0:0:0:
316,267,43100,6,0,L|193:259,1,100,6|0,1:2|0:0,0:0:0:0:
138,160,43400,1,8,0:0:0:0:
255,170,43550,1,0,0:0:0:0:
103,239,43700,1,0,1:0:0:0:
73,215,43775,1,0,0:0:0:0:
56,182,43850,1,0,1:0:0:0:
54,145,43925,1,0,0:0:0:0:
67,110,44000,2,0,L|129:118,1,50,8|8,0:0|0:0,0:0:0:0:
255,170,44150,2,0,L|193:177,1,50,8|8,0:0|0:0,0:0:0:0:
73,215,44300,6,0,L|66:316,1,80,6|0,1:2|0:0,0:0:0:0:
156,376,44600,2,0,L|150:296,1,80,8|0,0:0|0:0,0:0:0:0:
220,247,44900,2,0,P|268:254|318:233,2,80,0|0|8,0:0|1:0|0:0,0:0:0:0:
157,184,45350,1,0,0:0:0:0:
248,90,45500,6,0,L|256:188,1,80,2|0,1:2|0:0,0:0:0:0:
335,111,45800,2,0,L|341:31,1,80,8|0,0:0|0:0,0:0:0:0:
429,40,46100,1,2,1:2:0:0:
429,40,46250,1,2,1:2:0:0:
468,116,46400,1,10,0:2:0:0:
468,116,46550,1,0,0:2:0:0:
413,194,46700,6,0,P|409:234|427:285,1,80,6|0,1:2|0:0,0:0:0:0:
491,327,47000,1,8,0:0:0:0:
491,327,47150,1,0,0:0:0:0:
401,362,47300,2,0,L|342:361,2,40,2|2|2,0:2|0:0|0:0,0:0:0:0:
285,310,47600,1,8,0:0:0:0:
285,310,47750,1,0,0:0:0:0:
217,372,47900,6,0,P|169:379|128:363,2,80,2|0|8,1:2|0:0|0:0,0:0:0:0:
181,298,48350,1,0,0:0:0:0:
143,224,48500,2,0,P|181:216|220:226,2,80,0|0|8,1:0|1:0|0:0,0:0:0:0:
61,289,48950,1,8,0:0:0:0:
61,289,49025,1,8,0:0:0:0:
61,289,49100,6,0,L|55:182,1,80,6|0,1:2|0:0,0:0:0:0:
147,144,49400,2,0,L|142:223,1,80,8|0,0:0|0:0,0:0:0:0:
211,291,49700,2,0,P|253:298|316:272,2,80,2|0|10,0:0|0:0|0:0,0:0:0:0:
249,217,50150,1,0,0:0:0:0:
303,147,50300,6,0,L|299:50,1,80,2|0,1:2|0:0,0:0:0:0:
218,0,50600,2,0,L|214:79,1,80,8|0,0:0|0:0,0:0:0:0:
137,144,50900,1,2,1:2:0:0:
137,144,51050,1,2,1:2:0:0:
50,115,51200,1,10,0:2:0:0:
50,115,51350,1,0,0:0:0:0:
20,207,51500,6,0,L|23:301,1,80,6|0,1:2|0:0,0:0:0:0:
86,352,51800,1,8,0:0:0:0:
86,352,51950,1,0,0:0:0:0:
161,295,52100,2,0,L|209:301,2,40,2|2|2,1:2|0:0|0:0,0:0:0:0:
258,376,52400,1,8,0:0:0:0:
258,376,52550,1,0,0:0:0:0:
332,331,52700,6,0,P|377:343|421:331,2,80,2|0|8,1:2|0:0|0:0,0:0:0:0:
374,260,53150,1,0,1:0:0:0:
416,188,53300,2,0,P|371:176|327:188,2,80,0|0|8,0:0|1:0|0:0,0:0:0:0:
478,268,53750,1,0,0:0:0:0:
486,139,53900,6,0,L|492:37,2,100,4|0|8,1:0|0:0|0:0,0:0:0:0:
378,0,54350,2,0,L|383:99,2,100,4|0|8,1:0|0:0|0:0,0:0:0:0:
316,163,54800,6,0,P|258:173|211:154,2,100,4|0|8,1:0|0:0|0:0,0:0:0:0:
169,82,55250,2,0,P|227:72|274:91,2,100,4|0|8,1:0|0:0|0:0,0:0:0:0:
316,163,55700,1,8,0:0:0:0:
314,200,55775,1,8,0:0:0:0:
313,237,55850,1,8,0:0:0:0:
312,275,55925,1,8,0:0:0:0:
311,312,56000,2,0,L|328:367,3,50,0|0|0|0,1:0|1:0|1:0|1:0,0:0:0:0:
235,331,56300,6,0,P|180:350|126:324,2,100,12|0|0,0:0|0:0|1:0,0:0:0:0:
87,271,56750,2,0,P|142:252|196:278,2,100,12|0|0,0:0|0:0|1:0,0:0:0:0:
211,192,57200,6,0,L|205:85,2,100,12|0|0,0:0|0:0|1:0,0:0:0:0:
109,23,57650,2,0,L|103:122,2,100,12|0|0,0:0|0:0|0:0,0:0:0:0:
208,93,58100,5,0,1:0:0:0:
239,113,58175,1,0,1:0:0:0:
275,122,58250,1,0,1:0:0:0:
312,119,58325,1,0,0:0:0:0:
346,103,58400,2,0,L|351:45,1,50,8|8,0:0|0:0,0:0:0:0:
437,0,58550,2,0,L|440:49,1,50,8|8,0:0|0:0,0:0:0:0:
450,155,58700,6,0,L|458:280,2,100,4|0|8,1:0|0:0|0:0,0:0:0:0:
348,315,59150,2,0,L|354:215,2,100,4|0|8,1:0|0:0|0:0,0:0:0:0:
267,203,59600,6,0,P|216:191|146:220,2,100,4|0|8,1:0|0:0|0:0,0:0:0:0:
120,277,60050,2,0,P|171:289|241:260,2,100,4|0|8,1:0|0:0|0:0,0:0:0:0:
184,373,60500,5,8,0:0:0:0:
146,374,60575,1,8,0:0:0:0:
109,376,60650,1,8,0:0:0:0:
71,377,60725,1,8,0:0:0:0:
34,379,60800,2,0,L|19:318,3,50,0|0|0|0,1:0|1:0|1:0|1:0,0:0:0:0:
120,278,61100,6,0,P|134:229|119:182,2,100,12|0|0,0:0|0:0|1:0,0:0:0:0:
47,142,61550,2,0,P|33:191|47:237,2,100,12|0|0,0:0|0:0|1:0,0:0:0:0:
120,278,62000,6,0,L|237:289,2,100,12|0|0,0:0|0:0|1:0,0:0:0:0:
279,188,62450,2,0,L|162:199,2,100,12|0|0,0:0|0:0|1:0,0:0:0:0:
219,287,62900,5,0,1:0:0:0:
251,305,62975,1,0,1:0:0:0:
288,311,63050,1,0,1:0:0:0:
324,302,63125,1,0,0:0:0:0:
355,281,63200,2,0,L|360:213,1,50,8|8,0:0|0:0,0:0:0:0:
446,168,63350,2,0,L|449:217,1,50,8|8,0:0|0:0,0:0:0:0:
437,338,63500,6,0,P|391:373|344:368,2,88.000002685547,4|0|8,1:0|0:0|0:0,0:0:0:0:
457,225,63950,1,0,0:0:0:0:
457,225,64025,1,0,0:0:0:0:
457,225,64100,2,0,L|450:124,1,88.000002685547,0|0,0:0|1:0,0:0:0:0:
384,70,64400,1,8,0:0:0:0:
384,70,64550,1,0,0:0:0:0:
274,195,64700,6,0,P|213:206|165:182,1,88.000002685547,0|0,1:0|0:0,0:0:0:0:
82,108,65000,2,0,P|143:97|191:121,1,88.000002685547,8|0,0:0|0:0,0:0:0:0:
189,198,65300,2,0,L|195:305,1,88.000002685547,0|0,0:0|1:0,0:0:0:0:
157,368,65600,2,0,L|101:375,3,44.0000013427735,8|0|0|0,0:0|0:0|0:0|0:0,0:0:0:0:
251,348,65900,5,0,1:0:0:0:
279,363,65975,1,0,0:0:0:0:
312,366,66050,1,0,0:0:0:0:
343,355,66125,1,0,0:0:0:0:
366,332,66200,2,0,L|360:278,3,44.0000013427735,8|0|0|0,0:0|0:0|0:0|0:0,0:0:0:0:
281,241,66500,2,0,L|287:186,3,44.0000013427735,0|0|0|0,0:0|0:0|1:0|0:0,0:0:0:0:
366,149,66800,2,0,L|359:94,3,44.0000013427735,8|0|0|0,0:0|0:0|0:0|0:0,0:0:0:0:
273,57,67100,5,0,1:0:0:0:
252,63,67175,1,0,0:0:0:0:
230,66,67250,1,0,0:0:0:0:
208,63,67325,1,0,0:0:0:0:
186,54,67400,1,8,0:0:0:0:
146,35,67475,1,0,0:0:0:0:
103,36,67550,1,0,0:0:0:0:
64,56,67625,1,0,0:0:0:0:
39,91,67700,2,0,L|45:150,3,44.0000013427735,0|0|0|0,1:0|1:0|1:0|0:0,0:0:0:0:
119,191,68000,2,0,L|113:249,3,44.0000013427735,8|8|8|8,0:0|0:0|0:0|0:0,0:0:0:0:
34,307,68300,5,0,1:0:0:0:
133,384,68450,2,0,L|130:341,2,44.0000013427735,0|0|8,0:0|0:0|0:0,0:0:0:0:
222,192,68750,2,0,L|219:236,2,44.0000013427735,0|0|0,0:0|0:0|1:0,0:0:0:0:
312,384,69050,2,0,L|309:341,2,44.0000013427735,0|0|8,1:0|0:0|0:0,0:0:0:0:
357,227,69350,1,0,0:0:0:0:
357,227,69425,1,0,0:0:0:0:
357,227,69500,6,0,L|412:233,3,44.0000013427735,0|0|0|0,1:0|0:0|0:0|0:0,0:0:0:0:
508,169,69800,2,0,L|453:175,3,44.0000013427735,8|0|0|8,0:0|0:0|0:0|0:0,0:0:0:0:
357,111,70100,2,0,L|412:117,3,44.0000013427735,0|0|0|0,0:0|0:0|1:0|0:0,0:0:0:0:
507,52,70400,2,0,L|464:57,3,44.0000013427735,8|0|0|0,0:0|0:0|0:0|0:0,0:0:0:0:
297,47,70700,5,0,1:0:0:0:
277,73,70775,1,0,0:0:0:0:
268,104,70850,1,0,0:0:0:0:
272,137,70925,1,0,0:0:0:0:
289,165,71000,2,0,L|286:218,3,44.0000013427735,8|0|0|8,0:0|0:0|0:0|0:0,0:0:0:0:
202,224,71300,2,0,L|205:276,3,44.0000013427735,0|0|0|0,0:0|0:0|0:0|0:0,0:0:0:0:
289,282,71600,2,0,L|285:334,3,44.0000013427735,8|0|0|0,0:0|0:0|0:0|0:0,0:0:0:0:
194,366,71900,5,0,1:0:0:0:
172,372,71975,1,0,0:0:0:0:
151,373,72050,1,0,0:0:0:0:
129,369,72125,1,0,0:0:0:0:
109,361,72200,1,8,0:0:0:0:
79,329,72275,1,0,0:0:0:0:
67,287,72350,1,0,0:0:0:0:
77,244,72425,1,8,0:0:0:0:
105,211,72500,2,0,L|159:218,3,44.0000013427735,0|0|0|0,0:0|0:0|1:0|0:0,0:0:0:0:
261,154,72800,2,0,L|207:160,3,44.0000013427735,8|8|8|8,0:0|0:0|0:0|0:0,0:0:0:0:
228,268,73100,6,0,P|263:310|340:311,1,117.333336914063,4|0,1:0|0:0,0:0:0:0:
396,179,73400,2,0,P|342:188|305:257,1,117.333336914063,4|0,1:0|0:0,0:0:0:0:
387,261,73700,1,4,1:0:0:0:
394,253,74300,6,0,L|470:259,2,58.6666684570313,8|8|0,0:0|0:0|1:0,0:0:0:0:
318,197,74600,2,0,L|242:203,2,58.6666684570313,0|0|0,1:0|1:0|1:0,1:1:0:0:
426,158,74900,5,12,1:2:0:0:
322,58,75100,1,12,1:2:0:0:
183,98,75300,1,12,1:2:0:0:
148,238,75500,6,0,L|168:364,1,117.333336914063,12|0,1:2|0:0,0:0:0:0:
241,233,75800,2,0,P|268:224|298:225,2,58.6666684570313,8|0|0,0:0|0:0|0:0,0:0:0:0:
246,345,76100,5,0,1:0:0:0:
292,349,76200,1,0,1:0:0:0:
338,353,76300,1,0,1:0:0:0:
374,323,76400,5,8,0:0:0:0:
420,327,76500,1,8,0:0:0:0:
466,331,76600,1,8,0:0:0:0:
504,303,76700,6,0,P|527:240|503:183,1,117.333336914063,12|0,1:2|0:0,0:0:0:0:
355,179,77000,2,0,P|398:230|463:242,1,117.333336914063,12|0,1:2|0:0,0:0:0:0:
439,99,77300,6,0,L|441:170,5,58.6666684570313,4|0|0|0|0|0,1:0|0:0|0:0|0:0|0:0|0:0,0:0:0:0:
337,89,77900,6,0,L|209:103,1,117.333336914063,12|0,1:2|0:0,0:0:0:0:
103,172,78200,2,0,L|231:186,1,117.333336914063,12|0,1:2|0:0,0:0:0:0:
119,91,78500,6,0,L|120:32,5,58.6666684570313,12|0|0|0|0|0,1:2|0:0|0:0|0:0|0:0|0:0,0:0:0:0:
78,187,79100,6,0,L|10:179,2,58.6666684570313,12|0|0,1:2|0:0|0:0,0:0:0:0:
145,267,79400,2,0,L|213:259,2,58.6666684570313,12|0|0,1:2|0:0|0:0,0:0:0:0:
58,367,79700,6,0,L|50:294,5,58.6666684570313,12|0|0|0|0|0,1:2|0:0|0:0|0:0|0:0|0:0,0:0:0:0:
146,356,80300,5,8,0:0:0:0:
192,364,80400,1,8,0:0:0:0:
237,354,80500,1,0,1:0:0:0:
254,310,80600,5,0,1:0:0:0:
299,300,80700,1,8,0:0:0:0:
345,308,80800,1,8,0:0:0:0:
376,342,80900,6,0,P|401:349|434:348,2,58.6666684570313,0|0|0,1:0|1:0|1:0,0:0:0:0:
414,268,81200,1,8,0:0:0:0:
434,242,81275,1,8,0:0:0:0:
445,211,81350,1,8,0:0:0:0:
445,178,81425,1,8,0:0:0:0:
435,147,81500,6,0,P|371:170|290:118,1,132.00000402832,4|0,1:2|0:0,0:0:0:0:
297,130,81800,1,8,0:0:0:0:
220,21,81950,2,0,B|191:-4|191:-4|183:145,1,176.000005371094,0|0,1:0|0:0,0:0:0:0:
88,208,82400,2,0,L|82:111,1,88.000002685547,8|0,0:0|0:0,0:0:0:0:
268,130,82700,6,0,P|224:122|182:133,1,88.000002685547,0|0,1:2|0:0,0:0:0:0:
186,252,83000,2,0,P|229:259|271:248,1,88.000002685547,8|0,0:0|0:0,0:0:0:0:
336,185,83300,1,0,0:0:0:0:
182,133,83450,1,0,1:0:0:0:
191,292,83600,2,0,B|195:387|195:387|231:356,1,132.00000402832,8|0,0:0|0:0,0:0:0:0:
246,344,83900,6,0,P|304:316|367:332,1,132.00000402832,4|0,1:0|0:0,0:0:0:0:
390,352,84200,1,8,0:0:0:0:
494,283,84350,2,0,L|483:102,1,176.000005371094,0|0,1:0|1:0,0:0:0:0:
301,98,84800,2,0,L|290:273,1,176.000005371094,8|0,0:0|1:0,0:0:0:0:
389,182,85250,5,0,0:0:0:0:
301,98,85400,2,0,L|195:100,2,88.000002685547,8|0|0,0:0|0:0|0:0,0:0:0:0:
394,34,85850,1,0,1:0:0:0:
281,0,86000,1,8,0:0:0:0:
221,107,86150,1,8,0:0:0:0:
221,107,86225,1,8,0:0:0:0:
221,107,86300,6,0,P|249:167|219:242,1,132.00000402832,4|0,1:0|0:0,0:0:0:0:
211,243,86600,1,8,0:0:0:0:
114,146,86750,2,0,B|81:114|81:114|88:263,1,176.000005371094,0|0,1:0|0:0,0:0:0:0:
206,330,87200,2,0,L|211:233,1,88.000002685547,8|0,0:0|0:0,0:0:0:0:
309,359,87500,6,0,P|360:367|404:352,1,88.000002685547,0|0,1:0|0:0,0:0:0:0:
394,206,87800,2,0,P|343:198|299:213,1,88.000002685547,8|0,0:0|0:0,0:0:0:0:
319,343,88100,2,0,P|370:351|414:336,1,88.000002685547,0|0,0:0|1:0,0:0:0:0:
404,190,88400,2,0,P|353:182|309:197,1,88.000002685547,8|0,0:0|0:0,0:0:0:0:
483,271,88700,5,4,1:0:0:0:
489,105,88850,1,8,0:0:0:0:
489,105,88925,1,8,0:0:0:0:
489,105,89000,1,0,1:0:0:0:
404,190,89150,2,0,B|371:227|371:227|363:76,1,176.000005371094,4|0,1:0|1:0,0:0:0:0:
488,16,89600,1,12,0:0:0:0:
487,188,89750,1,0,1:0:0:0:
364,100,89900,6,0,P|300:87|232:123,1,132.00000402832,4|0,1:0|0:0,0:0:0:0:
219,128,90200,2,0,L|228:179,3,44.0000013427735,8|0|0|0,0:0|0:0|1:0|0:0,0:0:0:0:
149,62,90500,2,0,L|156:18,3,44.0000013427735,0|0|0|0,0:0|0:0|1:0|0:0,0:0:0:0:
70,115,90800,1,8,0:0:0:0:
45,150,90875,1,8,0:0:0:0:
36,193,90950,1,8,0:0:0:0:
44,236,91025,1,8,0:0:0:0:
68,272,91100,6,0,B|108:244|108:244|201:251,1,132.00000402832,4|0,1:0|0:0,0:0:0:0:
218,255,91400,1,8,0:0:0:0:
256,361,91550,2,0,P|321:385|428:329,1,176.000005371094,0|0,1:0|0:0,0:0:0:0:
324,199,92000,2,0,P|314:252|334:304,1,88.000002685547,8|0,0:0|0:0,0:0:0:0:
431,181,92300,6,0,L|439:78,1,88.000002685547,0|0,1:0|0:0,0:0:0:0:
316,12,92600,2,0,L|322:99,1,88.000002685547,8|0,0:0|0:0,0:0:0:0:
415,194,92900,2,0,L|423:91,1,88.000002685547,0|0,0:0|1:0,0:0:0:0:
300,25,93200,2,0,L|306:112,1,88.000002685547,8|0,0:0|0:0,0:0:0:0:
259,215,93500,6,0,P|197:234|110:199,1,132.00000402832,4|0,1:0|0:0,0:0:0:0:
118,192,93800,1,8,0:0:0:0:
12,88,93950,2,0,L|2:276,1,176.000005371094,0|0,1:0|1:0,0:0:0:0:
111,383,94400,2,0,L|104:274,1,88.000002685547,8|0,0:0|0:0,0:0:0:0:
218,215,94700,6,0,P|271:207|336:236,1,88.000002685547,0|0,1:0|0:0,0:0:0:0:
406,317,95000,2,0,P|353:325|288:296,1,88.000002685547,8|0,0:0|0:0,0:0:0:0:
417,218,95300,2,0,L|481:225,3,44.0000013427735,0|0|0|0,0:0|0:0|1:0|0:0,0:0:0:0:
356,164,95600,1,8,0:0:0:0:
336,137,95675,1,8,0:0:0:0:
329,105,95750,1,0,1:0:0:0:
334,73,95825,1,0,1:0:0:0:
351,44,95900,6,0,B|318:23|318:23|201:40,1,132.00000402832,4|0,1:0|0:0,0:0:0:0:
197,42,96200,1,8,0:0:0:0:
79,134,96350,2,0,P|143:166|250:120,1,176.000005371094,0|0,1:0|0:0,0:0:0:0:
83,50,96800,2,0,P|69:102|92:152,1,88.000002685547,8|0,0:0|0:0,0:0:0:0:
151,264,97100,6,0,L|156:377,1,88.000002685547,0|0,1:0|0:0,0:0:0:0:
64,228,97400,1,8,0:0:0:0:
205,188,97550,1,0,1:0:0:0:
205,188,97625,1,0,1:0:0:0:
205,188,97700,2,0,L|306:193,1,88.000002685547,0|0,1:0|1:0,0:0:0:0:
390,260,98000,1,8,0:0:0:0:
272,304,98150,1,8,0:0:0:0:
272,304,98225,1,8,0:0:0:0:
272,304,98300,5,4,1:0:0:0:
372,162,98450,1,8,0:0:0:0:
377,143,98750,5,4,1:0:0:0:
395,278,98900,1,8,0:0:0:0:
393,287,99200,5,4,1:0:0:0:
411,152,99350,1,8,0:0:0:0:
434,160,99650,5,4,1:0:0:0:
287,122,99800,1,8,0:0:0:0:
317,208,99950,1,0,1:0:0:0:
317,208,100025,1,0,1:0:0:0:
317,208,100100,1,4,1:0:0:0:
343,52,100250,1,8,0:0:0:0:
45,146,100700,5,4,1:0:0:0:
219,152,100850,1,8,0:0:0:0:
237,159,101150,5,4,1:0:0:0:
141,63,101300,1,8,0:0:0:0:
133,60,101600,5,4,1:0:0:0:
251,126,101750,1,8,0:0:0:0:
258,103,102050,5,4,1:0:0:0:
201,244,102200,1,8,0:0:0:0:
150,168,102350,1,0,1:0:0:0:
150,168,102425,1,0,1:0:0:0:
150,168,102500,1,4,1:0:0:0:
290,241,102650,1,8,0:0:0:0:
290,241,103100,5,6,0:0:0:0:
256,192,103175,12,0,105725,0:0:0:0:
358,148,105800,5,12,1:2:0:0:
341,286,105950,1,12,1:2:0:0:
