osu file format v14

[General]
AudioFilename: audio.mp3
AudioLeadIn: 0
PreviewTime: 53900
Countdown: 0
SampleSet: Soft
StackLeniency: 0.7
Mode: 0
LetterboxInBreaks: 0
WidescreenStoryboard: 1

[Editor]
Bookmarks: 1700,10100,29300,34700,44300,53900,63500,73100,81500,98300,103100
DistanceSpacing: 0.1
BeatDivisor: 4
GridSize: 4
TimelineZoom: 2.799999

[Metadata]
Title:Lilieze to Enryuu Laevateinn
TitleUnicode:リリーゼと炎龍レーヴァテイン
Artist:Kuroneko Dungeon
ArtistUnicode:黒猫ダンジョン
Creator:mithew
Version:Helheimsk
Source:REFLEC BEAT colette -Summer-
Tags:beatmania IIDX 22 PENDUAL Tomosuke Funaki OLDSTYLE GAMEMUSIC BeatStream アニムトライヴ pop'n music うさぎと猫と少年の夢 plus KONAMI BEMANI sdafsf
BeatmapID:1352072
BeatmapSetID:637301

[Difficulty]
HPDrainRate:6
CircleSize:4
OverallDifficulty:9
ApproachRate:9.6
SliderMultiplier:2.1
SliderTickRate:1

[Events]
//Background and Video events
0,0,"36528051_p0.jpg",0,0
//Break Periods
//Storyboard Layer 0 (Background)
//Storyboard Layer 1 (Fail)
//Storyboard Layer 2 (Pass)
//Storyboard Layer 3 (Foreground)
//Storyboard Sound Samples

[TimingPoints]
500,300,4,2,1,70,1,0
500,-111.111111111111,4,2,1,70,0,0
10700,-400,4,2,1,70,0,0
11300,-111.111111111111,4,2,1,70,0,0
11900,-400,4,2,1,70,0,0
12500,-100,4,2,1,70,0,0
13100,-400,4,2,1,70,0,0
13700,-100,4,2,1,70,0,0
14299,-200,4,2,1,70,0,0
14900,-90.9090909090909,4,2,1,70,0,0
15500,-400,4,2,1,70,0,0
16100,-90.9090909090909,4,2,1,70,0,0
16700,-400,4,2,1,70,0,0
17000,-90.9090909090909,4,2,1,70,0,0
17300,-100,4,2,1,70,0,0
17900,-400,4,2,1,70,0,0
18500,-100,4,2,1,70,0,0
20300,-133.333333333333,4,2,1,70,0,0
20600,-117.647058823529,4,2,1,70,0,0
20900,-90.9090909090909,4,2,1,70,0,0
21500,-200,4,2,1,70,0,0
22100,-133.333333333333,4,2,1,70,0,0
22700,-90.9090909090909,4,2,1,70,0,0
23900,-200,4,2,1,70,0,0
24500,-133.333333333333,4,2,1,70,0,0
25100,-90.9090909090909,4,2,1,70,0,0
25700,-200,4,2,1,70,0,0
26300,-133.333333333333,4,2,1,70,0,0
26600,-100,4,2,1,70,0,0
26900,-90.9090909090909,4,2,1,70,0,0
27500,-200,4,2,1,70,0,0
28100,-133.333333333333,4,2,1,70,0,0
28700,-200,4,2,1,70,0,0
34400,-133.333333333333,4,2,1,70,0,0
34700,300,4,2,1,70,1,0
35000,-80,4,2,1,70,0,0
44300,-100,4,2,1,70,0,0
53900,-80,4,2,1,70,0,1
54200,-100,4,2,1,70,0,1
63500,-90.9090909090909,4,2,1,70,0,0
65300,-133.333333333333,4,2,1,70,0,0
65600,-100,4,2,1,70,0,0
65900,-111.111111111111,4,2,1,70,0,0
67400,-90.9090909090909,4,2,1,70,0,0
70025,-133.333333333333,4,2,1,70,0,0
70400,-100,4,2,1,70,0,0
70700,-90.9090909090909,4,2,1,70,0,0
72575,-66.6666666666667,4,2,1,70,0,0
72800,-66.6666666666667,4,2,1,70,0,0
73100,-90.9090909090909,4,2,1,70,0,0
73700,-90.9090909090909,4,2,1,70,0,0
81500,-90.9090909090909,4,2,1,70,0,1
81725,-90.9090909090909,4,2,1,5,0,1
81800,-90.9090909090909,4,2,1,70,0,1
82925,-90.9090909090909,4,2,1,5,0,1
83000,-90.9090909090909,4,2,1,70,0,1
83225,-90.9090909090909,4,2,1,5,0,1
83300,-90.9090909090909,4,2,1,70,0,1
83525,-90.9090909090909,4,2,1,5,0,1
83600,-90.9090909090909,4,2,1,70,0,1
83825,-90.9090909090909,4,2,1,5,0,1
83900,-90.9090909090909,4,2,1,70,0,1
85025,-90.9090909090909,4,2,1,5,0,1
85100,-90.9090909090909,4,2,1,70,0,1
86525,-90.9090909090909,4,2,1,5,0,1
86600,-90.9090909090909,4,2,1,70,0,1
87725,-90.9090909090909,4,2,1,5,0,1
87800,-90.9090909090909,4,2,1,70,0,1
88025,-90.9090909090909,4,2,1,5,0,1
88100,-90.9090909090909,4,2,1,70,0,1
88325,-90.9090909090909,4,2,1,5,0,1
88400,-90.9090909090909,4,2,1,70,0,1
88625,-90.9090909090909,4,2,1,5,0,1
88700,-90.9090909090909,4,2,1,70,0,1
91325,-90.9090909090909,4,2,1,5,0,1
91400,-90.9090909090909,4,2,1,70,0,1
92525,-90.9090909090909,4,2,1,5,0,1
92600,-90.9090909090909,4,2,1,70,0,1
92825,-90.9090909090909,4,2,1,5,0,1
92900,-90.9090909090909,4,2,1,70,0,1
93125,-90.9090909090909,4,2,1,5,0,1
93200,-90.9090909090909,4,2,1,70,0,1
93425,-90.9090909090909,4,2,1,5,0,1
93500,-90.9090909090909,4,2,1,70,0,1
94625,-90.9090909090909,4,2,1,5,0,1
94700,-90.9090909090909,4,2,1,70,0,1
96125,-90.9090909090909,4,2,1,5,0,1
96200,-90.9090909090909,4,2,1,70,0,1
97325,-90.9090909090909,4,2,1,5,0,1
97400,-90.9090909090909,4,2,1,70,0,1
97625,-90.9090909090909,4,2,1,5,0,1
97700,-90.9090909090909,4,2,1,70,0,1
97925,-90.9090909090909,4,2,1,5,0,1
98000,-90.9090909090909,4,2,1,70,0,1
98225,-90.9090909090909,4,2,1,5,0,1
98300,-90.9090909090909,4,2,1,70,0,0
103100,-90.9090909090909,4,2,2,70,0,0
103550,-90.9090909090909,4,2,1,70,0,0

[Colours]
Combo1 : 186,79,63
Combo2 : 245,75,75
Combo3 : 186,120,120
Combo4 : 251,0,0

[HitObjects]
131,36,500,5,8,0:0:0:0:
90,60,575,1,8,0:0:0:0:
68,101,650,1,0,1:0:0:0:
69,148,725,1,0,1:0:0:0:
93,188,800,2,0,P|112:210|140:227,1,47.2499985580445,0|0,1:0|1:0,1:0:0:0:
338,135,950,5,8,0:0:0:0:
313,94,1025,1,8,0:0:0:0:
272,72,1100,1,0,1:0:0:0:
225,73,1175,1,0,1:0:0:0:
185,97,1250,2,0,P|167:109|145:142,1,47.2499985580445,0|0,1:0|1:0,1:0:0:0:
410,0,1400,5,8,0:0:0:0:
409,47,1475,1,8,0:0:0:0:
409,94,1550,1,8,0:0:0:0:
409,142,1625,1,8,0:0:0:0:
409,189,1700,6,0,L|409:284,1,94.499997116089,4|0,1:2|0:0,0:0:0:0:
252,149,2000,1,0,0:0:0:0:
409,94,2150,1,8,0:0:0:0:
160,116,2300,5,0,0:0:0:0:
252,149,2450,1,0,0:0:0:0:
178,213,2600,1,0,0:0:0:0:
326,85,2750,1,8,0:0:0:0:
67,84,2900,5,0,0:0:0:0:
86,181,3050,1,0,0:0:0:0:
67,278,3200,1,0,0:0:0:0:
265,146,3350,5,8,0:0:0:0:
150,105,3500,1,0,0:0:0:0:
173,226,3650,1,0,0:0:0:0:
296,138,3800,5,8,0:0:0:0:
196,68,3950,1,0,0:0:0:0:
176,311,4100,5,0,0:0:0:0:
276,242,4250,1,0,1:0:0:0:
67,278,4400,1,8,0:0:0:0:
285,363,4550,5,0,0:0:0:0:
185,294,4700,1,0,1:0:0:0:
394,330,4850,1,8,0:0:0:0:
150,201,5000,5,0,1:0:0:0:
412,184,5150,1,8,0:0:0:0:
412,184,5225,1,8,0:0:0:0:
412,184,5300,5,4,1:2:0:0:
274,111,5450,1,0,1:0:0:0:
280,268,5600,1,8,0:0:0:0:
364,107,5750,1,0,1:0:0:0:
231,191,5900,1,8,0:0:0:0:
503,179,6050,5,0,0:0:0:0:
322,187,6200,1,0,1:0:0:0:
420,340,6350,1,8,0:0:0:0:
364,107,6500,1,0,1:0:0:0:
280,268,6650,1,8,0:0:0:0:
106,74,6800,5,0,0:0:0:0:
322,187,6950,1,0,1:0:0:0:
322,187,7025,1,0,1:0:0:0:
322,187,7100,1,12,0:0:0:0:
116,317,7250,1,0,1:0:0:0:
246,68,7400,1,8,0:0:0:0:
420,340,7550,5,0,0:0:0:0:
110,228,7700,1,0,1:0:0:0:
433,169,7850,1,8,0:0:0:0:
194,44,8000,1,0,1:0:0:0:
208,338,8150,1,8,0:0:0:0:
406,39,8300,5,0,0:0:0:0:
130,123,8450,1,0,1:0:0:0:
385,259,8600,1,8,0:0:0:0:
234,0,8750,1,0,1:0:0:0:
213,262,8900,1,8,0:0:0:0:
453,52,9050,5,0,1:0:0:0:
72,16,9200,1,8,0:0:0:0:
72,16,9275,1,8,0:0:0:0:
72,16,9350,1,8,0:0:0:0:
232,364,9500,1,0,1:0:0:0:
272,0,9650,1,8,0:0:0:0:
50,311,9800,1,8,0:0:0:0:
431,347,9950,1,8,0:0:0:0:
83,81,10100,6,0,P|33:118|21:179,1,125.999996154785,4|0,1:0|1:0,0:0:0:0:
203,226,10400,2,0,P|165:176|105:165,1,125.999996154785,8|0,1:2|1:0,0:0:0:0:
110,274,10700,2,0,L|92:304,1,35,0|0,1:0|1:0,0:0:0:0:
105,165,11000,1,8,1:2:0:0:
429,81,11300,6,0,P|479:118|491:179,1,125.999996154785,0|0,1:0|1:0,0:0:0:0:
309,226,11600,2,0,P|347:176|407:165,1,125.999996154785,8|0,1:2|1:0,0:0:0:0:
402,274,11900,2,0,L|420:304,1,35,0|0,1:0|1:0,0:0:0:0:
423,104,12200,5,8,1:2:0:0:
346,107,12300,5,0,1:0:0:0:
282,148,12400,5,0,1:0:0:0:
167,183,12500,6,0,P|98:181|50:229,1,140,4|0,1:0|1:0,0:0:0:0:
130,261,12800,2,0,P|198:263|246:215,1,140,8|0,1:2|1:0,0:0:0:0:
62,314,13100,2,0,L|43:360,1,35,0|0,1:0|1:0,0:0:0:0:
50,229,13400,1,8,1:2:0:0:
345,183,13700,6,0,P|413:181|461:229,1,140,0|0,1:0|1:0,0:0:0:0:
381,261,14000,2,0,P|313:263|265:215,1,140,8|0,1:2|1:0,0:0:0:0:
450,314,14300,2,0,L|469:360,2,35,0|0|0,1:0|1:0|1:0,0:0:0:0:
345,183,14600,5,8,1:2:0:0:
290,132,14700,5,0,1:0:0:0:
216,143,14800,5,0,1:0:0:0:
240,297,14900,6,0,P|168:319|108:276,1,154.000004699707,4|0,1:0|1:0,1:0:0:0:
345,183,15200,2,0,P|388:243|366:314,1,154.000004699707,8|0,1:2|1:0,1:0:0:0:
187,211,15500,2,0,L|180:245,1,35,0|0,1:0|1:0,1:0:0:0:
366,314,15800,1,8,1:2:0:0:
240,86,16100,6,0,P|165:65|103:122,1,154.000004699707,0|0,1:0|1:0,1:0:0:0:
345,201,16400,2,0,P|388:140|366:69,1,154.000004699707,8|0,1:2|1:0,1:0:0:0:
180,138,16700,2,0,L|187:173,1,35,0|0,1:0|1:0,1:0:0:0:
366,69,17000,5,8,1:2:0:0:
387,140,17100,5,0,1:0:0:0:
345,200,17200,5,0,1:0:0:0:
245,265,17300,6,0,P|177:258|119:300,1,140,4|0,1:0|1:0,1:0:0:0:
345,200,17600,2,0,P|401:239|469:232,1,140,8|0,1:2|1:0,1:0:0:0:
239,179,17900,2,0,L|238:145,1,35,0|0,1:0|1:0,1:0:0:0:
250,348,18200,1,8,1:2:0:0:
134,110,18500,5,0,1:0:0:0:
187,56,18600,5,0,1:0:0:0:
262,47,18700,5,0,1:0:0:0:
325,88,18800,5,8,1:2:0:0:
349,159,18900,5,0,1:0:0:0:
323,230,19000,5,0,1:0:0:0:
258,269,19100,6,0,P|225:281|202:309,3,52.5,0|0|0|0,1:0|1:0|1:0|1:0,0:0:0:0:
421,235,19400,1,8,0:0:0:0:
421,235,19475,1,8,0:0:0:0:
421,235,19550,1,8,0:0:0:0:
421,235,19625,1,8,0:0:0:0:
421,235,19700,6,0,L|461:311,3,52.5,4|0|0|0,1:0|0:0|0:0|0:0,0:0:0:0:
453,121,20000,2,0,L|403:105,3,52.5,8|0|0|0,0:0|0:0|0:0|0:0,0:0:0:0:
293,4,20300,5,0,1:0:0:0:
263,30,20375,1,0,0:0:0:0:
247,65,20450,1,0,0:0:0:0:
247,104,20525,1,0,0:0:0:0:
262,140,20600,1,8,0:0:0:0:
288,176,20675,1,0,0:0:0:0:
297,220,20750,1,0,0:0:0:0:
285,262,20825,1,0,0:0:0:0:
257,296,20900,5,0,1:0:0:0:
242,241,20975,1,0,0:0:0:0:
199,204,21050,1,0,0:0:0:0:
143,196,21125,1,0,0:0:0:0:
92,220,21200,1,8,0:0:0:0:
38,201,21275,1,0,0:0:0:0:
4,156,21350,1,0,0:0:0:0:
0,99,21425,1,0,0:0:0:0:
29,51,21500,5,0,1:0:0:0:
31,63,21575,1,0,0:0:0:0:
33,75,21650,1,0,0:0:0:0:
35,87,21725,1,0,0:0:0:0:
73,107,21800,5,8,0:0:0:0:
75,119,21875,1,8,0:0:0:0:
77,131,21950,1,8,0:0:0:0:
79,143,22025,1,8,0:0:0:0:
105,174,22100,5,4,1:0:0:0:
127,142,22175,1,0,0:0:0:0:
163,125,22250,1,0,0:0:0:0:
201,128,22325,1,0,0:0:0:0:
234,149,22400,1,8,0:0:0:0:
253,183,22475,1,0,0:0:0:0:
253,222,22550,1,0,0:0:0:0:
235,256,22625,1,0,0:0:0:0:
202,277,22700,5,0,1:0:0:0:
182,223,22775,1,0,0:0:0:0:
135,192,22850,1,0,0:0:0:0:
79,195,22925,1,0,0:0:0:0:
35,231,23000,1,8,0:0:0:0:
22,286,23075,1,0,0:0:0:0:
44,339,23150,1,0,0:0:0:0:
94,367,23225,1,0,0:0:0:0:
150,360,23300,5,0,1:0:0:0:
169,307,23375,1,0,0:0:0:0:
215,272,23450,1,0,0:0:0:0:
271,267,23525,1,0,0:0:0:0:
322,294,23600,1,8,0:0:0:0:
373,319,23675,1,0,0:0:0:0:
430,312,23750,1,0,0:0:0:0:
472,274,23825,1,0,0:0:0:0:
491,221,23900,5,0,1:0:0:0:
487,208,23975,1,0,0:0:0:0:
484,195,24050,1,0,0:0:0:0:
481,182,24125,1,0,0:0:0:0:
451,168,24200,5,8,0:0:0:0:
447,155,24275,1,0,1:0:0:0:
444,142,24350,1,0,1:0:0:0:
441,129,24425,1,0,1:0:0:0:
411,105,24500,5,4,1:0:0:0:
376,123,24575,1,0,0:0:0:0:
337,126,24650,1,0,0:0:0:0:
300,113,24725,1,0,0:0:0:0:
271,87,24800,1,8,0:0:0:0:
236,68,24875,1,0,0:0:0:0:
197,65,24950,1,0,0:0:0:0:
160,78,25025,1,0,0:0:0:0:
131,104,25100,5,0,1:0:0:0:
148,50,25175,1,0,0:0:0:0:
195,18,25250,1,0,0:0:0:0:
252,21,25325,1,0,0:0:0:0:
295,58,25400,1,8,0:0:0:0:
307,113,25475,1,0,0:0:0:0:
282,164,25550,1,0,0:0:0:0:
232,190,25625,1,0,0:0:0:0:
176,180,25700,5,0,1:0:0:0:
126,178,25775,1,0,0:0:0:0:
84,202,25850,1,0,0:0:0:0:
61,246,25925,1,0,0:0:0:0:
64,295,26000,5,8,0:0:0:0:
67,308,26075,1,0,0:0:0:0:
70,320,26150,1,0,0:0:0:0:
72,332,26225,1,0,0:0:0:0:
75,344,26300,5,0,1:0:0:0:
103,317,26375,1,0,0:0:0:0:
141,306,26450,1,0,0:0:0:0:
179,313,26525,1,0,0:0:0:0:
211,336,26600,1,8,0:0:0:0:
222,284,26675,1,0,1:0:0:0:
233,233,26750,1,0,1:0:0:0:
245,182,26825,1,0,1:0:0:0:
256,130,26900,5,4,1:0:0:0:
278,183,26975,1,0,0:0:0:0:
326,213,27050,1,0,0:0:0:0:
383,208,27125,1,0,0:0:0:0:
426,172,27200,1,8,0:0:0:0:
440,117,27275,1,0,0:0:0:0:
419,64,27350,1,0,0:0:0:0:
371,34,27425,1,0,0:0:0:0:
314,37,27500,5,0,1:0:0:0:
315,49,27575,1,0,0:0:0:0:
316,61,27650,1,0,0:0:0:0:
317,73,27725,1,0,0:0:0:0:
319,85,27800,1,8,0:0:0:0:
320,97,27875,1,0,0:0:0:0:
322,109,27950,1,0,0:0:0:0:
324,121,28025,1,0,0:0:0:0:
326,133,28100,5,0,1:0:0:0:
287,128,28175,1,0,0:0:0:0:
251,142,28250,1,0,0:0:0:0:
226,172,28325,1,0,0:0:0:0:
218,210,28400,1,8,0:0:0:0:
229,248,28475,1,0,0:0:0:0:
256,275,28550,1,0,0:0:0:0:
294,286,28625,1,0,0:0:0:0:
332,278,28700,5,8,0:0:0:0:
333,290,28775,1,8,0:0:0:0:
335,303,28850,1,8,0:0:0:0:
337,316,28925,1,8,0:0:0:0:
359,323,29000,5,0,1:0:0:0:
360,335,29075,1,0,1:0:0:0:
362,348,29150,1,0,1:0:0:0:
364,361,29225,1,0,1:0:0:0:
399,380,29300,5,12,0:0:0:0:
257,329,29450,1,0,0:0:0:0:
372,231,29600,5,8,0:0:0:0:
185,303,29750,1,0,0:0:0:0:
429,356,29900,5,8,0:0:0:0:
277,285,30050,1,0,0:0:0:0:
413,190,30200,5,8,0:0:0:0:
201,250,30350,1,0,0:0:0:0:
463,331,30500,5,8,0:0:0:0:
303,239,30650,1,0,0:0:0:0:
462,148,30800,5,8,0:0:0:0:
224,194,30950,1,0,0:0:0:0:
495,283,31100,5,8,0:0:0:0:
328,167,31250,1,0,0:0:0:0:
512,82,31400,5,8,0:0:0:0:
247,111,31550,1,0,0:0:0:0:
315,355,31700,5,8,0:0:0:0:
412,225,31850,1,0,0:0:0:0:
251,206,32000,5,8,0:0:0:0:
401,318,32150,1,0,0:0:0:0:
209,340,32300,5,8,0:0:0:0:
367,213,32450,1,0,0:0:0:0:
179,138,32600,5,8,0:0:0:0:
324,322,32750,1,0,0:0:0:0:
95,312,32900,5,8,0:0:0:0:
326,209,33050,1,0,0:0:0:0:
123,57,33200,5,8,0:0:0:0:
239,326,33350,1,0,0:0:0:0:
29,151,33500,5,8,0:0:0:0:
372,116,33650,1,8,0:0:0:0:
150,357,33800,1,8,0:0:0:0:
116,25,33950,1,8,0:0:0:0:
372,116,34250,5,0,1:0:0:0:
372,116,34325,1,0,1:0:0:0:
372,116,34400,5,8,0:0:0:0:
405,135,34475,1,8,0:0:0:0:
426,168,34550,1,0,1:0:0:0:
429,207,34625,1,0,1:0:0:0:
415,243,34700,6,0,P|396:297|414:349,1,105,4|0,1:0|0:0,0:0:0:0:
511,77,35000,6,0,L|379:77,1,131.25,10|0,0:0|0:0,0:0:0:0:
490,303,35300,1,0,0:0:0:0:
202,147,35450,6,0,B|206:215|206:215|189:277,1,131.25,2|8,1:2|0:0,0:0:0:0:
426,168,35750,1,0,0:0:0:0:
169,54,35900,6,0,P|120:95|113:159,1,131.25,2|0,1:2|0:0,0:0:0:0:
342,291,36200,1,8,0:0:0:0:
36,202,36350,5,2,0:0:0:0:
36,202,36425,1,0,0:0:0:0:
36,202,36500,2,0,L|23:342,1,131.25,0|0,0:0|1:0,0:0:0:0:
113,159,36800,2,0,P|52:121|-14:135,1,131.25,10|0,0:0|0:0,0:0:0:0:
399,225,37100,6,0,P|460:263|526:249,1,131.25,0|0,1:0|0:0,0:0:0:0:
240,37,37400,6,0,L|231:189,1,131.25,10|0,0:0|0:0,0:0:0:0:
483,116,37700,1,0,0:0:0:0:
121,146,37850,6,0,B|137:212|137:212|127:292,1,131.25,2|8,1:2|0:0,0:0:0:0:
362,68,38150,1,0,0:0:0:0:
44,303,38300,6,0,P|98:359|212:316,1,196.875,2|0,1:2|0:0,0:0:0:0:
218,314,38600,5,8,0:0:0:0:
234,303,38675,1,0,0:0:0:0:
253,299,38750,1,0,0:0:0:0:
272,299,38825,1,0,0:0:0:0:
296,306,38900,2,0,P|334:320|370:355,3,65.625,0|0|0|0,0:0|0:0|1:0|0:0,0:0:0:0:
458,369,39200,5,8,0:0:0:0:
459,316,39275,1,8,0:0:0:0:
460,264,39350,1,8,0:0:0:0:
461,211,39425,1,8,0:0:0:0:
462,159,39500,6,0,L|465:18,1,131.25,4|0,1:0|0:0,0:0:0:0:
331,237,39800,6,0,L|484:268,1,131.25,10|0,0:0|0:0,0:0:0:0:
212,344,40100,1,0,0:0:0:0:
325,77,40250,6,0,B|257:91|257:91|180:78,1,131.25,2|8,1:2|0:0,0:0:0:0:
462,159,40550,1,0,0:0:0:0:
131,2,40700,6,0,P|100:51|131:146,1,131.25,2|0,1:2|0:0,0:0:0:0:
57,282,41000,1,8,0:0:0:0:
323,142,41150,6,0,L|331:320,1,131.25,2|0,0:0|0:0,0:0:0:0:
45,313,41450,1,0,1:0:0:0:
410,309,41600,6,0,P|330:362|248:302,1,196.875,10|0,0:0|0:0,0:0:0:0:
207,226,41900,6,0,L|190:363,1,131.25,4|0,1:0|0:0,0:0:0:0:
409,102,42200,6,0,L|427:244,1,131.25,10|0,0:0|0:0,0:0:0:0:
217,63,42500,1,0,0:0:0:0:
495,157,42650,6,0,B|514:218|514:218|513:299,1,131.25,2|8,1:2|0:0,0:0:0:0:
314,45,42950,1,0,0:0:0:0:
427,300,43100,6,0,P|373:356|259:313,1,196.875,6|0,1:2|0:0,0:0:0:0:
253,311,43400,5,8,0:0:0:0:
237,300,43475,1,0,0:0:0:0:
218,296,43550,1,0,0:0:0:0:
199,296,43625,1,0,0:0:0:0:
175,303,43700,2,0,P|137:317|101:352,3,65.625,4|0|0|0,1:2|0:0|0:0|0:0,0:0:0:0:
13,366,44000,5,8,0:0:0:0:
12,313,44075,1,8,0:0:0:0:
11,261,44150,1,8,0:0:0:0:
10,208,44225,1,8,0:0:0:0:
9,156,44300,6,0,P|18:115|70:76,1,105,6|0,1:2|0:0,0:0:0:0:
197,177,44600,2,0,P|147:186|102:162,1,105,8|0,0:0|0:0,0:0:0:0:
259,108,44900,1,0,0:0:0:0:
228,271,45050,1,0,1:0:0:0:
102,162,45200,1,8,0:0:0:0:
290,198,45350,1,0,0:0:0:0:
156,30,45500,6,0,L|34:48,1,105,2|0,1:2|0:0,0:0:0:0:
258,107,45800,2,0,L|362:123,1,105,8|0,0:0|0:0,0:0:0:0:
141,276,46100,5,2,1:2:0:0:
328,310,46250,1,2,1:2:0:0:
362,123,46400,1,10,0:2:0:0:
175,89,46550,1,0,0:2:0:0:
459,44,46700,5,6,1:2:0:0:
258,107,46850,1,0,0:0:0:0:
328,310,47000,2,0,L|339:205,1,105,8|0,0:0|0:0,0:0:0:0:
488,353,47300,1,2,0:2:0:0:
488,353,47375,1,2,0:2:0:0:
488,353,47450,1,2,1:2:0:0:
349,128,47600,2,0,P|298:138|265:178,1,105,8|0,0:0|0:0,0:0:0:0:
140,178,47900,5,6,1:2:0:0:
339,205,48050,1,0,0:0:0:0:
140,178,48200,1,8,0:0:0:0:
234,78,48350,1,0,0:0:0:0:
204,309,48500,5,4,0:0:0:0:
144,65,48650,1,0,1:0:0:0:
385,135,48800,1,8,0:0:0:0:
385,135,48875,1,8,0:0:0:0:
385,135,48950,1,8,0:0:0:0:
385,135,49025,1,8,0:0:0:0:
385,135,49100,6,0,L|497:169,2,105,6|0|8,1:2|0:0|0:0,0:0:0:0:
413,248,49550,1,0,0:0:0:0:
308,49,49700,2,0,P|275:89|277:154,1,105,2|0,0:0|1:0,0:0:0:0:
448,339,50000,2,0,P|445:287|412:247,1,105,10|0,0:0|0:0,0:0:0:0:
175,251,50300,5,2,1:2:0:0:
356,322,50450,1,0,0:0:0:0:
92,292,50600,1,8,0:0:0:0:
284,262,50750,1,0,0:0:0:0:
33,187,50900,5,2,1:2:0:0:
67,374,51050,1,2,1:2:0:0:
254,340,51200,1,10,0:2:0:0:
220,153,51350,1,0,0:0:0:0:
15,306,51500,6,0,P|88:294|149:356,1,157.5,6|0,1:2|0:0,0:0:0:0:
188,355,51800,2,0,L|194:238,1,105,8|0,0:0|0:0,0:0:0:0:
356,322,52100,1,2,1:2:0:0:
356,322,52175,1,2,0:2:0:0:
356,322,52250,1,2,1:2:0:0:
219,152,52400,2,0,P|168:150|123:176,1,105,8|0,0:0|0:0,0:0:0:0:
67,374,52700,5,6,1:2:0:0:
251,313,52850,1,0,0:0:0:0:
107,185,53000,1,8,0:0:0:0:
24,276,53150,1,0,1:0:0:0:
145,302,53300,1,4,0:0:0:0:
76,93,53450,1,0,1:0:0:0:
75,336,53600,1,8,0:0:0:0:
286,216,53750,1,0,0:0:0:0:
30,26,53900,6,0,P|-5:97|21:154,1,131.25,4|0,1:0|0:0,0:0:0:0:
228,96,54200,1,8,0:0:0:0:
159,308,54350,5,4,1:0:0:0:
164,172,54500,2,0,L|214:204,1,52.5,8|8,0:3|0:3,0:0:0:0:
279,244,54650,1,8,0:0:0:0:
22,247,54800,5,4,1:0:0:0:
228,96,54950,1,0,0:0:0:0:
266,370,55100,1,8,0:0:0:0:
328,49,55250,5,4,1:0:0:0:
195,84,55400,1,0,0:0:0:0:
370,168,55550,1,8,0:0:0:0:
123,22,55700,5,8,0:0:0:0:
119,54,55775,1,8,0:0:0:0:
116,87,55850,1,8,0:0:0:0:
112,119,55925,1,8,0:0:0:0:
137,148,56000,5,0,1:0:0:0:
134,180,56075,1,0,1:0:0:0:
131,213,56150,1,0,1:0:0:0:
127,245,56225,1,0,1:0:0:0:
157,278,56300,5,12,0:0:0:0:
334,0,56450,1,0,0:0:0:0:
326,349,56600,1,0,1:0:0:0:
65,142,56750,5,12,0:0:0:0:
299,164,56900,2,0,L|252:207,1,52.5,0|0,1:3|1:3,0:3:0:0:
157,278,57050,1,0,1:0:0:0:
457,288,57200,5,12,0:0:0:0:
254,306,57350,1,0,0:0:0:0:
467,310,57500,1,0,1:0:0:0:
266,274,57650,1,12,0:0:0:0:
395,69,57800,5,0,0:0:0:0:
341,366,57950,1,0,1:0:0:0:
87,69,58100,5,0,1:0:0:0:
428,134,58250,1,0,1:0:0:0:
53,313,58400,5,8,0:0:0:0:
294,21,58550,1,8,0:0:0:0:
421,352,58700,5,4,1:0:0:0:
252,258,58850,1,0,0:0:0:0:
417,158,59000,1,8,0:0:0:0:
229,145,59150,5,4,1:0:0:0:
173,301,59300,2,8,L|234:291,1,52.5,8|8,0:3|0:3,0:3:0:0:
337,272,59450,1,8,0:0:0:0:
20,114,59600,5,4,1:0:0:0:
300,9,59750,1,0,0:0:0:0:
252,258,59900,1,8,0:0:0:0:
36,199,60050,5,4,1:0:0:0:
283,158,60200,1,0,0:0:0:0:
174,284,60350,1,8,0:0:0:0:
389,22,60500,5,8,0:0:0:0:
393,54,60575,1,8,0:0:0:0:
396,87,60650,1,8,0:0:0:0:
400,119,60725,1,8,0:0:0:0:
375,148,60800,5,0,1:0:0:0:
378,180,60875,1,0,1:0:0:0:
381,213,60950,1,0,1:0:0:0:
385,245,61025,1,0,1:0:0:0:
354,278,61100,5,12,0:0:0:0:
177,10,61250,1,0,0:0:0:0:
498,72,61400,1,0,1:0:0:0:
465,351,61550,5,12,0:0:0:0:
205,291,61700,2,0,L|254:253,1,52.5,0|0,1:3|1:3,1:3:0:0:
350,171,61850,1,0,1:0:0:0:
53,90,62000,5,12,0:0:0:0:
75,332,62150,1,0,0:0:0:0:
79,78,62300,1,0,1:0:0:0:
37,318,62450,1,12,0:0:0:0:
402,286,62600,5,0,0:0:0:0:
20,179,62750,1,0,1:0:0:0:
291,23,62900,5,0,1:0:0:0:
296,360,63050,1,0,1:0:0:0:
48,176,63200,5,8,0:0:0:0:
391,127,63350,1,8,0:0:0:0:
91,360,63500,6,0,L|101:229,1,115.50000352478,4|0,1:0|0:0,0:0:0:0:
99,244,63725,1,0,0:0:0:0:
99,244,63800,1,8,0:0:0:0:
210,67,63950,5,0,0:0:0:0:
209,95,64025,1,0,0:0:0:0:
208,124,64100,1,0,0:0:0:0:
330,60,64250,5,0,1:0:0:0:
329,103,64325,1,0,0:0:0:0:
328,145,64400,1,8,0:0:0:0:
449,31,64550,5,0,0:0:0:0:
447,106,64625,1,0,0:0:0:0:
445,181,64700,1,0,1:0:0:0:
210,67,64850,5,0,0:0:0:0:
210,67,64925,1,0,0:0:0:0:
210,67,65000,2,0,P|167:107|161:184,1,115.50000352478,8|0,0:0|0:0,0:0:0:0:
123,355,65300,5,0,0:0:0:0:
151,328,65375,1,0,0:0:0:0:
188,314,65450,1,0,1:0:0:0:
227,315,65525,1,0,0:0:0:0:
263,331,65600,1,8,0:0:0:0:
297,348,65675,1,0,0:0:0:0:
340,347,65750,1,0,0:0:0:0:
435,78,65900,5,0,1:0:0:0:
414,36,65975,1,0,0:0:0:0:
375,10,66050,1,0,0:0:0:0:
328,8,66125,1,0,0:0:0:0:
287,31,66200,1,8,0:0:0:0:
249,4,66275,1,0,0:0:0:0:
202,1,66350,1,0,0:0:0:0:
161,22,66425,1,0,0:0:0:0:
136,62,66500,5,0,0:0:0:0:
159,103,66575,1,0,0:0:0:0:
158,149,66650,1,0,1:0:0:0:
135,190,66725,1,0,0:0:0:0:
95,213,66800,1,8,0:0:0:0:
81,258,66875,1,0,0:0:0:0:
98,301,66950,1,0,0:0:0:0:
138,325,67025,1,0,0:0:0:0:
184,319,67100,5,0,1:0:0:0:
187,332,67175,1,0,0:0:0:0:
190,345,67250,1,0,0:0:0:0:
193,358,67325,1,0,0:0:0:0:
196,371,67400,5,8,0:0:0:0:
229,323,67475,1,0,0:0:0:0:
262,276,67550,1,0,0:0:0:0:
295,229,67625,1,8,0:0:0:0:
322,184,67700,5,0,1:0:0:0:
326,188,67775,1,0,1:0:0:0:
330,192,67850,1,0,1:0:0:0:
333,195,67925,1,0,1:0:0:0:
337,199,68000,5,8,0:0:0:0:
378,237,68075,1,8,0:0:0:0:
434,235,68150,1,8,0:0:0:0:
474,196,68225,1,8,0:0:0:0:
475,139,68300,5,4,1:0:0:0:
410,317,68450,1,0,0:0:0:0:
410,317,68525,1,0,0:0:0:0:
410,317,68600,1,8,0:0:0:0:
209,45,68750,5,0,0:0:0:0:
243,39,68825,1,0,0:0:0:0:
279,35,68900,1,0,1:0:0:0:
318,182,69050,5,0,1:0:0:0:
266,188,69125,1,0,0:0:0:0:
213,195,69200,1,8,0:0:0:0:
190,345,69350,5,0,0:0:0:0:
282,335,69425,1,0,0:0:0:0:
375,324,69500,1,0,1:0:0:0:
29,189,69650,5,0,0:0:0:0:
29,189,69725,1,0,0:0:0:0:
29,189,69800,2,0,L|25:321,1,115.50000352478,8|0,0:0|0:0,0:0:0:0:
25,304,70025,1,8,0:0:0:0:
55,279,70100,1,0,0:0:0:0:
93,268,70175,1,0,0:0:0:0:
132,272,70250,1,0,1:0:0:0:
166,291,70325,1,0,0:0:0:0:
190,322,70400,5,8,0:0:0:0:
229,357,70475,1,0,0:0:0:0:
279,368,70550,1,0,0:0:0:0:
329,354,70625,1,0,0:0:0:0:
366,318,70700,5,0,1:0:0:0:
319,288,70775,1,0,0:0:0:0:
304,233,70850,1,0,0:0:0:0:
329,183,70925,1,0,0:0:0:0:
382,162,71000,1,8,0:0:0:0:
435,141,71075,1,0,0:0:0:0:
460,91,71150,1,0,0:0:0:0:
445,36,71225,1,8,0:0:0:0:
398,6,71300,5,0,0:0:0:0:
377,59,71375,1,0,0:0:0:0:
334,97,71450,1,0,1:0:0:0:
279,110,71525,1,0,0:0:0:0:
223,97,71600,1,8,0:0:0:0:
167,83,71675,1,0,0:0:0:0:
111,97,71750,1,0,0:0:0:0:
69,135,71825,1,0,0:0:0:0:
48,188,71900,5,0,1:0:0:0:
46,199,71975,1,0,0:0:0:0:
44,210,72050,1,0,0:0:0:0:
42,221,72125,1,0,0:0:0:0:
40,232,72200,5,8,0:0:0:0:
97,179,72275,1,0,0:0:0:0:
173,170,72350,1,0,0:0:0:0:
242,207,72425,1,8,0:0:0:0:
268,258,72500,5,0,0:0:0:0:
318,285,72575,1,0,0:0:0:0:
395,294,72650,1,0,1:0:0:0:
463,257,72725,1,0,0:0:0:0:
498,188,72800,1,8,0:0:0:0:
488,111,72875,1,8,0:0:0:0:
435,54,72950,1,8,0:0:0:0:
360,37,73025,1,8,0:0:0:0:
288,67,73100,6,0,P|248:95|230:137,2,77.0000023498536,4|0|0,1:2|0:0|0:0,0:0:0:0:
94,151,73400,2,0,P|86:114|96:77,2,77.0000023498536,4|0|0,1:2|0:0|1:0,0:0:0:0:
95,336,73700,5,4,1:2:0:0:
154,288,73800,1,0,0:0:0:0:
229,273,73900,1,0,0:0:0:0:
302,295,74000,5,0,0:0:0:0:
356,349,74100,1,0,0:0:0:0:
431,364,74200,1,0,0:0:0:0:
504,342,74300,5,8,0:0:0:0:
451,287,74400,1,8,0:0:0:0:
442,212,74500,1,0,1:0:0:0:
480,147,74600,6,0,P|483:115|440:53,2,77.0000023498536,0|0|0,1:0|1:0|1:0,1:0:0:0:
293,48,74900,5,12,1:2:0:0:
219,71,75000,1,0,0:0:0:0:
316,142,75100,5,12,1:2:0:0:
238,145,75200,1,0,0:0:0:0:
313,238,75300,5,12,1:2:0:0:
237,221,75400,1,0,0:0:0:0:
279,330,75500,6,0,P|314:355|334:390,2,77.0000023498536,12|0|0,1:2|0:0|0:0,0:0:0:0:
116,336,75800,5,8,0:0:0:0:
151,268,75900,1,0,0:0:0:0:
136,194,76000,1,0,0:0:0:0:
79,145,76100,5,0,1:0:0:0:
156,145,76200,1,0,1:0:0:0:
225,112,76300,1,0,1:0:0:0:
274,53,76400,6,0,P|328:29|377:39,2,77.0000023498536,8|8|8,0:0|0:0|0:0,0:0:0:0:
408,218,76700,6,0,P|429:242|434:312,2,77.0000023498536,12|0|0,1:2|0:0|0:0,0:0:0:0:
295,300,77000,2,0,P|290:337|269:369,2,77.0000023498536,12|0|12,1:2|0:0|1:2,0:0:0:0:
167,111,77300,5,4,1:2:0:0:
92,122,77400,1,0,0:0:0:0:
40,177,77500,1,0,0:0:0:0:
33,252,77600,6,0,L|28:346,2,77.0000023498536
248,120,77900,5,12,1:2:0:0:
243,196,78000,1,0,0:0:0:0:
239,273,78100,1,0,0:0:0:0:
235,350,78200,5,12,1:2:0:0:
290,298,78300,1,0,0:0:0:0:
365,293,78400,1,0,0:0:0:0:
426,337,78500,6,0,P|459:363|505:377,2,77.0000023498536,12|0|0,1:2|0:0|0:0,0:0:0:0:
482,180,78800,2,0,P|489:143|512:112,2,77.0000023498536
315,0,79100,5,12,1:2:0:0:
311,84,79200,2,0,L|305:175,1,77.0000023498536
185,349,79400,5,12,1:2:0:0:
181,265,79500,2,0,L|175:174,1,77.0000023498536
103,0,79700,5,12,1:2:0:0:
41,43,79800,1,0,0:0:0:0:
23,117,79900,1,0,0:0:0:0:
57,184,80000,5,0,0:0:0:0:
91,251,80100,1,0,0:0:0:0:
73,325,80200,1,0,0:0:0:0:
12,369,80300,5,8,0:0:0:0:
17,342,80400,1,0,1:0:0:0:
22,315,80500,1,0,1:0:0:0:
91,251,80600,5,0,1:0:0:0:
98,291,80700,1,8,0:0:0:0:
106,332,80800,1,8,0:0:0:0:
200,369,80900,5,0,1:0:0:0:
258,320,81000,1,0,1:0:0:0:
333,311,81100,1,0,1:0:0:0:
401,345,81200,5,8,0:0:0:0:
479,288,81300,1,8,0:0:0:0:
482,191,81400,1,8,0:0:0:0:
390,116,81500,6,0,P|314:165|325:253,1,173.250005287171,4|0,1:0|0:0,0:0:0:0:
388,199,81800,1,8,0:0:0:0:
287,33,81950,2,0,L|57:57,1,231.000007049561,0|0,0:0|1:0,0:0:0:0:
241,165,82400,2,0,L|244:287,1,115.50000352478,8|0,0:0|0:0,0:0:0:0:
14,330,82700,6,0,P|67:299|176:344,1,173.250005287171,0|0,1:2|0:0,0:0:0:0:
320,334,83000,2,0,P|267:365|158:320,1,173.250005287171,8|0,0:0|0:0,0:0:0:0:
102,196,83300,6,0,L|92:368,1,173.250005287171
233,107,83600,2,0,L|243:280,1,173.250005287171,8|0,0:0|0:0,0:0:0:0:
319,76,83900,6,0,P|226:20|145:95,1,231.000007049561,4|8,1:0|0:0,0:0:0:0:
428,40,84350,2,0,B|390:154|390:154|429:276,1,231.000007049561,0|0,0:0|1:0,0:0:0:0:
305,358,84800,2,0,B|337:277|337:277|301:173,1,173.250005287171,8|0,0:0|0:0,0:0:0:0:
242,122,85100,6,0,P|215:164|232:256,1,115.50000352478,0|0,1:0|0:0,0:0:0:0:
449,365,85400,2,0,P|452:308|423:259,1,115.50000352478,8|0,0:0|0:0,0:0:0:0:
116,237,85700,2,0,L|99:363,1,115.50000352478,0|0,0:0|1:0,0:0:0:0:
32,66,86000,5,8,0:0:0:0:
63,90,86075,1,8,0:0:0:0:
102,99,86150,1,8,0:0:0:0:
141,89,86225,1,8,0:0:0:0:
172,64,86300,6,0,P|272:40|336:105,1,173.250005287171,4|0,1:0|0:0,0:0:0:0:
243,132,86600,1,8,0:0:0:0:
453,109,86750,2,0,B|398:221|398:221|429:323,1,231.000007049561,0|0,0:0|1:0,0:0:0:0:
214,308,87200,2,0,L|338:279,1,115.50000352478,8|0,0:0|0:0,0:0:0:0:
82,40,87500,6,0,B|41:116|41:116|73:213,1,173.250005287171,0|0,1:0|0:0,0:0:0:0:
54,357,87800,2,0,B|95:281|95:281|63:184,1,173.250005287171,8|0,0:0|0:0,0:0:0:0:
206,143,88100,6,0,P|123:136|67:197,1,173.250005287171
284,191,88400,2,0,P|291:107|229:51,1,173.250005287171,8|0,0:0|0:0,0:0:0:0:
203,234,88700,5,4,1:0:0:0:
378,140,88850,1,8,0:0:0:0:
371,338,89000,1,0,1:0:0:0:
263,136,89150,5,4,1:0:0:0:
431,241,89300,1,0,1:0:0:0:
256,334,89450,1,0,1:0:0:0:
334,54,89600,5,12,0:0:0:0:
128,133,89750,1,0,1:0:0:0:
464,158,89900,6,0,L|452:44,1,115.50000352478,4|0,1:0|0:0,0:0:0:0:
444,362,90200,5,8,0:0:0:0:
411,313,90275,1,0,0:0:0:0:
360,287,90350,1,0,0:0:0:0:
303,286,90425,1,0,0:0:0:0:
253,313,90500,1,0,0:0:0:0:
207,346,90575,1,0,0:0:0:0:
149,353,90650,1,0,1:0:0:0:
96,335,90725,1,0,0:0:0:0:
58,292,90800,5,8,0:0:0:0:
66,220,90875,1,8,0:0:0:0:
75,148,90950,1,8,0:0:0:0:
84,77,91025,1,8,0:0:0:0:
93,5,91100,6,0,L|274:40,1,173.250005287171,4|0,1:0|0:0,0:0:0:0:
160,114,91400,1,8,0:0:0:0:
369,56,91550,2,0,P|448:132|406:233,1,231.000007049561,0|0,0:0|1:0,0:0:0:0:
286,352,92000,2,0,L|299:235,1,115.50000352478,8|0,0:0|0:0,0:0:0:0:
14,54,92300,6,0,P|67:85|176:40,1,173.250005287171,0|0,1:0|0:0,0:0:0:0:
320,50,92600,2,0,P|267:19|158:64,1,173.250005287171,8|0,0:0|0:0,0:0:0:0:
101,191,92900,6,0,L|91:19,1,173.250005287171,0|0,1:0|0:0,0:0:0:0:
243,104,93200,2,0,L|233:277,1,173.250005287171,8|0,0:0|0:0,0:0:0:0:
48,296,93500,6,0,P|104:236|244:304,1,231.000007049561,4|8,1:0|0:0,0:0:0:0:
375,363,93950,2,0,B|406:255|406:255|363:144,1,231.000007049561,0|0,0:0|1:0,0:0:0:0:
201,45,94400,2,0,B|158:123|158:123|182:223,1,173.250005287171,8|0,0:0|0:0,0:0:0:0:
232,276,94700,6,0,L|83:288,1,115.50000352478,0|0,1:0|0:0,0:0:0:0:
363,144,95000,2,0,L|512:156,1,115.50000352478,8|0,0:0|0:0,0:0:0:0:
201,45,95300,2,0,L|85:54,1,115.50000352478,0|0,0:0|1:0,0:0:0:0:
361,4,95600,5,8,0:0:0:0:
337,35,95675,1,8,0:0:0:0:
328,74,95750,1,0,1:0:0:0:
338,113,95825,1,0,1:0:0:0:
363,144,95900,6,0,P|387:244|322:308,1,173.250005287171,4|0,1:0|0:0,0:0:0:0:
297,214,96200,1,8,0:0:0:0:
459,106,96350,6,0,B|501:210|501:210|447:340,1,231.000007049561,0|0,0:0|1:0,0:0:0:0:
205,348,96800,2,0,L|204:222,1,115.50000352478,8|0,0:0|0:0,0:0:0:0:
400,46,97100,6,0,L|215:73,1,173.250005287171,0|0,1:0|0:0,0:0:0:0:
100,95,97400,2,0,L|285:122,1,173.250005287171,8|0,0:0|0:0,0:0:0:0:
367,173,97700,6,0,L|393:345,1,173.250005287171
353,36,98000,2,0,L|326:221,1,173.250005287171,8|0,0:0|0:0,0:0:0:0:
312,340,98300,5,4,1:2:0:0:
86,299,98450,1,8,0:0:0:0:
49,307,98750,5,4,1:2:0:0:
397,277,98900,1,8,0:2:0:0:
113,139,99200,5,4,1:2:0:0:
403,102,99350,1,8,0:2:0:0:
426,130,99650,5,4,1:2:0:0:
188,64,99800,1,8,0:2:0:0:
454,215,100100,5,4,1:2:0:0:
58,169,100250,1,8,0:2:0:0:
312,44,100700,5,4,1:2:0:0:
86,85,100850,1,8,0:2:0:0:
49,77,101150,5,4,1:2:0:0:
397,107,101300,1,8,0:2:0:0:
113,245,101600,5,4,1:2:0:0:
403,282,101750,1,8,0:2:0:0:
426,254,102050,5,4,1:2:0:0:
188,320,102200,1,8,0:2:0:0:
454,169,102500,5,4,1:2:0:0:
58,215,102650,1,8,0:2:0:0:
312,205,103100,5,6,0:0:0:0:
237,140,103250,1,0,0:0:0:0:
219,237,103400,1,0,0:0:0:0:
302,140,103550,5,0,1:0:0:0:
186,181,103700,1,0,0:0:0:0:
279,261,103850,1,0,0:0:0:0:
226,111,104000,5,0,1:0:0:0:
197,262,104150,1,0,0:0:0:0:
343,211,104300,1,0,0:0:0:0:
146,173,104450,5,0,1:0:0:0:
293,300,104600,1,0,0:0:0:0:
328,111,104750,1,0,0:0:0:0:
165,301,104900,5,0,1:0:0:0:
392,221,105050,1,0,0:0:0:0:
210,64,105200,1,0,0:0:0:0:
313,360,105350,5,0,1:0:0:0:
370,65,105500,1,0,0:0:0:0:
84,164,105650,1,0,0:0:0:0:
426,230,105800,5,12,1:2:0:0:
32,82,105950,1,12,1:2:0:0:
