osu file format v14

[General]
AudioFilename: audio.mp3
AudioLeadIn: 0
PreviewTime: 53900
Countdown: 0
SampleSet: Soft
StackLeniency: 0.7
Mode: 0
LetterboxInBreaks: 0
WidescreenStoryboard: 1

[Editor]
Bookmarks: 1700,10100,29300,34700,44300,53900,63500,73100,81500,98300,103100
DistanceSpacing: 0.3
BeatDivisor: 4
GridSize: 4
TimelineZoom: 2.799999

[Metadata]
Title:Lilieze to Enryuu Laevateinn
TitleUnicode:リリーゼと炎龍レーヴァテイン
Artist:Kuroneko Dungeon
ArtistUnicode:黒猫ダンジョン
Creator:mithew
Version:Extreme
Source:REFLEC BEAT colette -Summer-
Tags:beatmania IIDX 22 PENDUAL Tomosuke Funaki OLDSTYLE GAMEMUSIC BeatStream アニムトライヴ pop'n music うさぎと猫と少年の夢 plus KONAMI BEMANI sdafsf
BeatmapID:1353908
BeatmapSetID:637301

[Difficulty]
HPDrainRate:6
CircleSize:4.2
OverallDifficulty:8.6
ApproachRate:9.4
SliderMultiplier:1.8
SliderTickRate:1

[Events]
//Background and Video events
0,0,"36528051_p0.jpg",0,0
//Break Periods
//Storyboard Layer 0 (Background)
//Storyboard Layer 1 (Fail)
//Storyboard Layer 2 (Pass)
//Storyboard Layer 3 (Foreground)
//Storyboard Sound Samples

[TimingPoints]
500,300,4,2,1,80,1,0
10100,-111.111111111111,4,2,1,80,0,0
12500,-100,4,2,1,80,0,0
13700,-100,4,2,1,80,0,0
14900,-90.9090909090909,4,2,1,80,0,0
17300,-100,4,2,1,80,0,0
19400,-100,4,2,1,80,0,0
28100,-133.333333333333,4,2,1,80,0,0
34250,-100,4,2,1,80,0,0
34700,300,4,2,1,80,1,0
34700,-90.9090909090909,4,2,1,80,0,0
44300,-100,4,2,1,80,0,0
53900,-90.9090909090909,4,2,1,80,0,1
63500,-90.9090909090909,4,2,1,80,0,0
72200,-83.3333333333333,4,2,1,80,0,0
73400,-100,4,2,1,80,0,0
73700,-100,4,2,1,80,0,0
74300,-80,4,2,1,80,0,0
75500,-100,4,2,1,80,0,0
76100,-80,4,2,1,80,0,0
79700,-100,4,2,1,80,0,0
80900,-80,4,2,1,80,0,0
81500,-80,4,2,1,80,0,1
86000,-100,4,2,1,80,0,1
91100,-80,4,2,1,80,0,1
95900,-100,4,2,1,80,0,1
98300,-100,4,2,1,80,0,0
103100,-100,4,2,2,80,0,0
103550,-100,4,2,1,80,0,0

[Colours]
Combo1 : 186,79,63
Combo2 : 245,75,75
Combo3 : 186,120,120
Combo4 : 251,0,0

[HitObjects]
423,136,500,5,8,0:0:0:0:
426,169,575,1,8,0:0:0:0:
428,203,650,1,0,1:0:0:0:
512,76,800,1,0,1:0:0:0:
325,97,950,5,8,0:0:0:0:
328,130,1025,1,8,0:0:0:0:
330,164,1100,1,0,1:0:0:0:
414,37,1250,1,0,1:0:0:0:
224,37,1400,5,8,0:0:0:0:
227,70,1475,1,8,0:0:0:0:
229,104,1550,1,8,0:0:0:0:
232,137,1625,1,8,0:0:0:0:
234,171,1700,6,0,L|244:286,1,90,4|0,1:0|0:0,0:0:0:0:
249,357,2000,1,0,1:0:0:0:
126,253,2150,1,8,0:0:0:0:
330,302,2300,5,0,0:0:0:0:
321,203,2450,1,0,0:0:0:0:
241,260,2600,1,0,1:0:0:0:
419,344,2750,1,8,0:0:0:0:
401,146,2900,5,0,0:0:0:0:
321,203,3050,1,0,0:0:0:0:
241,260,3200,1,0,1:0:0:0:
411,244,3350,5,8,0:0:0:0:
401,146,3500,1,0,0:0:0:0:
321,203,3650,1,0,1:0:0:0:
459,205,3800,5,8,0:0:0:0:
423,112,3950,1,0,0:0:0:0:
331,302,4100,5,0,0:0:0:0:
419,344,4250,1,0,1:0:0:0:
251,359,4400,1,8,0:0:0:0:
411,244,4550,5,0,0:0:0:0:
323,202,4700,1,0,1:0:0:0:
491,187,4850,1,8,0:0:0:0:
241,262,5000,5,0,1:0:0:0:
241,262,5075,1,0,1:0:0:0:
241,262,5150,2,0,L|236:197,1,45,8|8,0:0|0:0,0:0:0:0:
223,37,5300,5,4,1:0:0:0:
323,72,5450,1,0,1:0:0:0:
243,140,5600,1,8,0:0:0:0:
265,22,5750,5,0,1:0:0:0:
352,80,5900,1,8,0:0:0:0:
147,75,6050,5,0,0:0:0:0:
134,235,6200,1,0,0:0:0:0:
148,65,6350,1,8,0:0:0:0:
57,205,6500,5,0,1:0:0:0:
217,218,6650,1,8,0:0:0:0:
2,122,6800,5,0,1:0:0:0:
194,146,6950,1,0,1:0:0:0:
77,300,7100,1,12,0:0:0:0:
84,120,7250,5,0,1:0:0:0:
267,162,7400,1,8,0:0:0:0:
18,32,7550,5,0,0:0:0:0:
0,224,7700,1,0,0:0:0:0:
20,21,7850,1,8,0:0:0:0:
194,186,8000,5,0,1:0:0:0:
0,142,8150,1,8,0:0:0:0:
274,125,8300,5,0,1:0:0:0:
208,287,8450,1,0,1:0:0:0:
382,264,8600,1,8,0:0:0:0:
194,186,8750,5,0,1:0:0:0:
301,326,8900,1,8,0:0:0:0:
410,65,9050,5,0,1:0:0:0:
161,84,9200,1,8,0:0:0:0:
161,84,9275,1,8,0:0:0:0:
161,84,9350,1,8,0:0:0:0:
325,133,9500,5,0,1:0:0:0:
65,126,9650,1,8,0:0:0:0:
224,0,9800,5,8,0:0:0:0:
252,34,9875,1,8,0:0:0:0:
263,77,9950,1,8,0:0:0:0:
254,120,10025,1,8,0:0:0:0:
227,156,10100,6,0,P|185:211|214:313,1,161.999995056153,4|8,1:0|1:2,0:0:0:0:
449,230,10600,1,0,1:0:0:0:
449,230,10700,2,0,P|365:204|292:239,1,161.999995056153,0|8,1:0|1:2,0:0:0:0:
42,339,11300,6,0,L|53:129,1,161.999995056153,0|8,1:0|1:2,0:0:0:0:
206,24,11800,1,0,1:0:0:0:
206,24,11900,2,0,L|201:143,1,107.999996704102,0|0,1:0|1:0,0:0:0:0:
295,236,12200,1,8,0:0:0:0:
295,236,12300,2,0,L|297:182,1,53.9999983520508,0|0,1:0|1:0,0:0:0:0:
489,59,12500,6,0,L|301:69,1,180,4|8,1:0|1:2,0:0:0:0:
459,291,13000,1,0,1:0:0:0:
459,291,13100,2,0,P|436:211|495:136,1,180,0|8,1:0|1:2,0:0:0:0:
147,312,13700,6,0,L|336:351,1,180,0|8,1:0|1:2,0:0:0:0:
18,147,14200,1,0,1:0:0:0:
18,147,14300,2,0,L|13:266,1,120,0|0,1:0|1:0,0:0:0:0:
147,312,14600,1,8,0:0:0:0:
147,312,14700,2,0,L|151:212,1,60,0|0,1:0|1:0,0:0:0:0:
353,31,14900,6,0,P|308:113|361:211,1,198.000006042481,4|8,1:1|1:2,1:1:0:0:
55,62,15400,1,0,1:0:0:0:
55,62,15500,2,0,L|44:277,1,198.000006042481,0|8,1:0|1:2,1:1:0:0:
333,350,16100,6,0,P|255:294|165:326,1,198.000006042481,0|8,1:0|1:2,1:1:0:0:
394,172,16600,1,0,1:0:0:0:
394,172,16700,2,0,L|394:352,1,132.00000402832,0|0,1:0|1:2,1:1:0:0:
512,337,17000,1,8,0:0:0:0:
512,337,17100,2,0,L|512:271,1,66.0000020141602,0|0,1:0|1:0,0:0:0:0:
260,90,17300,6,0,L|439:80,1,180,4|8,1:0|1:2,1:1:0:0:
206,0,17800,1,0,1:0:0:0:
206,0,17900,2,0,P|159:77|209:170,1,180,0|8,1:0|1:2,1:1:0:0:
336,335,18500,6,0,L|394:323,2,60,0|0|0,1:0|1:0|1:0,0:0:0:0:
440,213,18800,2,0,L|499:225,2,60,8|0|0,1:2|1:0|1:0,0:0:0:0:
348,106,19100,2,0,L|304:115,3,45,0|0|0|0,1:0|1:0|1:0|1:0,0:0:0:0:
159,84,19400,5,8,0:0:0:0:
156,128,19475,1,8,0:0:0:0:
154,173,19550,1,8,0:0:0:0:
152,218,19625,1,8,0:0:0:0:
150,263,19700,6,0,L|145:338,3,45,4|0|0|0,1:0|0:0|0:0|0:0,0:0:0:0:
38,239,20000,2,0,L|73:210,3,45,8|0|0|0,0:0|0:0|0:0|0:0,0:0:0:0:
56,118,20300,2,0,L|-19:113,3,45,0|0|0|0,1:0|0:0|0:0|0:0,0:0:0:0:
79,6,20600,2,0,L|109:40,3,45,8|0|0|0,0:0|0:0|0:0|0:0,0:0:0:0:
279,84,20900,5,0,1:0:0:0:
252,104,20975,1,0,0:0:0:0:
237,133,21050,1,0,0:0:0:0:
236,167,21125,1,0,0:0:0:0:
250,197,21200,1,8,0:0:0:0:
276,217,21275,1,0,0:0:0:0:
291,246,21350,1,0,0:0:0:0:
292,280,21425,1,0,0:0:0:0:
280,310,21500,5,0,1:0:0:0:
264,281,21575,1,0,0:0:0:0:
262,247,21650,1,0,0:0:0:0:
276,217,21725,1,0,0:0:0:0:
301,195,21800,1,8,0:0:0:0:
333,186,21875,1,8,0:0:0:0:
366,192,21950,1,8,0:0:0:0:
393,212,22025,1,8,0:0:0:0:
408,242,22100,6,0,L|432:308,3,45,4|0|0|0,1:0|0:0|0:0|0:0,0:0:0:0:
512,122,22400,2,0,L|488:188,3,45,8|0|0|0,0:0|0:0|0:0|0:0,0:0:0:0:
358,47,22700,5,0,1:0:0:0:
356,63,22775,1,0,0:0:0:0:
354,79,22850,1,0,0:0:0:0:
352,95,22925,1,0,0:0:0:0:
350,111,23000,1,8,0:0:0:0:
323,90,23075,1,0,0:0:0:0:
290,82,23150,1,0,0:0:0:0:
257,86,23225,1,0,0:0:0:0:
228,103,23300,5,0,1:0:0:0:
199,120,23375,1,0,0:0:0:0:
166,124,23450,1,0,0:0:0:0:
133,116,23525,1,0,0:0:0:0:
106,95,23600,2,0,L|62:53,3,45,8|0|0|0,0:0|0:0|0:0|0:0,0:0:0:0:
56,190,23900,5,0,1:0:0:0:
58,206,23975,1,0,0:0:0:0:
60,222,24050,1,0,0:0:0:0:
62,238,24125,1,0,0:0:0:0:
64,254,24200,1,8,0:0:0:0:
66,270,24275,1,0,1:0:0:0:
68,286,24350,1,0,1:0:0:0:
70,302,24425,1,0,1:0:0:0:
72,318,24500,6,0,L|80:377,3,45,4|0|0|0,1:0|0:0|0:0|0:0,0:0:0:0:
182,251,24800,2,0,L|188:206,3,45,8|0|0|0,0:0|0:0|0:0|0:0,0:0:0:0:
104,106,25100,5,0,1:0:0:0:
123,78,25175,1,0,0:0:0:0:
150,58,25250,1,0,0:0:0:0:
182,48,25325,1,0,0:0:0:0:
216,49,25400,1,8,0:0:0:0:
248,60,25475,1,0,0:0:0:0:
274,80,25550,1,0,0:0:0:0:
293,108,25625,1,0,0:0:0:0:
302,140,25700,6,0,L|322:199,3,45,0|0|0|0,1:0|0:0|0:0|0:0,0:0:0:0:
433,261,26000,2,0,L|448:219,3,45,8|0|0|0,0:0|0:0|0:0|0:0,0:0:0:0:
312,337,26300,1,0,1:0:0:0:
312,337,26375,1,0,0:0:0:0:
312,337,26450,1,0,0:0:0:0:
312,337,26525,1,0,0:0:0:0:
312,337,26600,5,8,0:0:0:0:
285,316,26675,1,0,1:0:0:0:
253,307,26750,1,0,1:0:0:0:
219,312,26825,1,0,1:0:0:0:
190,328,26900,6,0,L|133:363,3,45,4|0|0|0,1:0|0:0|0:0|0:0,0:0:0:0:
31,219,27200,2,0,L|88:254,3,45,8|0|0|0,0:0|0:0|0:0|0:0,0:0:0:0:
191,82,27500,5,0,1:0:0:0:
192,104,27575,1,0,0:0:0:0:
194,126,27650,1,0,0:0:0:0:
195,149,27725,1,0,0:0:0:0:
196,171,27800,2,0,L|199:243,3,45,8|0|0|0,0:0|0:0|0:0|0:0,0:0:0:0:
296,32,28100,5,0,1:0:0:0:
329,33,28175,1,0,0:0:0:0:
359,47,28250,1,0,0:0:0:0:
382,71,28325,1,0,0:0:0:0:
394,103,28400,1,8,0:0:0:0:
393,136,28475,1,0,0:0:0:0:
379,167,28550,1,0,0:0:0:0:
355,190,28625,1,0,0:0:0:0:
324,202,28700,5,0,1:0:0:0:
292,213,28775,1,8,0:0:0:0:
269,237,28850,1,8,0:0:0:0:
261,269,28925,1,8,0:0:0:0:
268,302,29000,1,0,1:0:0:0:
290,327,29075,1,0,1:0:0:0:
321,340,29150,1,0,1:0:0:0:
354,336,29225,1,0,1:0:0:0:
381,317,29300,6,0,L|463:335,1,67.5000025749208,12|0,0:0|0:0,0:0:0:0:
269,237,29600,2,0,L|203:251,1,67.5000025749208,8|0,0:0|0:0,0:0:0:0:
386,321,29900,6,0,L|476:340,1,67.5000025749208,8|0,0:0|0:0,0:0:0:0:
263,233,30200,2,0,L|190:248,1,67.5000025749208,8|0,0:0|0:0,0:0:0:0:
392,325,30500,6,0,L|486:345,1,67.5000025749208,8|0,0:0|0:0,0:0:0:0:
256,228,30800,2,0,L|176:245,1,67.5000025749208,8|0,0:0|0:0,0:0:0:0:
398,330,31100,6,0,L|493:350,1,67.5000025749208,8|0,0:0|0:0,0:0:0:0:
250,223,31400,2,0,L|161:241,1,67.5000025749208,8|0,0:0|0:0,0:0:0:0:
470,73,31700,5,8,0:0:0:0:
448,206,31850,1,0,0:0:0:0:
343,121,32000,1,8,0:0:0:0:
497,146,32150,1,0,0:0:0:0:
265,109,32300,5,8,0:0:0:0:
322,257,32450,1,0,0:0:0:0:
421,133,32600,1,8,0:0:0:0:
254,193,32750,1,0,0:0:0:0:
470,73,32900,5,8,0:0:0:0:
399,269,33050,1,0,0:0:0:0:
265,109,33200,1,8,0:0:0:0:
490,191,33350,1,0,0:0:0:0:
232,283,33500,5,8,0:0:0:0:
421,133,33650,1,8,0:0:0:0:
120,180,33800,5,8,0:0:0:0:
399,224,33950,1,8,0:0:0:0:
399,224,34250,5,0,1:0:0:0:
399,224,34325,1,0,1:0:0:0:
399,224,34400,2,0,L|399:285,1,45,8|8,0:0|0:0,0:0:0:0:
232,328,34550,2,0,L|232:283,1,45,0|0,1:0|1:0,0:0:0:0:
339,107,34700,6,0,L|219:134,1,99.0000030212403,4|0,1:0|0:0,0:0:0:0:
78,211,35000,2,0,L|89:93,1,99.0000030212403,10|0,0:0|0:0,0:0:0:0:
178,238,35300,1,0,0:0:0:0:
30,48,35450,2,0,P|99:25|159:64,1,148.50000453186,2|0,1:2|0:0,0:0:0:0:
166,84,35750,1,0,0:0:0:0:
374,24,35900,6,0,L|366:122,2,99.0000030212403,2|0|8,1:2|0:0|0:0,0:0:0:0:
407,206,36350,1,2,1:2:0:0:
407,206,36425,1,8,0:0:0:0:
407,206,36500,2,0,P|350:215|296:180,1,99.0000030212403,0|0,1:0|1:0,0:0:0:0:
159,64,36800,2,0,P|216:55|270:90,1,99.0000030212403,10|0,0:0|0:0,0:0:0:0:
489,188,37100,6,0,L|494:286,1,99.0000030212403,0|0,1:0|0:0,0:0:0:0:
215,189,37400,2,0,L|313:198,1,99.0000030212403,10|0,0:0|0:0,0:0:0:0:
313,198,37625,1,8,0:0:0:0:
313,198,37700,1,0,1:0:0:0:
145,129,37850,2,0,P|123:176|137:233,1,99.0000030212403,2|8,1:2|0:0,0:0:0:0:
173,306,38150,1,0,0:0:0:0:
89,44,38300,6,0,L|262:36,1,148.50000453186,2|0,1:2|0:0,0:0:0:0:
237,37,38600,1,8,0:0:0:0:
267,58,38675,1,0,0:0:0:0:
303,65,38750,1,0,1:0:0:0:
339,57,38825,1,8,0:0:0:0:
369,35,38900,2,0,P|404:24|428:28,3,49.5000015106202,0|8|0|0,1:0|0:0|1:0|0:0,0:0:0:0:
512,25,39200,5,8,0:0:0:0:
510,74,39275,1,8,0:0:0:0:
508,123,39350,1,8,0:0:0:0:
506,173,39425,1,8,0:0:0:0:
504,222,39500,6,0,L|499:336,1,99.0000030212403,4|0,1:0|0:0,0:0:0:0:
374,134,39800,2,0,L|369:35,1,99.0000030212403,10|0,0:0|0:0,0:0:0:0:
369,35,40025,1,8,0:0:0:0:
369,35,40100,1,0,1:0:0:0:
438,190,40250,2,0,P|372:219|310:185,1,148.50000453186,2|0,1:2|0:0,0:0:0:0:
300,177,40550,1,0,0:0:0:0:
148,31,40700,6,0,L|135:152,2,99.0000030212403,2|0|8,1:2|0:0|0:0,0:0:0:0:
21,205,41150,1,2,1:2:0:0:
21,205,41225,1,8,0:0:0:0:
21,205,41300,2,0,L|141:217,1,99.0000030212403,0|0,1:0|1:0,0:0:0:0:
274,318,41600,2,0,L|154:330,1,99.0000030212403,10|0,0:0|0:0,0:0:0:0:
378,245,41900,6,0,L|381:357,1,99.0000030212403,4|0,1:0|0:0,0:0:0:0:
235,137,42200,2,0,L|237:38,1,99.0000030212403,10|0,0:0|0:0,0:0:0:0:
237,38,42425,1,8,0:0:0:0:
237,38,42500,1,0,1:0:0:0:
431,183,42650,2,0,P|382:165|318:192,1,99.0000030212403,2|8,1:2|0:0,0:0:0:0:
460,304,42950,1,0,0:0:0:0:
505,82,43100,6,0,L|332:74,1,148.50000453186,6|0,1:2|0:0,0:0:0:0:
357,75,43400,1,8,0:0:0:0:
327,96,43475,1,0,0:0:0:0:
291,103,43550,1,0,1:0:0:0:
255,95,43625,1,8,0:0:0:0:
225,73,43700,2,0,P|190:62|166:66,3,49.5000015106202,0|0|0|0,1:0|0:0|1:0|0:0,0:0:0:0:
82,63,44000,5,8,0:0:0:0:
84,112,44075,1,8,0:0:0:0:
86,161,44150,1,8,0:0:0:0:
88,211,44225,1,8,0:0:0:0:
90,260,44300,6,0,L|94:358,2,90,6|0|8,1:2|0:0|0:0,0:0:0:0:
84,134,44750,1,0,0:0:0:0:
381,141,44900,6,0,B|339:128|339:128|266:126,1,90,0|0,0:0|1:0,0:0:0:0:
90,260,45200,2,0,B|133:273|133:273|205:275,1,90,8|0,0:0|0:0,0:0:0:0:
413,276,45500,5,2,1:2:0:0:
251,318,45650,1,0,0:0:0:0:
471,367,45800,5,8,0:0:0:0:
326,282,45950,1,0,0:0:0:0:
506,112,46100,5,2,1:2:0:0:
301,187,46250,1,2,1:2:0:0:
504,219,46400,1,10,0:2:0:0:
295,97,46550,1,0,0:2:0:0:
499,23,46700,6,0,L|507:123,1,90,6|0,1:2|0:0,0:0:0:0:
301,187,47000,2,0,L|295:83,1,90,8|0,0:0|0:0,0:0:0:0:
419,270,47300,5,2,0:2:0:0:
419,270,47375,1,2,0:2:0:0:
419,270,47450,1,2,1:2:0:0:
200,201,47600,2,0,B|185:244|194:316,1,90,8|0,0:0|0:0,0:0:0:0:
33,76,47900,5,2,1:2:0:0:
190,71,48050,1,0,0:0:0:0:
115,208,48200,1,8,0:0:0:0:
109,28,48350,1,0,0:0:0:0:
192,161,48500,5,0,0:0:0:0:
0,199,48650,1,0,1:0:0:0:
273,108,48800,5,8,0:0:0:0:
271,145,48875,1,8,0:0:0:0:
270,182,48950,1,8,0:0:0:0:
269,219,49025,1,8,0:0:0:0:
268,256,49100,6,0,B|262:364,1,90,6|0,1:2|0:0,0:0:0:0:
413,160,49400,2,0,B|420:268,1,90,8|0,0:0|0:0,0:0:0:0:
292,60,49700,5,2,0:0:0:0:
421,72,49850,1,0,1:0:0:0:
208,49,50000,1,10,0:0:0:0:
353,109,50150,1,0,0:0:0:0:
228,204,50300,6,0,B|206:244|206:244|215:320,1,90,2|0,1:2|0:0,0:0:0:0:
435,335,50600,2,0,B|457:295|457:295|448:219,1,90,8|0,0:2|0:0,0:0:0:0:
316,115,50900,5,2,1:2:0:0:
314,280,51050,1,2,1:2:0:0:
172,195,51200,1,10,0:2:0:0:
362,197,51350,1,0,0:0:0:0:
83,222,51500,6,0,P|79:173|103:131,1,90,6|0,1:2|0:0,0:0:0:0:
314,280,51800,2,0,P|336:323|333:371,1,90,8|0,0:0|0:0,0:0:0:0:
481,186,52100,1,2,1:2:0:0:
481,186,52175,1,2,0:2:0:0:
481,186,52250,1,2,1:2:0:0:
369,40,52400,2,0,B|326:39|326:39|258:64,1,90,8|0,0:0|0:0,0:0:0:0:
103,130,52700,5,2,1:2:0:0:
290,171,52850,1,0,0:0:0:0:
103,130,53000,1,8,0:0:0:0:
170,244,53150,1,0,1:0:0:0:
239,98,53300,5,0,0:0:0:0:
86,212,53450,1,0,1:0:0:0:
315,176,53600,5,8,0:0:0:0:
103,130,53750,1,0,0:0:0:0:
402,135,53900,6,0,L|399:250,1,99.0000030212403,4|0,1:0|0:0,0:0:0:0:
493,79,54200,1,8,0:0:0:0:
301,154,54350,5,4,1:0:0:0:
415,250,54500,1,0,1:2:0:0:
415,250,54575,1,0,1:2:0:0:
415,250,54650,1,8,0:2:0:0:
192,191,54800,6,0,L|189:300,1,99.0000030212403,4|0,1:0|0:0,0:0:0:0:
103,130,55100,2,0,L|100:31,1,99.0000030212403,8|4,0:0|1:0,0:0:0:0:
257,100,55400,1,0,0:0:0:0:
102,228,55550,1,8,0:0:0:0:
291,299,55700,5,8,0:0:0:0:
320,282,55775,1,8,0:0:0:0:
353,279,55850,1,8,0:0:0:0:
384,291,55925,1,8,0:0:0:0:
408,315,56000,2,0,L|447:368,3,49.5000015106202,0|0|0|0,1:0|1:0|1:0|1:0,0:0:0:0:
502,243,56300,5,12,0:0:0:0:
337,359,56450,1,0,0:0:0:0:
319,158,56600,1,0,1:0:0:0:
437,354,56750,5,12,0:0:0:0:
269,263,56900,1,0,1:0:0:0:
269,263,56975,1,0,1:0:0:0:
269,263,57050,1,0,1:0:0:0:
506,171,57200,6,0,L|513:72,1,99.0000030212403,12|0,0:0|0:0,0:0:0:0:
319,157,57500,2,0,L|328:38,1,99.0000030212403,0|12,1:0|0:0,0:0:0:0:
167,163,57800,5,0,0:0:0:0:
348,237,57950,1,0,1:0:0:0:
98,119,58100,5,0,1:0:0:0:
95,156,58175,1,0,1:0:0:0:
93,193,58250,1,0,1:0:0:0:
91,230,58325,1,0,1:0:0:0:
89,267,58400,2,8,L|86:327,3,49.5000015106202
193,270,58700,5,4,1:0:0:0:
98,119,58850,1,0,0:0:0:0:
0,259,59000,1,8,0:0:0:0:
177,166,59150,5,4,1:0:0:0:
0,153,59300,1,0,1:0:0:0:
0,153,59375,1,0,1:0:0:0:
0,153,59450,1,8,0:2:0:0:
256,100,59600,6,0,L|261:219,1,99.0000030212403,4|0,1:0|0:0,0:0:0:0:
343,66,59900,2,0,P|321:22|278:-1,1,99.0000030212403,8|4,0:0|1:0,0:0:0:0:
363,196,60200,5,0,0:0:0:0:
177,166,60350,1,8,0:0:0:0:
418,115,60500,5,8,0:0:0:0:
442,142,60575,1,8,0:0:0:0:
455,177,60650,1,8,0:0:0:0:
455,214,60725,1,8,0:0:0:0:
443,248,60800,2,0,P|428:278|408:298,3,49.5000015106202,0|0|0|0,1:0|1:0|1:0|1:0,0:0:0:0:
363,196,61100,5,12,0:0:0:0:
512,287,61250,1,0,0:0:0:0:
275,297,61400,1,0,1:0:0:0:
455,177,61550,5,12,0:0:0:0:
234,182,61700,1,0,1:0:0:0:
234,182,61775,1,0,1:0:0:0:
234,182,61850,1,0,1:0:0:0:
505,29,62000,6,0,L|512:128,1,99.0000030212403,12|0,0:0|0:0,0:0:0:0:
312,36,62300,2,0,L|321:155,1,99.0000030212403,0|12,1:0|0:0,0:0:0:0:
182,94,62600,1,0,0:0:0:0:
414,91,62750,1,0,1:0:0:0:
143,23,62900,5,0,1:0:0:0:
116,48,62975,1,0,1:0:0:0:
102,82,63050,1,0,1:0:0:0:
106,119,63125,1,0,1:0:0:0:
124,150,63200,5,8,0:0:0:0:
125,165,63275,1,8,0:0:0:0:
125,179,63350,1,8,0:0:0:0:
125,193,63425,1,8,0:0:0:0:
126,207,63500,6,0,L|240:219,1,99.0000030212403,4|0,1:0|0:0,0:0:0:0:
224,217,63725,1,0,0:0:0:0:
224,217,63800,1,8,0:0:0:0:
457,239,63950,5,0,0:0:0:0:
457,239,64025,1,0,0:0:0:0:
457,239,64100,2,0,L|466:308,1,49.5000015106202,0|0,0:0|0:0,0:0:0:0:
369,153,64250,5,0,1:0:0:0:
369,153,64325,1,0,0:0:0:0:
369,153,64400,2,0,L|360:222,1,49.5000015106202,8|0,0:0|0:0,0:0:0:0:
471,39,64550,5,0,0:0:0:0:
471,39,64625,1,0,0:0:0:0:
471,39,64700,2,0,L|491:156,1,99.0000030212403,0|0,1:0|0:0,0:0:0:0:
487,136,64925,1,0,0:0:0:0:
487,136,65000,1,8,0:0:0:0:
331,44,65150,1,0,0:0:0:0:
362,202,65300,5,0,0:0:0:0:
362,221,65375,1,0,0:0:0:0:
362,241,65450,1,0,1:0:0:0:
362,261,65525,1,0,0:0:0:0:
362,281,65600,2,0,L|360:347,2,49.5000015106202,8|0|0,0:0|0:0|0:0,0:0:0:0:
509,233,65900,5,0,1:0:0:0:
484,196,65975,1,0,0:0:0:0:
444,176,66050,1,0,0:0:0:0:
399,178,66125,1,0,0:0:0:0:
362,202,66200,1,8,0:0:0:0:
324,225,66275,1,0,0:0:0:0:
279,227,66350,1,0,0:0:0:0:
239,207,66425,1,0,0:0:0:0:
214,170,66500,6,0,L|180:108,3,49.5000015106202,0|0|0|0,0:0|0:0|1:0|0:0,0:0:0:0:
320,49,66800,2,0,L|306:97,3,49.5000015106202,8|0|0|0,0:0|0:0|0:0|0:0,0:0:0:0:
162,38,67100,5,0,1:0:0:0:
122,66,67175,1,0,0:0:0:0:
101,110,67250,1,0,0:0:0:0:
104,159,67325,1,0,0:0:0:0:
131,200,67400,1,8,0:0:0:0:
167,233,67475,1,0,0:0:0:0:
178,280,67550,1,0,0:0:0:0:
160,326,67625,1,8,0:0:0:0:
121,354,67700,5,0,1:0:0:0:
72,355,67775,1,0,1:0:0:0:
31,328,67850,1,0,1:0:0:0:
12,283,67925,1,0,0:0:0:0:
22,235,68000,2,0,L|39:179,3,49.5000015106202,8|8|8|8,0:0|0:0|0:0|0:0,0:0:0:0:
70,80,68300,5,0,1:0:0:0:
221,95,68450,5,0,0:0:0:0:
221,95,68525,1,0,0:0:0:0:
221,95,68600,2,0,L|152:86,1,49.5000015106202,8|0,0:0|0:0,0:0:0:0:
307,183,68750,5,0,0:0:0:0:
307,183,68825,1,0,0:0:0:0:
307,183,68900,2,0,L|238:192,1,49.5000015106202,0|0,1:0|0:0,0:0:0:0:
393,95,69050,5,0,1:0:0:0:
393,95,69125,1,0,0:0:0:0:
393,95,69200,2,0,L|324:86,1,49.5000015106202,8|0,0:0|0:0,0:0:0:0:
474,234,69350,5,0,0:0:0:0:
474,234,69425,1,0,0:0:0:0:
474,234,69500,2,0,L|472:349,1,99.0000030212403,0|0,1:0|0:0,0:0:0:0:
472,332,69725,1,0,0:0:0:0:
472,332,69800,1,8,0:0:0:0:
290,288,69950,1,0,0:0:0:0:
474,157,70100,5,0,0:0:0:0:
474,138,70175,1,0,0:0:0:0:
474,118,70250,1,0,1:0:0:0:
474,98,70325,1,0,0:0:0:0:
474,78,70400,2,0,L|472:12,2,49.5000015106202,8|0|0,0:0|0:0|0:0,0:0:0:0:
356,179,70700,5,0,1:0:0:0:
331,136,70775,1,0,0:0:0:0:
286,117,70850,1,0,0:0:0:0:
240,129,70925,1,0,0:0:0:0:
210,168,71000,1,8,0:0:0:0:
181,206,71075,1,0,0:0:0:0:
134,219,71150,1,0,0:0:0:0:
89,200,71225,1,8,0:0:0:0:
65,157,71300,5,0,0:0:0:0:
29,190,71375,1,0,0:0:0:0:
13,237,71450,1,0,1:0:0:0:
19,285,71525,1,0,0:0:0:0:
46,326,71600,1,8,0:0:0:0:
88,350,71675,1,0,0:0:0:0:
137,353,71750,1,0,0:0:0:0:
182,333,71825,1,0,0:0:0:0:
213,296,71900,2,0,L|245:246,3,49.5000015106202,0|0|0|0,1:0|0:0|0:0|0:0,0:0:0:0:
364,347,72200,5,8,0:0:0:0:
367,293,72275,1,0,0:0:0:0:
369,239,72350,1,0,0:0:0:0:
371,185,72425,1,8,0:0:0:0:
374,131,72500,2,0,L|379:65,1,53.9999983520508,0|0,0:0|0:0,0:0:0:0:
214,35,72650,5,0,1:0:0:0:
160,40,72725,1,0,0:0:0:0:
117,71,72800,1,8,0:0:0:0:
94,120,72875,1,8,0:0:0:0:
98,173,72950,1,8,0:0:0:0:
128,218,73025,1,8,0:0:0:0:
175,242,73100,6,0,P|210:248|251:280,2,71.9999978027344,4|0|0,1:0|0:0|0:0,0:0:0:0:
310,178,73400,2,0,P|330:206|336:257,2,60,4|0|0,1:0|0:0|0:0,0:0:0:0:
486,251,73700,5,4,1:0:0:0:
480,191,73800,1,0,0:0:0:0:
475,131,73900,1,0,0:0:0:0:
470,71,74000,2,0,L|466:5,2,60,0|0|0,0:0|0:0|0:0,0:0:0:0:
268,96,74300,1,8,0:0:0:0:
268,96,74400,1,8,0:0:0:0:
221,152,74500,1,0,1:0:0:0:
229,224,74600,1,0,1:0:0:0:
286,269,74700,1,0,1:0:0:0:
359,258,74800,1,0,1:0:0:0:
401,199,74900,6,0,L|415:102,1,75,12|0,1:2|0:0,0:0:0:0:
268,96,75100,2,0,L|257:21,1,75,12|0,1:2|0:0,0:0:0:0:
113,199,75300,2,0,L|127:102,1,75,12|0,1:2|0:0,0:0:0:0:
310,178,75500,5,12,1:2:0:0:
338,229,75600,1,0,0:0:0:0:
329,288,75700,1,0,0:0:0:0:
287,329,75800,2,0,P|258:351|221:353,2,60,8|0|0,0:0|0:0|0:0,0:0:0:0:
456,152,76100,5,0,1:0:0:0:
452,196,76200,1,0,1:0:0:0:
449,241,76300,1,0,1:0:0:0:
446,286,76400,2,0,L|437:396,2,75,8|0|0,0:0|0:0|0:0,0:0:0:0:
458,100,76700,5,12,1:2:0:0:
404,150,76800,1,0,0:0:0:0:
331,155,76900,1,0,0:0:0:0:
271,113,77000,1,12,1:2:0:0:
211,71,77100,1,0,0:0:0:0:
138,76,77200,1,0,0:0:0:0:
85,127,77300,5,4,1:0:0:0:
155,106,77400,1,0,0:0:0:0:
223,134,77500,1,0,0:0:0:0:
258,199,77600,1,0,0:0:0:0:
245,271,77700,1,0,0:0:0:0:
189,319,77800,1,0,0:0:0:0:
116,322,77900,6,0,P|97:316|26:329,2,75,12|0|0,1:2|0:0|0:0,0:0:0:0:
134,180,78200,2,0,P|124:161|65:120,2,75,12|0|0,1:2|0:0|0:0,0:0:0:0:
245,271,78500,5,12,1:2:0:0:
296,241,78600,1,0,0:0:0:0:
355,246,78700,1,0,0:0:0:0:
400,283,78800,1,0,0:0:0:0:
458,286,78900,1,0,0:0:0:0:
502,247,79000,1,0,0:0:0:0:
505,188,79100,6,0,P|497:149|459:98,2,75,12|0|0,1:2|0:0|0:0,0:0:0:0:
382,34,79400,2,0,P|364:67|357:104,2,75,12|0|0,1:2|0:0|0:0,0:0:0:0:
262,14,79700,1,12,1:2:0:0:
216,51,79800,1,0,0:0:0:0:
204,109,79900,1,0,0:0:0:0:
231,162,80000,1,0,0:0:0:0:
276,199,80100,1,0,0:0:0:0:
288,257,80200,1,0,0:0:0:0:
261,310,80300,5,8,0:0:0:0:
263,327,80400,1,0,1:0:0:0:
265,344,80500,1,0,1:0:0:0:
268,361,80600,5,0,1:0:0:0:
215,332,80700,1,8,0:0:0:0:
156,332,80800,1,8,0:0:0:0:
103,359,80900,5,0,1:0:0:0:
131,291,81000,1,0,1:0:0:0:
108,222,81100,1,0,1:0:0:0:
44,185,81200,1,8,0:0:0:0:
15,117,81300,1,8,0:0:0:0:
38,47,81400,1,8,0:0:0:0:
102,11,81500,6,0,P|170:55|258:14,1,168.75,4|0,1:2|0:0,0:0:0:0:
228,125,81800,1,8,0:0:0:0:
357,52,81950,2,0,L|353:164,2,112.5,0|0|0,0:0|0:0|1:0,0:0:0:0:
401,237,82400,2,0,P|347:251|296:229,1,112.5,8|0,0:0|0:0,0:0:0:0:
134,84,82700,5,0,1:2:0:0:
24,204,82850,1,0,0:0:0:0:
215,169,83000,1,8,0:0:0:0:
45,123,83150,1,0,0:0:0:0:
100,352,83300,5,0,0:0:0:0:
124,181,83450,1,0,1:0:0:0:
214,273,83600,1,8,0:0:0:0:
0,244,83750,1,0,0:0:0:0:
280,205,83900,6,0,P|306:253|301:308,2,112.5,4|0|8,1:0|0:0|0:0,0:0:0:0:
193,81,84350,1,0,0:0:0:0:
417,13,84500,2,0,L|417:160,1,112.5,0|0,0:0|1:0,0:0:0:0:
455,309,84800,6,0,P|399:281|281:332,1,168.75,8|0,0:0|0:0,0:0:0:0:
225,252,85100,2,0,L|216:373,1,112.5,0|0,1:0|0:0,0:0:0:0:
99,178,85400,5,8,0:0:0:0:
272,176,85550,1,0,0:0:0:0:
81,57,85700,1,0,0:0:0:0:
61,274,85850,1,0,1:0:0:0:
218,116,86000,5,8,0:0:0:0:
257,96,86075,1,8,0:0:0:0:
302,101,86150,1,8,0:0:0:0:
336,129,86225,1,8,0:0:0:0:
354,175,86300,6,0,P|408:194|479:162,1,135,4|0,1:0|0:0,0:0:0:0:
381,271,86600,1,8,0:0:0:0:
218,116,86750,2,0,L|205:205,2,90,0|0|0,0:0|0:0|1:0,0:0:0:0:
151,280,87200,2,0,P|198:298|251:284,1,90,8|0,0:0|0:0,0:0:0:0:
34,101,87500,5,0,1:0:0:0:
29,297,87650,1,0,0:0:0:0:
204,205,87800,5,8,0:0:0:0:
1,178,87950,1,0,0:0:0:0:
196,105,88100,5,0,0:0:0:0:
170,283,88250,1,0,1:0:0:0:
338,217,88400,1,8,0:0:0:0:
113,139,88550,1,0,0:0:0:0:
395,131,88700,5,4,1:0:0:0:
344,347,88850,1,8,0:0:0:0:
344,347,88925,1,8,0:0:0:0:
344,347,89000,1,0,1:0:0:0:
271,101,89150,5,4,1:0:0:0:
431,253,89300,1,0,1:0:0:0:
219,317,89450,1,0,1:0:0:0:
483,189,89600,5,12,0:0:0:0:
255,174,89750,1,0,1:0:0:0:
395,131,89900,6,0,L|397:189,1,45
445,69,90050,1,0,0:0:0:0:
445,69,90125,1,0,0:0:0:0:
445,69,90200,5,8,0:0:0:0:
412,60,90275,1,0,0:0:0:0:
379,61,90350,1,0,0:0:0:0:
347,74,90425,1,0,0:0:0:0:
322,95,90500,1,0,0:0:0:0:
289,103,90575,1,0,0:0:0:0:
256,102,90650,1,0,1:0:0:0:
224,89,90725,1,0,0:0:0:0:
199,68,90800,2,0,L|150:23,3,45,8|8|8|8,0:0|0:0|0:0|0:0,0:0:0:0:
65,18,91100,6,0,P|93:95|36:169,1,168.75,4|0,1:0|0:0,0:0:0:0:
25,185,91400,1,8,0:0:0:0:
182,165,91550,2,0,L|180:277,2,112.5,0|0|0,0:0|0:0|1:0,0:0:0:0:
125,341,92000,2,0,P|175:363|227:345,1,112.5,8|0,0:0|0:0,0:0:0:0:
395,182,92300,5,0,1:0:0:0:
285,302,92450,1,0,0:0:0:0:
476,267,92600,1,8,0:0:0:0:
306,221,92750,1,0,0:0:0:0:
510,155,92900,5,0,0:0:0:0:
322,238,93050,1,0,1:0:0:0:
488,360,93200,1,8,0:0:0:0:
441,119,93350,1,0,1:0:0:0:
441,119,93425,1,0,1:0:0:0:
441,119,93500,6,0,P|374:117|326:153,2,112.5,4|0|8,1:0|0:0|0:0,0:0:0:0:
227,39,93950,2,0,L|216:172,1,112.5
208,273,94250,1,0,1:0:0:0:
36,78,94400,6,0,P|61:163|26:247,1,168.75,8|0,0:0|0:0,0:0:0:0:
27,320,94700,2,0,P|85:315|155:323,1,112.5,0|0,1:0|0:0,0:0:0:0:
362,254,95000,5,8,0:0:0:0:
220,354,95150,1,0,0:0:0:0:
305,145,95300,1,0,0:0:0:0:
449,309,95450,1,0,1:0:0:0:
378,102,95600,5,8,0:0:0:0:
345,75,95675,1,8,0:0:0:0:
305,65,95750,1,0,1:0:0:0:
264,75,95825,1,0,1:0:0:0:
233,103,95900,6,0,P|165:129|90:93,1,135,4|0,1:0|0:0,0:0:0:0:
89,95,96200,1,8,0:0:0:0:
305,145,96350,2,0,L|294:309,1,135
294,322,96650,1,0,1:0:0:0:
483,115,96800,2,0,L|356:95,1,90,8|0,0:0|0:0,0:0:0:0:
185,195,97100,5,0,1:0:0:0:
389,177,97250,1,0,0:0:0:0:
233,103,97400,1,8,0:0:0:0:
215,307,97550,1,0,1:0:0:0:
215,307,97625,1,0,1:0:0:0:
215,307,97700,1,0,1:0:0:0:
308,49,97850,5,0,1:0:0:0:
308,49,97925,1,0,1:0:0:0:
308,49,98000,1,8,1:2:0:0:
136,111,98150,1,8,0:0:0:0:
136,111,98225,1,8,0:0:0:0:
136,111,98300,5,4,1:0:0:0:
390,178,98450,1,8,0:0:0:0:
94,198,98750,5,4,1:0:0:0:
411,100,98900,1,8,0:0:0:0:
53,105,99200,5,4,1:0:0:0:
317,214,99350,1,8,0:0:0:0:
34,284,99650,5,4,1:0:0:0:
278,143,99800,1,8,0:0:0:0:
396,306,99950,1,0,1:0:0:0:
396,306,100025,1,0,1:0:0:0:
396,306,100100,5,4,1:0:0:0:
70,205,100250,1,8,0:0:0:0:
376,111,100700,5,4,1:0:0:0:
122,178,100850,1,8,0:0:0:0:
418,198,101150,5,4,1:0:0:0:
101,100,101300,1,8,0:0:0:0:
459,105,101600,5,4,1:0:0:0:
195,214,101750,1,8,0:0:0:0:
478,284,102050,5,4,1:0:0:0:
234,143,102200,1,8,0:0:0:0:
116,306,102350,1,0,1:0:0:0:
116,306,102425,1,0,1:0:0:0:
116,306,102500,5,4,1:0:0:0:
442,205,102650,1,8,0:0:0:0:
255,85,103100,5,6,0:0:0:0:
237,184,103250,1,0,0:0:0:0:
332,151,103400,1,0,0:0:0:0:
210,94,103550,5,0,1:0:0:0:
219,204,103700,1,0,0:0:0:0:
310,141,103850,1,0,0:0:0:0:
164,116,104000,5,0,1:0:0:0:
205,230,104150,1,0,0:0:0:0:
284,137,104300,1,0,0:0:0:0:
121,152,104450,5,0,1:0:0:0:
197,261,104600,1,0,0:0:0:0:
254,140,104750,1,0,0:0:0:0:
85,202,104900,5,0,1:0:0:0:
197,296,105050,1,0,0:0:0:0:
223,151,105200,1,0,0:0:0:0:
60,265,105350,5,0,1:0:0:0:
206,333,105500,1,0,0:0:0:0:
193,171,105650,1,0,0:0:0:0:
358,250,105800,5,12,1:2:0:0:
63,151,105950,1,12,1:2:0:0:
