osu file format v14

[General]
AudioFilename: audio.mp3
AudioLeadIn: 0
PreviewTime: 53900
Countdown: 0
SampleSet: Soft
StackLeniency: 0.6
Mode: 0
LetterboxInBreaks: 0
WidescreenStoryboard: 1

[Editor]
Bookmarks: 1700,10100,29300,34700,44300,53900,63500,73100,81500,98300,103100
DistanceSpacing: 1
BeatDivisor: 4
GridSize: 4
TimelineZoom: 2.799999

[Metadata]
Title:Lilieze to Enryuu Laevateinn
TitleUnicode:リリーゼと炎龍レーヴァテイン
Artist:Kuroneko Dungeon
ArtistUnicode:黒猫ダンジョン
Creator:mithew
Version:Extra
Source:REFLEC BEAT colette -Summer-
Tags:beatmania IIDX 22 PENDUAL Tomosuke Funaki OLDSTYLE GAMEMUSIC BeatStream アニムトライヴ pop'n music うさぎと猫と少年の夢 plus KONAMI BEMANI sdafsf
BeatmapID:1401127
BeatmapSetID:637301

[Difficulty]
HPDrainRate:6
CircleSize:4
OverallDifficulty:8
ApproachRate:9.3
SliderMultiplier:1.8
SliderTickRate:1

[Events]
//Background and Video events
0,0,"36528051_p0.jpg",0,0
//Break Periods
//Storyboard Layer 0 (Background)
//Storyboard Layer 1 (Fail)
//Storyboard Layer 2 (Pass)
//Storyboard Layer 3 (Foreground)
//Storyboard Sound Samples

[TimingPoints]
500,300,4,2,1,80,1,0
29300,-133.333333333333,4,2,1,80,0,0
29900,-117.647058823529,4,2,1,80,0,0
30500,-105.263157894737,4,2,1,80,0,0
31100,-95.2380952380951,4,2,1,80,0,0
34700,300,4,2,1,80,1,0
41900,-90.9090909090909,4,2,1,80,0,0
53900,-90.9090909090909,4,2,1,80,0,1
63500,-90.9090909090909,4,2,1,80,0,0
69800,-80,4,2,1,80,0,0
72650,-100,4,2,1,80,0,0
73100,-80,4,2,1,80,0,0
74300,-100,4,2,1,80,0,0
74900,-66.6666666666667,4,2,1,80,0,0
75800,-80,4,2,1,80,0,0
76100,-100,4,2,1,80,0,0
76700,-80,4,2,1,80,0,0
80300,-133.333333333333,4,2,1,80,0,0
80600,-100,4,2,1,80,0,0
80900,-80,4,2,1,80,0,0
81200,-100,4,2,1,80,0,0
81500,-100,4,2,1,80,0,1
98300,-80,4,2,1,80,0,0
103100,-80,4,2,2,80,0,0
103550,-80,4,2,1,80,0,0

[Colours]
Combo1 : 186,79,63
Combo2 : 245,75,75
Combo3 : 186,120,120
Combo4 : 251,0,0

[HitObjects]
219,227,500,5,8,0:0:0:0:
219,249,575,1,8,0:0:0:0:
219,271,650,2,0,L|216:375,1,90,0|0,1:0|1:0,1:1:0:0:
117,166,950,5,8,0:0:0:0:
117,188,1025,1,8,0:0:0:0:
117,210,1100,2,0,L|114:314,1,90,0|0,1:0|1:0,1:1:0:0:
53,88,1400,5,8,0:0:0:0:
86,88,1475,1,8,0:0:0:0:
120,89,1550,1,8,0:0:0:0:
154,90,1625,1,8,0:0:0:0:
187,91,1700,6,0,L|291:93,1,90,4|0,1:0|0:0,0:0:0:0:
376,96,2000,1,0,0:0:0:0:
234,0,2150,1,8,0:0:0:0:
376,96,2300,6,0,L|374:191,1,90,0|0,0:0|0:0,0:0:0:0:
371,284,2600,1,0,0:0:0:0:
481,163,2750,1,8,0:0:0:0:
371,284,2900,6,0,L|266:251,2,90
206,228,3350,1,8,0:0:0:0:
374,185,3500,1,0,0:0:0:0:
374,185,3575,1,0,0:0:0:0:
374,185,3650,1,0,0:0:0:0:
175,217,3800,1,8,0:0:0:0:
319,91,3950,1,0,0:0:0:0:
145,112,4100,6,0,L|136:218,1,90,0|0,0:0|1:0,0:0:0:0:
34,59,4400,1,8,0:0:0:0:
182,127,4550,2,0,L|173:233,1,90,0|0,0:0|1:0,0:0:0:0:
7,50,4850,1,8,0:0:0:0:
256,32,5000,1,0,1:0:0:0:
256,32,5075,1,0,0:0:0:0:
256,32,5150,2,0,L|251:84,1,45,8|8,0:0|0:0,0:0:0:0:
235,248,5300,5,4,1:0:0:0:
379,213,5450,1,0,1:0:0:0:
379,213,5525,1,0,0:0:0:0:
379,213,5600,1,8,0:0:0:0:
198,256,5750,1,0,1:0:0:0:
325,314,5900,1,8,0:0:0:0:
162,266,6050,6,0,L|153:369,1,90,0|0,0:0|1:0,0:0:0:0:
56,218,6350,1,8,0:0:0:0:
56,218,6500,2,0,L|47:321,1,90,0|8,1:0|0:0,0:0:0:0:
236,282,6800,5,0,0:0:0:0:
392,246,6950,1,0,1:0:0:0:
392,246,7025,1,0,1:0:0:0:
392,246,7100,1,12,0:0:0:0:
206,291,7250,1,0,1:0:0:0:
382,333,7400,1,8,0:0:0:0:
255,167,7550,5,0,0:0:0:0:
288,344,7700,1,0,1:0:0:0:
425,227,7850,1,8,0:0:0:0:
206,291,8000,1,0,1:0:0:0:
420,342,8150,1,8,0:0:0:0:
345,123,8300,6,0,L|339:226,1,90,0|0,0:0|1:0,0:0:0:0:
339,212,8525,1,0,0:0:0:0:
339,212,8600,1,8,0:0:0:0:
204,179,8750,1,0,1:0:0:0:
422,154,8900,1,8,0:0:0:0:
217,53,9050,5,0,1:0:0:0:
195,277,9200,1,8,0:0:0:0:
195,277,9275,1,8,0:0:0:0:
195,277,9350,1,8,0:0:0:0:
339,212,9500,1,0,1:0:0:0:
84,108,9650,1,8,0:0:0:0:
84,108,9725,1,0,0:0:0:0:
84,108,9800,1,8,0:0:0:0:
81,141,9875,1,0,0:0:0:0:
79,175,9950,1,8,0:0:0:0:
77,209,10025,1,0,0:0:0:0:
75,242,10100,6,0,L|68:368,1,120,4|0,1:0|0:0,0:0:0:0:
195,277,10400,2,0,L|188:157,1,120,8|0,1:2|0:0,0:0:0:0:
182,68,10700,2,0,L|178:2,2,60,0|0|0,1:0|0:0|0:0,0:0:0:0:
188,157,11000,1,8,1:2:0:0:
437,242,11300,6,0,L|444:368,1,120,0|0,1:0|0:0,0:0:0:0:
317,277,11600,2,0,L|324:157,1,120,8|0,1:2|0:0,0:0:0:0:
330,68,11900,2,0,L|334:2,2,60,0|0|0,1:0|0:0|0:0,0:0:0:0:
323,157,12200,1,8,1:2:0:0:
320,217,12300,1,0,1:0:0:0:
317,277,12400,1,0,1:0:0:0:
314,337,12500,6,0,L|380:341,2,60,4|0|0,1:0|0:0|1:0,0:0:0:0:
171,265,12800,2,0,L|105:269,2,60,8|0|0,1:2|0:0|1:0,0:0:0:0:
320,217,13100,2,0,L|386:221,2,60,0|0|0,1:0|0:0|0:0,0:0:0:0:
177,145,13400,1,8,1:2:0:0:
177,145,13700,5,0,1:0:0:0:
174,206,13800,1,0,0:0:0:0:
171,265,13900,1,0,1:0:0:0:
168,324,14000,2,0,L|164:383,2,60,8|0|0,1:2|0:0|1:0,0:0:0:0:
320,217,14300,5,0,1:0:0:0:
321,247,14400,1,0,0:0:0:0:
323,277,14500,1,0,0:0:0:0:
323,306,14600,5,8,1:2:0:0:
384,309,14700,1,0,1:0:0:0:
444,312,14800,1,0,1:0:0:0:
504,315,14900,6,0,P|496:245|511:193,1,120,4|0,1:1|0:0,1:1:0:0:
387,62,15200,2,0,P|400:120|391:179,1,120,8|0,1:2|0:0,1:1:0:0:
366,269,15500,2,0,P|350:295|314:324,2,60,0|0|0,1:0|0:0|0:0,1:1:0:0:
391,179,15800,1,8,1:2:0:0:
8,315,16100,6,0,P|15:245|1:193,1,120,0|0,1:0|0:0,1:1:0:0:
125,62,16400,2,0,P|111:120|120:179,1,120,8|0,1:2|0:0,1:1:0:0:
146,269,16700,2,0,P|162:295|198:324,2,60,0|0|0,1:0|0:0|0:0,1:1:0:0:
120,179,17000,1,8,1:2:0:0:
111,120,17100,1,0,1:0:0:0:
125,62,17200,1,0,1:0:0:0:
169,22,17300,6,0,L|103:18,2,60,4|0|0,1:0|0:0|1:0,1:1:0:0:
312,94,17600,2,0,L|378:90,2,60,8|0|0,1:2|0:0|1:0,1:1:0:0:
163,142,17900,2,0,L|97:138,2,60,0|0|0,1:0|0:0|0:0,1:1:0:0:
306,214,18200,1,8,1:2:0:0:
306,214,18500,5,0,1:0:0:0:
305,243,18600,1,0,1:0:0:0:
304,273,18700,1,0,1:0:0:0:
303,303,18800,2,0,L|301:364,2,60,8|0|0,1:2|1:0|1:0,0:0:0:0:
160,300,19100,6,0,L|196:273,3,45,0|0|0|0,1:0|1:0|1:0|1:0,0:0:0:0:
82,146,19400,1,8,0:0:0:0:
81,179,19475,1,8,0:0:0:0:
80,213,19550,1,8,0:0:0:0:
79,247,19625,1,8,0:0:0:0:
79,280,19700,6,0,L|79:350,3,45,4|0|0|0,1:0|0:0|0:0|0:0,0:0:0:0:
196,273,20000,2,0,L|165:242,3,45,8|0|0|0,0:0|0:0|0:0|0:0,0:0:0:0:
196,153,20300,2,0,L|263:153,3,45,0|0|0|0,1:0|0:0|0:0|0:0,0:0:0:0:
83,121,20600,1,8,0:0:0:0:
83,104,20675,1,0,0:0:0:0:
84,87,20750,1,0,0:0:0:0:
84,70,20825,1,0,0:0:0:0:
85,53,20900,5,0,1:0:0:0:
109,72,20975,1,0,0:0:0:0:
139,81,21050,1,0,0:0:0:0:
170,77,21125,1,0,0:0:0:0:
197,61,21200,1,8,0:0:0:0:
224,45,21275,1,0,0:0:0:0:
255,41,21350,1,0,0:0:0:0:
285,50,21425,1,0,0:0:0:0:
309,69,21500,6,0,P|328:85|345:119,3,45,0|0|0|0,1:0|0:0|0:0|0:0,0:0:0:0:
431,95,21800,2,0,P|433:119|421:155,3,45,8|8|8|8,0:0|0:0|0:0|0:0,0:0:0:0:
498,199,22100,5,4,1:0:0:0:
475,224,22175,1,0,0:0:0:0:
445,239,22250,1,0,0:0:0:0:
412,241,22325,1,0,0:0:0:0:
380,232,22400,2,0,P|349:215|326:188,3,45,8|0|0|0,0:0|0:0|0:0|0:0,0:0:0:0:
240,170,22700,1,0,1:0:0:0:
240,187,22775,1,0,0:0:0:0:
239,204,22850,1,0,0:0:0:0:
239,221,22925,1,0,0:0:0:0:
238,238,23000,5,8,0:0:0:0:
210,218,23075,1,0,0:0:0:0:
177,213,23150,1,0,0:0:0:0:
145,224,23225,1,0,0:0:0:0:
121,247,23300,2,0,P|101:268|86:293,3,45,0|0|0|0,1:0|0:0|0:0|0:0,0:0:0:0:
193,354,23600,2,0,P|189:332|190:310,3,45,8|0|0|0,0:0|0:0|0:0|0:0,0:0:0:0:
283,305,23900,2,0,P|298:321|316:334,3,45,0|0|0|0,1:0|0:0|0:0|0:0,0:0:0:0:
389,230,24200,2,0,P|367:234|345:235,3,45,8|0|0|0,0:0|1:0|1:0|1:0,0:0:0:0:
365,106,24500,5,4,1:0:0:0:
344,133,24575,1,0,0:0:0:0:
314,149,24650,1,0,0:0:0:0:
281,153,24725,1,0,0:0:0:0:
249,144,24800,2,0,P|232:135|206:109,3,45,8|0|0|0,0:0|0:0|0:0|0:0,0:0:0:0:
97,15,25100,5,0,1:0:0:0:
94,48,25175,1,0,0:0:0:0:
91,82,25250,1,0,0:0:0:0:
88,115,25325,1,0,0:0:0:0:
85,148,25400,1,8,0:0:0:0:
82,182,25475,1,0,0:0:0:0:
79,215,25550,1,0,0:0:0:0:
76,248,25625,1,0,0:0:0:0:
73,282,25700,6,0,P|61:316|66:353,2,60,0|0|0,1:0|0:0|0:0,0:0:0:0:
218,177,26000,2,0,P|223:148|212:117,2,60,8|0|0,0:0|0:0|0:0,0:0:0:0:
232,319,26300,1,0,1:0:0:0:
232,319,26375,1,0,0:0:0:0:
232,319,26450,1,0,0:0:0:0:
232,319,26525,1,0,0:0:0:0:
232,319,26600,5,8,0:0:0:0:
262,304,26675,1,0,1:0:0:0:
295,299,26750,1,0,1:0:0:0:
328,304,26825,1,0,1:0:0:0:
358,319,26900,6,0,L|394:352,3,45,4|0|0|0,1:0|0:0|0:0|0:0,0:0:0:0:
407,203,27200,2,0,L|363:205,3,45,8|0|0|0,0:0|0:0|0:0|0:0,0:0:0:0:
275,131,27500,6,0,P|293:107|316:87,2,60,0|0|0,1:0|0:0|0:0,0:0:0:0:
168,69,27800,2,0,P|175:97|170:132,2,60,8|0|0,0:0|0:0|0:0,0:0:0:0:
33,41,28100,5,0,1:0:0:0:
33,63,28175,1,0,0:0:0:0:
34,85,28250,1,0,0:0:0:0:
35,108,28325,1,0,0:0:0:0:
35,130,28400,1,8,0:0:0:0:
35,152,28475,1,0,0:0:0:0:
36,174,28550,1,0,0:0:0:0:
37,197,28625,1,0,0:0:0:0:
37,219,28700,5,8,0:0:0:0:
76,198,28775,1,8,0:0:0:0:
120,201,28850,1,8,0:0:0:0:
156,227,28925,1,8,0:0:0:0:
172,268,29000,1,0,1:0:0:0:
164,312,29075,1,0,1:0:0:0:
134,344,29150,1,0,1:0:0:0:
92,356,29225,1,0,1:0:0:0:
49,343,29300,6,0,L|40:251,2,67.5000025749208,12|0|8,0:0|0:0|0:0,0:0:0:0:
33,168,29750,1,0,0:0:0:0:
164,312,29900,6,0,L|163:205,2,76.5000014591217,8|0|8,0:0|0:0|0:0,0:0:0:0:
163,136,30350,1,0,0:0:0:0:
281,291,30500,6,0,L|289:184,2,85.4999977169037,8|0|8,0:0|0:0|0:0,0:0:0:0:
295,115,30950,1,0,0:0:0:0:
400,281,31100,6,0,L|417:176,2,94.499997116089,8|0|8,0:0|0:0|0:0,0:0:0:0:
429,106,31550,1,0,0:0:0:0:
262,118,31700,5,8,0:0:0:0:
415,187,31850,1,0,0:0:0:0:
292,220,32000,1,8,0:0:0:0:
447,178,32150,1,0,0:0:0:0:
201,186,32300,5,8,0:0:0:0:
371,255,32450,1,0,0:0:0:0:
252,306,32600,1,8,0:0:0:0:
405,262,32750,1,0,0:0:0:0:
142,279,32900,5,8,0:0:0:0:
354,331,33050,1,0,0:0:0:0:
232,384,33200,1,8,0:0:0:0:
405,340,33350,1,0,0:0:0:0:
266,140,33500,5,8,0:0:0:0:
128,297,33650,1,8,0:0:0:0:
368,250,33800,1,8,0:0:0:0:
94,141,33950,1,8,0:0:0:0:
94,141,34250,5,0,1:0:0:0:
94,141,34325,1,0,1:0:0:0:
94,141,34400,2,0,P|102:180|94:208,1,47.2499985580445,8|8,0:0|0:0,0:0:0:0:
9,279,34550,2,0,P|9:256|17:234,1,47.2499985580445,0|0,1:0|1:0,0:0:0:0:
215,159,34700,6,0,L|215:254,1,90,4|0,1:0|0:0,0:0:0:0:
306,75,35000,2,0,L|203:56,1,90,10|0,0:0|0:0,0:0:0:0:
122,42,35300,1,0,0:0:0:0:
362,0,35450,2,0,P|399:76|338:165,1,180,2|0,1:2|0:0,0:0:0:0:
131,162,35900,6,0,P|179:146|221:163,2,90,2|0|8,1:2|0:0|0:0,0:0:0:0:
357,154,36350,1,2,0:0:0:0:
357,154,36425,1,0,0:0:0:0:
357,154,36500,2,0,L|354:243,1,90,0|0,0:0|0:0,0:0:0:0:
458,362,36800,2,0,L|455:273,1,90,10|0,0:0|0:0,0:0:0:0:
223,264,37100,6,0,L|223:359,1,90,0|0,1:0|0:0,0:0:0:0:
132,180,37400,2,0,L|220:163,1,90,10|0,0:0|0:0,0:0:0:0:
220,163,37625,1,0,0:0:0:0:
220,163,37700,1,0,0:0:0:0:
12,210,37850,1,2,1:2:0:0:
223,264,38000,2,0,L|223:359,1,90,0|0,0:0|0:0,0:0:0:0:
248,74,38300,2,0,P|299:116|310:182,1,135,2|0,1:2|0:0,0:0:0:0:
310,181,38600,1,8,0:0:0:0:
286,205,38675,1,0,0:0:0:0:
275,236,38750,1,0,0:0:0:0:
278,270,38825,1,0,0:0:0:0:
295,299,38900,2,0,P|304:325|294:361,3,45,0|0|0|0,0:0|0:0|0:0|0:0,0:0:0:0:
447,333,39200,5,8,0:0:0:0:
446,288,39275,1,8,0:0:0:0:
445,243,39350,1,8,0:0:0:0:
444,198,39425,1,8,0:0:0:0:
443,153,39500,6,0,L|443:58,1,90,4|0,1:0|0:0,0:0:0:0:
356,226,39800,2,0,L|459:245,1,90,10|0,0:0|0:0,0:0:0:0:
445,243,40025,1,0,0:0:0:0:
445,243,40100,1,0,0:0:0:0:
306,144,40250,2,0,P|261:218|295:299,1,180,2|0,1:2|0:0,0:0:0:0:
135,260,40700,6,0,L|127:350,2,90,2|0|8,1:2|0:0|0:0,0:0:0:0:
294,300,41150,1,2,0:0:0:0:
294,300,41225,1,0,0:0:0:0:
294,300,41300,2,0,L|395:315,1,90,0|0,0:0|1:0,0:0:0:0:
306,144,41600,2,0,L|205:159,1,90,10|0,0:0|0:0,0:0:0:0:
471,107,41900,6,0,P|463:174|471:228,1,99.0000030212403,4|0,1:0|0:0,0:0:0:0:
306,144,42200,1,10,0:0:0:0:
306,144,42350,2,0,L|317:37,1,99.0000030212403,0|0,0:0|0:0,0:0:0:0:
168,248,42650,1,2,1:2:0:0:
168,248,42800,2,0,L|157:141,1,99.0000030212403
244,351,43100,6,0,P|307:318|396:359,1,148.50000453186,6|0,1:2|0:0,0:0:0:0:
377,339,43400,5,8,0:0:0:0:
409,355,43475,1,0,0:0:0:0:
446,354,43550,1,0,0:0:0:0:
478,337,43625,1,0,0:0:0:0:
499,306,43700,2,0,P|507:274|506:237,3,49.5000015106202,0|0|0|0,1:0|0:0|0:0|0:0,0:0:0:0:
429,120,44000,5,8,0:0:0:0:
379,122,44075,1,8,0:0:0:0:
330,124,44150,1,8,0:0:0:0:
280,126,44225,1,8,0:0:0:0:
231,128,44300,5,6,1:2:0:0:
354,37,44450,1,0,0:0:0:0:
350,228,44600,2,0,L|347:329,1,99.0000030212403,8|0,0:0|0:0,0:0:0:0:
203,212,44900,5,0,0:0:0:0:
353,146,45050,1,0,1:0:0:0:
133,123,45200,1,8,0:0:0:0:
283,189,45350,1,0,0:0:0:0:
109,348,45500,6,0,L|114:250,1,99.0000030212403,2|0,1:2|0:0,0:0:0:0:
287,90,45800,2,0,L|282:205,1,99.0000030212403,8|0,0:0|0:0,0:0:0:0:
274,346,46100,1,2,1:2:0:0:
432,354,46250,1,2,1:2:0:0:
439,195,46400,1,10,0:2:0:0:
282,188,46550,1,0,0:2:0:0:
512,111,46700,6,0,L|520:218,1,99.0000030212403,6|0,1:2|0:0,0:0:0:0:
289,286,47000,2,0,L|281:187,1,99.0000030212403,8|0,0:0|0:0,0:0:0:0:
113,79,47300,2,0,L|63:111,2,49.5000015106202,2|2|2,0:2|0:2|1:2,0:0:0:0:
198,38,47600,2,0,L|201:160,1,99.0000030212403,8|0,0:0|0:0,0:0:0:0:
214,342,47900,5,2,1:2:0:0:
370,305,48050,1,0,0:0:0:0:
191,349,48200,1,8,0:0:0:0:
269,252,48350,1,0,0:0:0:0:
314,368,48500,1,0,0:0:0:0:
146,233,48650,1,0,1:0:0:0:
364,156,48800,5,8,0:0:0:0:
365,193,48875,1,8,0:0:0:0:
366,230,48950,1,8,0:0:0:0:
368,267,49025,1,8,0:0:0:0:
369,304,49100,5,6,1:2:0:0:
457,149,49250,1,0,0:0:0:0:
364,156,49400,1,8,0:0:0:0:
271,163,49550,1,0,0:0:0:0:
451,50,49700,6,0,L|457:149,1,99.0000030212403,2|0,0:0|1:0,0:0:0:0:
265,261,50000,2,0,L|271:163,1,99.0000030212403,10|0,0:0|0:0,0:0:0:0:
64,82,50300,5,2,1:2:0:0:
51,239,50450,1,0,0:0:0:0:
169,84,50600,5,8,0:0:0:0:
71,221,50750,1,0,0:0:0:0:
271,162,50900,5,2,1:2:0:0:
298,328,51050,1,2,1:2:0:0:
131,355,51200,1,10,0:2:0:0:
104,189,51350,1,0,0:0:0:0:
39,331,51500,6,0,P|83:273|155:263,1,148.50000453186,6|0,1:2|0:0,0:0:0:0:
197,289,51800,2,0,P|202:239|197:190,1,99.0000030212403,8|0,0:0|0:0,0:0:0:0:
64,67,52100,2,0,L|20:123,2,49.5000015106202,2|2|2,1:2|0:2|1:2,0:0:0:0:
155,29,52400,2,0,L|285:38,1,99.0000030212403,8|0,0:0|0:0,0:0:0:0:
435,77,52700,5,2,1:2:0:0:
279,114,52850,1,0,0:0:0:0:
458,70,53000,1,8,0:0:0:0:
380,167,53150,1,0,1:0:0:0:
335,51,53300,5,0,0:0:0:0:
483,175,53450,1,0,1:0:0:0:
295,196,53600,1,8,0:0:0:0:
481,63,53750,1,0,0:0:0:0:
253,35,53900,6,0,P|201:35|149:58,2,99.0000030212403,4|0|8,1:0|0:0|0:0,0:0:0:0:
46,40,54350,2,0,L|36:144,1,99.0000030212403,4|0,1:0|0:0,0:0:0:0:
36,138,54575,1,0,0:0:0:0:
36,138,54650,1,8,0:0:0:0:
127,341,54800,6,0,B|77:335|77:335|32:353,2,99.0000030212403,4|0|8,1:0|0:0|0:0,0:0:0:0:
321,367,55250,1,4,1:0:0:0:
321,367,55400,2,0,L|332:257,1,99.0000030212403,0|8,0:0|0:0,0:0:0:0:
356,71,55700,1,8,0:0:0:0:
356,71,55775,1,8,0:0:0:0:
356,71,55850,1,8,0:0:0:0:
356,71,55925,1,8,0:0:0:0:
356,71,56000,5,0,1:0:0:0:
318,71,56075,1,0,1:0:0:0:
281,72,56150,1,0,1:0:0:0:
244,73,56225,1,0,1:0:0:0:
207,74,56300,5,12,0:0:0:0:
323,200,56450,1,0,0:0:0:0:
156,237,56600,1,0,1:0:0:0:
301,103,56750,1,12,0:0:0:0:
250,266,56900,1,0,0:0:0:0:
250,266,56975,1,0,0:0:0:0:
250,266,57050,1,0,1:0:0:0:
134,140,57200,5,12,0:0:0:0:
323,200,57350,1,0,0:0:0:0:
134,140,57500,1,0,1:0:0:0:
323,200,57650,1,12,0:0:0:0:
140,42,57800,6,0,L|134:140,1,99.0000030212403,0|0,0:0|1:0,0:0:0:0:
122,311,58100,1,0,1:0:0:0:
122,311,58175,1,0,1:0:0:0:
122,311,58250,2,0,L|126:262,1,49.5000015106202,0|0,1:0|1:0,0:0:0:0:
56,83,58400,5,8,0:0:0:0:
92,50,58475,1,8,0:0:0:0:
140,41,58550,1,8,0:0:0:0:
185,58,58625,1,8,0:0:0:0:
215,96,58700,6,0,P|267:111|324:91,2,99.0000030212403,4|0|8,1:0|0:0|0:0,0:0:0:0:
407,34,59150,2,0,L|407:154,1,99.0000030212403,4|0,1:0|0:0,0:0:0:0:
407,133,59375,1,0,0:0:0:0:
407,133,59450,1,8,0:0:0:0:
385,341,59600,2,0,B|435:335|435:335|480:353,2,99.0000030212403,4|0|8,1:0|0:0|0:0,0:0:0:0:
202,244,60050,1,4,1:0:0:0:
202,244,60200,2,0,L|197:351,1,99.0000030212403,0|8,0:0|0:0,0:0:0:0:
123,173,60500,1,8,0:0:0:0:
123,173,60575,1,8,0:0:0:0:
123,173,60650,1,8,0:0:0:0:
123,173,60725,1,8,0:0:0:0:
123,173,60800,5,0,1:0:0:0:
161,143,60875,1,0,1:0:0:0:
210,134,60950,1,0,1:0:0:0:
256,150,61025,1,0,1:0:0:0:
290,186,61100,5,12,0:0:0:0:
149,62,61250,1,0,0:0:0:0:
113,247,61400,1,0,1:0:0:0:
253,84,61550,1,12,0:0:0:0:
77,144,61700,1,0,0:0:0:0:
77,144,61775,1,0,0:0:0:0:
77,144,61850,1,0,1:0:0:0:
218,267,62000,5,12,0:0:0:0:
253,84,62150,1,0,0:0:0:0:
218,267,62300,1,0,1:0:0:0:
253,84,62450,1,12,0:0:0:0:
379,225,62600,5,0,0:0:0:0:
195,190,62750,1,0,1:0:0:0:
414,106,62900,1,0,1:0:0:0:
414,106,62975,1,0,1:0:0:0:
414,106,63050,2,0,L|414:173,1,49.5000015106202,0|0,1:0|1:0,1:0:0:0:
413,346,63200,1,8,0:0:0:0:
382,324,63275,1,8,0:0:0:0:
346,316,63350,1,8,0:0:0:0:
310,323,63425,1,8,0:0:0:0:
279,343,63500,6,0,L|266:230,1,99.0000030212403,4|0,1:0|0:0,0:0:0:0:
267,245,63725,1,0,0:0:0:0:
267,245,63800,1,8,0:0:0:0:
73,323,63950,5,0,0:0:0:0:
73,340,64025,1,0,0:0:0:0:
73,357,64100,1,0,0:0:0:0:
164,286,64250,1,0,1:0:0:0:
164,269,64325,1,0,0:0:0:0:
164,252,64400,1,8,0:0:0:0:
73,181,64550,1,0,0:0:0:0:
73,198,64625,1,0,0:0:0:0:
73,215,64700,5,0,1:0:0:0:
3,115,64850,1,0,0:0:0:0:
3,115,64925,1,0,0:0:0:0:
3,115,65000,2,0,P|41:86|116:89,1,99.0000030212403,8|0,0:0|0:0,0:0:0:0:
280,139,65300,5,0,0:0:0:0:
245,149,65375,1,0,0:0:0:0:
222,178,65450,1,0,1:0:0:0:
219,214,65525,1,0,0:0:0:0:
237,246,65600,2,0,L|234:303,2,49.5000015106202,8|0|0,0:0|0:0|0:0,0:0:0:0:
430,332,65900,5,0,1:0:0:0:
409,287,65975,1,0,0:0:0:0:
415,239,66050,1,0,0:0:0:0:
446,200,66125,1,0,0:0:0:0:
492,184,66200,1,8,0:0:0:0:
512,139,66275,1,0,0:0:0:0:
506,91,66350,1,0,0:0:0:0:
475,52,66425,1,0,0:0:0:0:
429,36,66500,6,0,L|360:27,3,49.5000015106202,0|0|0|0,0:0|0:0|1:0|0:0,0:0:0:0:
297,118,66800,2,0,L|247:124,3,49.5000015106202,8|0|0|0,0:0|0:0|0:0|0:0,0:0:0:0:
148,58,67100,5,0,1:0:0:0:
147,67,67175,1,0,0:0:0:0:
146,77,67250,1,0,0:0:0:0:
145,87,67325,1,0,0:0:0:0:
144,97,67400,2,0,L|137:152,3,49.5000015106202,8|0|0|8,0:0|0:0|0:0|0:0,0:0:0:0:
297,266,67700,5,0,1:0:0:0:
297,241,67775,1,0,1:0:0:0:
297,216,67850,1,0,1:0:0:0:
297,191,67925,1,0,0:0:0:0:
297,167,68000,2,0,L|296:103,1,49.5000015106202,8|8,0:0|0:0,0:0:0:0:
434,0,68150,2,0,L|431:64,1,49.5000015106202,8|8,0:0|0:0,0:0:0:0:
296,40,68300,5,0,1:0:0:0:
424,197,68450,1,0,0:0:0:0:
423,217,68525,1,0,0:0:0:0:
422,237,68600,1,8,0:0:0:0:
297,162,68750,5,0,0:0:0:0:
295,185,68825,1,0,0:0:0:0:
294,210,68900,1,0,1:0:0:0:
170,126,69050,5,0,1:0:0:0:
169,155,69125,1,0,0:0:0:0:
167,187,69200,1,8,0:0:0:0:
43,89,69350,5,0,0:0:0:0:
42,125,69425,1,0,0:0:0:0:
40,164,69500,1,0,1:0:0:0:
231,73,69650,1,0,0:0:0:0:
231,73,69725,1,0,0:0:0:0:
231,73,69800,2,0,P|184:47|110:71,1,112.5,8|0,0:0|0:0,0:0:0:0:
128,56,70025,1,8,0:0:0:0:
128,56,70100,5,0,0:0:0:0:
152,251,70250,5,0,1:0:0:0:
156,223,70325,1,0,0:0:0:0:
160,195,70400,1,8,0:0:0:0:
164,167,70475,1,0,0:0:0:0:
168,140,70550,1,0,0:0:0:0:
328,43,70700,5,0,1:0:0:0:
381,38,70775,1,0,0:0:0:0:
428,63,70850,1,0,0:0:0:0:
454,109,70925,1,0,0:0:0:0:
451,162,71000,1,8,0:0:0:0:
420,206,71075,1,0,0:0:0:0:
371,225,71150,1,0,0:0:0:0:
319,216,71225,1,8,0:0:0:0:
280,179,71300,6,0,L|249:85,3,56.25,0|0|0|0,0:0|0:0|1:0|0:0,0:0:0:0:
160,36,71600,2,0,L|141:90,3,56.25,8|0|0|0,0:0|0:0|0:0|0:0,0:0:0:0:
39,180,71900,1,0,1:0:0:0:
38,196,71975,1,0,0:0:0:0:
37,213,72050,1,0,0:0:0:0:
36,230,72125,1,0,0:0:0:0:
35,246,72200,5,8,0:0:0:0:
81,215,72275,1,0,0:0:0:0:
137,209,72350,1,0,0:0:0:0:
189,228,72425,1,8,0:0:0:0:
227,269,72500,2,0,P|256:282|296:275,1,56.25,0|0,0:0|0:0,0:0:0:0:
465,208,72650,1,0,1:0:0:0:
465,208,72725,1,0,0:0:0:0:
465,208,72800,2,0,L|460:152,1,45,8|8,0:0|0:0,0:0:0:0:
358,47,72950,2,0,L|353:103,1,45,8|8,0:0|0:0,0:0:0:0:
334,368,73100,6,0,L|177:353,1,150,4|0,1:0|0:0,0:0:0:0:
77,283,73400,2,0,L|226:268,1,150,4|0,1:0|0:0,0:0:0:0:
387,253,73700,2,0,L|470:247,2,75,4|0|0,1:0|0:0|0:0,0:0:0:0:
216,140,74000,1,0,0:0:0:0:
220,193,74100,2,0,L|226:268,1,75,0|0,0:0|0:0,0:0:0:0:
138,111,74300,5,8,0:0:0:0:
180,69,74400,1,8,0:0:0:0:
238,64,74500,1,0,1:0:0:0:
287,98,74600,2,0,P|332:120|381:114,2,60,0|0|0,1:0|0:0|0:0,1:1:0:0:
449,115,74900,6,0,L|452:26,1,90.0000034332277,12|0,1:2|0:2,0:0:0:0:
338,210,75100,2,0,L|341:121,1,90.0000034332277,12|0,1:2|0:2,0:0:0:0:
227,305,75300,2,0,L|230:216,1,90.0000034332277,12|0,1:2|0:2,0:0:0:0:
444,218,75500,5,4,1:0:0:0:
443,240,75600,1,0,0:0:0:0:
442,262,75700,1,0,1:0:0:0:
441,284,75800,2,0,L|437:373,2,75,8|0|0,0:0|0:0|0:0,0:0:0:0:
144,227,76100,5,0,1:0:0:0:
186,269,76200,1,0,1:0:0:0:
244,274,76300,1,0,1:0:0:0:
293,240,76400,2,0,P|338:218|387:224,2,60,8|0|0,0:0|0:0|0:0,0:0:0:0:
43,119,76700,6,0,L|58:276,1,150,12|0,1:2|0:0,0:0:0:0:
128,376,77000,2,0,L|143:227,1,150,12|0,1:2|0:0,0:0:0:0:
156,101,77300,2,0,L|162:18,2,75,4|0|0,1:0|0:0|0:0,0:0:0:0:
300,93,77600,1,0,0:0:0:0:
356,101,77700,1,0,0:0:0:0:
412,109,77800,1,0,0:0:0:0:
469,119,77900,6,0,L|454:276,1,150,12|0,1:2|0:0,0:0:0:0:
384,376,78200,2,0,L|369:227,1,150,12|0,1:2|0:0,0:0:0:0:
356,101,78500,2,0,L|350:18,2,75,12|0|0,1:2|0:0|0:0,0:0:0:0:
212,93,78800,1,0,0:0:0:0:
156,101,78900,1,0,0:0:0:0:
100,109,79000,1,0,0:0:0:0:
43,119,79100,6,0,L|58:276,1,150,12|0,1:2|0:0,0:0:0:0:
212,93,79400,2,0,L|226:242,1,150,12|0,1:2|0:0,0:0:0:0:
116,28,79700,2,0,L|138:253,1,225,12|0,1:2|0:0,0:0:0:0:
398,33,80300,6,0,L|457:51,2,45.0000017166138,8|0|0,0:0|1:0|1:0,0:0:0:0:
269,75,80600,6,0,L|210:93,2,60,0|8|8,1:0|0:0|0:0,0:0:0:0:
392,161,80900,6,0,L|475:188,3,56.25,0|0|0|0,1:0|0:0|0:0|0:0,0:0:0:0:
264,236,81200,6,0,L|220:252,3,45,8|0|0|0,0:0|0:0|0:0|0:0,0:0:0:0:
107,185,81500,6,0,L|99:377,1,180,4|8,1:2|0:0,0:0:0:0:
99,364,81950,1,0,0:0:0:0:
32,130,82100,2,0,P|111:90|195:160,1,180,0|8,0:0|0:0,0:0:0:0:
107,185,82550,1,0,0:0:0:0:
259,79,82700,6,0,L|255:174,1,90,0|0,1:2|0:0,0:0:0:0:
103,274,83000,2,0,L|107:185,1,90,8|0,0:0|0:0,0:0:0:0:
114,14,83300,1,0,0:0:0:0:
114,14,83375,1,0,0:0:0:0:
114,14,83450,1,0,1:0:0:0:
255,168,83600,1,8,0:0:0:0:
107,185,83750,1,0,0:0:0:0:
304,89,83900,6,0,P|348:166|297:255,1,180,4|8,1:0|0:0,0:0:0:0:
503,356,84350,2,0,P|468:276|512:201,1,180,0|0,0:0|1:0,0:0:0:0:
255,168,84800,2,0,B|203:193|203:193|135:172|135:172|65:201,1,180,8|0,0:0|1:0,0:0:0:0:
87,192,85250,1,0,0:0:0:0:
256,78,85400,2,0,L|255:168,1,90,8|0,0:0|0:0,0:0:0:0:
398,323,85700,2,0,P|397:277|368:230,1,90,0|0,0:0|1:0,0:0:0:0:
178,186,86000,1,8,0:0:0:0:
177,208,86075,1,8,0:0:0:0:
176,230,86150,1,8,0:0:0:0:
175,253,86225,1,8,0:0:0:0:
174,275,86300,6,0,P|125:326|70:238,1,180,4|8,1:0|0:0,0:0:0:0:
61,262,86750,1,0,0:0:0:0:
272,288,86900,2,0,L|272:108,1,180,0|8,0:0|0:0,0:0:0:0:
272,108,87350,1,0,0:0:0:0:
70,55,87500,6,0,L|62:150,1,90,0|0,1:0|0:0,0:0:0:0:
183,320,87800,2,0,L|175:230,1,90,8|0,0:0|0:0,0:0:0:0:
78,353,88100,1,0,0:0:0:0:
211,359,88250,1,0,1:0:0:0:
58,222,88400,1,8,0:0:0:0:
58,222,88550,1,0,0:0:0:0:
259,153,88700,6,0,L|160:137,1,90,4|8,1:0|0:0,0:0:0:0:
170,138,88925,1,8,0:0:0:0:
170,138,89000,1,0,1:0:0:0:
354,54,89150,1,4,1:0:0:0:
360,153,89300,1,0,1:0:0:0:
366,252,89450,1,0,1:0:0:0:
259,153,89600,5,12,0:0:0:0:
459,136,89750,1,0,1:0:0:0:
225,71,89900,6,0,P|168:151|211:224,1,180,4|8,1:0|0:0,0:0:0:0:
414,318,90350,2,0,P|444:237|388:172,1,180,0|0,1:0|1:0,0:0:0:0:
199,216,90800,1,8,0:0:0:0:
197,247,90875,1,8,0:0:0:0:
195,278,90950,1,8,0:0:0:0:
194,310,91025,1,8,0:0:0:0:
192,341,91100,6,0,P|281:321|356:375,1,180,4|8,1:0|0:0,0:0:0:0:
351,367,91550,1,0,0:0:0:0:
459,142,91700,2,0,L|458:322,1,180,0|8,0:0|0:0,0:0:0:0:
366,252,92150,1,0,0:0:0:0:
367,62,92300,6,0,L|469:48,1,90,0|0,1:0|0:0,0:0:0:0:
269,137,92600,2,0,L|167:123,1,90,8|0,0:0|0:0,0:0:0:0:
377,152,92900,1,0,0:0:0:0:
377,152,92975,1,0,0:0:0:0:
377,152,93050,1,0,1:0:0:0:
247,0,93200,1,8,0:0:0:0:
179,124,93350,1,0,0:0:0:0:
413,79,93500,6,0,P|456:146|395:233,1,180,4|8,1:0|0:0,0:0:0:0:
244,351,93950,2,0,P|201:284|262:197,1,180,0|0,0:0|1:0,0:0:0:0:
447,307,94400,2,0,B|389:314|389:314|331:273|331:273|280:277,1,180,8|0,0:0|1:0,0:0:0:0:
280,277,94850,1,0,0:0:0:0:
396,140,95000,2,0,L|494:134,1,90,8|0,0:0|0:0,0:0:0:0:
251,96,95300,2,0,L|153:90,1,90,0|0,0:0|1:0,0:0:0:0:
382,5,95600,1,8,0:0:0:0:
385,39,95675,1,8,0:0:0:0:
389,72,95750,1,0,1:0:0:0:
392,106,95825,1,0,1:0:0:0:
396,140,95900,6,0,P|335:219|371:326,1,180,4|8,1:0|0:0,0:0:0:0:
345,293,96350,1,0,0:0:0:0:
116,244,96500,2,0,P|177:165|141:58,1,180,0|8,0:0|0:0,0:0:0:0:
72,144,96950,1,0,0:0:0:0:
260,36,97100,6,0,L|357:51,1,90,0|0,1:0|0:0,0:0:0:0:
491,150,97400,2,0,L|394:165,1,90,8|0,0:0|1:0,0:0:0:0:
402,163,97625,1,0,1:0:0:0:
402,163,97700,1,0,1:0:0:0:
224,194,97850,2,0,L|173:204,2,45,0|0|8,1:0|1:0|0:0,0:0:0:0:
30,74,98150,1,8,0:0:0:0:
30,74,98225,1,8,0:0:0:0:
30,74,98300,5,4,1:0:0:0:
16,231,98450,1,8,0:0:0:0:
224,194,98750,5,4,1:0:0:0:
210,37,98900,1,8,0:0:0:0:
58,166,99200,5,4,1:0:0:0:
44,323,99350,1,8,0:0:0:0:
263,115,99650,5,4,1:0:0:0:
277,272,99800,1,8,0:0:0:0:
134,205,99950,1,0,1:0:0:0:
134,205,100025,1,0,1:0:0:0:
134,205,100100,1,4,1:0:0:0:
368,171,100250,1,8,0:0:0:0:
482,74,100700,5,4,1:0:0:0:
496,231,100850,1,8,0:0:0:0:
288,194,101150,5,4,1:0:0:0:
302,37,101300,1,8,0:0:0:0:
454,166,101600,5,4,1:0:0:0:
468,323,101750,1,8,0:0:0:0:
249,115,102050,5,4,1:0:0:0:
235,272,102200,1,8,0:0:0:0:
378,205,102350,1,0,1:0:0:0:
378,205,102425,1,0,1:0:0:0:
378,205,102500,1,4,1:0:0:0:
160,171,102650,1,8,0:0:0:0:
160,171,103100,5,6,0:0:0:0:
240,131,103250,1,0,0:0:0:0:
235,219,103400,1,0,0:0:0:0:
185,123,103550,5,0,1:0:0:0:
268,176,103700,1,0,0:0:0:0:
181,220,103850,1,0,0:0:0:0:
257,104,104000,5,0,1:0:0:0:
249,248,104150,1,0,0:0:0:0:
130,169,104300,1,0,0:0:0:0:
303,178,104450,5,0,1:0:0:0:
162,250,104600,1,0,0:0:0:0:
171,93,104750,1,0,0:0:0:0:
269,290,104900,5,0,1:0:0:0:
86,171,105050,1,0,0:0:0:0:
279,75,105200,1,0,0:0:0:0:
144,284,105350,5,0,1:0:0:0:
155,66,105500,1,0,0:0:0:0:
335,185,105650,1,0,0:0:0:0:
67,62,105800,5,12,1:2:0:0:
366,80,105950,1,12,1:2:0:0:
