osu file format v14

[General]
AudioFilename: audio.mp3
AudioLeadIn: 0
PreviewTime: 53900
Countdown: 0
SampleSet: Soft
StackLeniency: 0.6
Mode: 0
LetterboxInBreaks: 0
WidescreenStoryboard: 1

[Editor]
Bookmarks: 1700,10100,29300,34700,44300,53900,63500,73100,81500,98300,103100
DistanceSpacing: 1
BeatDivisor: 2
GridSize: 4
TimelineZoom: 2.799999

[Metadata]
Title:Lilieze to Enryuu Laevateinn
TitleUnicode:リリーゼと炎龍レーヴァテイン
Artist:Kuroneko Dungeon
ArtistUnicode:黒猫ダンジョン
Creator:mithew
Version:Easy
Source:REFLEC BEAT colette -Summer-
Tags:beatmania IIDX 22 PENDUAL Tomosuke Funaki OLDSTYLE GAMEMUSIC BeatStream アニムトライヴ pop'n music うさぎと猫と少年の夢 plus KONAMI BEMANI sdafsf
BeatmapID:1411177
BeatmapSetID:637301

[Difficulty]
HPDrainRate:4
CircleSize:2
OverallDifficulty:3
ApproachRate:4
SliderMultiplier:0.95
SliderTickRate:1

[Events]
//Background and Video events
0,0,"36528051_p0.jpg",0,0
//Break Periods
//Storyboard Layer 0 (Background)
//Storyboard Layer 1 (Fail)
//Storyboard Layer 2 (Pass)
//Storyboard Layer 3 (Foreground)
//Storyboard Sound Samples

[TimingPoints]
500,300,4,2,1,80,1,0
34700,300,4,2,1,80,1,0
53900,-100,4,2,1,80,0,1
63500,-100,4,2,1,80,0,0
81500,-100,4,2,1,80,0,1
98300,-100,4,2,1,80,0,0

[Colours]
Combo1 : 186,79,63
Combo2 : 245,75,75
Combo3 : 186,120,120
Combo4 : 251,0,0

[HitObjects]
186,47,1700,6,0,P|149:105|172:199,2,142.5,4|8|0,1:0|0:0|0:0,0:0:0:0:
280,39,2900,2,0,L|438:64,2,142.5,0|8|8,0:0|0:0|0:0,0:0:0:0:
256,131,4100,2,0,P|286:202|252:344,1,190,0|0,0:0|0:0,0:0:0:0:
187,355,5000,1,0,0:0:0:0:
103,309,5300,6,0,P|106:269|223:257,1,142.5,4|8,1:0|0:0,0:0:0:0:
284,221,6050,2,0,P|357:222|428:191,1,142.5,0|8,0:0|0:0,0:0:0:0:
437,102,6800,2,0,P|408:63|335:111,1,142.5,0|0,0:0|0:0,0:0:0:0:
242,116,7550,2,0,P|174:129|103:97,1,142.5,8|8,0:0|0:0,0:0:0:0:
49,176,8300,2,0,P|38:243|116:227,1,142.5,0|8,1:0|0:0,0:0:0:0:
190,229,9050,2,0,L|368:225,1,142.5,0|8,1:0|0:0,0:0:0:0:
427,224,9800,1,8,0:0:0:0:
422,129,10100,6,0,B|414:100|391:67|391:67|331:88|252:81,2,190,4|0|0,1:0|1:0|1:0,1:1:0:0:
415,319,11900,1,0,1:0:0:0:
225,323,12500,2,0,L|15:333,2,190,0|0|0,1:0|1:0|1:0,1:1:0:0:
309,153,14300,1,0,1:0:0:0:
147,52,14900,6,0,B|117:89|65:86|65:86|46:140|85:204,2,190,0|0|0,1:0|1:0|1:0,1:1:0:0:
152,241,16700,1,0,1:0:0:0:
327,312,17300,2,0,P|406:305|417:188,2,190,0|0|0,1:0|1:0|1:0,1:1:0:0:
368,126,19100,2,8,P|325:105|305:55,1,95,0|0,1:0|0:0,0:0:0:0:
213,38,19700,6,0,B|136:66|81:44|81:44|63:123,1,190,0|0,1:0|1:0,0:0:0:0:
65,192,20600,1,8,0:0:0:0:
65,286,20900,2,0,P|188:302|221:158,1,285,0|8,1:0|0:0,0:0:0:0:
192,81,22100,2,0,B|255:67|296:105|296:105|339:81|389:89,1,190,0|0,1:0|1:0,0:0:0:0:
465,74,23000,1,8,0:0:0:0:
429,162,23300,2,0,B|388:223|423:322|423:322|359:306|289:335,1,285,0|0,1:0|1:0,0:0:0:0:
211,336,24500,5,0,1:0:0:0:
213,145,25100,2,0,B|168:149|134:180|134:180|61:161|50:97,1,190,0|0,1:0|1:0,0:0:0:0:
128,58,26000,2,0,P|221:39|312:63,1,190,8|8,0:0|0:0,0:0:0:0:
405,21,26900,2,0,B|428:86|392:135|392:135|419:169|405:222,1,190,0|0,1:0|1:0,0:0:0:0:
382,292,27800,1,8,0:0:0:0:
449,359,28100,2,0,P|370:323|269:365,1,190,0|8,1:0|1:2,1:1:0:0:
183,340,29000,1,0,1:0:0:0:
126,263,29300,6,0,P|106:175|155:48,2,190,8|8|8,1:2|0:0|0:0,0:0:0:0:
250,119,31100,2,0,P|296:104|362:111,1,95,8|8,0:0|0:0,0:0:0:0:
433,133,31700,2,0,P|459:240|425:331,2,190,8|8|8,0:0|0:0|0:0,0:0:0:0:
251,77,33500,2,0,L|148:75,1,95,8|8,0:0|0:0,0:0:0:0:
108,74,33950,1,8,0:0:0:0:
99,216,34400,1,8,0:0:0:0:
62,303,34700,1,4,1:0:0:0:
148,343,35000,6,0,P|223:324|302:357,1,142.5,10|2,0:0|1:2,0:0:0:0:
426,339,35900,2,0,P|447:277|410:206,2,142.5,2|10|2,1:2|0:0|1:2,0:0:0:0:
321,189,37400,2,0,P|250:201|165:170,1,142.5,10|2,0:0|1:2,0:0:0:0:
55,119,38300,2,0,B|24:159|29:221|29:221|60:263|58:320,1,190,2|8,1:2|0:0,0:0:0:0:
147,327,39200,1,8,0:0:0:0:
336,331,39800,6,0,P|348:274|306:184,1,142.5,10|2,0:2|1:2,0:0:0:0:
214,100,40700,2,0,P|268:61|356:77,2,142.5,2|10|2,1:2|0:0|1:2,0:0:0:0:
183,190,41900,1,4,1:0:0:0:
265,236,42200,2,0,B|316:253|316:253|351:221|408:224,2,142.5,10|2|2,0:0|1:2|1:2,0:0:0:0:
197,303,43400,2,0,P|106:298|72:210,1,190,10|8,0:0|0:0,0:0:0:0:
81,121,44300,6,0,L|296:95,1,190,4|0,1:0|0:0,0:0:0:0:
457,71,45500,2,0,B|420:115|420:115|434:173|424:246,1,190,0|0,1:0|1:0,0:0:0:0:
425,341,46400,1,8,0:0:0:0:
338,301,46700,2,0,B|283:309|219:286|219:286|204:353,2,190,4|0|4,1:0|1:0|1:0,0:0:0:0:
333,205,48200,1,8,0:0:0:0:
336,110,48500,2,0,B|278:106|239:158|239:158|141:100,1,190,4|4,1:0|1:0,0:0:0:0:
39,253,49700,6,0,P|23:293|32:350,1,95,0|8,0:0|0:0,0:0:0:0:
117,308,50300,2,0,P|195:282|314:334,1,190,0|0,1:0|1:0,0:0:0:0:
385,339,51200,1,8,0:0:0:0:
461,282,51500,2,0,P|483:188|429:109,2,190,4|0|4,1:0|1:0|1:0,0:0:0:0:
338,138,53300,1,4,1:0:0:0:
222,288,53900,6,0,L|39:298,1,142.5,4|4,1:0|1:0,0:0:0:0:
86,153,54800,2,0,P|87:84|37:26,2,142.5,4|4|8,1:0|1:0|0:0,0:0:0:0:
170,195,56000,1,0,1:0:0:0:
245,136,56300,2,0,P|316:157|393:129,1,142.5,4|4,1:0|1:0,0:0:0:0:
488,45,57200,2,0,L|484:193,2,142.5,4|4|0,1:0|1:0|1:0,0:0:0:0:
393,35,58400,1,8,0:0:0:0:
303,67,58700,6,0,P|232:89|142:50,1,142.5,4|4,1:0|1:0,0:0:0:0:
59,163,59600,2,0,L|65:20,2,142.5,4|4|8,1:0|1:0|0:0,0:0:0:0:
140,211,60800,1,0,1:0:0:0:
218,157,61100,2,0,P|258:191|206:263,1,142.5,4|4,1:0|1:0,0:0:0:0:
106,343,62000,2,0,P|180:365|261:353,1,142.5,4|4,1:0|1:0,0:0:0:0:
373,358,62900,2,0,L|369:232,1,95,0|8,1:0|0:0,0:0:0:0:
364,167,63500,6,0,P|282:120|202:159,2,190,4|0|0,1:0|0:0|1:0,0:0:0:0:
280,217,65000,1,8,0:0:0:0:
279,311,65300,2,0,L|168:322,1,95,0|8,0:0|0:0,0:0:0:0:
89,323,65900,2,0,P|55:234|101:144,1,190,0|0,1:0|1:0,0:0:0:0:
251,48,67100,2,0,B|218:114|274:175|251:248,1,190,0|0,1:0|1:0,0:0:0:0:
251,329,68000,1,8,0:0:0:0:
346,339,68300,6,0,P|432:296|445:186,2,190,0|0|0,1:0|0:0|0:0,0:0:0:0:
353,234,69800,1,8,0:0:0:0:
338,133,70100,2,0,B|281:142|248:191|248:191|173:140,1,190,0|0,0:0|1:0,0:0:0:0:
117,76,71000,1,8,0:0:0:0:
22,76,71300,2,0,P|6:161|14:279,2,190,0|0|0,1:0|1:0|1:0,0:0:0:0:
110,41,72800,1,8,0:0:0:0:
199,72,73100,6,12,P|237:90|305:65,2,95,0|0|0,0:0|0:0|0:0,0:0:0:0:
89,226,74300,2,0,L|73:335,1,95,0|0,1:0|0:0,0:0:0:0:
169,334,74900,2,12,P|195:329|254:340,2,63.3333333333333,0|0|0,0:0|0:0|0:0,0:0:0:0:
181,271,75500,2,0,L|186:160,1,95,12|0,0:0|0:0,0:0:0:0:
119,107,76100,2,0,P|163:115|227:96,1,95,0|0,1:0|0:0,1:1:0:0:
295,59,76700,6,12,L|307:167,1,95,0|0,0:0|0:0,0:0:0:0:
321,247,77300,2,12,P|401:243|412:143,1,190,0|0,0:0|0:0,0:0:0:0:
394,56,78200,1,0,0:0:0:0:
299,57,78500,2,12,L|101:61,1,190,0|0,0:0|0:0,0:0:0:0:
13,64,79400,1,0,0:0:0:0:
64,143,79700,2,0,P|106:194|7:225,1,190,0|8,0:0|0:0,0:0:0:0:
12,334,80600,2,0,L|113:349,1,95,0|0,1:0|1:0,0:0:0:0:
199,362,81200,1,8,0:0:0:0:
289,331,81500,6,0,B|354:298|354:298|440:302,2,142.5,4|0|8,1:0|1:0|0:0,0:0:0:0:
260,240,82700,2,0,L|263:107,1,95,0|8,1:0|0:0,0:0:0:0:
167,133,83300,2,0,L|164:227,1,95,0|8,1:0|0:0,0:0:0:0:
143,320,83900,2,0,B|93:332|57:317|57:317|54:222,2,142.5,4|0|8,1:0|1:0|0:0,0:0:0:0:
237,330,85100,1,0,0:0:0:0:
331,320,85400,2,0,P|344:273|245:177,1,190,8|8,0:0|0:0,0:0:0:0:
264,82,86300,6,0,L|415:78,2,142.5,4|0|8,1:0|1:0|0:0,0:0:0:0:
168,88,87500,2,0,L|58:97,1,95,0|8,1:0|0:0,0:0:0:0:
53,188,88100,2,0,L|163:197,1,95,0|8,1:0|0:0,0:0:0:0:
242,201,88700,1,4,1:0:0:0:
377,157,89150,2,0,P|444:196|432:284,1,142.5,0|0,1:0|1:0,0:0:0:0:
371,309,89900,1,8,0:0:0:0:
235,343,90350,2,0,L|242:188,1,142.5,8|8,0:0|0:0,0:0:0:0:
245,105,91100,6,0,B|179:74|179:74|89:95,2,142.5,4|0|0,1:0|1:0|1:0,0:0:0:0:
338,125,92300,2,0,L|438:133,1,95,0|8,1:0|0:0,0:0:0:0:
463,222,92900,2,0,L|368:229,1,95,0|8,1:0|0:0,0:0:0:0:
274,243,93500,2,0,P|222:256|181:337,2,142.5,4|0|0,1:0|1:0|1:0,0:0:0:0:
269,148,94700,1,0,1:0:0:0:
224,64,95000,2,0,B|144:42|82:82|82:82|86:153,1,190,8|8,0:0|0:0,0:0:0:0:
93,218,95900,6,0,L|99:367,2,142.5,4|0|8,1:0|1:0|0:0,0:0:0:0:
188,224,97100,2,0,L|290:235,1,95,0|8,1:0|0:0,0:0:0:0:
377,245,97700,2,0,L|479:256,1,95,0|8,1:0|0:0,0:0:0:0:
474,159,98300,6,8,L|469:89,1,47.5,12|8,0:0|0:0,0:0:0:0:
385,69,98750,2,8,L|380:139,1,47.5,12|8,0:0|0:0,0:0:0:0:
296,159,99200,2,8,L|291:89,1,47.5,12|8,0:0|0:0,0:0:0:0:
207,69,99650,2,8,L|202:139,2,47.5,12|8|0,0:0|0:0|0:0,0:0:0:0:
211,21,100100,2,8,L|272:22,1,47.5
107,180,100700,6,8,L|112:250,1,47.5,12|8,0:0|0:0,0:0:0:0:
196,270,101150,2,8,L|201:200,1,47.5,12|8,0:0|0:0,0:0:0:0:
285,180,101600,2,8,L|290:250,1,47.5,12|8,0:0|0:0,0:0:0:0:
374,270,102050,2,8,L|379:200,2,47.5,12|8|0,0:0|0:0|0:0,0:0:0:0:
370,317,102500,2,8,L|312:310,1,47.5
256,192,103100,5,6,1:2:0:0:
256,192,103250,12,12,105800,0:0:0:0:
