osu file format v14

[General]
AudioFilename: audio.mp3
AudioLeadIn: 0
PreviewTime: 53900
Countdown: 0
SampleSet: Soft
StackLeniency: 0.6
Mode: 0
LetterboxInBreaks: 0
WidescreenStoryboard: 1

[Editor]
Bookmarks: 1700,10100,29300,34700,44300,53900,63500,73100,81500,98300,103100
DistanceSpacing: 1.4
BeatDivisor: 2
GridSize: 4
TimelineZoom: 2.799999

[Metadata]
Title:Lilieze to Enryuu Laevateinn
TitleUnicode:リリーゼと炎龍レーヴァテイン
Artist:Kuroneko Dungeon
ArtistUnicode:黒猫ダンジョン
Creator:mithew
Version:Normal
Source:REFLEC BEAT colette -Summer-
Tags:beatmania IIDX 22 PENDUAL Tomosuke Funaki OLDSTYLE GAMEMUSIC BeatStream アニムトライヴ pop'n music うさぎと猫と少年の夢 plus KONAMI BEMANI sdafsf
BeatmapID:1410164
BeatmapSetID:637301

[Difficulty]
HPDrainRate:4
CircleSize:3
OverallDifficulty:4
ApproachRate:6
SliderMultiplier:1.2
SliderTickRate:1

[Events]
//Background and Video events
0,0,"36528051_p0.jpg",0,0
//Break Periods
//Storyboard Layer 0 (Background)
//Storyboard Layer 1 (Fail)
//Storyboard Layer 2 (Pass)
//Storyboard Layer 3 (Foreground)
//Storyboard Sound Samples

[TimingPoints]
500,300,4,2,1,80,1,0
34700,300,4,2,1,80,1,0
53900,-100,4,2,1,80,0,1
63500,-100,4,2,1,80,0,0
81500,-100,4,2,1,80,0,1
98300,-100,4,2,1,80,0,0

[Colours]
Combo1 : 186,79,63
Combo2 : 245,75,75
Combo3 : 186,120,120
Combo4 : 251,0,0

[HitObjects]
92,123,1700,6,0,P|144:107|200:153,1,120,4|0,1:0|0:0,0:0:0:0:
279,162,2150,2,0,P|285:82|305:41,1,120,8|0,0:0|1:0,0:0:0:0:
385,53,2600,1,0,0:0:0:0:
426,127,2750,2,0,L|428:246,1,120,8|0,0:0|1:0,0:0:0:0:
428,330,3200,1,0,0:0:0:0:
350,297,3350,2,0,P|294:280|223:303,1,120,8|0,0:0|1:0,0:0:0:0:
155,318,3800,2,0,P|95:335|28:308,1,120,8|0,0:0|0:0,0:0:0:0:
98,244,4250,1,0,1:0:0:0:
97,160,4400,2,0,L|94:38,1,120,8|0,0:0|0:0,0:0:0:0:
177,34,4850,2,0,P|237:47|306:24,1,120,8|8,0:0|0:0,0:0:0:0:
373,57,5300,6,0,P|381:91|376:127,2,60,4|0|0,1:0|0:0|0:0,0:0:0:0:
450,22,5750,2,0,P|470:79|454:165,1,120,8|0,0:0|0:0,0:0:0:0:
433,215,6200,2,0,L|433:281,1,60,0|0,1:0|0:0,0:0:0:0:
410,356,6500,2,0,P|348:343|270:365,1,120,8|0,0:0|0:0,0:0:0:0:
208,349,6950,2,0,P|207:320|214:288,2,60,0|0|0,1:0|0:0|0:0,0:0:0:0:
123,203,7550,6,0,B|152:176|152:176|197:163|246:174,1,120,8|0,0:0|0:0,0:0:0:0:
315,177,8000,2,0,P|340:178|407:200,1,60,8|0,0:0|0:0,0:0:0:0:
456,203,8300,2,0,P|462:139|425:68,1,120,0|0,1:0|0:0,0:0:0:0:
371,41,8750,2,0,P|343:36|284:49,1,60,8|0,0:0|0:0,0:0:0:0:
227,53,9050,2,0,P|204:136|121:158,1,180,0|8,1:0|0:0,0:0:0:0:
281,208,9800,1,8,0:0:0:0:
121,158,10100,6,0,B|59:188|48:283|48:283|124:282|177:321,2,240,4|0|0,1:0|1:0|1:0,1:0:0:0:
405,337,11900,1,0,1:0:0:0:
214,60,12500,2,0,B|257:25|326:31|326:31|374:79|454:74,2,240,0|0|0,1:0|1:0|1:0,1:0:0:0:
60,359,14300,1,0,1:0:0:0:
390,296,14900,2,0,B|418:230|388:181|388:181|354:126|390:38,2,240,0|0|0,1:0|1:0|1:0,1:0:0:0:
129,82,16700,1,0,1:0:0:0:
464,106,17300,2,0,P|376:68|298:196,2,240,0|0|0,1:0|1:0|1:0,1:0:0:0:
222,340,19100,2,0,L|220:269,1,60,0|0,1:0|1:0,1:0:0:0:
181,205,19400,2,8,L|179:145,1,60
159,63,19700,6,0,B|130:70|93:69|93:69|49:113|68:181,1,180,0|0,1:0|0:0,0:0:0:0:
76,257,20300,2,0,P|83:292|84:333,2,60,0|0|8,1:0|0:0|0:0,0:0:0:0:
232,318,20900,2,0,P|315:297|410:339,1,180,0|0,1:0|0:0,0:0:0:0:
482,348,21500,2,0,L|477:181,1,120,0|8,1:0|0:0,0:0:0:0:
473,60,22100,6,0,P|401:84|277:42,1,180,0|0,1:0|0:0,0:0:0:0:
222,32,22700,2,0,L|216:196,1,120,0|8,1:0|0:0,0:0:0:0:
213,319,23300,2,0,P|180:316|144:328,2,60,0|0|8,1:0|0:0|0:0,0:0:0:0:
380,333,23900,2,0,P|394:260|359:154,1,180,0|0,1:0|0:0,0:0:0:0:
320,88,24500,6,0,B|258:62|258:62|213:96|129:82,1,180,0|0,1:0|0:0,0:0:0:0:
67,68,25100,2,0,P|32:63|-1:67,2,60,0|0|8,1:0|0:0|0:0,0:0:0:0:
93,234,25700,2,0,P|59:306|72:359,2,120,0|8|0,1:0|0:0|1:0,0:0:0:0:
67,68,26600,1,8,0:0:0:0:
225,124,26900,6,0,P|305:155|390:117,1,180,0|0,1:0|0:0,0:0:0:0:
450,63,27500,2,0,P|437:128|451:202,1,120,0|8,1:0|0:0,0:0:0:0:
468,337,28100,2,0,B|400:388|304:286|221:355,1,240,0|8,1:0|1:2,1:0:0:0:
67,350,29000,1,0,1:0:0:0:
86,183,29300,6,0,P|162:111|282:146,1,240,8|8,1:2|0:0,0:0:0:0:
326,217,30050,2,0,P|336:248|337:282,2,60,0|8|0,0:0|0:0|0:0,0:0:0:0:
372,146,30500,2,0,P|407:108|479:112,2,120,8|8|8,0:0|0:0|0:0,0:0:0:0:
374,313,31400,1,8,0:0:0:0:
212,358,31700,6,0,B|155:318|99:339|99:339|70:247|149:196,1,240,8|8,0:0|0:0,0:0:0:0:
151,149,32450,2,0,P|121:143|92:146,2,60,0|8|0,0:0|0:0|0:0,0:0:0:0:
233,164,32900,2,0,P|282:177|339:145,1,120,8|8,0:0|0:0,0:0:0:0:
430,3,33500,2,0,L|429:84,1,60,8|8,0:0|0:0,0:0:0:0:
429,146,33800,2,0,L|428:227,1,60,8|8,0:0|0:0,0:0:0:0:
425,356,34250,1,0,1:0:0:0:
425,356,34400,2,0,P|365:343|298:368,1,120,8|4,0:0|1:0,0:0:0:0:
161,341,35000,6,0,L|168:197,1,120,10|0,0:0|0:0,0:0:0:0:
173,136,35450,2,0,B|217:118|260:135|260:135|279:197,1,120,2|0,1:2|0:0,0:0:0:0:
298,242,35900,2,0,P|376:275|474:237,2,180,2|10|2,1:2|0:0|1:2,0:0:0:0:
173,136,37100,1,0,1:0:0:0:
173,136,37400,6,0,L|169:288,1,120,10|0,0:0|0:0,0:0:0:0:
101,305,37850,2,0,B|64:269|64:269|55:226|88:188,1,120,2|0,1:2|0:0,0:0:0:0:
74,119,38300,1,2,1:2:0:0:
217,30,38600,2,0,B|246:16|283:20|283:20|313:42|368:37,1,120,10|0,0:0|0:0,0:0:0:0:
410,66,39050,2,0,P|446:83|463:101,2,60,0|8|8,1:0|0:0|0:0,0:0:0:0:
365,138,39500,1,4,1:0:0:0:
365,138,39800,6,0,L|365:283,1,120,10|0,0:2|0:0,0:0:0:0:
373,341,40250,2,0,B|338:344|313:323|313:323|276:327|246:358,1,120,2|0,1:2|0:0,0:0:0:0:
216,272,40700,2,0,P|132:261|69:332,2,180,2|10|2,1:2|0:0|1:2,0:0:0:0:
373,341,41900,1,4,1:0:0:0:
373,341,42200,6,0,L|403:214,1,120,10|0,0:0|0:0,0:0:0:0:
426,143,42650,2,0,B|431:109|431:109|375:83|323:97,1,120,2|0,1:2|0:0,0:0:0:0:
273,132,43100,1,2,1:2:0:0:
122,57,43400,2,0,P|70:93|59:164,1,120,10|0,0:0|0:0,0:0:0:0:
71,228,43850,2,0,L|65:298,2,60,0|8|8,1:0|0:0|0:0,0:0:0:0:
140,180,44300,6,0,L|278:189,1,120,4|8,1:0|0:0,0:0:0:0:
427,201,44900,2,0,L|428:281,1,60,0|0,0:0|1:0,0:0:0:0:
429,345,45200,1,8,0:0:0:0:
266,303,45500,2,0,P|204:302|161:346,1,120,0|8,1:0|0:0,0:0:0:0:
280,223,46100,1,0,1:0:0:0:
280,223,46250,2,0,L|284:147,2,60,0|8|0,0:0|0:0|0:0,0:0:0:0:
353,264,46700,6,0,B|384:241|415:252|415:252|434:219|424:187,1,120,4|8,1:0|0:0,0:0:0:0:
425,115,47150,1,0,0:0:0:0:
417,31,47300,2,0,P|394:21|333:26,2,60,0|0|8,0:0|1:0|0:0,0:0:0:0:
306,156,47900,2,0,P|243:171|182:145,1,120,4|8,1:0|0:0,0:0:0:0:
125,101,48350,1,0,0:0:0:0:
57,50,48500,2,0,P|32:97|53:199,1,120,4|8,1:0|0:0,0:0:0:0:
74,236,48950,1,0,0:0:0:0:
135,295,49100,6,0,P|165:292|194:298,1,60,4|0,1:0|0:0,0:0:0:0:
266,344,49400,1,8,0:0:0:0:
266,344,49550,1,0,0:0:0:0:
349,337,49700,2,0,B|376:319|411:327|411:327|418:259,1,120,0|8,0:0|0:0,0:0:0:0:
461,109,50300,2,0,P|421:78|336:77,1,120,0|8,1:0|0:0,0:0:0:0:
187,51,50900,2,0,L|183:150,1,60,0|0,1:0|0:0,0:0:0:0:
160,191,51200,2,0,L|156:290,1,60,8|0,0:0|0:0,0:0:0:0:
102,315,51500,6,0,P|158:297|214:317,1,120,4|8,1:0|0:0,0:0:0:0:
278,263,51950,1,0,0:0:0:0:
272,179,52100,2,0,L|267:120,2,60,0|0|8,0:0|1:0|0:0,0:0:0:0:
431,124,52700,2,0,B|430:86|430:86|397:56|329:58,2,120,4|8|4,1:0|0:0|1:0,0:0:0:0:
432,207,53450,2,0,L|428:293,2,60,0|8|0,0:0|0:0|0:0,0:0:0:0:
354,175,53900,6,0,L|217:169,1,120,4|8,1:0|0:0,0:0:0:0:
239,253,54350,2,0,L|119:247,1,120,4|8,1:0|0:0,0:0:0:0:
35,243,54800,2,0,B|46:183|46:183|8:110,1,120,4|8,1:0|0:0,0:0:0:0:
80,73,55250,2,0,B|120:142|120:142|176:142,1,120,4|8,1:0|0:0,0:0:0:0:
229,94,55700,2,0,L|308:92,1,60,8|0,0:0|0:0,0:0:0:0:
371,73,56000,2,0,L|434:72,1,60,0|0,1:0|0:0,0:0:0:0:
495,17,56300,6,0,P|477:77|503:149,1,120,4|8,1:0|0:0,0:0:0:0:
490,215,56750,2,0,L|488:293,2,60,4|0|8,1:0|0:0|0:0,0:0:0:0:
407,199,57200,2,0,P|356:228|337:303,1,120,4|8,1:0|0:0,0:0:0:0:
389,346,57650,2,0,P|337:329|248:364,1,120,4|8,1:0|0:0,0:0:0:0:
190,347,58100,2,0,L|190:273,1,60,0|0,1:0|0:0,0:0:0:0:
133,225,58400,2,0,L|133:151,1,60,8|0,0:0|0:0,0:0:0:0:
70,108,58700,6,0,L|213:107,1,120,4|8,1:0|0:0,0:0:0:0:
247,46,59150,2,0,L|376:45,1,120,4|8,1:0|0:0,0:0:0:0:
409,117,59600,2,0,B|385:182|385:182|415:255,1,120,4|8,1:0|0:0,0:0:0:0:
315,226,60050,2,0,B|334:272|334:272|310:337,1,120,4|8,1:0|0:0,0:0:0:0:
226,337,60500,2,0,L|128:328,1,60,8|0,0:0|0:0,0:0:0:0:
95,285,60800,2,0,L|-3:276,1,60,0|0,1:0|0:0,0:0:0:0:
14,198,61100,6,4,P|18:135|59:95,1,120,4|8,1:0|0:0,0:0:0:0:
140,97,61550,2,0,P|172:97|215:78,2,60,4|0|8,1:0|0:0|0:0,0:0:0:0:
136,181,62000,2,0,L|134:309,1,120,4|8,1:0|0:0,0:0:0:0:
76,362,62450,2,0,P|138:343|208:376,1,120,4|8,1:0|0:0,0:0:0:0:
271,343,62900,2,0,L|270:257,1,60,0|0,1:0|0:0,0:0:0:0:
314,210,63200,2,0,L|313:124,1,60,8|0,0:0|0:0,0:0:0:0:
313,65,63500,5,4,1:0:0:0:
313,65,63650,1,0,0:0:0:0:
145,61,63950,2,0,B|105:55|70:80|70:80|72:108|59:141,2,120,8|0|0,0:0|1:0|0:0,0:0:0:0:
183,136,64700,2,0,P|193:209|176:275,1,120,0|8,1:0|0:0,0:0:0:0:
184,337,65150,1,0,0:0:0:0:
266,319,65300,2,0,L|359:335,2,60,0|0|8,0:0|0:0|0:0,0:0:0:0:
429,280,65900,6,0,L|424:114,1,120,0|8,1:0|0:0,0:0:0:0:
422,75,66350,1,0,0:0:0:0:
422,75,66500,2,0,L|348:69,1,60,0|0,1:0|0:0,0:0:0:0:
287,107,66800,2,0,L|227:111,1,60,8|0,0:0|0:0,0:0:0:0:
161,60,67100,2,0,P|181:126|152:192,1,120,0|8,1:0|0:0,0:0:0:0:
109,235,67550,1,0,0:0:0:0:
32,200,67700,2,0,P|11:259|28:331,1,120,0|8,1:0|0:0,0:0:0:0:
186,339,68300,5,0,1:0:0:0:
186,339,68450,2,0,L|276:349,1,60,0|8,1:0|0:0,0:0:0:0:
308,290,68750,2,0,L|367:283,1,60,0|0,1:0|0:0,0:0:0:0:
415,214,69050,2,0,B|479:201|479:201|481:138,1,120,0|8,1:0|0:0,0:0:0:0:
354,36,69650,2,0,P|320:46|274:39,1,60,0|8,0:0|0:0,0:0:0:0:
212,32,69950,1,0,0:0:0:0:
130,53,70100,2,0,L|119:226,1,120,0|8,0:0|0:0,0:0:0:0:
112,341,70700,6,0,P|169:328|250:365,1,120,0|8,1:0|0:0,0:0:0:0:
311,345,71150,1,0,0:0:0:0:
311,345,71300,2,0,L|311:272,1,60,0|0,1:0|0:0,0:0:0:0:
257,220,71600,2,0,L|257:147,1,60,8|0,0:0|0:0,0:0:0:0:
220,84,71900,2,0,B|168:104|119:98|119:98|66:155|97:226,1,240,0|0,1:0|1:0,0:0:0:0:
109,308,72650,2,0,L|50:332,2,60,0|8|0,0:0|0:0|0:0,0:0:0:0:
190,285,73100,6,12,B|250:272|250:272|317:318,2,120
32,45,74300,2,0,P|123:86|220:34,1,200,0|0,1:0|0:0,0:0:0:0:
265,50,74900,2,12,L|354:70,2,80
227,156,75500,2,0,P|205:206|221:291,1,120,12|0,0:0|0:0,0:0:0:0:
367,330,76100,2,0,B|425:307|479:327|479:327|501:279|479:212,1,200,0|0,1:0|1:0,1:0:0:0:
478,187,76700,6,12,L|449:56,2,120
151,105,77900,2,12,L|122:236,2,120
373,324,79100,2,12,P|430:310|484:334,2,120
36,315,80300,2,0,L|51:164,1,120,8|0,0:0|1:0,0:0:0:0:
166,76,80900,2,0,L|175:198,1,120,0|8,1:0|0:0,0:0:0:0:
292,316,81500,6,0,B|368:316|418:282|418:282|414:236,2,180,4|0|8,1:0|1:0|0:0,0:0:0:0:
276,148,82700,2,0,L|156:148,1,120,0|8,1:0|0:0,0:0:0:0:
250,9,83300,2,0,L|370:9,1,120,0|8,1:0|0:0,0:0:0:0:
441,155,83900,2,0,B|484:256|484:256|445:319,1,180,4|0,1:0|1:0,0:0:0:0:
202,255,84800,2,0,B|279:229|379:253|379:253|333:327,1,240,8|8,0:0|0:0,0:0:0:0:
186,339,85700,2,0,P|139:316|127:230,1,120,0|8,1:0|0:0,0:0:0:0:
139,88,86300,6,0,L|337:77,1,180,4|0,1:0|1:0,0:0:0:0:
402,71,86900,2,0,L|405:158,1,60
405,215,87200,1,8,0:0:0:0:
233,244,87500,2,0,B|187:249|151:236|151:236|96:269,1,120,0|8,1:0|0:0,0:0:0:0:
19,119,88100,2,0,B|65:114|101:127|101:127|156:94,1,120,0|8,1:0|0:0,0:0:0:0:
281,30,88700,6,0,P|376:115|339:187,2,180,4|0|0,1:0|1:0|1:0,1:0:0:0:
290,113,89750,1,0,0:0:0:0:
284,196,89900,2,0,L|276:348,1,120,8|0,0:0|0:0,0:0:0:0:
198,344,90350,2,0,L|191:224,1,120,8|0,0:0|0:0,0:0:0:0:
188,140,90800,2,0,L|181:77,1,60,8|0,0:0|0:0,0:0:0:0:
109,36,91100,6,0,P|52:88|55:193,2,180,4|0|0,1:0|1:0|1:0,0:0:0:0:
276,57,92300,2,0,L|427:77,1,120,0|8,1:0|0:0,0:0:0:0:
497,206,92900,2,0,L|346:226,1,120,0|8,1:0|0:0,0:0:0:0:
231,304,93500,2,0,P|205:197|275:125,2,180,4|0|0,1:0|1:0|1:0,0:0:0:0:
72,361,94700,6,0,L|79:235,1,120,0|8,1:0|0:0,0:0:0:0:
84,157,95150,1,0,0:0:0:0:
96,73,95300,2,0,P|158:81|224:49,1,120,0|8,0:0|0:0,0:0:0:0:
377,41,95900,2,0,L|361:231,1,180,4|0,1:0|1:0,0:0:0:0:
354,304,96500,2,0,L|277:311,1,60
210,318,96800,1,8,0:0:0:0:
143,163,97100,2,0,P|193:131|270:161,1,120,0|8,1:0|0:0,0:0:0:0:
411,189,97700,2,0,P|361:221|284:191,1,120,0|8,1:0|0:0,0:0:0:0:
200,77,98300,6,8,L|198:155,1,60,12|8,0:0|0:0,0:0:0:0:
28,187,98750,2,8,L|29:127,1,60,12|8,0:0|0:0,0:0:0:0:
167,223,99200,2,8,L|165:282,1,60,12|8,0:0|0:0,0:0:0:0:
16,360,99650,2,8,L|17:300,1,60,12|8,0:0|0:0,0:0:0:0:
28,127,100100,1,8,0:0:0:0:
28,127,100250,1,8,0:0:0:0:
312,77,100700,6,8,L|314:155,1,60,12|8,0:0|0:0,0:0:0:0:
484,187,101150,2,8,L|482:127,1,60,12|8,0:0|0:0,0:0:0:0:
345,223,101600,2,8,L|346:282,1,60,12|8,0:0|0:0,0:0:0:0:
496,360,102050,2,8,L|494:300,1,60,12|8,0:0|0:0,0:0:0:0:
482,127,102500,1,8,0:0:0:0:
482,127,102650,1,8,0:0:0:0:
256,192,103100,12,12,105800,0:0:0:0:
