osu file format v14

[General]
AudioFilename: audio.mp3
AudioLeadIn: 0
PreviewTime: 53900
Countdown: 0
SampleSet: Soft
StackLeniency: 0.6
Mode: 0
LetterboxInBreaks: 0
WidescreenStoryboard: 1

[Editor]
Bookmarks: 1700,10100,29300,34700,44300,53900,63500,73100,81500,98300,103100
DistanceSpacing: 1.05
BeatDivisor: 3
GridSize: 4
TimelineZoom: 2.799999

[Metadata]
Title:Lilieze to Enryuu Laevateinn
TitleUnicode:リリーゼと炎龍レーヴァテイン
Artist:Kuroneko Dungeon
ArtistUnicode:黒猫ダンジョン
Creator:mithew
Version:Hyper
Source:REFLEC BEAT colette -Summer-
Tags:beatmania IIDX 22 PENDUAL Tomosuke Funaki OLDSTYLE GAMEMUSIC BeatStream アニムトライヴ pop'n music うさぎと猫と少年の夢 plus KONAMI BEMANI sdafsf
BeatmapID:1405220
BeatmapSetID:637301

[Difficulty]
HPDrainRate:5
CircleSize:4
OverallDifficulty:6
ApproachRate:8
SliderMultiplier:1.6
SliderTickRate:1

[Events]
//Background and Video events
0,0,"36528051_p0.jpg",0,0
//Break Periods
//Storyboard Layer 0 (Background)
//Storyboard Layer 1 (Fail)
//Storyboard Layer 2 (Pass)
//Storyboard Layer 3 (Foreground)
//Storyboard Sound Samples

[TimingPoints]
500,300,4,2,1,80,1,0
34700,300,4,2,1,80,1,0
53900,-100,4,2,1,80,0,1
63500,-100,4,2,1,80,0,0
81500,-100,4,2,1,80,0,1
98300,-100,4,2,1,80,0,0

[Colours]
Combo1 : 186,79,63
Combo2 : 245,75,75
Combo3 : 186,120,120
Combo4 : 251,0,0

[HitObjects]
62,98,500,6,0,L|56:46,2,40,8|8|0,0:0|0:0|1:0,0:0:0:0:
70,177,800,1,0,1:0:0:0:
154,83,950,2,0,L|148:31,2,40,8|8|0,0:0|0:0|1:0,0:0:0:0:
162,162,1250,1,0,1:0:0:0:
246,68,1400,2,0,L|241:28,2,40,8|8|8,0:0|0:0|0:0,0:0:0:0:
254,147,1700,6,0,L|263:226,1,80,4|0,1:0|0:0,0:0:0:0:
271,305,2000,1,0,1:0:0:0:
394,335,2150,2,0,P|405:264|334:258,1,160,8|0,0:0|0:0,0:0:0:0:
271,305,2600,1,0,1:0:0:0:
208,352,2750,1,8,0:0:0:0:
198,273,2900,2,0,P|185:237|195:189,2,80,0|0|0,0:0|0:0|1:0,0:0:0:0:
254,147,3350,2,0,L|420:128,1,160,8|0,0:0|1:0,0:0:0:0:
356,41,3800,2,0,L|245:53,1,80,8|0,0:0|0:0,0:0:0:0:
197,59,4100,1,0,0:0:0:0:
118,68,4250,1,0,1:0:0:0:
254,147,4400,2,0,P|265:217|194:224,1,160,8|0,0:0|1:0,0:0:0:0:
153,145,4850,2,0,P|107:206|127:281,1,160,8|8,0:0|0:0,0:0:0:0:
241,333,5300,6,0,P|284:337|332:328,1,80,4|0,1:0|1:0,0:0:0:0:
415,303,5600,2,0,L|406:206,2,80,8|0|8,0:0|1:0|0:0,0:0:0:0:
301,251,6050,6,0,P|258:247|210:256,1,80,0|0,0:0|0:0,0:0:0:0:
127,281,6350,2,0,L|136:378,2,80,8|0|8,0:0|1:0|0:0,0:0:0:0:
115,171,6800,6,0,L|226:160,1,80,0|0,1:0|1:0,0:0:0:0:
274,155,7100,1,12,0:0:0:0:
354,147,7250,2,0,L|465:136,1,80,0|8,1:0|0:0,0:0:0:0:
438,240,7550,5,0,0:0:0:0:
438,240,7700,2,0,L|433:354,1,80,0|8,0:0|0:0,0:0:0:0:
330,352,8000,2,0,L|333:272,1,80,0|8,1:0|0:0,0:0:0:0:
225,160,8300,5,0,1:0:0:0:
225,160,8450,2,0,L|230:274,1,80,0|8,1:0|0:0,0:0:0:0:
333,272,8750,2,0,L|329:192,1,80,0|8,1:0|0:0,0:0:0:0:
325,74,9050,5,0,1:0:0:0:
325,74,9200,1,8,0:0:0:0:
325,74,9350,1,8,0:0:0:0:
325,74,9500,2,0,L|412:70,1,80,0|8,1:0|0:0,0:0:0:0:
264,137,9800,2,0,L|185:141,1,80,8|8,0:0|0:0,0:0:0:0:
82,71,10100,6,0,P|46:138|84:216,1,160,4|8,1:0|0:0,0:0:0:0:
189,280,10600,1,0,1:0:0:0:
189,280,10700,2,0,P|220:209|184:141,1,160,0|8,1:0|0:0,0:0:0:0:
283,58,11300,2,0,L|296:-4,5,53.3333333333333,0|0|0|8|0|0,1:2|1:2|1:2|1:2|1:2|1:2,1:2:0:0:
370,71,11900,2,0,L|380:123,5,53.3333333333333,0|0|0|8|0|0,1:2|1:2|1:2|1:2|1:2|1:2,1:2:0:0:
465,179,12500,6,0,P|427:215|314:195,1,160,4|8,1:0|0:0,0:0:0:0:
187,233,13000,1,0,1:0:0:0:
187,233,13100,2,0,P|250:188|325:205,1,160,0|8,1:0|0:2,0:0:0:0:
278,333,13700,2,0,L|267:280,5,53.3333333333333,0|0|0|8|0|0,1:2|1:2|1:2|1:2|1:2|1:2,1:2:0:0:
176,285,14300,2,0,L|187:233,5,53.3333333333333,0|0|0|8|0|0,1:2|1:2|1:2|1:2|1:2|1:2,1:2:0:0:
113,142,14900,6,0,L|296:129,1,160,4|8,1:1|0:0,1:1:0:0:
342,18,15400,1,0,1:0:0:0:
342,18,15500,2,0,L|182:29,1,160,0|8,1:0|0:0,1:1:0:0:
44,38,16100,2,0,L|-16:43,5,53.3333333333333,0|0|0|8|0|0,1:0|1:0|1:0|0:0|1:0|1:0,1:1:0:0:
39,126,16700,2,0,L|92:121,5,53.3333333333333,0|0|0|8|0|0,1:0|1:0|1:0|1:2|1:0|1:0,1:0:0:0:
172,46,17300,6,0,P|200:89|161:197,1,160,4|8,1:0|0:2,1:1:0:0:
176,329,17800,1,0,1:0:0:0:
176,329,17900,2,0,P|142:258|173:187,1,160,0|8,1:0|0:2,1:1:0:0:
291,256,18500,2,0,L|237:257,5,53.3333333333333,0|0|0|8|0|0,1:0|1:0|1:0|1:2|1:0|1:0,0:0:0:0:
364,197,19100,2,0,L|417:198,5,53.3333333333333,0|0|0|8|0|0,1:0|1:0|1:0|1:2|1:0|1:0,1:0:0:0:
267,135,19700,6,0,B|200:135|200:135|105:76,1,160,4|8,1:0|0:0,0:0:0:0:
53,186,20300,2,0,P|26:181|-26:186,2,53.3333333333333,0|0|0,1:0|0:0|0:0,0:0:0:0:
103,267,20600,2,0,P|80:282|47:322,2,53.3333333333333,8|0|0,0:0|0:0|0:0,0:0:0:0:
195,288,20900,2,0,P|190:315|194:367,2,53.3333333333333,0|0|0,1:0|0:0|0:0,0:0:0:0:
274,237,21200,2,0,P|289:259|329:292,2,53.3333333333333,8|0|0,0:0|0:0|0:0,0:0:0:0:
234,152,21500,2,0,P|147:164|103:110,2,160,0|8|4,1:0|0:0|1:0,0:0:0:0:
366,118,22400,5,8,0:0:0:0:
366,118,22700,2,0,L|373:53,2,53.3333333333333,0|0|0,1:0|0:0|0:0,0:0:0:0:
446,146,23000,2,0,L|451:199,2,53.3333333333333,8|0|0,0:0|0:0|0:0,0:0:0:0:
363,244,23300,2,0,L|368:190,2,53.3333333333333,0|0|0,1:0|0:0|0:0,0:0:0:0:
443,272,23600,2,0,L|448:325,2,53.3333333333333,8|0|0,0:0|0:0|0:0,0:0:0:0:
357,324,23900,2,0,B|277:313|277:313|184:343,2,160,0|8|4,1:0|0:0|1:0,0:0:0:0:
273,219,24800,5,8,0:0:0:0:
273,219,25100,2,0,L|257:40,1,160,0|8,1:0|0:0,0:0:0:0:
128,63,25700,2,0,P|106:58|72:56,2,53.3333333333333,0|0|0,1:0|0:0|0:0,0:0:0:0:
98,152,26000,2,0,P|78:164|53:186,2,53.3333333333333,8|0|0,0:0|0:0|0:0,0:0:0:0:
166,214,26300,2,0,P|137:263|170:357,2,160,0|8|4,1:0|0:0|1:0,0:0:0:0:
228,284,27200,5,8,0:0:0:0:
228,284,27500,2,0,L|411:298,1,160,0|8,1:0|0:0,0:0:0:0:
490,192,28100,2,0,L|307:206,1,160,0|8,1:0|0:0,0:0:0:0:
250,102,28700,2,0,L|252:62,2,40,0|8|8,1:0|0:0|0:0,0:0:0:0:
177,136,29000,2,0,L|179:175,2,40,0|0|0,1:0|1:0|1:0,0:0:0:0:
136,56,29300,6,0,P|105:84|94:139,1,80,12|0,0:0|0:0,0:0:0:0:
92,199,29600,2,0,L|96:302,1,80,8|0,0:0|0:0,0:0:0:0:
176,350,29900,2,0,L|172:270,1,80,8|0,0:0|0:0,0:0:0:0:
234,222,30200,2,0,P|268:196|316:189,1,80,8|0,0:0|0:0,0:0:0:0:
383,207,30500,6,0,L|376:113,1,80,8|0,0:0|0:0,0:0:0:0:
371,45,30800,2,0,P|333:37|279:52,1,80,8|0,0:0|0:0,0:0:0:0:
218,44,31100,2,0,P|179:36|141:45,1,80,8|0,0:0|0:0,0:0:0:0:
134,127,31400,2,0,L|129:207,1,80,8|0,0:0|0:0,0:0:0:0:
133,293,31700,5,8,0:0:0:0:
133,293,31850,1,0,0:0:0:0:
133,293,32000,2,0,P|178:287|235:322,1,80,8|0,0:0|0:0,0:0:0:0:
291,357,32300,1,8,0:0:0:0:
291,357,32450,1,0,0:0:0:0:
291,357,32600,2,0,P|336:363|393:328,1,80,8|0,0:0|0:0,0:0:0:0:
433,256,32900,1,8,0:0:0:0:
433,256,33050,1,0,0:0:0:0:
433,256,33200,2,0,P|388:250|331:285,1,80,8|0,0:0|0:0,0:0:0:0:
343,175,33500,6,8,L|346:74,1,80
441,58,33800,2,8,L|444:159,1,80
160,124,34250,5,0,1:0:0:0:
160,124,34325,1,0,1:0:0:0:
160,124,34400,2,0,P|150:163|158:236,1,80,8|0,0:0|1:0,0:0:0:0:
159,298,34700,6,0,P|242:272|317:324,1,160,4|10,1:0|0:0,0:0:0:0:
357,366,35150,1,0,0:0:0:0:
357,366,35300,1,0,0:0:0:0:
434,343,35450,2,0,B|434:265|434:265|374:209,1,160,2|0,1:2|0:0,0:0:0:0:
305,155,35900,6,0,P|361:124|453:170,1,160,2|0,1:2|0:0,0:0:0:0:
374,210,36350,2,0,P|318:241|226:195,1,160,2|0,1:2|0:0,0:0:0:0:
180,153,36800,1,10,0:0:0:0:
180,153,37100,6,0,L|181:68,1,80,0|0,1:0|0:0,0:0:0:0:
101,172,37400,2,0,L|100:251,1,80,10|0,0:0|0:0,0:0:0:0:
99,331,37700,1,0,1:0:0:0:
172,300,37850,2,0,P|252:278|337:315,1,160,2|0,1:2|0:0,0:0:0:0:
407,343,38300,2,0,P|414:305|404:258,1,80,2|0,1:2|0:0,0:0:0:0:
393,185,38600,2,0,B|386:139|386:139|350:99|279:119,1,160,10|0,0:0|1:0,0:0:0:0:
190,155,39050,1,0,0:0:0:0:
190,155,39125,1,0,0:0:0:0:
190,155,39200,2,0,L|185:247,1,80,8|8,0:0|0:0,0:0:0:0:
109,289,39500,6,0,P|171:262|270:318,1,160,4|10,1:0|0:0,0:0:0:0:
309,350,39950,1,0,0:0:0:0:
309,350,40100,1,0,1:0:0:0:
386,329,40250,2,0,B|490:311|490:311|417:259,1,160,2|0,1:2|0:0,0:0:0:0:
388,222,40700,2,0,L|321:169,1,80,2|0,1:2|0:0,0:0:0:0:
269,99,41000,1,0,0:0:0:0:
269,99,41150,2,0,P|232:169|263:242,1,160,2|0,1:2|0:0,0:0:0:0:
272,319,41600,2,0,L|190:318,1,80,10|0,0:0|0:0,0:0:0:0:
95,340,41900,6,0,B|105:311|100:280|100:280|65:259|49:231|52:196,1,160,4|10,1:0|0:0,0:0:0:0:
143,202,42350,1,0,0:0:0:0:
143,202,42425,1,8,0:0:0:0:
143,202,42500,1,0,1:0:0:0:
221,185,42650,2,0,P|272:178|316:197,2,80,2|0|0,1:2|0:0|0:0,0:0:0:0:
259,265,43100,2,0,L|259:359,1,80,6|0,1:2|0:0,0:0:0:0:
337,360,43400,2,0,B|406:379|442:339|442:339|449:293,1,160,8|0,0:0|1:0,0:0:0:0:
444,209,43850,1,0,0:0:0:0:
444,209,43925,1,0,0:0:0:0:
444,209,44000,2,0,L|439:117,1,80,8|8,0:0|0:0,0:0:0:0:
432,32,44300,6,0,P|390:26|345:40,1,80,6|0,1:2|0:0,0:0:0:0:
314,104,44600,1,8,0:0:0:0:
314,104,44750,1,0,0:0:0:0:
309,183,44900,2,0,L|304:262,1,80,2|0,0:0|1:0,0:0:0:0:
229,328,45200,2,0,L|224:248,1,80,10|0,0:0|0:0,0:0:0:0:
151,199,45500,6,0,P|108:198|63:222,2,80,2|0|8,1:2|0:0|0:0,0:0:0:0:
224,248,45950,1,0,0:0:0:0:
303,262,46100,2,0,B|345:255|345:255|390:264,1,80,2|2,1:2|1:2,0:0:0:0:
456,304,46400,1,10,0:2:0:0:
456,304,46550,1,0,0:2:0:0:
476,224,46700,6,0,P|459:149|390:114,1,160,6|8,1:2|0:0,0:0:0:0:
384,211,47150,1,0,0:0:0:0:
305,157,47300,1,2,0:2:0:0:
305,157,47375,1,2,0:2:0:0:
305,157,47450,2,0,P|301:116|311:67,1,80,2|8,1:2|0:0,0:0:0:0:
380,23,47750,1,0,0:0:0:0:
390,114,47900,6,0,P|459:149|469:179,1,80,2|0,1:2|0:0,0:0:0:0:
476,224,48200,2,0,B|468:265|468:265|473:314,1,80,8|0,0:0|0:0,0:0:0:0:
383,362,48500,2,0,B|386:323|386:323|378:282,1,80,0|0,0:0|1:0,0:0:0:0:
344,201,48800,1,8,0:0:0:0:
344,201,48875,1,8,0:0:0:0:
344,201,48950,1,8,0:0:0:0:
344,201,49025,1,8,0:0:0:0:
344,201,49100,6,0,P|296:193|238:217,2,80,6|0|8,1:2|0:0|0:0,0:0:0:0:
430,227,49550,1,0,0:0:0:0:
422,147,49700,2,0,L|410:55,1,80,2|0,0:0|1:0,0:0:0:0:
328,45,50000,2,0,L|317:124,1,80,10|0,0:0|0:0,0:0:0:0:
266,200,50300,6,0,P|195:173|123:210,1,160,2|8,1:2|0:0,0:0:0:0:
124,208,50750,1,0,0:0:0:0:
42,254,50900,2,0,B|45:217|45:217|35:168,1,80,2|2,1:2|1:2,0:0:0:0:
0,90,51200,1,10,0:2:0:0:
0,90,51350,1,0,0:0:0:0:
92,68,51500,6,0,L|255:37,1,160,6|8,1:2|0:0,0:0:0:0:
326,22,51950,1,0,0:0:0:0:
319,114,52100,1,2,1:2:0:0:
319,114,52175,1,2,0:2:0:0:
319,114,52250,2,0,L|313:198,1,80,2|8,1:2|0:0,0:0:0:0:
393,192,52550,1,0,0:0:0:0:
355,272,52700,2,0,P|315:271|278:286,1,80,2|0,1:2|0:0,0:0:0:0:
200,340,53000,2,0,B|192:304|192:304|204:254,1,80,8|0,0:0|1:0,0:0:0:0:
211,182,53300,2,0,B|219:146|219:146|208:104,1,80,0|0,0:0|1:0,0:0:0:0:
139,46,53600,2,0,B|121:78|121:78|121:122,1,80,8|0,0:0|0:0,0:0:0:0:
50,196,53900,5,4,1:0:0:0:
50,196,54050,2,0,P|89:200|139:231,1,80,0|8,0:0|0:0,0:0:0:0:
170,293,54350,2,0,P|179:335|166:380,2,80,4|0|8,1:0|0:0|0:2,0:0:0:0:
235,237,54800,2,0,P|226:195|239:150,2,80,4|0|8,1:0|0:0|0:0,0:0:0:0:
323,193,55250,1,0,1:0:0:0:
323,193,55400,2,0,L|415:187,1,80,0|8,0:0|0:0,0:0:0:0:
482,183,55700,2,0,L|525:180,2,40,8|8|8,0:0|0:0|0:0,0:0:0:0:
447,105,56000,2,0,L|475:72,2,40,0|0|0,1:0|0:0|0:0,0:0:0:0:
371,58,56300,6,0,P|324:50|265:80,1,80,12|0,0:0|0:0,0:0:0:0:
239,118,56600,1,0,1:0:0:0:
179,65,56750,2,0,P|132:57|73:87,1,80,12|0,0:0|0:0,0:0:0:0:
47,125,57050,1,0,1:0:0:0:
80,208,57200,2,0,B|92:249|92:249|79:300,1,80,12|0,0:0|0:0,0:0:0:0:
172,357,57500,2,0,B|162:320|162:320|174:279,1,80,0|8,1:0|0:0,0:0:0:0:
228,215,57800,2,0,P|278:209|321:228,1,80,0|0,0:0|1:0,0:0:0:0:
383,256,58100,2,0,L|421:277,2,40,0|0|0,1:0|1:0|1:0,0:0:0:0:
386,173,58400,2,8,L|386:77,1,80
314,32,58700,5,4,1:0:0:0:
314,32,58850,2,0,B|271:43|271:43|218:29,1,80,0|8,0:0|0:0,0:0:0:0:
151,117,59150,1,4,1:0:0:0:
151,117,59300,2,0,B|194:106|194:106|247:120,1,80,0|8,0:0|0:2,0:0:0:0:
297,182,59600,2,0,L|296:268,2,80,4|0|8,1:0|0:0|0:0,0:0:0:0:
383,159,60050,2,0,L|382:79,2,80,0|0|8,1:0|0:0|0:2,0:0:0:0:
444,215,60500,2,0,L|493:202,2,40,8|8|8,0:0|0:0|0:0,0:0:0:0:
412,289,60800,2,0,L|373:278,2,40,0|0|0,1:0|0:0|0:0,0:0:0:0:
503,345,61100,6,0,P|436:326|360:367,1,160,12|0,0:0|1:0,0:0:0:0:
280,337,61550,2,0,P|213:356|137:315,1,160,12|0,0:0|1:0,0:0:0:0:
73,258,62000,2,0,B|85:217|85:217|72:166,1,80,12|0,0:0|0:0,0:0:0:0:
158,114,62300,2,0,B|148:151|148:151|160:192,1,80,0|8,1:0|0:0,0:0:0:0:
229,238,62600,2,0,L|331:244,1,80,0|0,0:0|1:0,0:0:0:0:
393,247,62900,2,0,L|436:249,2,40,0|0|0,1:0|1:0|1:0,0:0:0:0:
367,166,63200,2,0,B|367:140|367:140|437:110,1,80,8|8,0:0|0:0,0:0:0:0:
498,57,63500,6,0,P|426:77|329:16,1,160,6|8,1:2|0:0,0:0:0:0:
282,93,63950,2,0,L|282:132,2,40,2|0|0,0:0|0:0|0:0,0:0:0:0:
208,52,64250,2,0,L|208:12,2,40,2|0|8,1:2|0:0|0:0,0:0:0:0:
137,98,64550,1,2,0:0:0:0:
137,98,64700,2,0,P|97:174|132:260,1,160,0|8,1:0|0:0,0:0:0:0:
177,298,65150,1,0,0:0:0:0:
259,313,65300,2,0,L|369:321,1,80,2|0,0:0|1:0,0:0:0:0:
418,246,65600,2,0,L|338:240,1,80,10|0,0:0|0:0,0:0:0:0:
254,229,65900,6,0,P|260:141|208:78,1,160,2|8,1:2|0:0,0:0:0:0:
52,108,66500,2,0,L|-5:117,2,40,2|0|0,0:0|0:0|0:0,0:0:0:0:
126,173,66800,2,0,L|183:182,2,40,8|0|0,0:0|0:0|0:0,0:0:0:0:
47,219,67100,2,0,P|51:268|35:305,1,80,2|0,1:2|0:0,0:0:0:0:
150,343,67400,1,8,0:0:0:0:
150,343,67475,1,0,0:0:0:0:
150,343,67550,2,0,P|145:293|161:256,1,80,0|0,0:0|1:0,0:0:0:0:
233,234,67850,1,2,1:2:0:0:
304,190,68000,2,0,L|343:164,2,40,8|0|0,0:0|0:0|0:0,0:0:0:0:
238,137,68300,5,0,1:0:0:0:
238,137,68450,2,0,L|247:91,2,40,2|0|8,0:0|0:0|0:0,0:0:0:0:
155,152,68750,2,0,L|162:191,2,40,2|0|0,0:0|0:0|1:0,0:0:0:0:
72,137,69050,2,0,L|79:97,2,40,2|0|8,1:2|0:0|0:0,0:0:0:0:
58,219,69350,1,2,0:0:0:0:
58,219,69500,2,0,B|30:256|35:302|35:302|97:296|139:316,1,160,0|8,1:0|0:0,0:0:0:0:
189,314,69950,1,0,0:0:0:0:
271,329,70100,2,0,L|265:235,1,80,2|0,0:0|1:0,0:0:0:0:
338,177,70400,2,0,L|343:256,1,80,10|0,0:0|0:0,0:0:0:0:
350,350,70700,6,0,B|392:329|448:341|448:341|456:258,1,160,2|8,1:2|0:0,0:0:0:0:
465,114,71300,2,0,L|468:61,2,40,2|0|0,0:0|0:0|1:0,0:0:0:0:
389,150,71600,2,0,L|386:203,2,40,8|0|0,0:0|0:0|0:0,0:0:0:0:
389,65,71900,2,0,L|296:63,1,80,2|0,1:2|0:0,0:0:0:0:
225,61,72200,2,0,P|184:142|207:219,1,160,8|0,0:0|0:0,0:0:0:0:
244,277,72650,2,0,L|245:325,2,40,0|0|8,1:0|0:0|0:0,0:0:0:0:
160,288,72950,1,8,0:0:0:0:
77,303,73100,6,0,B|71:261|104:226|104:226|63:138,1,160,4|4,1:0|1:0,0:0:0:0:
55,122,73500,2,0,L|27:70,2,53.3333333333333,0|0|4,0:0|0:0|1:0,0:0:0:0:
371,74,74300,2,0,P|399:75|439:91,2,53.3333333333333,8|8|0,0:0|0:0|1:0,0:0:0:0:
321,95,74600,2,0,P|294:144|315:218,1,106.666666666667,0|0,1:0|1:0,0:0:0:0:
325,239,74900,6,0,L|456:255,1,106.666666666667,12|12,1:2|1:2,0:0:0:0:
315,347,75300,2,0,P|262:331|209:334,1,106.666666666667,12|12,1:2|1:2,0:0:0:0:
70,57,76100,2,0,P|41:58|2:74,2,53.3333333333333,0|0|0,1:0|1:0|1:0,0:0:0:0:
120,78,76400,2,0,P|147:127|126:201,1,106.666666666667,8|0,0:0|0:0,0:0:0:0:
131,228,76700,6,0,L|292:218,2,160,12|12|4,1:2|1:2|1:0,0:0:0:0:
312,139,77600,1,0,0:0:0:0:
312,139,77900,2,0,P|373:225|324:298,2,160,12|12|12,1:2|1:2|1:2,0:0:0:0:
298,335,78800,1,0,0:0:0:0:
298,335,79100,2,0,B|352:368|403:340|403:340|459:351,2,160,12|12|12,1:2|1:2|1:2,0:0:0:0:
57,77,80300,6,0,P|59:48|71:21,2,53.3333333333333,8|0|0,0:0|1:0|1:0,0:0:0:0:
136,77,80600,2,0,P|157:57|185:47,2,53.3333333333333,0|8|8,1:0|0:0|0:0,0:0:0:0:
191,132,80900,2,0,P|220:134|247:146,2,53.3333333333333,0|0|0,1:0|1:0|1:0,0:0:0:0:
218,253,81200,2,8,B|212:231|212:231|191:210,2,53.3333333333333
246,344,81500,6,0,P|169:325|92:342,1,160,4|8,1:2|0:0,0:0:0:0:
334,343,81950,2,0,P|425:359|507:329,1,160,0|0,0:0|0:0,0:0:0:0:
479,252,82400,2,0,L|466:153,1,80,8|0,0:0|0:0,0:0:0:0:
454,85,82700,1,0,1:2:0:0:
454,85,82850,1,0,0:0:0:0:
454,85,83000,2,0,P|411:77|352:100,1,80,8|0,0:0|0:0,0:0:0:0:
315,148,83300,1,0,0:0:0:0:
315,148,83450,1,0,1:0:0:0:
315,148,83600,2,0,P|272:156|213:133,1,80,8|0,0:0|0:0,0:0:0:0:
191,72,83900,6,0,P|148:148|185:223,1,160,4|8,1:0|0:0,0:0:0:0:
259,216,84350,2,0,P|302:292|265:367,1,160,0|0,1:0|0:0,0:0:0:0:
204,294,84800,2,0,B|142:311|98:262|98:262|62:307,1,160,8|0,0:0|1:0,0:0:0:0:
70,128,85400,2,0,P|109:124|166:148,1,80,8|0,0:0|0:0,0:0:0:0:
223,161,85700,2,0,P|262:165|319:141,1,80,0|0,0:0|1:0,0:0:0:0:
352,92,86000,1,8,0:0:0:0:
424,126,86150,1,8,0:0:0:0:
424,126,86225,1,8,0:0:0:0:
424,126,86300,6,0,L|424:301,1,160,4|8,1:0|0:0,0:0:0:0:
357,343,86750,2,0,P|291:315|202:357,1,160,0|0,0:0|1:0,0:0:0:0:
131,310,87200,1,8,0:0:0:0:
20,160,87500,6,0,P|56:154|103:166,1,80,0|0,1:0|0:0,0:0:0:0:
151,233,87800,2,0,P|190:238|228:229,1,80,8|0,0:0|0:0,0:0:0:0:
279,157,88100,2,0,P|315:151|362:163,1,80,0|0,0:0|1:0,0:0:0:0:
410,230,88400,2,0,P|449:235|487:226,1,80,8|0,0:0|0:0,0:0:0:0:
495,136,88700,6,0,P|491:88|476:56,1,80,4|8,1:0|0:0,0:0:0:0:
405,25,89000,1,0,1:0:0:0:
344,76,89150,2,0,P|270:102|191:53,1,160,4|0,1:0|1:0,0:0:0:0:
127,33,89600,1,12,0:0:0:0:
113,111,89750,1,0,1:0:0:0:
105,190,89900,2,0,B|154:193|182:152|182:152|212:176|246:174,1,160,4|8,1:0|0:0,0:0:0:0:
289,99,90350,2,0,P|329:147|306:239,1,160,0|0,0:0|1:0,0:0:0:0:
231,257,90800,2,0,L|232:319,2,40,8|8|8,0:0|0:0|0:0,0:0:0:0:
161,359,91100,6,0,P|234:328|307:366,1,160,4|8,1:0|0:0,0:0:0:0:
390,359,91550,2,0,L|391:166,1,160,0|0,0:0|0:0,0:0:0:0:
392,119,92000,2,0,P|355:106|297:113,1,80,8|0,0:0|0:0,0:0:0:0:
248,152,92300,1,0,1:0:0:0:
248,152,92450,1,0,0:0:0:0:
248,152,92600,2,0,L|248:250,1,80,8|0,0:0|0:0,0:0:0:0:
159,290,92900,1,0,0:0:0:0:
159,290,93050,1,0,1:0:0:0:
159,290,93200,2,0,L|159:192,1,80,8|0,0:0|1:0,0:0:0:0:
158,121,93500,6,0,B|120:121|89:155|89:155|54:135|42:87,1,160,4|8,1:0|0:0,0:0:0:0:
113,34,93950,2,0,P|173:34|264:114,1,160,0|0,1:0|1:0,0:0:0:0:
276,178,94400,2,0,B|317:171|335:124|335:124|428:123,1,160,8|0,0:0|1:0,0:0:0:0:
477,296,95000,2,0,L|398:298,1,80,8|0,0:0|0:0,0:0:0:0:
320,339,95300,2,0,L|240:340,1,80,0|0,0:0|1:0,0:0:0:0:
159,304,95600,1,8,0:0:0:0:
159,304,95675,1,8,0:0:0:0:
159,304,95750,1,0,1:0:0:0:
159,304,95825,1,0,1:0:0:0:
159,304,95900,6,0,P|138:216|173:147,1,160,4|8,1:0|0:0,0:0:0:0:
229,76,96350,2,0,P|257:149|235:224,1,160,0|0,0:0|1:0,0:0:0:0:
304,278,96800,1,8,0:0:0:0:
413,140,97100,6,0,L|402:44,1,80,0|0,1:0|0:0,0:0:0:0:
326,18,97400,2,0,L|316:97,1,80,8|0,0:0|1:0,0:0:0:0:
244,147,97700,2,0,L|233:51,1,80,0|0,1:0|1:0,0:0:0:0:
157,25,98000,2,0,L|147:104,1,80,8|8,1:2|0:0,0:0:0:0:
138,212,98300,5,4,1:0:0:0:
138,212,98450,1,8,0:0:0:0:
306,160,98750,1,4,1:0:0:0:
306,160,98900,1,8,0:0:0:0:
358,328,99200,1,4,1:0:0:0:
358,328,99350,1,8,0:0:0:0:
190,380,99650,1,4,1:0:0:0:
190,380,99800,2,0,L|206:278,1,80,8|0,0:0|0:0,0:0:0:0:
221,186,100100,1,4,1:0:0:0:
221,186,100250,1,8,0:0:0:0:
331,129,100700,5,4,1:0:0:0:
331,129,100850,1,8,0:0:0:0:
163,77,101150,1,4,1:0:0:0:
163,77,101300,1,8,0:0:0:0:
111,245,101600,1,4,1:0:0:0:
111,245,101750,1,8,0:0:0:0:
279,297,102050,1,4,1:0:0:0:
279,297,102200,2,0,L|263:198,1,80,8|0,0:0|0:0,0:0:0:0:
248,103,102500,1,4,1:0:0:0:
248,103,102650,1,8,0:0:0:0:
256,192,103100,12,12,105800,1:2:0:0:
