osu file format v14

[General]
AudioFilename: 22 .mp3
AudioLeadIn: 0
PreviewTime: 33927
Countdown: 0
SampleSet: Normal
StackLeniency: 0.7
Mode: 0
LetterboxInBreaks: 1
WidescreenStoryboard: 1

[Editor]
DistanceSpacing: 0.6
BeatDivisor: 4
GridSize: 4
TimelineZoom: 3.299999

[Metadata]
Title:Lilieze to Enryuu Laevateinn
TitleUnicode:リリーゼと炎龍レーヴァテイン
Artist:Kuroneko Dungeon
ArtistUnicode:黒猫ダンジョン
Creator:Nyquill
Version:captin's Another
Source:REFLEC BEAT colette -Summer-
Tags:zektbach beatmania iidx 22 pendual tomosuke funaki oldstyle gamemusic beatstream アニムトライヴ pop'n music うさぎと猫と少年の夢 maya takamura 高村真耶 captin1 Giralda
BeatmapID:742829
BeatmapSetID:326608

[Difficulty]
HPDrainRate:7
CircleSize:4
OverallDifficulty:7.5
ApproachRate:9
SliderMultiplier:1.6
SliderTickRate:2

[Events]
//Background and Video events
0,0,"36528051_p0.jpg",0,0
//Break Periods
//Storyboard Layer 0 (Background)
//Storyboard Layer 1 (Fail)
//Storyboard Layer 2 (Pass)
//Storyboard Layer 3 (Foreground)
//Storyboard Sound Samples

[TimingPoints]
513,300,4,1,1,70,1,0
1713,-133.333333333333,4,1,1,70,0,0
10113,-111.111111111111,4,2,1,70,0,0
19713,-83.3333333333333,4,2,1,70,0,0
29313,-125,4,2,1,70,0,0
34263,-100,4,1,1,70,0,0
34713,300,4,1,1,70,1,0
73113,-83.3333333333333,4,1,1,70,0,0
81213,-95.2380952380952,4,1,1,70,0,0
81513,-90.9090909090909,4,1,1,80,0,1
98313,-100,4,1,1,80,0,0
103563,-166.666666666667,4,1,1,35,0,0
104013,-142.857142857143,4,1,1,45,0,0
104463,-125,4,1,1,55,0,0
104913,-111.111111111111,4,1,1,65,0,0
105363,-111.111111111111,4,1,1,75,0,0
105813,-100,4,1,1,85,0,0

[Colours]
Combo1 : 97,175,157
Combo2 : 220,118,118

[HitObjects]
75,150,513,5,8,0:0:0:0:
81,173,588,1,8,0:0:0:0:
88,195,663,2,0,L|77:279,1,80,8|8,0:3|0:3,0:0:0:0:
205,170,963,1,8,0:0:0:0:
211,193,1038,1,8,0:0:0:0:
218,215,1113,2,0,L|207:299,1,80,8|8,0:3|0:3,0:0:0:0:
340,278,1413,1,8,0:0:0:0:
368,292,1488,1,0,0:0:0:0:
399,293,1563,1,8,0:0:0:0:
429,282,1638,1,0,0:0:0:0:
448,267,1713,6,0,L|452:186,1,60.0000022888184,4|0,0:2|2:0,0:0:0:0:
342,131,2013,2,0,L|338:50,1,60.0000022888184
215,155,2313,2,0,L|219:236,1,60.0000022888184,0|0,0:0|2:0,0:0:0:0:
109,291,2613,2,0,L|105:372,1,60.0000022888184
35,220,2913,5,0,0:0:0:0:
35,220,3063,1,0,0:0:0:0:
156,118,3213,2,0,L|148:185,1,60.0000022888184
271,311,3513,2,0,L|263:244,1,60.0000022888184,0|0,0:0|2:0,0:0:0:0:
368,98,3813,2,0,L|360:165,1,60.0000022888184
451,254,4113,6,0,P|414:251|379:243,1,60.0000022888184,0|0,0:0|2:0,0:0:0:0:
287,172,4413,1,0,0:0:0:0:
434,148,4563,1,0,0:0:0:0:
275,135,4713,2,0,P|238:138|203:146,1,60.0000022888184
97,335,5013,1,0,0:0:0:0:
97,335,5088,1,0,0:0:0:0:
97,335,5163,1,0,0:0:0:0:
97,335,5238,1,0,0:0:0:0:
97,335,5313,6,0,L|103:256,1,60.0000022888184,6|2,0:2|0:2,0:0:0:0:
94,251,5538,1,0,0:0:0:0:
87,227,5613,1,2,0:2:0:0:
203,339,5763,1,2,0:2:0:0:
307,232,5913,2,0,L|315:185,2,30.0000011444092,0|0|2,0:0|0:0|0:2,0:0:0:0:
179,253,6213,5,2,0:2:0:0:
179,253,6288,1,0,0:0:0:0:
179,253,6363,1,2,0:2:0:0:
334,346,6513,2,0,P|377:340|405:339,1,60.0000022888184,2|0,0:2|0:0,0:0:0:0:
466,199,6813,6,0,L|399:186,1,60.0000022888184,2|2,0:2|0:2,0:0:0:0:
266,210,7113,1,2,0:2:0:0:
299,86,7263,2,0,P|329:101|366:111,1,60.0000022888184,2|0,0:2|0:0,0:0:0:0:
150,198,7563,6,0,L|76:205,1,60.0000022888184,2|2,0:2|0:2,0:0:0:0:
71,218,7788,1,0,0:0:0:0:
52,232,7863,1,2,0:2:0:0:
218,87,8013,2,0,L|292:94,1,60.0000022888184,2|0,0:2|0:0,0:0:0:0:
289,291,8313,5,2,0:2:0:0:
238,171,8463,1,2,0:2:0:0:
381,238,8613,1,2,0:2:0:0:
209,189,8763,2,0,L|146:198,1,60.0000022888184,2|0,0:2|0:0,0:0:0:0:
366,111,9063,5,2,0:2:0:0:
438,305,9213,1,2,0:2:0:0:
438,305,9288,1,0,0:0:0:0:
438,305,9363,1,2,0:2:0:0:
305,177,9513,2,0,L|299:244,1,60.0000022888184,2|0,0:2|0:0,0:0:0:0:
204,357,9813,1,2,0:2:0:0:
180,354,9888,1,0,0:0:0:0:
156,351,9963,1,2,0:2:0:0:
47,191,10113,6,0,L|38:84,1,95.9999970703126,4|0,1:0|0:0,0:0:0:0:
91,45,10413,2,0,L|145:51,2,47.9999985351563,8|0|0,0:0|0:0|0:0,0:0:0:0:
160,139,10713,2,0,P|197:120|227:22,1,143.999995605469,2|8,1:2|0:0,0:0:0:0:
14,232,11313,6,0,L|125:251,1,95.9999970703126,2|0,1:2|0:0,0:0:0:0:
171,312,11613,2,0,L|174:366,2,47.9999985351563,8|0|0,0:0|0:0|0:0,0:0:0:0:
254,274,11913,2,0,L|263:124,1,143.999995605469,2|8,1:2|0:0,0:0:0:0:
314,79,12313,1,8,0:3:0:0:
384,93,12413,1,8,0:3:0:0:
417,156,12513,6,0,P|451:115|449:61,1,95.9999970703126,4|0,1:2|0:0,0:0:0:0:
400,24,12813,2,0,L|349:16,2,47.9999985351563,8|0|0,0:0|0:0|0:0,0:0:0:0:
318,123,13113,2,0,L|171:97,1,143.999995605469,2|8,1:2|0:0,0:0:0:0:
19,245,13713,6,0,P|64:239|112:214,1,95.9999970703126,2|0,1:2|0:0,0:0:0:0:
160,266,14013,2,0,L|154:330,2,47.9999985351563,8|0|0,0:0|0:0|0:0,0:0:0:0:
202,242,14313,1,2,1:2:0:0:
249,243,14413,1,0,0:0:0:0:
287,271,14513,1,0,0:0:0:0:
325,299,14613,1,8,0:0:0:0:
372,293,14713,1,8,0:3:0:0:
410,264,14813,1,8,0:3:0:0:
423,217,14913,6,0,L|409:103,1,95.9999970703126,4|0,1:2|0:0,0:0:0:0:
345,92,15213,2,0,L|336:145,2,47.9999985351563,8|0|0,0:0|0:0|0:0,0:0:0:0:
285,199,15513,2,0,P|253:166|253:71,1,143.999995605469,2|8,1:2|0:0,0:0:0:0:
30,157,16113,6,0,L|146:162,1,95.9999970703126,2|0,1:2|0:0,0:0:0:0:
166,221,16413,2,0,L|119:262,2,47.9999985351563,8|0|0,0:0|0:0|0:0,0:0:0:0:
238,213,16713,2,0,P|272:190|380:188,1,143.999995605469,2|8,1:2|0:0,0:0:0:0:
380,257,17113,1,8,0:3:0:0:
389,328,17213,1,8,0:3:0:0:
437,381,17313,6,0,L|447:267,1,95.9999970703126,4|0,1:2|0:0,0:0:0:0:
484,224,17613,2,0,L|438:207,2,47.9999985351563,8|0|0,0:0|0:0|0:0,0:0:0:0:
415,138,17913,2,0,L|317:147,1,95.9999970703126,2|0,1:2|0:0,0:0:0:0:
271,92,18213,1,8,0:0:0:0:
64,154,18513,6,0,L|167:161,1,95.9999970703126,2|0,1:2|0:0,0:0:0:0:
178,229,18813,2,0,L|163:280,2,47.9999985351563,8|0|0,0:0|0:0|0:0,0:0:0:0:
243,196,19113,1,2,1:2:0:0:
311,218,19213,1,0,0:0:0:0:
343,282,19313,1,0,0:0:0:0:
343,282,19413,2,0,L|338:305,5,23.9999992675781,8|0|0|0|0|0,0:0|0:0|0:0|0:0|0:0|0:0,0:0:0:0:
377,269,19713,6,0,L|442:292,2,63.9999980468751,4|0|0,1:2|0:0|0:0,0:0:0:0:
295,142,20013,2,0,L|360:119,2,63.9999980468751,8|0|0,0:0|0:0|0:0,0:0:0:0:
218,314,20313,1,2,1:2:0:0:
183,330,20413,1,0,0:0:0:0:
146,318,20513,1,0,0:0:0:0:
127,284,20613,2,0,L|110:220,2,63.9999980468751,8|0|0,0:0|0:0|0:0,0:0:0:0:
163,153,20913,5,2,1:2:0:0:
199,164,21013,1,0,0:0:0:0:
235,153,21113,1,0,0:0:0:0:
258,122,21213,1,8,0:0:0:0:
293,106,21313,1,0,0:0:0:0:
331,109,21413,1,0,0:0:0:0:
357,136,21513,2,0,L|367:200,2,63.9999980468751,2|0|0,1:2|0:0|0:0,0:0:0:0:
461,262,21813,2,0,L|451:326,2,63.9999980468751,8|8|8,0:0|0:3|0:3,0:0:0:0:
351,323,22113,5,4,1:2:0:0:
316,305,22213,1,0,0:0:0:0:
277,307,22313,1,0,0:0:0:0:
244,327,22413,2,0,L|181:313,2,63.9999980468751,8|0|0,0:0|0:0|0:0,0:0:0:0:
85,364,22713,1,2,1:2:0:0:
80,325,22813,1,0,0:0:0:0:
75,286,22913,1,0,0:0:0:0:
70,247,23013,2,0,L|-2:262,2,63.9999980468751,8|0|0,0:0|0:0|0:0,0:0:0:0:
162,114,23313,6,0,L|234:129,2,63.9999980468751,2|0|0,1:2|0:0|0:0,0:0:0:0:
289,224,23613,2,0,L|217:239,2,63.9999980468751,8|0|0,0:0|0:0|0:0,0:0:0:0:
334,65,23913,2,0,L|319:-7,2,63.9999980468751,2|0|0,1:2|0:0|0:0,0:0:0:0:
412,187,24213,1,8,0:0:0:0:
408,225,24313,1,8,0:3:0:0:
404,263,24413,1,8,0:3:0:0:
401,301,24513,6,0,L|468:288,2,63.9999980468751,2|0|0,1:2|0:0|0:0,0:0:0:0:
329,364,24813,1,8,0:0:0:0:
300,337,24913,1,0,0:0:0:0:
262,329,25013,1,0,0:0:0:0:
225,341,25113,1,2,1:2:0:0:
188,329,25213,1,0,0:0:0:0:
162,300,25313,1,0,0:0:0:0:
162,261,25413,2,0,L|169:179,2,63.9999980468751,8|0|0,0:0|0:0|0:0,0:0:0:0:
252,217,25713,5,2,1:2:0:0:
255,178,25813,2,0,L|247:100,1,63.9999980468751
338,201,26013,1,8,0:0:0:0:
341,162,26113,2,0,L|333:84,1,63.9999980468751
425,20,26313,1,2,1:2:0:0:
456,41,26413,1,0,0:0:0:0:
466,77,26513,1,0,0:0:0:0:
454,113,26613,2,0,L|463:184,2,63.9999980468751,8|8|8,0:0|0:3|0:3,0:0:0:0:
415,255,26913,5,2,1:2:0:0:
378,242,27013,1,0,0:0:0:0:
340,248,27113,1,0,0:0:0:0:
309,271,27213,2,0,L|297:343,2,63.9999980468751,8|0|0,0:0|0:0|0:0,0:0:0:0:
201,228,27513,2,0,L|213:300,2,63.9999980468751,2|0|0,1:2|0:0|0:0,0:0:0:0:
97,210,27813,1,8,0:0:0:0:
78,176,27913,1,0,0:0:0:0:
86,138,28013,1,0,0:0:0:0:
115,113,28113,6,0,L|190:123,2,63.9999980468751,2|0|0,1:2|0:0|0:0,0:0:0:0:
258,81,28413,1,8,0:0:0:0:
296,77,28513,1,0,0:0:0:0:
334,74,28613,1,0,0:0:0:0:
372,71,28713,1,2,1:2:0:0:
395,240,28863,6,0,L|344:232,1,47.9999985351563,8|8,0:0|0:0,0:0:0:0:
298,311,29013,1,8,0:3:0:0:
269,315,29088,1,0,0:0:0:0:
240,319,29163,1,8,0:3:0:0:
211,323,29238,1,0,0:0:0:0:
182,327,29313,6,0,L|108:337,1,64,8|0,0:0|0:0,0:0:0:0:
227,203,29613,1,8,0:0:0:0:
227,203,29763,1,0,0:0:0:0:
106,248,29913,2,0,L|32:238,1,64,8|0,0:0|0:0,0:0:0:0:
160,80,30213,1,8,0:0:0:0:
160,80,30363,1,0,0:0:0:0:
187,285,30513,6,0,L|261:295,1,64,8|0,0:0|0:0,0:0:0:0:
390,171,30813,1,8,0:0:0:0:
350,305,30963,1,0,0:0:0:0:
310,134,31113,2,0,L|300:196,1,64,8|0,0:0|0:0,0:0:0:0:
217,359,31413,2,0,P|179:370|138:372,1,64,8|0,0:0|0:0,0:0:0:0:
413,255,31713,6,0,L|490:268,1,64,8|0,0:0|0:0,0:0:0:0:
382,80,32013,1,8,0:0:0:0:
382,80,32163,1,0,0:0:0:0:
321,260,32313,1,8,0:0:0:0:
442,146,32463,1,0,0:0:0:0:
310,134,32613,2,0,L|234:144,1,64,8|0,0:0|0:0,0:0:0:0:
33,76,32913,5,8,0:0:0:0:
185,99,33063,1,0,0:0:0:0:
42,165,33213,2,0,L|31:234,1,64,8|0,0:0|0:0,0:0:0:0:
156,360,33513,1,8,0:0:0:0:
142,194,33663,1,8,0:0:0:0:
60,328,33813,1,8,0:0:0:0:
278,293,33963,1,8,0:0:0:0:
278,293,34263,6,0,L|271:232,1,40
328,158,34413,1,8,0:0:0:0:
356,172,34488,1,8,0:0:0:0:
372,199,34563,1,8,0:3:0:0:
375,230,34638,1,8,0:3:0:0:
366,260,34713,6,0,L|461:238,1,80,4|0,0:0|0:0,0:0:0:0:
191,151,35013,2,0,B|129:165|129:165|98:148|98:148|24:165,1,160,10|0,0:0|0:0,0:0:0:0:
246,52,35463,1,2,0:0:0:0:
255,233,35613,2,0,L|244:316,1,80,8|0,0:0|0:0,0:0:0:0:
478,243,35913,6,0,P|449:200|329:192,1,160,2|8,0:0|0:0,0:0:0:0:
162,273,36363,1,2,0:0:0:0:
162,273,36438,1,0,0:0:0:0:
162,273,36513,1,0,0:0:0:0:
293,309,36663,1,0,0:0:0:0:
145,296,36813,2,0,L|62:309,1,80,10|0,0:0|0:0,0:0:0:0:
195,141,37113,6,0,P|245:153|275:166,1,80
384,366,37413,2,0,B|335:335|335:335|317:219,1,160,2|0,0:0|0:0,0:0:0:0:
290,40,37863,1,2,0:0:0:0:
401,32,38013,2,0,P|392:71|377:108,1,80,8|0,0:0|0:0,0:0:0:0:
196,231,38313,6,0,L|105:216,1,80,2|0,0:0|0:0,0:0:0:0:
285,170,38613,1,8,0:0:0:0:
323,340,38763,1,2,0:0:0:0:
323,340,38838,1,0,0:0:0:0:
323,340,38913,2,0,L|386:332,2,40
476,232,39213,1,10,0:0:0:0:
472,200,39288,1,0,0:0:0:0:
468,168,39363,1,0,0:0:0:0:
464,136,39438,1,0,0:0:0:0:
461,104,39513,6,0,L|371:86,1,80,4|0,0:0|0:0,0:0:0:0:
228,217,39813,2,0,P|171:189|144:93,1,160,10|0,0:0|0:0,0:0:0:0:
310,163,40263,1,2,0:0:0:0:
234,317,40413,2,0,L|155:328,1,80,8|0,0:0|0:0,0:0:0:0:
333,268,40713,6,0,B|403:246|419:302|489:272,1,160,2|8,0:0|0:0,0:0:0:0:
396,104,41163,1,2,0:0:0:0:
396,104,41238,1,0,0:0:0:0:
396,104,41313,1,0,0:0:0:0:
229,151,41463,1,0,0:0:0:0:
416,134,41613,2,0,L|426:40,1,80,10|0,0:0|0:0,0:0:0:0:
180,81,41913,6,0,P|137:73|88:57,1,80,4|0,0:0|0:0,0:0:0:0:
298,47,42213,2,0,L|308:188,1,120,10|0,0:0|0:0,0:0:0:0:
295,196,42513,1,0,0:0:0:0:
153,338,42663,1,2,0:0:0:0:
91,228,42813,2,0,P|129:217|169:213,1,80,8|0,0:0|0:0,0:0:0:0:
445,340,43113,6,0,L|358:327,1,80,6|0,0:0|0:0,0:0:0:0:
226,163,43413,1,8,0:0:0:0:
284,329,43563,1,2,0:0:0:0:
284,329,43638,1,0,0:0:0:0:
284,329,43713,2,0,L|291:283,2,40
416,245,44013,1,10,0:0:0:0:
396,219,44088,1,0,0:0:0:0:
386,188,44163,1,8,0:0:0:0:
383,156,44238,1,0,0:0:0:0:
390,124,44313,6,0,L|483:134,1,80,4|0,0:0|0:0,0:0:0:0:
233,44,44613,2,0,L|326:34,1,80,0|2,0:0|0:2,0:0:0:0:
160,151,44913,1,2,0:2:0:0:
60,63,45063,1,2,0:2:0:0:
160,151,45213,2,0,L|168:252,1,80,8|2,0:0|0:2,0:0:0:0:
258,367,45513,6,0,P|265:323|269:271,1,80,2|0,0:2|0:0,0:0:0:0:
373,147,45813,2,0,P|369:186|362:226,1,80,8|2,0:0|0:2,0:0:0:0:
182,320,46113,1,2,0:2:0:0:
79,309,46263,1,2,0:2:0:0:
271,259,46413,1,8,0:0:0:0:
374,248,46563,1,2,0:2:0:0:
190,187,46713,6,0,L|96:198,1,80,6|0,0:2|0:0,0:0:0:0:
18,259,47013,1,8,0:0:0:0:
42,112,47163,1,2,0:2:0:0:
18,259,47313,2,0,L|26:292,3,26.6666666666667,2|0|0|2,0:2|0:0|0:0|0:2,0:0:0:0:
137,266,47613,2,0,P|178:275|221:290,1,80,8|2,0:0|0:2,0:0:0:0:
450,317,47913,6,0,P|409:326|366:341,1,80,2|0,0:2|0:0,0:0:0:0:
220,367,48213,1,8,0:0:0:0:
207,195,48363,1,2,0:2:0:0:
207,195,48438,1,0,0:0:0:0:
207,195,48513,2,0,L|196:283,1,80,2|2,0:2|0:2,0:0:0:0:
350,206,48813,2,0,L|403:215,1,40,8|0,0:0|0:0,0:0:0:0:
495,153,48963,2,0,L|442:162,1,40,8|0,0:0|0:0,0:0:0:0:
382,296,49113,6,0,L|392:375,1,80,4|0,0:0|0:0,0:0:0:0:
253,226,49413,2,0,L|243:305,1,80,8|2,0:0|0:2,0:0:0:0:
104,335,49713,1,2,0:2:0:0:
54,253,49863,1,2,0:2:0:0:
82,363,50013,1,8,0:0:0:0:
66,215,50163,1,2,0:2:0:0:
169,279,50313,6,0,L|179:358,1,80,2|0,0:2|0:0,0:0:0:0:
345,256,50613,2,0,P|357:211|363:173,1,80,8|2,0:0|0:2,0:0:0:0:
244,56,50913,1,2,0:2:0:0:
171,178,51063,1,2,0:2:0:0:
338,158,51213,1,8,0:0:0:0:
212,44,51363,1,2,0:2:0:0:
253,226,51513,6,0,L|264:312,1,80,6|0,0:2|0:0,0:0:0:0:
125,284,51813,1,8,0:0:0:0:
257,343,51963,1,2,0:2:0:0:
125,284,52113,2,0,L|81:287,3,26.6666666666667,2|0|0|2,0:2|0:0|0:0|0:2,0:0:0:0:
315,281,52413,2,0,P|346:296|401:311,1,80,8|0,0:0|0:0,0:0:0:0:
499,134,52713,6,0,L|414:144,1,80,6|0,0:2|0:0,0:0:0:0:
233,107,53013,1,4,0:0:0:0:
319,58,53163,1,2,0:2:0:0:
319,58,53238,1,0,0:0:0:0:
319,58,53313,2,0,L|330:148,1,80,6|0,0:2|0:0,0:0:0:0:
239,311,53613,2,0,L|250:221,1,80,8|0,0:0|0:0,0:0:0:0:
129,75,53913,6,0,L|35:93,1,80,4|0,0:0|0:0,0:0:0:0:
198,176,54213,1,8,0:0:0:0:
35,117,54363,1,4,0:2:0:0:
37,283,54513,2,0,L|40:328,2,40,8|0|8,0:3|0:0|0:3,0:0:0:0:
161,167,54813,6,0,L|164:249,1,80,4|0,0:0|0:0,0:0:0:0:
114,361,55113,1,8,0:0:0:0:
287,321,55263,2,0,L|202:313,1,80,4|0,0:2|0:0,0:0:0:0:
79,190,55563,1,8,0:0:0:0:
238,104,55713,1,8,0:3:0:0:
238,104,55788,1,0,0:0:0:0:
238,104,55863,1,8,0:3:0:0:
238,104,55938,1,0,0:0:0:0:
238,104,56013,2,0,L|325:110,1,80,8|8,0:0|0:0,0:0:0:0:
417,280,56313,6,0,P|390:241|375:205,1,80,4|0,0:0|0:0,0:0:0:0:
415,48,56613,1,8,0:0:0:0:
396,188,56763,1,4,0:2:0:0:
254,145,56913,2,0,L|210:149,1,40,8|0,0:3|0:0,0:0:0:0:
136,128,57063,2,0,L|107:161,1,40,8|0,0:3|0:0,0:0:0:0:
30,161,57213,6,0,L|38:249,1,80,4|0,0:0|0:0,0:0:0:0:
167,353,57513,1,8,0:0:0:0:
112,209,57663,2,0,L|120:297,1,80,4|0,0:2|0:0,0:0:0:0:
282,349,57963,1,0,0:0:0:0:
268,188,58113,2,0,L|270:145,3,40
259,126,58413,1,8,0:0:0:0:
274,107,58488,1,8,0:0:0:0:
294,95,58563,1,8,0:0:0:0:
317,89,58638,1,8,0:0:0:0:
340,88,58713,6,0,L|439:106,1,80,4|0,0:0|0:0,0:0:0:0:
330,224,59013,1,8,0:0:0:0:
314,67,59163,1,4,0:2:0:0:
179,150,59313,2,0,L|129:141,2,40,8|0|8,0:3|0:0|0:3,0:0:0:0:
255,239,59613,6,4,P|215:245|177:257,1,80
48,212,59913,1,8,0:0:0:0:
226,160,60063,2,0,L|319:171,1,80,4|0,0:2|0:0,0:0:0:0:
133,90,60363,1,8,0:0:0:0:
145,277,60513,1,8,0:3:0:0:
168,281,60588,1,0,0:0:0:0:
191,285,60663,1,8,0:3:0:0:
214,289,60738,1,0,0:0:0:0:
237,294,60813,2,0,L|244:373,1,80,8|8,0:0|0:0,0:0:0:0:
377,173,61113,6,0,P|388:120|392:73,1,80,4|0,0:0|0:0,0:0:0:0:
282,204,61413,1,8,0:0:0:0:
459,241,61563,1,4,0:2:0:0:
328,298,61713,2,0,L|287:308,1,40,8|0,0:3|0:0,0:0:0:0:
197,248,61863,2,0,L|156:238,1,40,0|0,0:3|0:0,0:0:0:0:
74,319,62013,6,0,P|54:284|42:246,1,80,4|0,0:0|0:0,0:0:0:0:
103,60,62313,1,8,0:0:0:0:
129,242,62463,2,0,L|140:148,1,80,4|0,0:2|0:0,0:0:0:0:
304,102,62763,1,8,0:0:0:0:
282,204,62913,2,0,L|242:197,3,40,8|0|8|0,0:3|0:0|0:3|0:0,0:0:0:0:
305,207,63213,1,8,0:0:0:0:
328,203,63288,1,8,0:0:0:0:
349,191,63363,1,8,0:0:0:0:
364,172,63438,1,8,0:0:0:0:
374,150,63513,6,0,B|398:207|398:207|374:234|374:234|386:257|388:303,1,160,4|8,0:0|0:0,0:0:0:0:
219,305,63963,2,0,L|179:311,2,40,2|0|0,0:2|0:0|0:0,0:0:0:0:
307,188,64263,1,2,0:2:0:0:
307,188,64338,1,0,0:0:0:0:
307,188,64413,1,8,0:0:0:0:
331,352,64563,2,0,L|434:363,1,80,2|0,0:2|0:0,0:0:0:0:
482,226,64863,5,2,0:2:0:0:
482,226,64938,1,0,0:0:0:0:
482,226,65013,2,0,L|384:239,1,80,8|2,0:0|0:2,0:0:0:0:
267,157,65313,2,0,L|259:107,3,40,0|0|2|0,0:0|0:0|0:2|0:0,0:0:0:0:
181,135,65613,2,0,L|173:85,3,40,10|0|0|0,0:2|0:0|0:0|0:0,0:0:0:0:
112,197,65913,5,2,0:2:0:0:
106,220,65988,1,0,0:0:0:0:
107,243,66063,1,0,0:0:0:0:
113,266,66138,1,0,0:0:0:0:
126,285,66213,2,0,L|185:301,3,40,10|0|0|0,0:2|0:0|0:0|0:0,0:0:0:0:
187,289,66513,1,2,0:2:0:0:
209,281,66588,1,0,0:0:0:0:
232,279,66663,1,0,0:0:0:0:
255,282,66738,1,0,0:0:0:0:
276,292,66813,2,0,L|292:335,3,40,10|0|0|0,0:2|0:0|0:0|0:0,0:0:0:0:
323,218,67113,6,0,L|327:172,3,40,2|0|0|0,0:2|0:0|0:0|0:0,0:0:0:0:
449,251,67413,2,0,L|442:205,3,40,10|0|0|0,0:2|0:0|0:0|0:0,0:0:0:0:
400,141,67713,1,2,0:2:0:0:
409,119,67788,1,0,0:0:0:0:
408,95,67863,1,0,0:0:0:0:
398,73,67938,1,0,0:0:0:0:
381,57,68013,1,10,0:2:0:0:
358,50,68088,1,0,0:0:0:0:
334,52,68163,1,0,0:0:0:0:
313,64,68238,1,0,0:0:0:0:
299,83,68313,6,0,L|219:76,1,80,4|2,0:0|0:2,0:0:0:0:
37,153,68613,2,0,P|76:160|114:172,1,80,8|2,0:0|0:2,0:0:0:0:
314,230,68913,2,0,P|277:243|242:263,1,80,0|2,0:0|0:2,0:0:0:0:
105,372,69213,2,0,P|97:333|94:293,1,80,8|2,0:0|0:2,0:0:0:0:
200,163,69513,5,2,0:2:0:0:
223,165,69588,1,0,0:0:0:0:
246,167,69663,1,0,0:0:0:0:
269,169,69738,1,0,0:0:0:0:
292,172,69813,2,0,L|301:216,3,40,10|0|0|0,0:2|0:0|0:0|0:0,0:0:0:0:
370,127,70113,1,2,0:2:0:0:
391,137,70188,1,0,0:0:0:0:
414,143,70263,1,0,0:0:0:0:
437,143,70338,1,0,0:0:0:0:
460,137,70413,2,0,L|470:89,3,40,10|0|0|0,0:2|0:0|0:0|0:0,0:0:0:0:
414,237,70713,6,0,L|423:292,3,40,2|0|0|0,0:2|0:0|0:0|0:0,0:0:0:0:
298,96,71013,2,0,L|307:41,3,40,10|0|0|0,0:2|0:0|0:0|0:0,0:0:0:0:
279,271,71313,2,0,L|233:281,3,40,2|0|0|0,0:2|0:0|0:0|0:0,0:0:0:0:
172,161,71613,2,0,L|218:171,3,40,10|0|0|0,0:2|0:0|0:0|0:0,0:0:0:0:
97,205,71913,5,2,0:2:0:0:
75,215,71988,1,0,0:0:0:0:
61,194,72063,1,0,0:0:0:0:
59,170,72138,1,0,0:0:0:0:
63,146,72213,1,10,0:2:0:0:
73,124,72288,1,0,0:0:0:0:
79,101,72363,1,0,0:0:0:0:
78,77,72438,1,0,0:0:0:0:
66,55,72513,6,0,L|26:61,3,40,10|0|0|0,0:2|0:0|0:0|0:0,0:0:0:0:
165,110,72813,2,0,L|205:116,3,40,10|0|0|0,0:2|0:0|0:0|0:0,0:0:0:0:
275,46,73113,6,0,B|321:33|361:38|361:38|395:68,1,127.99999609375,4|0,0:2|0:0,0:0:0:0:
375,223,73413,2,0,B|340:189|325:152|325:152|334:108,1,127.99999609375,4|0,0:2|0:0,0:0:0:0:
479,47,73713,2,0,B|467:93|442:125|442:125|399:139,1,127.99999609375,4|0,0:2|0:0,0:0:0:0:
261,208,74013,6,0,L|185:202,2,63.9999980468751
129,274,74313,2,0,L|53:280,2,63.9999980468751,8|8|8,0:0|0:0|0:3,0:0:0:0:
201,342,74613,1,8,0:3:0:0:
234,323,74713,1,8,0:3:0:0:
272,321,74813,1,4,0:3:0:0:
309,330,74913,6,0,L|371:349,1,63.9999980468751,4|0,0:2|0:0,0:0:0:0:
363,259,75113,2,0,L|425:278,1,63.9999980468751,4|0,0:2|0:0,0:0:0:0:
319,175,75313,2,0,L|381:156,1,63.9999980468751,4|0,0:2|0:0,0:0:0:0:
356,84,75513,6,0,L|480:45,1,127.99999609375,4|0,0:2|0:0,0:0:0:0:
464,132,75813,2,0,L|470:202,2,63.9999980468751,8|0|0,0:0|0:0|0:0,0:0:0:0:
393,239,76113,2,0,L|387:309,2,63.9999980468751,8|8|8,0:0|0:3|0:3,0:0:0:0:
319,175,76413,1,8,0:0:0:0:
285,155,76513,1,8,0:0:0:0:
246,159,76613,1,0,0:0:0:0:
217,185,76713,6,0,L|207:258,2,63.9999980468751,4|0|8,0:2|0:0|0:3,0:0:0:0:
54,135,77013,2,0,L|44:62,2,63.9999980468751,4|0|0,0:2|0:0|0:0,0:0:0:0:
125,289,77313,1,4,0:2:0:0:
145,321,77413,1,8,0:3:0:0:
178,340,77513,1,0,0:0:0:0:
216,341,77613,2,0,L|295:334,2,63.9999980468751,8|0|0,0:0|0:0|0:0,0:0:0:0:
323,263,77913,6,0,P|367:248|456:280,1,127.99999609375,12|0,0:2|0:0,0:0:0:0:
468,298,78213,2,0,L|480:221,2,63.9999980468751,4|0|0,0:2|0:0|0:0,0:0:0:0:
393,196,78513,2,0,L|414:59,1,127.99999609375,4|0,0:2|0:0,0:0:0:0:
270,104,78813,2,0,P|301:106|333:101,2,63.9999980468751,8|0|0,0:0|0:0|0:0,0:0:0:0:
173,35,79113,2,0,P|141:30|109:33,2,63.9999980468751,8|0|0,0:0|0:0|0:0,0:0:0:0:
162,148,79413,1,8,0:0:0:0:
166,186,79513,1,0,0:0:0:0:
170,224,79613,1,0,0:0:0:0:
174,262,79713,6,0,P|215:268|246:281,2,63.9999980468751,4|0|0,0:0|0:0|0:0,0:0:0:0:
301,350,80013,2,0,P|342:344|373:331,2,63.9999980468751,8|0|0,0:0|0:0|0:0,0:0:0:0:
431,262,80313,1,8,0:0:0:0:
426,223,80413,1,8,0:3:0:0:
421,184,80513,1,8,0:3:0:0:
416,145,80613,2,0,L|488:158,2,63.9999980468751,4|8|8,0:0|0:0|0:0,0:0:0:0:
357,74,80913,6,0,L|298:85,3,47.9999985351563,8|8|8|8,0:3|0:3|0:3|0:3,0:0:0:0:
300,106,81213,1,8,0:0:0:0:
278,92,81288,1,8,0:0:0:0:
254,83,81363,1,8,0:0:0:0:
228,81,81438,1,8,0:0:0:0:
202,88,81513,6,0,L|181:265,1,176.000005371094,4|8,0:0|0:0,0:0:0:0:
22,218,81963,2,0,P|68:203|115:199,1,88.000002685547
255,343,82263,1,0,0:0:0:0:
356,305,82413,2,0,L|370:207,1,88.000002685547,8|0,0:0|0:0,0:0:0:0:
142,132,82713,6,0,P|99:114|51:88,1,88.000002685547
267,184,83013,2,0,P|310:166|358:140,1,88.000002685547,8|0,0:0|0:0,0:0:0:0:
160,269,83313,2,0,P|154:315|152:369,1,88.000002685547
359,356,83613,2,0,P|357:312|352:269,1,88.000002685547,8|0,0:0|0:0,0:0:0:0:
231,94,83913,6,0,B|170:117|170:117|124:101|124:101|60:125,1,176.000005371094,4|8,0:0|0:0,0:0:0:0:
303,20,84363,2,0,P|328:58|347:107,1,88.000002685547
255,254,84663,1,0,0:0:0:0:
128,194,84813,2,0,P|144:153|169:116,1,88.000002685547,8|0,0:0|0:0,0:0:0:0:
366,174,85113,6,0,L|458:159,2,88.000002685547,0|0|8,0:0|0:0|0:0,0:0:0:0:
245,333,85563,1,0,0:0:0:0:
69,240,85713,2,0,L|67:146,1,88.000002685547
32,330,86013,1,8,0:0:0:0:
57,335,86088,1,0,0:0:0:0:
83,334,86163,1,0,0:0:0:0:
108,326,86238,1,0,0:0:0:0:
130,312,86313,6,0,B|163:271|163:271|158:124,1,176.000005371094,4|8,0:0|0:0,0:0:0:0:
266,12,86763,2,0,P|252:58|244:102,1,88.000002685547
310,235,87063,1,0,0:0:0:0:
433,139,87213,2,0,L|328:135,1,88.000002685547,8|0,0:0|0:0,0:0:0:0:
134,65,87513,6,0,P|77:81|44:97,1,88.000002685547
160,262,87813,2,0,P|200:279|242:290,1,88.000002685547,8|0,0:0|0:0,0:0:0:0:
412,174,88113,2,0,L|323:194,1,88.000002685547
258,376,88413,2,0,P|246:322|243:270,1,88.000002685547,8|0,0:0|0:0,0:0:0:0:
256,45,88713,5,4,0:0:0:0:
343,162,88863,2,0,L|390:171,2,44.0000013427735,8|0|8,0:3|0:0|0:0,0:0:0:0:
169,162,89163,1,8,0:3:0:0:
332,323,89313,2,0,P|382:340|427:347,1,88.000002685547,0|8,0:0|0:3,0:0:0:0:
180,323,89613,2,0,P|130:340|85:347,1,88.000002685547,12|0,0:0|0:0,0:0:0:0:
32,121,89913,6,0,B|130:107|102:182|228:159,1,176.000005371094,0|8,0:0|0:0,0:0:0:0:
480,121,90363,2,0,B|382:107|410:182|284:159,1,176.000005371094
215,312,90813,1,8,0:0:0:0:
236,328,90888,1,8,0:0:0:0:
256,345,90963,1,8,0:0:0:0:
276,328,91038,1,8,0:0:0:0:
297,312,91113,6,0,P|351:283|469:325,1,176.000005371094,4|8,0:0|0:0,0:0:0:0:
218,357,91563,2,0,L|212:253,1,88.000002685547
293,85,91863,1,0,0:0:0:0:
396,256,92013,2,0,P|338:276|296:280,1,88.000002685547,8|0,0:0|0:0,0:0:0:0:
68,152,92313,6,0,P|113:154|160:176,1,88.000002685547
195,347,92613,2,0,P|178:306|176:262,1,88.000002685547,8|0,0:0|0:0,0:0:0:0:
35,128,92913,2,0,P|80:130|127:152,1,88.000002685547
162,323,93213,2,0,P|145:282|143:238,1,88.000002685547,8|8,0:0|0:3,0:0:0:0:
172,65,93513,6,0,B|238:82|238:82|275:65|275:65|353:88,1,176.000005371094,4|8,0:0|0:0,0:0:0:0:
502,166,93963,2,0,P|460:189|414:198,1,88.000002685547
195,172,94263,1,0,0:0:0:0:
97,219,94413,2,0,P|83:268|75:317,1,88.000002685547,8|0,0:0|0:0,0:0:0:0:
304,222,94713,6,0,L|293:130,2,88.000002685547,0|0|8,0:0|0:0|0:0,0:0:0:0:
230,354,95163,1,0,0:0:0:0:
420,291,95313,2,0,L|434:189,1,88.000002685547
343,42,95613,1,8,0:0:0:0:
318,32,95688,1,0,0:0:0:0:
291,33,95763,1,8,0:3:0:0:
267,45,95838,1,0,0:0:0:0:
251,66,95913,6,0,B|276:146|231:160|258:240,1,176.000005371094,4|8,0:0|0:0,0:0:0:0:
80,174,96363,2,0,P|135:175|183:188,1,88.000002685547
349,238,96663,1,0,0:0:0:0:
254,357,96813,2,0,L|244:255,1,88.000002685547,8|0,0:0|0:0,0:0:0:0:
320,68,97113,6,0,P|365:81|403:102,1,88.000002685547,4|0,0:0|0:0,0:0:0:0:
192,68,97413,2,0,P|147:81|109:102,1,88.000002685547,8|8,0:0|0:3,0:0:0:0:
189,278,97713,1,0,0:0:0:0:
335,160,97863,1,8,0:3:0:0:
215,72,98013,2,0,L|224:172,1,88.000002685547,8|0,0:0|0:0,0:0:0:0:
132,343,98313,6,8,L|39:334,1,80
381,259,98763,2,8,L|474:250,1,80,12|8,0:0|0:0,0:0:0:0:
131,125,99213,2,0,L|38:134,1,80
380,41,99663,2,8,L|473:50,1,80,12|8,0:0|0:0,0:0:0:0:
278,166,99963,6,0,L|231:164,2,40,8|8|8,0:3|0:3|0:0,0:0:0:0:
412,117,100263,1,8,0:0:0:0:
412,117,100713,5,8,0:0:0:0:
331,235,100863,2,0,L|336:318,1,80,8|0,0:0|0:0,0:0:0:0:
176,156,101163,5,12,0:0:0:0:
257,274,101313,2,0,L|252:357,1,80,8|0,0:0|0:0,0:0:0:0:
340,150,101613,5,8,0:0:0:0:
173,245,101763,2,0,L|178:328,1,80,8|0,0:0|0:0,0:0:0:0:
254,107,102063,5,8,0:0:0:0:
421,202,102213,2,0,L|416:285,1,80,12|0,0:0|0:0,0:0:0:0:
427,303,102438,1,0,0:0:0:0:
437,324,102513,5,8,0:0:0:0:
312,341,102663,1,8,0:0:0:0:
303,216,102813,1,8,0:3:0:0:
303,216,102888,1,0,0:0:0:0:
303,216,102963,1,8,0:3:0:0:
303,216,103038,1,0,0:0:0:0:
303,216,103113,1,4,0:0:0:0:
89,171,103563,6,0,L|22:162,2,47.9999985351563,8|0|0,0:0|0:0|0:0,0:0:0:0:
191,115,104013,1,8,0:0:0:0:
167,223,104163,1,0,0:0:0:0:
86,148,104313,1,0,0:0:0:0:
271,173,104463,6,0,L|345:161,2,64,8|0|0,0:0|0:0|0:0,0:0:0:0:
178,338,104913,1,8,0:0:0:0:
322,322,105063,1,0,0:0:0:0:
237,206,105213,1,0,0:0:0:0:
93,272,105363,5,8,0:0:0:0:
235,287,105513,1,0,0:0:0:0:
178,156,105663,1,0,0:0:0:0:
178,338,105813,5,8,0:0:0:0:
369,247,105963,1,8,0:0:0:0:
