osu file format v14

[General]
AudioFilename: 22 .mp3
AudioLeadIn: 0
PreviewTime: 33927
Countdown: 0
SampleSet: Normal
StackLeniency: 0.4
Mode: 0
LetterboxInBreaks: 1
WidescreenStoryboard: 0

[Editor]
Bookmarks: 29127
DistanceSpacing: 1.2
BeatDivisor: 4
GridSize: 32
TimelineZoom: 1.7

[Metadata]
Title:Lilieze to Enryuu Laevateinn
TitleUnicode:リリーゼと炎龍レーヴァテイン
Artist:Kuroneko Dungeon
ArtistUnicode:黒猫ダンジョン
Creator:Nyquill
Version:Giralda's Hyper
Source:REFLEC BEAT colette -Summer-
Tags:zektbach beatmania iidx 22 pendual tomosuke funaki oldstyle gamemusic beatstream アニムトライヴ pop'n music うさぎと猫と少年の夢 maya takamura 高村真耶 captin1 Giralda
BeatmapID:739787
BeatmapSetID:326608

[Difficulty]
HPDrainRate:6
CircleSize:4
OverallDifficulty:6.5
ApproachRate:8
SliderMultiplier:1.55
SliderTickRate:1

[Events]
//Background and Video events
0,0,"36528051_p0.jpg",0,0
//Break Periods
//Storyboard Layer 0 (Background)
//Storyboard Layer 1 (Fail)
//Storyboard Layer 2 (Pass)
//Storyboard Layer 3 (Foreground)
//Storyboard Sound Samples

[TimingPoints]
513,300,4,1,0,70,1,0
1713,-133.333333333333,4,1,0,70,0,0
5313,-133.333333333333,4,2,0,70,0,0
10113,-125,4,2,0,70,0,0
34413,-100,4,1,1,70,0,0
34713,300,4,1,1,70,1,0
61113,-100,4,1,1,70,0,0
63513,-100,4,1,1,70,0,0
73113,-100,4,1,1,70,0,0
81213,-100,4,1,1,70,0,0
81513,-100,4,1,1,80,0,1
98313,-100,4,1,1,80,0,0
103563,-100,4,1,1,35,0,0
104013,-100,4,1,1,45,0,0
104463,-100,4,1,1,55,0,0
104913,-100,4,1,1,65,0,0
105363,-100,4,1,1,75,0,0
105813,-100,4,1,1,85,0,0

[Colours]
Combo1 : 97,175,157
Combo2 : 220,118,118

[HitObjects]
58,244,513,6,0,L|52:206,2,38.75,8|0|4,0:3|0:0|3:0,0:0:0:0:
138,290,813,2,0,L|132:328,2,38.75,0|0|8,0:0|0:0|0:3,0:0:0:0:
228,235,1113,2,0,L|234:197,2,38.75,4|0|0,0:3|0:0|0:0,0:0:0:0:
301,299,1413,2,0,L|307:337,2,38.75,0|0|0,0:0|0:0|0:0,0:0:0:0:
364,218,1713,6,0,L|421:213,1,58.1250022172929,4|0,0:2|2:0,0:0:0:0:
503,146,2013,1,0,2:0:0:0:
402,117,2163,1,0,1:0:0:0:
467,35,2313,2,0,L|397:42,1,58.1250022172929,0|0,2:0|2:0,0:0:0:0:
275,86,2613,2,0,L|332:80,1,58.1250022172929,0|0,2:0|0:0,0:0:0:0:
199,40,2913,6,0,L|129:47,1,58.1250022172929,0|0,2:0|2:0,0:0:0:0:
55,106,3213,1,0,2:0:0:0:
154,139,3363,1,0,0:0:0:0:
68,199,3513,2,0,L|60:256,1,58.1250022172929,0|0,2:0|2:0,0:0:0:0:
171,325,3813,2,0,L|163:267,1,58.1250022172929,0|0,1:0|0:0,0:0:0:0:
277,199,4113,5,0,2:0:0:0:
266,289,4263,1,0,0:0:0:0:
379,257,4413,2,0,L|371:200,1,58.1250022172929,0|0,0:0|0:0,0:0:0:0:
470,101,4713,2,0,L|462:158,1,58.1250022172929,0|0,2:0|0:0,0:0:0:0:
341,77,5013,1,0,0:0:0:0:
341,77,5088,1,0,0:0:0:0:
341,77,5163,1,0,0:0:0:0:
262,126,5313,6,0,L|196:135,1,58.1250022172929,4|2,0:2|0:0,0:0:0:0:
85,65,5613,2,0,L|142:72,1,58.1250022172929,2|0,1:2|0:0,0:0:0:0:
43,141,5913,1,2,1:2:0:0:
102,203,6063,2,0,L|108:260,2,58.1250022172929,0|2|2,0:0|0:0|1:2,0:0:0:0:
189,243,6513,6,0,L|195:300,1,58.1250022172929,0|2,0:0|1:2,0:0:0:0:
290,353,6813,1,0,0:0:0:0:
271,266,6963,1,2,0:0:0:0:
367,249,7113,2,0,L|356:311,2,58.1250022172929,2|0|2,1:2|0:0|1:2,0:0:0:0:
411,179,7563,1,0,0:0:0:0:
487,166,7713,6,0,L|497:102,1,58.1250022172929,2|2,0:0|1:2,0:0:0:0:
421,91,8013,2,0,L|431:27,2,58.1250022172929,0|2|0,0:0|1:2|0:0,0:0:0:0:
354,127,8463,1,2,0:0:0:0:
292,83,8613,1,2,1:2:0:0:
225,118,8763,2,0,L|166:111,1,58.1250022172929,0|2,0:2|1:2,0:0:0:0:
97,142,9063,5,0,0:0:0:0:
97,142,9213,1,2,1:2:0:0:
97,142,9363,1,2,1:2:0:0:
97,142,9513,2,0,L|91:209,1,58.1250022172929,0|2,0:0|0:0,0:0:0:0:
23,233,9813,2,0,L|29:300,1,58.1250022172929,0|0,1:0|1:0,0:0:0:0:
116,364,10113,6,0,P|174:376|223:340,1,124,4|0,1:0|0:0,0:0:0:0:
417,271,10713,2,0,L|293:277,1,124,0|0,1:0|0:0,0:0:0:0:
91,199,11313,2,0,L|214:205,1,124,0|0,1:0|0:0,0:0:0:0:
252,186,11713,2,0,L|271:142,2,41.3333333333333,0|0|0,0:0|0:0|1:0,0:0:0:0:
186,80,12213,1,0,0:0:0:0:
300,31,12513,6,0,B|365:13|365:46|422:29,1,124,4|0,1:2|0:0,0:0:0:0:
276,154,13113,2,0,B|219:137|219:170|154:152,1,124,0|0,1:2|0:0,0:0:0:0:
281,289,13713,2,0,B|346:271|346:304|403:287,1,124,0|0,1:0|0:0,0:0:0:0:
436,262,14113,2,0,L|448:217,2,41.3333333333333,0|0|0,0:0|0:0|1:0,0:0:0:0:
366,171,14613,1,0,0:0:0:0:
460,67,14913,6,0,B|428:97|428:97|348:88,1,124,4|0,1:0|0:0,0:0:0:0:
169,170,15513,2,0,B|201:140|201:140|280:148,1,124,0|0,1:0|0:0,0:0:0:0:
85,275,16113,2,0,B|55:243|55:243|63:163,1,124,0|0,1:0|0:0,0:0:0:0:
49,124,16513,2,0,L|31:84,2,41.3333333333333,0|0|0,0:0|0:0|1:0,0:0:0:0:
151,194,17013,1,0,0:0:0:0:
240,91,17313,6,0,B|374:77,1,124,4|0,1:0|0:0,0:0:0:0:
474,207,17913,2,0,B|350:194,1,124,0|0,1:0|0:0,0:0:0:0:
225,55,18513,2,0,B|359:41,1,124,0|0,1:0|0:0,0:0:0:0:
407,224,19113,2,0,L|359:218,2,41.3333333333333,2|0|0,0:0|0:0|0:0,0:0:0:0:
457,153,19413,2,0,L|498:147,2,41.3333333333333,2|2|2,0:0|0:0|0:0,0:0:0:0:
398,88,19713,6,0,P|342:62|281:70,1,124,4|2,1:0|0:0,0:0:0:0:
142,165,20313,2,0,L|135:122,2,41.3333333333333,0|0|0,1:0|0:0|0:0,0:0:0:0:
222,178,20613,2,0,L|215:218,2,41.3333333333333,2|0|0,0:0|0:0|0:0,0:0:0:0:
295,150,20913,2,0,L|288:109,2,41.3333333333333,0|0|0,1:0|0:0|0:0,0:0:0:0:
362,182,21213,2,0,L|369:222,2,41.3333333333333,2|0|0,0:0|0:0|0:0,0:0:0:0:
411,123,21513,2,0,P|468:102|530:108,2,124,0|2|4,1:0|0:0|1:2,0:0:0:0:
469,338,22413,6,0,L|383:329,1,82.6666666666667,2|0,0:0|0:0,0:0:0:0:
355,303,22713,2,0,L|360:262,2,41.3333333333333,0|0|0,1:0|0:0|0:0,0:0:0:0:
282,320,23013,2,0,L|287:361,2,41.3333333333333,2|0|0,0:0|0:0|0:0,0:0:0:0:
210,300,23313,2,0,L|215:259,2,41.3333333333333,0|0|0,1:0|0:0|0:0,0:0:0:0:
137,317,23613,2,0,L|142:358,2,41.3333333333333,2|0|0,0:2|0:0|0:0,0:0:0:0:
70,284,23913,2,0,P|53:224|59:163,2,124,0|2|4,1:0|1:2|1:0,0:0:0:0:
277,182,24813,6,0,L|190:175,1,82.6666666666667,2|0,0:0|0:0,0:0:0:0:
155,188,25113,2,0,L|148:228,2,41.3333333333333,0|0|0,1:0|0:0|0:0,0:0:0:0:
103,132,25413,2,0,P|92:72|97:10,2,124,2|0|2,0:0|1:0|0:2,0:0:0:0:
233,208,26313,2,0,L|323:201,1,82.6666666666667,0|0,1:0|0:0,0:0:0:0:
349,220,26613,2,0,L|361:259,2,41.3333333333333,2|0|0,0:0|0:0|0:0,0:0:0:0:
428,185,26913,6,0,P|435:144|435:103,1,82.6666666666667,0|2,1:0|0:0,0:0:0:0:
402,78,27213,2,0,L|396:37,2,41.3333333333333,2|2|0,0:0|0:0|0:0,0:0:0:0:
321,106,27513,2,0,L|315:147,2,41.3333333333333,0|0|0,1:0|0:0|0:0,0:0:0:0:
258,62,27813,2,0,L|176:58,1,82.6666666666667,2|0,0:0|0:0,0:0:0:0:
134,63,28113,6,0,P|112:120|125:179,1,124,0|2,1:0|0:0,0:0:0:0:
154,210,28513,2,0,L|198:204,2,41.3333333333333,0|0|2,0:0|0:0|0:0,0:0:0:0:
131,296,28813,2,0,L|90:290,2,41.3333333333333,0|0|0,0:0|0:0|0:0,0:0:0:0:
197,350,29113,2,0,L|241:342,1,41.3333333333333,0|0,0:0|0:0,0:0:0:0:
278,336,29313,6,0,L|283:274,1,62,0|0,1:0|0:0,0:0:0:0:
332,219,29613,2,0,P|363:211|394:210,1,62,2|0,1:2|1:0,0:0:0:0:
502,156,29913,2,0,P|471:154|440:147,1,62,0|2,0:0|1:2,0:0:0:0:
390,92,30213,2,0,L|385:30,1,62,0|0,1:0|0:0,0:0:0:0:
310,35,30513,6,0,L|305:97,1,62,2|0,1:2|1:0,0:0:0:0:
250,146,30813,2,0,P|219:153|188:154,1,62,0|2,0:0|1:2,0:0:0:0:
117,178,31113,2,0,P|130:205|139:235,1,62,2|0,1:2|1:0,0:0:0:0:
202,307,31413,2,0,P|210:277|224:249,1,62,2|0,1:2|1:0,0:0:0:0:
256,192,31713,12,0,33813,1:0:0:0:
239,291,34263,5,0,0:0:0:0:
239,291,34338,1,0,0:0:0:0:
239,291,34413,2,0,L|160:285,1,77.5,0|0,1:0|1:0,0:0:0:0:
103,231,34713,6,0,P|84:157|102:83,1,155,4|10,0:0|0:0,0:0:0:0:
166,39,35163,1,0,0:0:0:0:
225,89,35313,2,0,P|263:88|299:75,1,77.5,0|10,0:0|0:0,0:0:0:0:
358,126,35613,2,0,P|338:159|330:196,1,77.5,0|0,0:0|0:0,0:0:0:0:
255,215,35913,6,0,P|232:183|200:162,2,77.5,2|0|8,0:0|0:0|0:0,0:0:0:0:
180,237,36363,2,0,B|148:246|119:272|119:272|82:259|70:209,1,155,2|0,0:0|0:0,0:0:0:0:
37,137,36813,2,0,L|31:54,1,77.5,10|0,0:0|0:0,0:0:0:0:
105,37,37113,6,0,P|143:48|181:42,1,77.5,0|0,0:0|0:0,0:0:0:0:
230,102,37413,2,0,P|290:58|362:77,1,155,10|0,0:0|0:0,0:0:0:0:
425,124,37863,1,10,0:0:0:0:
425,124,38013,2,0,L|438:217,1,77.5,0|0,0:0|0:0,0:0:0:0:
373,247,38313,6,0,L|360:340,1,77.5,2|0,0:0|0:0,0:0:0:0:
295,363,38613,2,0,B|220:333|220:385|143:356,1,155,10|0,0:0|0:0,0:0:0:0:
72,324,39063,1,0,0:0:0:0:
72,324,39213,2,0,L|69:244,1,77.5,10|0,0:0|0:0,0:0:0:0:
4,203,39513,6,0,P|76:227|141:189,1,155,4|10,0:0|0:0,0:0:0:0:
211,158,39963,1,0,0:0:0:0:
211,158,40113,2,0,P|243:179|265:210,1,77.5,0|10,0:0|0:0,0:0:0:0:
341,193,40413,2,0,P|349:155|369:122,1,77.5,0|0,0:0|0:0,0:0:0:0:
311,76,40713,6,0,P|274:89|236:90,2,77.5,2|0|8,0:0|0:0|0:0,0:0:0:0:
383,47,41163,2,0,P|453:23|511:70,1,155,2|0,0:0|0:0,0:0:0:0:
440,101,41613,2,0,L|432:188,1,77.5,10|0,0:0|0:0,0:0:0:0:
371,225,41913,6,0,P|294:213|217:205,1,155,4|10,0:0|0:0,0:0:0:0:
161,150,42363,1,0,0:0:0:0:
226,109,42513,2,0,P|236:71|235:32,2,77.5,0|10|8,0:0|0:0|0:0,0:0:0:0:
161,150,42963,1,0,0:0:0:0:
89,180,43113,6,0,P|79:258|79:339,1,155,2|0,0:0|0:0,0:0:0:0:
150,363,43563,1,10,0:0:0:0:
150,363,43713,2,0,L|234:355,1,77.5,0|2,0:0|0:0,0:0:0:0:
319,345,44013,1,10,0:0:0:0:
319,345,44088,1,0,0:0:0:0:
319,345,44163,1,0,0:0:0:0:
377,294,44313,6,0,P|383:255|380:217,1,77.5,4|0,1:0|0:0,0:0:0:0:
317,170,44613,2,0,L|239:162,1,77.5,8|2,0:0|0:2,0:0:0:0:
169,129,44913,2,0,P|161:90|160:52,1,77.5,2|0,0:2|0:0,0:0:0:0:
75,13,45213,2,0,P|73:51|66:89,1,77.5,8|2,0:0|0:2,0:0:0:0:
15,218,45513,6,0,P|7:179|6:141,1,77.5,2|0,0:2|0:0,0:0:0:0:
93,230,45813,2,0,P|91:268|84:306,1,77.5,8|0,0:0|0:0,0:0:0:0:
181,366,46113,2,0,L|170:275,1,77.5,2|2,0:2|0:2,0:0:0:0:
229,217,46413,1,8,0:0:0:0:
229,217,46563,1,2,0:2:0:0:
261,287,46713,6,0,P|296:301|335:303,1,77.5,6|0,0:2|0:0,0:0:0:0:
379,238,47013,2,0,P|414:223|453:221,1,77.5,8|2,0:0|0:2,0:0:0:0:
474,145,47313,2,0,L|512:141,2,38.75,2|2|2,0:2|0:2|0:2,0:0:0:0:
400,118,47613,6,0,P|361:118|324:107,1,77.5,8|2,0:0|0:2,0:0:0:0:
286,39,47913,2,0,P|249:28|210:29,1,77.5,4|2,0:2|0:2,0:0:0:0:
185,102,48213,2,0,P|148:113|109:112,1,77.5,8|2,0:0|0:2,0:0:0:0:
33,98,48513,2,0,L|24:15,2,77.5,4|0|8,0:2|0:0|0:0,0:0:0:0:
10,172,48963,1,8,0:0:0:0:
53,236,49113,6,0,L|60:317,1,77.5,4|0,0:0|0:0,0:0:0:0:
135,348,49413,2,0,L|141:270,1,77.5,8|2,0:0|0:2,0:0:0:0:
212,238,49713,1,2,0:2:0:0:
237,311,49863,1,0,0:0:0:0:
313,325,50013,2,0,L|319:247,1,77.5,8|2,0:0|0:2,0:0:0:0:
393,224,50313,6,0,L|386:146,1,77.5,2|0,0:2|0:0,0:0:0:0:
435,86,50613,2,0,P|399:71|361:73,1,77.5,8|2,0:0|0:2,0:0:0:0:
295,114,50913,2,0,L|289:192,2,77.5,2|2|8,0:2|0:2|0:0,0:0:0:0:
223,71,51363,1,2,0:2:0:0:
154,107,51513,6,0,L|62:100,1,77.5,4|0,0:0|0:0,0:0:0:0:
11,156,51813,1,8,0:0:0:0:
84,195,51963,1,2,0:2:0:0:
22,265,52113,2,0,L|12:308,2,38.75,2|0|2,0:2|0:0|0:2,0:0:0:0:
110,235,52413,2,0,L|196:227,1,77.5,8|0,0:0|0:0,0:0:0:0:
255,264,52713,6,0,L|341:256,1,77.5,4|0,0:2|0:0,0:0:0:0:
404,197,53013,2,0,L|329:172,1,77.5,8|2,0:0|0:2,0:0:0:0:
378,84,53313,2,0,L|455:74,2,77.5,4|0|8,0:2|0:0|0:0,0:0:0:0:
293,44,53763,1,0,0:0:0:0:
293,44,53913,6,0,L|214:37,1,77.5,4|0,0:2|0:0,0:0:0:0:
133,80,54213,2,0,P|123:118|118:156,1,77.5,8|4,0:0|0:2,0:0:0:0:
174,230,54513,2,0,P|183:267|188:305,1,77.5,0|8,0:0|0:0,0:0:0:0:
306,353,54813,1,4,0:2:0:0:
280,263,54963,1,0,0:0:0:0:
336,188,55113,6,0,L|422:174,1,77.5,8|4,0:0|0:2,0:0:0:0:
473,105,55413,2,0,L|396:92,1,77.5,0|8,0:0|0:0,0:0:0:0:
313,50,55713,2,0,L|309:7,2,38.75,0|0|0,0:0|0:0|0:0,0:0:0:0:
244,112,56013,2,0,P|207:125|169:122,1,77.5,8|8,0:0|0:0,0:0:0:0:
87,70,56313,6,0,L|74:159,1,77.5,4|0,0:0|0:0,0:0:0:0:
126,225,56613,1,8,0:0:0:0:
126,225,56763,2,0,L|139:314,1,77.5,4|0,0:2|0:0,0:0:0:0:
210,359,57063,1,8,0:0:0:0:
210,359,57213,2,0,L|223:270,1,77.5,4|0,0:2|0:0,0:0:0:0:
287,217,57513,6,0,P|325:211|363:211,2,77.5,8|4|0,0:0|0:2|0:0,0:0:0:0:
210,164,57963,1,8,0:0:0:0:
261,86,58113,2,0,P|299:92|337:94,1,77.5,0|0,0:0|0:0,0:0:0:0:
402,25,58413,2,0,P|434:44|458:75,1,77.5,8|8,0:0|0:0,0:0:0:0:
452,158,58713,6,0,L|461:250,1,77.5,4|0,0:2|0:0,0:0:0:0:
370,263,59013,1,8,0:0:0:0:
356,354,59163,1,4,0:2:0:0:
267,312,59313,2,0,L|254:230,1,77.5,0|8,0:0|0:0,0:0:0:0:
186,166,59613,2,0,P|147:160|109:168,1,77.5,4|0,0:2|0:0,0:0:0:0:
56,245,59913,6,0,L|42:339,2,77.5,8|4|0,0:0|0:2|0:0,0:0:0:0:
110,169,60363,1,8,0:0:0:0:
47,99,60513,2,0,L|8:89,2,38.75,8|8|8,0:0|0:0|0:0,0:0:0:0:
129,54,60813,2,0,L|213:43,1,77.5,8|8,0:0|0:0,0:0:0:0:
267,114,61113,6,0,L|351:103,1,77.5,4|0,0:2|0:0,0:0:0:0:
418,160,61413,1,8,0:0:0:0:
456,244,61563,2,0,P|465:281|469:320,2,77.5,4|0|8,0:2|0:0|0:0,0:0:0:0:
378,192,62013,2,0,P|368:229|364:268,1,77.5,4|0,0:2|0:0,0:0:0:0:
280,308,62313,5,8,0:0:0:0:
229,229,62463,2,0,P|238:191|242:152,1,77.5,4|0,0:2|0:0,0:0:0:0:
204,67,62763,1,8,0:0:0:0:
114,91,62913,2,0,L|70:85,2,38.75,0|0|8,0:0|0:0|0:0,0:0:0:0:
137,180,63213,1,8,0:0:0:0:
155,271,63363,1,8,0:0:0:0:
155,271,63513,6,0,L|171:362,1,77.5,4|0,0:0|0:0,0:0:0:0:
257,373,63813,2,0,L|270:296,1,77.5,8|2,0:0|0:2,0:0:0:0:
343,239,64113,2,0,L|396:230,2,38.75,0|0|2,0:0|0:0|0:2,0:0:0:0:
259,196,64413,1,8,0:0:0:0:
336,143,64563,1,2,0:2:0:0:
260,88,64713,6,0,L|250:38,2,38.75,0|0|0,0:0|0:0|0:0,0:0:0:0:
147,236,65163,2,0,L|137:186,2,38.75,0|0|0,0:0|0:0|0:0,0:0:0:0:
223,288,65463,1,0,0:0:0:0:
223,288,65538,1,0,0:0:0:0:
223,288,65613,2,0,L|323:279,1,77.5,8|0,0:0|0:0,0:0:0:0:
380,329,65913,6,0,L|391:372,2,38.75,2|0|0,0:2|0:0|0:0,0:0:0:0:
466,293,66213,2,0,L|477:250,2,38.75,10|0|0,0:2|0:0|0:2,0:0:0:0:
390,238,66513,2,0,L|379:195,2,38.75,2|0|0,0:2|0:0|0:0,0:0:0:0:
459,176,66813,2,0,L|470:133,2,38.75,10|0|0,0:2|0:0|0:0,0:0:0:0:
389,114,67113,6,0,P|351:106|312:105,1,77.5,2|0,0:2|0:0,0:0:0:0:
239,163,67413,2,0,L|228:212,2,38.75,8|0|0,0:0|0:0|0:0,0:0:0:0:
207,75,67713,2,0,L|198:37,2,38.75,0|0|0,0:0|0:0|0:0,0:0:0:0:
165,159,68013,2,0,L|156:197,2,38.75,8|0|0,0:0|0:0|0:0,0:0:0:0:
123,75,68313,6,0,L|45:67,1,77.5,4|0,0:2|0:0,0:0:0:0:
2,150,68613,1,8,0:0:0:0:
34,237,68763,2,0,L|25:278,2,38.75,0|0|0,0:0|0:0|0:0,0:0:0:0:
126,230,69063,2,0,L|202:238,2,77.5,0|8|0,0:0|0:0|0:0,0:0:0:0:
451,166,69663,6,0,P|458:127|449:90,1,77.5,0|8,0:0|0:0,0:0:0:0:
357,116,69963,2,0,L|340:81,2,38.75,0|0|0,0:0|0:0|0:0,0:0:0:0:
267,143,70263,2,0,L|181:135,1,77.5,0|8,0:0|0:0,0:0:0:0:
75,291,70713,6,0,L|64:248,2,38.75,2|0|0,0:2|0:0|0:0,0:0:0:0:
161,324,71013,2,0,L|151:361,2,38.75,10|0|0,0:2|0:0|0:0,0:0:0:0:
245,284,71313,2,0,L|234:241,2,38.75,2|0|0,0:2|0:0|0:0,0:0:0:0:
327,326,71613,2,0,L|317:363,2,38.75,10|0|0,0:2|0:0|0:0,0:0:0:0:
393,261,71913,5,0,0:0:0:0:
464,195,72063,2,0,L|505:186,2,38.75,0|0|8,0:0|0:0|0:0,0:0:0:0:
396,130,72363,1,0,0:0:0:0:
317,79,72513,2,0,L|239:71,1,77.5,0|0,0:0|0:0,0:0:0:0:
147,61,72813,2,0,L|152:106,2,38.75,8|0|0,0:0|0:0|0:0,0:0:0:0:
69,112,73113,6,0,P|53:187|73:261,2,155,4|4|4,0:2|0:2|0:2,0:0:0:0:
380,317,74313,6,0,L|324:308,2,51.6666666666667,0|0|0,0:0|0:0|0:0,0:0:0:0:
442,354,74613,2,0,P|433:303|443:253,1,103.333333333333,0|0,0:0|0:0,0:0:0:0:
486,195,74913,2,0,B|495:156|495:156|479:94,1,103.333333333333,4|4,0:2|0:2,0:0:0:0:
359,126,75313,1,4,0:2:0:0:
243,76,75513,6,0,P|168:61|94:81,1,155,4|0,0:2|0:0,0:0:0:0:
80,267,76113,2,0,L|72:319,2,51.6666666666667,0|0|0,0:0|0:0|0:0,0:0:0:0:
162,280,76413,2,0,L|154:228,2,51.6666666666667,0|0|0,0:0|0:0|0:0,0:0:0:0:
221,336,76713,6,0,P|290:303|366:308,2,155,4|4|4,0:2|0:2|0:2,0:0:0:0:
93,199,77613,1,0,0:0:0:0:
267,135,77913,6,0,P|336:167|412:162,2,155,4|4|4,0:2|0:2|0:2,0:0:0:0:
102,222,78813,1,0,0:0:0:0:
24,53,79113,6,0,L|184:42,1,155,4|4,0:2|0:2,0:0:0:0:
342,184,79713,1,4,0:2:0:0:
167,312,80013,2,0,L|159:257,2,51.6666666666667,0|0|0,0:0|0:0|0:0,0:0:0:0:
250,318,80313,6,0,L|242:369,2,51.6666666666667,0|0|0,0:0|0:0|0:0,0:0:0:0:
330,296,80613,2,0,L|322:244,2,51.6666666666667,4|0|0,0:2|0:0|0:0,0:0:0:0:
410,318,80913,2,0,L|417:369,2,51.6666666666667,0|0|0,0:0|0:0|0:0,0:0:0:0:
473,263,81213,2,0,L|484:171,1,77.5,0|0,0:0|0:0,0:0:0:0:
465,93,81513,6,0,P|401:52|329:74,1,155,4|8,0:0|0:0,0:0:0:0:
271,147,81963,2,0,P|207:187|135:165,1,155,0|0,0:0|0:0,0:0:0:0:
48,198,82413,2,0,L|37:121,1,77.5,8|0,0:0|0:0,0:0:0:0:
102,54,82713,6,0,B|184:30|183:70|255:50,1,155,0|8,0:0|0:0,0:0:0:0:
344,26,83163,1,0,0:0:0:0:
344,26,83313,2,0,L|354:111,1,77.5,0|0,0:0|0:0,0:0:0:0:
424,162,83613,2,0,L|414:247,1,77.5,8|0,0:0|0:0,0:0:0:0:
356,311,83913,6,0,P|289:347|214:335,1,155,4|8,0:0|0:0,0:0:0:0:
164,251,84363,2,0,P|97:214|22:226,1,155,0|0,0:0|0:0,0:0:0:0:
29,134,84813,2,0,L|114:119,1,77.5,8|0,0:0|0:0,0:0:0:0:
177,61,85113,6,0,P|236:107|310:98,1,155,0|8,0:0|0:0,0:0:0:0:
398,133,85563,1,0,0:0:0:0:
472,77,85713,2,0,L|483:170,1,77.5,0|0,0:0|0:0,0:0:0:0:
421,226,86013,2,0,L|410:319,1,77.5,0|0,0:0|0:0,0:0:0:0:
343,366,86313,6,0,P|267:350|190:340,1,155,4|8,0:0|0:0,0:0:0:0:
222,252,86763,2,0,P|146:267|69:277,1,155,0|0,0:0|0:0,0:0:0:0:
5,208,87213,2,0,P|0:169|4:131,1,77.5,8|0,0:0|0:0,0:0:0:0:
76,72,87513,6,0,L|162:65,1,77.5,0|0,0:0|0:0,0:0:0:0:
207,142,87813,2,0,L|284:148,1,77.5,8|0,0:0|0:0,0:0:0:0:
347,216,88113,2,0,L|433:209,1,77.5,0|0,0:0|0:0,0:0:0:0:
512,303,88413,2,0,L|434:296,1,77.5,8|0,0:0|0:0,0:0:0:0:
355,346,88713,6,0,P|316:346|279:333,1,77.5,4|0,0:0|0:0,0:0:0:0:
219,261,89013,1,8,0:0:0:0:
163,335,89163,2,0,P|92:304|15:305,1,155,0|0,0:0|0:0,0:0:0:0:
32,213,89613,2,0,L|44:118,1,77.5,12|0,0:0|0:0,0:0:0:0:
98,61,89913,6,0,P|165:28|237:51,1,155,0|12,0:0|0:0,0:0:0:0:
287,130,90363,2,0,P|354:163|426:140,1,155,0|0,0:0|0:0,0:0:0:0:
503,191,90813,2,0,L|507:152,2,38.75,12|0|8,0:0|0:0|0:0,0:0:0:0:
468,277,91113,6,0,B|440:252|440:252|322:242,1,155,4|8,0:0|0:0,0:0:0:0:
263,169,91563,2,0,B|235:194|235:194|117:203,1,155,0|0,0:0|0:0,0:0:0:0:
38,253,92013,2,0,P|27:215|30:177,1,77.5,8|0,0:0|0:0,0:0:0:0:
71,93,92313,6,0,L|154:80,1,77.5,0|0,0:0|0:0,0:0:0:0:
177,169,92613,2,0,L|253:180,1,77.5,8|0,0:0|0:0,0:0:0:0:
317,249,92913,2,0,L|400:236,1,77.5,0|0,0:0|0:0,0:0:0:0:
419,147,93213,2,0,L|495:158,1,77.5,8|0,0:0|0:0,0:0:0:0:
479,20,93513,6,0,B|455:54|455:54|342:62,1,155,4|8,0:0|0:0,0:0:0:0:
315,168,93963,2,0,B|291:133|291:133|178:125,1,155,0|0,0:0|0:0,0:0:0:0:
90,156,94413,2,0,P|81:193|86:231,1,77.5,8|0,0:0|0:0,0:0:0:0:
162,287,94713,6,0,B|236:263|241:305|314:283,1,155,0|8,0:0|0:0,0:0:0:0:
402,311,95163,1,0,0:0:0:0:
481,359,95313,2,0,L|491:272,1,77.5,0|0,0:0|0:0,0:0:0:0:
430,210,95613,2,0,L|420:123,1,77.5,8|0,0:0|0:0,0:0:0:0:
365,57,95913,6,0,P|301:97|226:87,1,155,4|8,0:0|0:0,0:0:0:0:
207,178,96363,2,0,P|142:137|67:147,1,155,0|0,0:0|0:0,0:0:0:0:
27,231,96813,2,0,L|18:309,1,77.5,8|0,0:0|0:0,0:0:0:0:
104,342,97113,6,0,P|171:309|245:328,1,155,4|8,0:0|0:0,0:0:0:0:
324,278,97563,1,0,0:0:0:0:
396,336,97713,2,0,L|409:244,1,77.5,0|0,0:0|0:0,0:0:0:0:
471,192,98013,2,0,L|458:100,1,77.5,8|8,0:0|0:0,0:0:0:0:
391,51,98313,6,0,L|313:43,1,77.5,0|0,0:0|0:0,0:0:0:0:
151,135,98763,2,0,L|229:127,1,77.5,4|0,0:0|0:0,0:0:0:0:
415,236,99213,6,0,L|337:228,1,77.5,0|0,0:0|0:0,0:0:0:0:
175,320,99663,2,0,L|253:312,1,77.5,4|0,0:0|0:0,0:0:0:0:
359,324,99963,2,0,L|367:361,2,38.75,0|0|0,0:0|0:0|0:0,0:0:0:0:
415,236,100263,1,0,0:0:0:0:
134,71,100713,6,0,L|119:152,1,77.5,0|0,0:0|0:0,0:0:0:0:
205,346,101163,2,0,L|190:269,1,77.5,0|4,0:0|0:0,0:0:0:0:
295,79,101613,6,0,L|280:160,1,77.5,0|0,0:0|0:0,0:0:0:0:
366,354,102063,2,0,L|351:277,1,77.5,0|4,0:0|0:0,0:0:0:0:
376,171,102363,2,0,L|427:163,2,38.75,0|0|0,0:0|0:0|0:0,0:0:0:0:
295,79,102663,1,0,0:0:0:0:
214,124,102813,6,0,L|164:119,2,38.75,0|0|0,0:0|0:0|0:0,0:0:0:0:
289,178,103113,1,4,0:0:0:0:
256,192,103188,12,0,105963,0:0:0:0:
