osu file format v14

[General]
AudioFilename: 22 .mp3
AudioLeadIn: 0
PreviewTime: 33927
Countdown: 0
SampleSet: Normal
StackLeniency: 0.7
Mode: 0
LetterboxInBreaks: 1
WidescreenStoryboard: 1

[Editor]
Bookmarks: 59427
DistanceSpacing: 1
BeatDivisor: 4
GridSize: 4
TimelineZoom: 1

[Metadata]
Title:Lilieze to Enryuu Laevateinn
TitleUnicode:リリーゼと炎龍レーヴァテイン
Artist:Kuroneko Dungeon
ArtistUnicode:黒猫ダンジョン
Creator:Nyquill
Version:Beginner
Source:REFLEC BEAT colette -Summer-
Tags:zektbach beatmania iidx 22 pendual tomosuke funaki oldstyle gamemusic beatstream アニムトライヴ pop'n music うさぎと猫と少年の夢 maya takamura 高村真耶 captin1 Giralda
BeatmapID:725140
BeatmapSetID:326608

[Difficulty]
HPDrainRate:3
CircleSize:2
OverallDifficulty:2
ApproachRate:4
SliderMultiplier:0.899999999999999
SliderTickRate:1

[Events]
//Background and Video events
0,0,"36528051_p0.jpg",0,0
//Break Periods
//Storyboard Layer 0 (Background)
//Storyboard Layer 1 (Fail)
//Storyboard Layer 2 (Pass)
//Storyboard Layer 3 (Foreground)
//Storyboard Sound Samples

[TimingPoints]
513,300,4,1,0,70,1,0
34713,300,4,1,1,70,1,0

[Colours]
Combo1 : 97,175,157
Combo2 : 220,118,118

[HitObjects]
40,132,1713,6,0,P|112:68|192:104,1,180
160,272,2913,2,0,P|76:312|-8:360,1,180
84,196,4113,2,0,P|180:136|244:100,1,180
348,248,5313,6,0,P|420:236|464:284,3,135
408,348,6963,2,0,L|304:332,1,89.9999999999999
260,268,7563,6,0,P|164:332|160:348,3,135
84,296,9213,2,0,L|76:192,1,89.9999999999999
140,140,9813,1,0,0:0:0:0:
204,76,10113,6,0,B|256:72|256:72|284:124|284:124|356:120,1,180,4|0,0:0|0:0,0:0:0:0:
512,188,11313,1,0,0:0:0:0:
376,304,11913,1,0,0:0:0:0:
352,124,12513,6,0,B|368:40|368:40|336:-8|288:4,1,180,4|0,0:0|0:0,0:0:0:0:
116,52,13713,2,0,P|80:140|136:212,1,180
284,244,14913,6,0,B|332:156|264:160|312:56,1,180,4|0,0:0|0:0,0:0:0:0:
184,204,16113,1,0,0:0:0:0:
300,344,16713,1,0,0:0:0:0:
460,264,17313,2,0,P|416:200|312:196,1,180,4|0,0:0|0:0,0:0:0:0:
224,344,18513,2,0,P|260:360|364:280,1,180
184,260,19713,6,4,L|84:276,1,89.9999999999999
88,184,20313,2,0,L|184:168,1,89.9999999999999
268,160,20913,2,0,B|320:148|344:108|344:108|356:16,1,180
480,152,22113,6,0,L|468:252,1,89.9999999999999,4|0,0:0|0:0,0:0:0:0:
380,224,22713,2,0,L|364:324,1,89.9999999999999
432,372,23313,2,0,P|332:320|260:340,1,180
120,236,24513,6,0,L|140:148,1,89.9999999999999,4|0,0:0|0:0,0:0:0:0:
156,56,25113,1,0,0:0:0:0:
212,228,25713,1,0,0:0:0:0:
32,204,26313,1,0,0:0:0:0:
160,332,26913,6,0,L|260:324,1,89.9999999999999
340,324,27513,1,0,0:0:0:0:
216,196,28113,1,0,0:0:0:0:
68,300,28713,1,0,0:0:0:0:
248,276,29313,6,0,L|400:240,1,135
300,136,30213,2,0,L|152:172,1,135
56,92,31113,2,0,L|148:68,1,89.9999999999999
232,48,31713,6,0,P|308:44|352:96,1,135
304,212,32613,2,0,P|228:216|184:164,1,135
60,224,33513,2,0,L|53:313,1,89.9999999999999
156,164,34413,6,0,L|164:108,2,45
216,232,35013,6,0,P|276:248|344:204,1,135
424,104,35913,2,0,L|412:240,1,135
288,292,36813,2,0,L|280:384,1,89.9999999999999
200,340,37413,6,0,B|124:336|124:336|56:360,1,135
148,248,38313,2,0,L|172:96,1,135
284,44,39213,1,0,0:0:0:0:
360,92,39513,6,0,P|340:140|300:172,1,89.9999999999999
184,204,40263,2,0,P|232:296|216:332,1,135
116,236,41163,2,0,L|148:92,1,135
160,16,41913,5,4,0:0:0:0:
228,72,42213,2,0,B|260:100|260:100|360:88,1,135
464,164,43113,2,0,L|328:180,1,135,4|0,0:0|0:0,0:0:0:0:
196,192,44013,1,0,0:0:0:0:
236,272,44313,6,0,B|272:296|272:296|328:284,1,89.9999999999999,4|0,0:0|0:0,0:0:0:0:
360,208,44913,2,0,B|324:184|324:184|268:196,1,89.9999999999999
188,204,45513,2,0,P|124:196|88:176,1,89.9999999999999
44,112,46113,2,0,L|56:8,2,89.9999999999999,0|0|4,0:0|0:0|0:0,0:0:0:0:
32,200,47013,5,0,0:0:0:0:
120,176,47313,2,0,B|152:168|152:168|168:180|168:180|212:168,1,89.9999999999999
276,116,47913,2,0,P|324:132|340:180,1,89.9999999999999,4|0,0:0|0:0,0:0:0:0:
324,260,48513,2,0,P|276:244|260:196,1,89.9999999999999,4|0,0:0|0:0,0:0:0:0:
188,268,49113,6,0,L|84:292,1,89.9999999999999,4|0,0:0|0:0,0:0:0:0:
36,224,49713,1,0,0:0:0:0:
60,136,50013,1,0,0:0:0:0:
148,160,50313,2,0,P|172:124|184:64,1,89.9999999999999
268,112,50913,2,0,P|292:148|304:208,2,89.9999999999999,0|0|4,0:0|0:0|0:0,0:0:0:0:
248,24,51813,5,0,0:0:0:0:
328,60,52113,2,0,B|372:64|372:64|384:52|384:52|428:56,1,89.9999999999999
504,60,52713,2,0,L|496:160,1,89.9999999999999,4|0,0:0|0:0,0:0:0:0:
416,188,53313,2,0,L|416:288,1,89.9999999999999,4|0,0:0|0:0,0:0:0:0:
492,324,53913,6,0,L|344:340,1,135,4|0,0:0|0:0,0:0:0:0:
272,236,54813,2,0,L|424:216,1,135,4|0,0:0|0:0,0:0:0:0:
444,88,55713,2,0,L|344:104,1,89.9999999999999
276,60,56313,6,0,B|240:120|240:120|252:148|248:196,1,135,4|4,0:0|0:0,0:0:0:0:
120,228,57213,2,0,B|156:168|156:168|144:140|148:92,1,135,4|4,0:0|0:0,0:0:0:0:
36,28,58113,2,0,L|56:128,1,89.9999999999999
36,204,58713,6,0,P|12:280|56:332,1,135,0|4,0:0|0:0,0:0:0:0:
164,372,59613,2,0,P|188:296|144:244,1,135,0|4,0:0|0:0,0:0:0:0:
276,324,60513,2,0,P|320:284|336:252,1,89.9999999999999
344,168,61113,6,0,B|304:132|264:124|264:124|248:144|216:156,1,135,4|0,0:0|0:0,0:0:0:0:
108,96,62013,2,0,P|68:200|76:228,1,135,4|0,0:0|0:0,0:0:0:0:
172,312,62913,2,0,P|200:264|196:212,1,89.9999999999999
188,140,63513,5,4,0:0:0:0:
300,64,63963,2,0,L|400:40,2,89.9999999999999
256,72,64713,2,0,P|248:160|312:224,1,180
448,336,65913,6,0,B|360:296|364:376|264:316,1,180
134,208,67113,2,0,B|222:248|218:168|318:228,1,180
256,296,68013,1,0,0:0:0:0:
168,320,68313,6,0,P|80:284|32:200,1,180,4|0,0:0|0:0,0:0:0:0:
180,72,69513,2,0,P|256:88|288:184,1,180
116,128,70713,6,0,L|12:112,1,89.9999999999999
40,204,71313,2,0,L|140:220,1,89.9999999999999
216,200,71913,2,0,B|292:184|336:204|336:204|340:232|332:276,1,180
156,284,73113,6,0,L|52:272,2,89.9999999999999,4|4|0,0:0|0:0|0:0,0:0:0:0:
304,180,74313,2,0,P|272:104|260:96,1,89.9999999999999
180,84,74913,2,0,P|116:60|104:48,2,59.9999999999999,4|0|4,0:0|0:0|0:0,0:0:0:0:
188,144,75513,2,0,L|208:336,1,180
288,368,76413,1,0,0:0:0:0:
324,284,76713,2,0,L|424:256,1,89.9999999999999
372,180,77313,6,0,B|332:176|304:120|304:120|272:140|216:112,1,180,4|0,0:0|0:0,0:0:0:0:
140,84,78213,1,0,0:0:0:0:
52,108,78513,2,0,P|60:188|64:300,1,180
152,316,79413,5,0,0:0:0:0:
232,276,79713,2,0,P|300:260|396:336,1,180
468,276,80613,2,0,B|484:208|484:208|464:156|464:156|484:88,1,180
408,52,81513,6,0,P|312:72|304:108,1,135,4|0,0:0|0:0,0:0:0:0:
276,228,82413,1,0,0:0:0:0:
196,184,82713,2,0,L|100:176,1,89.9999999999999
92,88,83313,2,0,L|196:96,1,89.9999999999999
268,72,83913,6,0,P|352:100|400:80,2,135,4|0|0,0:0|0:0|0:0,0:0:0:0:
181,94,85113,2,0,P|173:142|189:190,1,89.9999999999999
260,228,85713,2,0,P|276:292|268:324,1,89.9999999999999
356,344,86313,6,0,P|360:248|344:196,1,135,4|0,0:0|0:0,0:0:0:0:
248,124,87213,1,0,0:0:0:0:
336,100,87513,2,0,P|380:60|396:16,1,89.9999999999999
468,84,88113,2,0,P|472:124|496:168,1,89.9999999999999
452,248,88713,6,0,L|440:308,2,45
372,208,89313,2,0,L|352:312,1,89.9999999999999
268,276,89913,2,0,L|268:212,2,45
180,296,90513,2,0,L|156:192,1,89.9999999999999
224,144,91113,6,0,P|148:120|88:148,1,135,4|0,0:0|0:0,0:0:0:0:
132,272,92013,1,0,0:0:0:0:
220,276,92313,2,0,P|284:264|308:248,1,89.9999999999999
324,164,92913,2,0,P|340:128|388:92,1,89.9999999999999
468,96,93513,6,0,P|496:204|488:220,2,135,4|0|0,0:0|0:0|0:0,0:0:0:0:
380,80,94713,2,0,L|288:64,1,89.9999999999999
228,128,95313,2,0,L|252:224,1,89.9999999999999
340,228,95913,6,0,L|292:360,1,135,4|0,0:0|0:0,0:0:0:0:
176,288,96813,1,0,0:0:0:0:
212,204,97113,2,0,P|208:132|208:96,1,89.9999999999999,4|0,0:0|0:0,0:0:0:0:
280,64,97713,1,0,0:0:0:0:
336,132,98013,1,0,0:0:0:0:
332,220,98313,6,0,L|348:280,1,45
284,328,98763,2,0,L|244:288,1,45,4|0,0:0|0:0,0:0:0:0:
168,260,99213,2,0,L|160:312,1,45,4|0,0:0|0:0,0:0:0:0:
88,360,99663,2,0,L|68:300,1,45,4|0,0:0|0:0,0:0:0:0:
36,236,100113,2,0,L|52:176,2,45
124,248,100713,6,0,L|176:244,1,45
204,160,101163,2,0,L|252:172,1,45,4|0,0:0|0:0,0:0:0:0:
304,240,101613,2,0,L|292:296,1,45
220,336,102063,2,0,L|172:324,1,45,4|0,0:0|0:0,0:0:0:0:
88,324,102513,2,0,L|36:352,2,45
120,240,103113,6,0,P|164:140|156:104,1,135,4|0,0:2|0:0,0:0:0:0:
28,92,104013,2,0,P|0:164|12:220,1,135
132,156,104913,2,0,L|280:144,1,135
396,112,105813,2,0,L|456:108,1,45
