osu file format v14

[General]
AudioFilename: Laevateinn.mp3
AudioLeadIn: 0
PreviewTime: 34253
Countdown: 0
SampleSet: Soft
StackLeniency: 0.7
Mode: 2
LetterboxInBreaks: 0
WidescreenStoryboard: 0

[Editor]
Bookmarks: 29297,43097,53897,62597,63497,73097,89072,96347
DistanceSpacing: 1
BeatDivisor: 4
GridSize: 4
TimelineZoom: 2.999999

[Metadata]
Title:Lilieze to Enryuu Laevateinn
TitleUnicode:リリーゼと炎龍レーヴァテイン
Artist:Kuroneko Dungeon
ArtistUnicode:黒猫ダンジョン
Creator:Kyuare
Version:Platter
Source:REFLEC BEAT colette -Summer-
Tags:zektbach beatmania iidx 22 pendual tomosuke funaki oldstyle gamemusic beatstream アニムトライヴ pop'n music うさぎと猫と少年の夢 MAYA takamura 高村真耶
BeatmapID:1304682
BeatmapSetID:415827

[Difficulty]
HPDrainRate:5
CircleSize:3.4
OverallDifficulty:8.2
ApproachRate:8.2
SliderMultiplier:1.6
SliderTickRate:1

[Events]
//Background and Video events
0,0,"36528051_p0.jpg",0,0
Video,0,"25.avi"
//Break Periods
//Storyboard Layer 0 (Background)
//Storyboard Layer 1 (Fail)
//Storyboard Layer 2 (Pass)
//Storyboard Layer 3 (Foreground)
//Storyboard Sound Samples

[TimingPoints]
503,300,4,2,1,60,1,0
5453,-100,4,2,1,40,0,0
6053,-100,4,2,1,60,0,0
6203,-100,4,2,1,45,0,0
6803,-100,4,2,1,60,0,0
6953,-100,4,2,1,50,0,0
7553,-100,4,2,1,60,0,0
7703,-100,4,2,1,55,0,0
8303,-100,4,2,1,60,0,0
9053,-100,4,2,1,70,0,0
10103,-100,4,2,1,60,0,0
34703,300,4,2,1,70,1,1
34703,-100,4,2,1,70,0,1
44303,-100,4,2,1,60,0,0
53903,-100,4,2,1,65,0,0
63503,-100,4,2,1,70,0,0
73103,-100,4,2,1,60,0,0
81503,-100,4,2,1,75,0,1
98303,-100,4,2,1,60,0,0

[Colours]
Combo1 : 255,225,225
Combo2 : 139,65,63
Combo3 : 182,160,188
Combo4 : 166,98,68
Combo5 : 234,222,157

[HitObjects]
364,192,503,6,0,L|404:192,2,40,2|0|0,0:0|0:0|0:0,0:0:0:0:
284,192,803,1,8,0:0:0:0:
148,192,953,2,0,L|108:192,2,40,2|0|0,0:0|0:0|0:0,0:0:0:0:
228,192,1253,1,8,0:0:0:0:
364,192,1403,2,0,L|404:192,2,40,2|0|8,0:0|0:0|0:0,0:0:0:0:
144,192,1703,6,0,P|104:128|152:72,1,160,4|0,0:0|0:0,0:0:0:0:
224,72,2153,1,8,0:0:0:0:
352,72,2303,2,0,P|392:136|344:192,1,160
272,192,2753,1,8,0:0:0:0:
400,192,2903,6,0,P|392:264|320:304,1,160
248,304,3353,1,8,0:0:0:0:
112,304,3503,2,0,P|120:232|192:192,1,160
264,192,3953,1,8,0:0:0:0:
144,192,4103,6,0,B|80:144|80:144|144:96,1,160
216,96,4553,1,8,0:0:0:0:
344,96,4703,2,0,L|352:176,1,80,0|8,0:0|0:0,0:0:0:0:
232,176,5003,2,0,L|224:256,1,80,0|8,0:0|0:0,0:0:0:0:
448,256,5303,6,0,L|456:176,1,80,4|0,0:0|0:0,0:0:0:0:
376,176,5603,2,0,L|296:176,2,80,8|0|8,0:0|0:0|0:0,0:0:0:0:
216,176,6053,6,0,L|208:96,1,80,2|0,0:0|0:0,0:0:0:0:
288,96,6353,2,0,L|368:96,2,80,8|0|8,0:0|0:0|0:0,0:0:0:0:
128,96,6803,6,0,L|120:176,1,80,2|0,0:0|0:0,0:0:0:0:
216,176,7103,2,0,L|224:256,1,80,8|0,0:0|0:0,0:0:0:0:
128,256,7403,1,8,0:0:0:0:
288,40,7553,5,2,0:0:0:0:
360,64,7703,1,0,0:0:0:0:
392,136,7853,1,8,0:0:0:0:
360,208,8003,1,0,0:0:0:0:
288,240,8153,1,8,0:0:0:0:
128,240,8303,6,0,L|120:160,1,80,2|0,0:0|0:0,0:0:0:0:
200,160,8603,2,0,L|280:160,2,80,8|0|8,0:0|0:0|0:0,0:0:0:0:
424,32,9053,6,2,L|432:112,1,80
328,32,9353,2,2,L|320:112,1,80
424,32,9653,2,2,L|432:112,1,80
312,32,9953,1,2,0:0:0:0:
88,32,10103,6,0,P|56:96|104:160,1,160,4|8,0:0|0:0,0:0:0:0:
216,112,10603,1,0,0:0:0:0:
280,112,10703,2,0,P|352:76|280:112,1,160,2|8,0:0|0:0,0:0:0:0:
112,192,11303,2,0,L|272:192,1,160,2|8,0:0|0:0,0:0:0:0:
384,112,11803,1,0,0:0:0:0:
320,112,11903,2,0,P|248:76|320:112,1,160,2|8,0:0|0:0,0:0:0:0:
384,144,12303,1,0,0:0:0:0:
384,208,12403,1,0,0:0:0:0:
320,240,12503,6,0,L|152:240,1,160,4|8,0:0|0:0,0:0:0:0:
272,144,13003,1,0,0:0:0:0:
336,144,13103,2,0,P|408:108|336:144,1,160,2|8,0:0|0:0,0:0:0:0:
160,72,13703,6,0,P|112:128|160:184,1,160,2|8,0:0|0:0,0:0:0:0:
272,144,14203,1,0,0:0:0:0:
336,144,14303,2,0,P|408:108|336:144,1,160,2|8,0:0|0:0,0:0:0:0:
272,144,14703,1,0,0:0:0:0:
208,144,14803,1,0,0:0:0:0:
144,144,14903,2,0,P|72:108|144:144,1,160,2|8,0:0|0:0,0:0:0:0:
304,144,15403,1,0,0:0:0:0:
368,144,15503,2,0,P|440:108|368:144,1,160,2|8,0:0|0:0,0:0:0:0:
144,144,16103,2,0,P|72:108|144:144,1,160,2|8,0:0|0:0,0:0:0:0:
304,144,16603,1,0,0:0:0:0:
240,72,16703,2,0,L|136:96,1,106.666666666667,2|0,0:0|0:0,0:0:0:0:
72,96,17003,1,8,0:0:0:0:
72,152,17103,1,0,0:0:0:0:
136,152,17203,1,0,0:0:0:0:
204,152,17303,6,0,P|276:116|204:152,1,160,2|8,0:0|0:0,0:0:0:0:
136,152,17703,1,0,0:0:0:0:
136,208,17803,1,0,0:0:0:0:
200,208,17903,2,0,L|360:208,1,160,2|8,0:0|0:0,0:0:0:0:
120,208,18503,6,0,P|48:172|120:208,1,160,2|8,0:0|0:0,0:0:0:0:
280,208,19003,1,0,0:0:0:0:
336,208,19103,5,2,0:0:0:0:
336,144,19203,1,0,0:0:0:0:
280,144,19303,1,0,0:0:0:0:
200,144,19403,1,8,0:0:0:0:
152,104,19478,1,0,0:0:0:0:
192,72,19553,1,0,0:0:0:0:
416,72,19703,6,0,P|488:36|416:72,1,160,4|8,0:0|0:0,0:0:0:0:
336,72,20153,1,0,0:0:0:0:
256,72,20303,1,2,0:0:0:0:
208,104,20403,1,0,0:0:0:0:
256,144,20503,1,0,0:0:0:0:
336,144,20603,1,8,0:0:0:0:
384,176,20703,1,0,0:0:0:0:
336,216,20803,1,0,0:0:0:0:
256,216,20903,6,0,L|96:216,1,160,2|8,0:0|0:0,0:0:0:0:
176,216,21353,1,0,0:0:0:0:
256,216,21503,1,2,0:0:0:0:
304,184,21603,1,0,0:0:0:0:
352,152,21703,1,0,0:0:0:0:
272,152,21803,1,8,0:0:0:0:
224,120,21903,1,0,0:0:0:0:
176,88,22003,1,0,0:0:0:0:
256,72,22103,6,0,L|424:72,1,160,4|8,0:0|0:0,0:0:0:0:
336,72,22553,1,0,0:0:0:0:
256,72,22703,1,2,0:0:0:0:
304,104,22803,1,0,0:0:0:0:
352,136,22903,1,0,0:0:0:0:
432,140,23003,1,8,0:0:0:0:
384,172,23103,1,0,0:0:0:0:
336,204,23203,1,0,0:0:0:0:
256,204,23303,6,0,L|160:204,1,80,2|0,0:0|0:0,0:0:0:0:
296,204,23603,2,0,L|384:204,1,80,8|0,0:0|0:0,0:0:0:0:
256,160,23903,1,2,0:0:0:0:
204,112,24003,1,0,0:0:0:0:
256,72,24103,1,0,0:0:0:0:
336,72,24203,2,0,L|416:72,1,80,8|0,0:0|0:0,0:0:0:0:
192,72,24503,6,0,P|128:120|136:192,1,160,4|8,0:0|0:0,0:0:0:0:
216,192,24953,1,0,0:0:0:0:
296,192,25103,1,2,0:0:0:0:
344,224,25203,1,0,0:0:0:0:
296,264,25303,1,0,0:0:0:0:
216,264,25403,1,8,0:0:0:0:
168,296,25503,1,0,0:0:0:0:
216,336,25603,1,0,0:0:0:0:
296,336,25703,6,0,L|456:336,1,160,2|8,0:0|0:0,0:0:0:0:
376,336,26153,1,0,0:0:0:0:
296,336,26303,1,2,0:0:0:0:
248,296,26403,1,0,0:0:0:0:
296,264,26503,1,0,0:0:0:0:
376,264,26603,2,0,L|456:264,1,80,8|0,0:0|0:0,0:0:0:0:
232,192,26903,6,0,L|64:192,1,160,4|8,0:0|0:0,0:0:0:0:
152,160,27353,1,0,0:0:0:0:
72,128,27503,2,0,L|232:128,1,160,2|8,0:0|0:0,0:0:0:0:
312,96,27953,1,0,0:0:0:0:
232,56,28103,5,2,0:0:0:0:
184,88,28203,1,0,0:0:0:0:
232,128,28303,1,0,0:0:0:0:
312,128,28403,1,8,0:0:0:0:
360,160,28503,1,0,0:0:0:0:
312,192,28603,1,0,0:0:0:0:
232,192,28703,5,2,0:0:0:0:
184,224,28803,1,0,0:0:0:0:
136,256,28903,1,0,0:0:0:0:
216,256,29003,1,8,0:0:0:0:
264,288,29103,1,0,0:0:0:0:
216,328,29203,1,0,0:0:0:0:
136,344,29303,6,0,P|64:328|24:256,1,160,4|8,0:0|0:0,0:0:0:0:
136,256,29753,1,0,0:0:0:0:
24,256,29903,2,0,P|60:187|135:168,1,160,2|8,0:0|0:0,0:0:0:0:
256,168,30353,1,0,0:0:0:0:
376,168,30503,2,0,P|451:186|487:255,1,160,2|8,0:0|0:0,0:0:0:0:
376,256,30953,1,0,0:0:0:0:
487,255,31103,2,0,P|450:323|375:342,1,160,2|8,0:0|0:0,0:0:0:0:
256,344,31553,1,0,0:0:0:0:
32,40,31703,5,2,0:0:0:0:
24,112,31853,1,0,0:0:0:0:
56,176,32003,1,8,0:0:0:0:
128,208,32153,1,0,0:0:0:0:
284,208,32303,2,0,L|292:128,1,80,2|0,0:0|0:0,0:0:0:0:
136,128,32603,2,0,L|128:48,1,80,8|0,0:0|0:0,0:0:0:0:
352,40,32903,5,2,0:0:0:0:
360,112,33053,1,0,0:0:0:0:
328,176,33203,1,8,0:0:0:0:
256,208,33353,1,0,0:0:0:0:
136,208,33503,2,0,L|128:128,1,80,2|8,0:0|0:0,0:0:0:0:
352,128,33803,2,0,L|360:48,1,80,2|8,0:0|0:0,0:0:0:0:
272,352,34253,1,0,0:0:0:0:
193,352,34403,2,0,L|145:352,2,40,8|0|0,0:0|0:0|0:0,0:0:0:0:
416,352,34703,6,0,L|440:276,1,80,4|0,0:0|0:0,0:0:0:0:
280,280,35003,2,0,L|176:280,1,80,8|0,0:0|0:0,0:0:0:0:
320,192,35303,2,2,L|400:192,1,80
284,192,35603,2,0,L|172:192,1,80,8|0,0:0|0:0,0:0:0:0:
344,112,35903,6,0,P|424:112|336:112,1,160,2|8,0:0|0:0,0:0:0:0:
224,112,36353,2,0,P|144:112|232:112,1,160,2|8,0:0|0:0,0:0:0:0:
344,112,36803,2,0,L|352:192,1,80,2|0,0:0|0:0,0:0:0:0:
232,192,37103,5,2,0:0:0:0:
232,192,37253,1,0,0:0:0:0:
112,192,37403,2,0,L|104:272,1,80,8|0,0:0|0:0,0:0:0:0:
224,272,37703,1,2,0:0:0:0:
224,272,37853,1,0,0:0:0:0:
344,272,38003,2,0,L|352:352,1,80,8|0,0:0|0:0,0:0:0:0:
192,352,38303,6,0,P|112:352|200:352,1,160,2|8,0:0|0:0,0:0:0:0:
351,351,38753,2,0,P|329:278|255:271,1,160,2|8,0:0|0:0,0:0:0:0:
136,272,39203,2,0,L|96:272,2,40,2|0|8,0:0|0:0|0:0,0:0:0:0:
360,272,39503,1,4,0:0:0:0:
208,192,39803,6,0,P|128:192|224:192,1,160,8|2,0:0|0:0,0:0:0:0:
328,192,40253,2,0,P|408:192|312:192,1,160,2|8,0:0|0:0,0:0:0:0:
168,192,40703,2,0,L|88:192,2,80,2|0|8,0:0|0:0|0:0,0:0:0:0:
328,192,41153,2,0,L|408:192,2,80,2|0|8,0:0|0:0|0:0,0:0:0:0:
208,192,41603,2,0,L|200:112,1,80,2|8,0:0|0:0,0:0:0:0:
424,112,41903,1,4,0:0:0:0:
272,112,42203,6,0,B|160:112|160:112|208:112,1,160,8|2,0:0|0:0,0:0:0:0:
368,112,42653,2,0,P|432:160|408:224,1,160,8|2,0:0|0:0,0:0:0:0:
144,224,43103,6,0,P|64:224|160:224,1,160,4|8,0:0|0:0,0:0:0:0:
272,224,43553,2,0,L|280:304,1,80,2|0,0:0|0:0,0:0:0:0:
176,304,43853,1,0,0:0:0:0:
72,304,44003,2,0,L|24:304,2,40,8|0|0,0:0|0:0|0:0,0:0:0:0:
296,40,44303,6,0,P|368:64|400:136,1,160,4|8,0:0|0:0,0:0:0:0:
360,200,44753,1,0,0:0:0:0:
240,128,44903,1,2,0:0:0:0:
176,160,45053,1,2,0:0:0:0:
152,224,45203,1,2,0:0:0:0:
176,288,45353,1,2,0:0:0:0:
296,320,45503,6,0,L|304:240,1,80,2|0,0:0|0:0,0:0:0:0:
192,240,45803,2,0,L|184:160,1,80,8|0,0:0|0:0,0:0:0:0:
304,160,46103,1,2,0:0:0:0:
288,96,46253,1,2,0:0:0:0:
224,56,46403,1,2,0:0:0:0:
152,56,46553,1,2,0:0:0:0:
376,56,46703,6,0,P|448:80|480:152,1,160,4|8,0:0|0:0,0:0:0:0:
400,192,47153,1,2,0:0:0:0:
280,156,47303,1,2,0:0:0:0:
204,188,47453,1,0,0:0:0:0:
196,264,47603,1,8,0:0:0:0:
256,316,47753,1,0,0:0:0:0:
480,288,47903,5,4,0:0:0:0:
488,216,48053,1,0,0:0:0:0:
464,152,48203,1,8,0:0:0:0:
400,128,48353,1,0,0:0:0:0:
272,128,48503,2,0,L|192:128,1,80,2|0,0:0|0:0,0:0:0:0:
320,72,48803,2,0,L|400:72,1,80,8|0,0:0|0:0,0:0:0:0:
176,72,49103,6,0,P|136:144|176:200,1,160,4|8,0:0|0:0,0:0:0:0:
256,200,49553,1,0,0:0:0:0:
336,200,49703,2,0,L|168:200,1,160,2|8,0:0|0:0,0:0:0:0:
256,128,50153,1,0,0:0:0:0:
176,128,50303,6,0,P|96:128|64:192,1,160,2|8,0:0|0:0,0:0:0:0:
288,160,50903,1,2,0:0:0:0:
344,144,51053,1,2,0:0:0:0:
368,96,51203,1,2,0:0:0:0:
360,56,51353,1,2,0:0:0:0:
136,56,51503,6,0,P|64:80|32:152,1,160,4|8,0:0|0:0,0:0:0:0:
112,192,51953,1,2,0:0:0:0:
232,156,52103,1,2,0:0:0:0:
308,188,52253,1,0,0:0:0:0:
316,264,52403,1,8,0:0:0:0:
256,316,52553,1,0,0:0:0:0:
32,320,52703,5,4,0:0:0:0:
40,256,52853,1,0,0:0:0:0:
88,208,53003,1,8,0:0:0:0:
152,192,53153,1,0,0:0:0:0:
272,192,53303,1,4,0:0:0:0:
328,152,53453,1,0,0:0:0:0:
320,80,53603,1,8,0:0:0:0:
256,64,53753,1,0,0:0:0:0:
480,128,53903,6,0,L|488:288,1,160,4|8,0:0|0:0,0:0:0:0:
368,288,54353,1,4,0:0:0:0:
360,208,54503,1,0,0:0:0:0:
352,128,54653,1,8,0:0:0:0:
128,128,54803,6,0,L|48:128,2,80,4|0|8,0:0|0:0|0:0,0:0:0:0:
248,128,55253,2,0,L|256:288,1,160,4|8,0:0|0:0,0:0:0:0:
360,288,55703,1,2,0:0:0:0:
368,216,55853,1,0,0:0:0:0:
328,152,56003,1,8,0:0:0:0:
256,128,56153,1,0,0:0:0:0:
32,128,56303,6,0,L|24:288,1,160,4|8,0:0|0:0,0:0:0:0:
144,288,56753,1,4,0:0:0:0:
152,208,56903,1,0,0:0:0:0:
160,128,57053,1,8,0:0:0:0:
384,128,57203,6,0,L|464:128,2,80,4|0|8,0:0|0:0|0:0,0:0:0:0:
264,128,57653,2,0,L|256:288,1,160,4|8,0:0|0:0,0:0:0:0:
152,288,58103,1,2,0:0:0:0:
144,216,58253,1,0,0:0:0:0:
184,152,58403,1,8,0:0:0:0:
256,128,58553,1,0,0:0:0:0:
31,64,58703,6,0,P|45:140|110:183,1,160,4|8,0:0|0:0,0:0:0:0:
230,184,59153,2,0,P|216:260|151:303,1,160,4|8,0:0|0:0,0:0:0:0:
376,288,59603,2,0,L|464:288,2,80,4|0|8,0:0|0:0|0:0,0:0:0:0:
256,288,60053,5,4,0:0:0:0:
184,240,60203,1,0,0:0:0:0:
256,192,60353,1,8,0:0:0:0:
136,288,60503,2,0,P|88:232|136:176,1,160,2|2,0:0|0:0,0:0:0:0:
256,128,60953,1,0,0:0:0:0:
481,64,61103,6,0,P|467:140|402:183,1,160,4|8,0:0|0:0,0:0:0:0:
282,184,61553,2,0,P|296:260|361:303,1,160,4|8,0:0|0:0,0:0:0:0:
136,288,62003,2,0,L|48:288,2,80,4|0|8,0:0|0:0|0:0,0:0:0:0:
256,288,62453,5,4,0:0:0:0:
328,240,62603,1,0,0:0:0:0:
256,192,62753,1,8,0:0:0:0:
376,288,62903,2,0,P|424:232|376:176,1,160,2|2,0:0|0:0,0:0:0:0:
256,128,63353,1,0,0:0:0:0:
480,128,63503,6,0,P|488:208|432:256,1,160
352,288,63953,2,0,L|256:288,3,80,0|2|0|8,0:0|0:0|0:0|0:0,0:0:0:0:
192,288,64553,1,2,0:0:0:0:
312,288,64703,6,0,P|344:216|296:160,1,160,2|8,0:0|0:0,0:0:0:0:
216,160,65153,1,0,0:0:0:0:
136,160,65303,1,2,0:0:0:0:
88,96,65453,1,0,0:0:0:0:
120,32,65603,1,8,0:0:0:0:
200,32,65753,1,0,0:0:0:0:
440,32,65903,6,0,L|480:32,2,40,2|0|0,0:0|0:0|0:0,0:0:0:0:
320,32,66203,2,0,L|280:32,2,40,8|0|0,0:0|0:0|0:0,0:0:0:0:
400,104,66503,2,0,L|440:104,2,40,2|0|0,0:0|0:0|0:0,0:0:0:0:
280,104,66803,2,0,L|240:104,2,40,8|0|0,0:0|0:0|0:0,0:0:0:0:
360,176,67103,6,0,L|368:336,1,160,2|8,0:0|0:0,0:0:0:0:
280,336,67553,1,0,0:0:0:0:
192,336,67703,2,0,L|136:336,2,40,2|0|0,0:0|0:0|0:0,0:0:0:0:
312,272,68003,2,0,L|368:272,2,40,8|0|0,0:0|0:0|0:0,0:0:0:0:
88,272,68303,6,0,L|80:112,1,160,4|8,0:0|0:0,0:0:0:0:
160,112,68753,1,0,0:0:0:0:
280,112,68903,2,0,L|368:112,2,80,2|8|2,0:0|0:0|0:0,0:0:0:0:
200,112,69353,1,8,0:0:0:0:
320,112,69503,6,0,L|328:272,1,160,2|8,0:0|0:0,0:0:0:0:
248,272,69953,1,0,0:0:0:0:
368,272,70103,2,0,L|448:272,3,80,2|0|8|0,0:0|0:0|0:0|0:0,0:0:0:0:
224,128,70703,6,0,L|184:128,2,40,2|0|0,0:0|0:0|0:0,0:0:0:0:
344,128,71003,2,0,L|384:128,2,40,8|0|0,0:0|0:0|0:0,0:0:0:0:
264,200,71303,2,0,L|224:200,2,40,2|0|0,0:0|0:0|0:0,0:0:0:0:
384,200,71603,2,0,L|424:200,2,40,8|0|0,0:0|0:0|0:0,0:0:0:0:
304,264,71903,5,2,0:0:0:0:
264,200,72053,1,0,0:0:0:0:
280,128,72203,1,8,0:0:0:0:
352,96,72353,1,0,0:0:0:0:
272,96,72503,2,0,L|192:96,3,80,2|0|8|0,0:0|0:0|0:0|0:0,0:0:0:0:
416,96,73103,6,0,P|464:152|416:208,1,160,4|8,0:0|0:0,0:0:0:0:
176,256,73703,2,0,P|80:144|176:32,1,320,4|8,0:0|0:0,0:0:0:0:
224,64,74403,1,0,0:0:0:0:
176,96,74503,1,0,0:0:0:0:
96,96,74603,1,2,0:0:0:0:
48,128,74703,1,0,0:0:0:0:
96,160,74803,1,0,0:0:0:0:
192,160,74903,5,4,0:0:0:0:
200,224,75003,1,0,0:0:0:0:
132,224,75103,1,4,0:0:0:0:
124,288,75203,1,0,0:0:0:0:
192,288,75303,1,4,0:0:0:0:
200,352,75403,1,0,0:0:0:0:
104,352,75503,6,0,P|56:296|104:240,1,160,4|8,0:0|0:0,0:0:0:0:
184,240,75953,1,0,0:0:0:0:
264,240,76103,1,2,0:0:0:0:
312,208,76203,1,0,0:0:0:0:
360,176,76303,1,0,0:0:0:0:
280,176,76403,1,8,0:0:0:0:
232,144,76503,1,0,0:0:0:0:
184,112,76603,1,0,0:0:0:0:
280,112,76703,6,0,P|344:152|352:232,1,160,4|4,0:0|0:0,0:0:0:0:
304,232,77103,1,0,0:0:0:0:
256,232,77203,1,0,0:0:0:0:
152,232,77303,2,0,P|88:192|80:112,1,160,4|8,0:0|0:0,0:0:0:0:
160,112,77753,1,0,0:0:0:0:
384,112,77903,6,0,P|448:152|456:232,1,160,4|4,0:0|0:0,0:0:0:0:
408,232,78303,1,0,0:0:0:0:
360,232,78403,1,0,0:0:0:0:
264,232,78503,2,0,P|200:192|192:112,1,160,4|8,0:0|0:0,0:0:0:0:
272,112,78953,1,0,0:0:0:0:
352,112,79103,5,4,0:0:0:0:
400,144,79203,1,0,0:0:0:0:
448,176,79303,1,0,0:0:0:0:
368,176,79403,1,4,0:0:0:0:
320,208,79503,1,0,0:0:0:0:
272,240,79603,1,0,0:0:0:0:
368,240,79703,6,0,P|440:160|336:88,1,266.666666666667,4|0,0:0|0:0,0:0:0:0:
256,88,80303,1,2,0:0:0:0:
208,120,80403,1,0,0:0:0:0:
256,152,80503,1,0,0:0:0:0:
352,156,80603,6,0,P|352:220|272:220,1,160,4|2,0:0|0:0,0:0:0:0:
224,252,81003,1,0,0:0:0:0:
272,284,81103,1,0,0:0:0:0:
360,284,81203,1,8,0:0:0:0:
408,316,81303,1,0,0:0:0:0:
360,348,81403,1,0,0:0:0:0:
264,348,81503,6,0,L|104:348,1,160,4|8,0:0|0:0,0:0:0:0:
264,348,81953,2,2,P|336:324|368:252,1,160
216,248,82403,2,0,L|208:168,1,80,8|0,0:0|0:0,0:0:0:0:
432,32,82703,6,0,P|480:88|432:144,1,160,2|8,0:0|0:0,0:0:0:0:
352,144,83153,1,0,0:0:0:0:
232,144,83303,2,0,P|184:200|232:256,1,160,2|8,0:0|0:0,0:0:0:0:
312,256,83753,1,0,0:0:0:0:
88,256,83903,6,0,P|32:200|64:136,1,160,4|8,0:0|0:0,0:0:0:0:
152,136,84353,2,0,L|232:136,2,80,2|0|2,0:0|0:0|0:0,0:0:0:0:
272,136,84803,1,8,0:0:0:0:
432,136,85103,6,0,L|440:296,1,160,2|8,0:0|0:0,0:0:0:0:
360,296,85553,1,0,0:0:0:0:
240,296,85703,2,0,L|232:136,1,160,2|8,0:0|0:0,0:0:0:0:
312,136,86153,1,0,0:0:0:0:
88,144,86303,6,0,P|24:192|32:264,1,160,4|8,0:0|0:0,0:0:0:0:
192,264,86753,2,0,P|256:216|248:144,1,160,2|2,0:0|0:0,0:0:0:0:
88,144,87203,2,0,L|80:64,1,80,8|0,0:0|0:0,0:0:0:0:
304,64,87503,6,0,P|376:104|360:168,1,160,4|8,0:0|0:0,0:0:0:0:
280,168,87953,1,0,0:0:0:0:
400,168,88103,2,0,P|472:208|456:272,1,160,2|8,0:0|0:0,0:0:0:0:
376,272,88553,1,0,0:0:0:0:
152,272,88703,6,0,L|64:272,2,80,4|0|8,0:0|0:0|0:0,0:0:0:0:
272,272,89153,2,0,L|280:112,1,160,2|0,0:0|0:0,0:0:0:0:
144,112,89603,2,0,L|136:192,1,80,4|0,0:0|0:0,0:0:0:0:
360,272,89903,6,0,L|448:272,2,80,2|0|0,0:0|0:0|0:0,0:0:0:0:
240,272,90353,2,0,L|232:112,1,160,2|0,0:0|0:0,0:0:0:0:
368,112,90803,2,0,L|376:192,1,80,8|0,0:0|0:0,0:0:0:0:
152,192,91103,6,0,P|80:168|48:96,1,160,4|8,0:0|0:0,0:0:0:0:
208,96,91553,2,2,L|368:96,1,160
208,96,92003,2,0,L|200:176,1,80,8|0,0:0|0:0,0:0:0:0:
424,32,92303,6,0,P|472:88|424:144,1,160,4|8,0:0|0:0,0:0:0:0:
344,144,92753,1,0,0:0:0:0:
208,144,92903,2,0,P|169:207|224:256,1,160,2|8,0:0|0:0,0:0:0:0:
304,256,93353,1,0,0:0:0:0:
80,256,93503,6,0,P|24:200|56:136,1,160,4|8,0:0|0:0,0:0:0:0:
144,136,93953,2,0,L|224:136,2,80,2|0|2,0:0|0:0|0:0,0:0:0:0:
264,136,94403,1,8,0:0:0:0:
104,136,94703,6,0,L|96:296,1,160,2|8,0:0|0:0,0:0:0:0:
196,296,95153,1,0,0:0:0:0:
296,296,95303,2,0,L|304:136,1,160,2|8,0:0|0:0,0:0:0:0:
224,136,95753,1,0,0:0:0:0:
448,136,95903,6,0,P|480:216|432:256,1,160,4|8,0:0|0:0,0:0:0:0:
272,256,96353,2,2,P|229:190|271:133,1,160
432,132,96803,2,0,L|440:212,1,80,8|0,0:0|0:0,0:0:0:0:
200,224,97103,6,0,P|136:176|144:104,1,160,4|8,0:0|0:0,0:0:0:0:
224,104,97553,1,0,0:0:0:0:
304,104,97703,2,0,L|384:104,1,80,2|0,0:0|0:0,0:0:0:0:
264,192,98003,2,0,L|184:192,1,80,8|0,0:0|0:0,0:0:0:0:
408,192,98303,6,0,L|416:272,1,80,4|8,0:0|0:0,0:0:0:0:
176,272,98753,2,0,L|168:192,1,80,4|8,0:0|0:0,0:0:0:0:
360,192,99203,6,0,L|368:272,1,80,4|8,0:0|0:0,0:0:0:0:
128,272,99653,2,0,L|120:192,1,80,4|8,0:0|0:0,0:0:0:0:
384,272,100103,2,0,L|392:192,1,80,4|8,0:0|0:0,0:0:0:0:
104,192,100703,6,0,L|120:272,1,80,4|8,0:0|0:0,0:0:0:0:
360,192,101153,2,0,L|345:271,1,80,4|8,0:0|0:0,0:0:0:0:
152,272,101603,6,0,L|167:193,1,80,4|8,0:0|0:0,0:0:0:0:
408,192,102053,2,0,L|392:270,1,80,4|8,0:0|0:0,0:0:0:0:
121,270,102503,1,4,0:0:0:0:
64,236,102653,1,8,0:0:0:0:
52,168,102803,1,2,0:0:0:0:
104,120,102953,1,8,0:0:0:0:
328,192,103103,1,4,0:0:0:0:
112,352,103553,6,0,L|104:192,1,160,2|0,0:0|0:0,0:0:0:0:
224,192,104003,2,0,L|320:192,2,80,2|0|0,0:0|0:0|0:0,0:0:0:0:
368,104,104453,6,0,L|376:264,1,160,2|0,0:0|0:0,0:0:0:0:
256,264,104903,2,0,L|160:264,2,80,2|0|0,0:0|0:0|0:0,0:0:0:0:
400,192,105353,2,0,L|496:192,2,80,2|0|0,0:0|0:0|0:0,0:0:0:0:
176,192,105803,1,2,0:0:0:0:
96,192,105953,1,2,0:0:0:0:
