osu file format v14

[General]
AudioFilename: Laevateinn.mp3
AudioLeadIn: 0
PreviewTime: 34253
Countdown: 0
SampleSet: Soft
StackLeniency: 0.7
Mode: 2
LetterboxInBreaks: 0
WidescreenStoryboard: 0

[Editor]
Bookmarks: 43097,53897,62597,63497,73097,96347
DistanceSpacing: 1
BeatDivisor: 4
GridSize: 4
TimelineZoom: 2.999999

[Metadata]
Title:Lilieze to Enryuu Laevateinn
TitleUnicode:リリーゼと炎龍レーヴァテイン
Artist:Kuroneko Dungeon
ArtistUnicode:黒猫ダンジョン
Creator:Kyuare
Version:Overdose
Source:REFLEC BEAT colette -Summer-
Tags:zektbach beatmania iidx 22 pendual tomosuke funaki oldstyle gamemusic beatstream アニムトライヴ pop'n music うさぎと猫と少年の夢 MAYA takamura 高村真耶
BeatmapID:1236299
BeatmapSetID:415827

[Difficulty]
HPDrainRate:7
CircleSize:4
OverallDifficulty:9.3
ApproachRate:9.3
SliderMultiplier:1.92
SliderTickRate:2

[Events]
//Background and Video events
0,0,"36528051_p0.jpg",0,0
Video,0,"25.avi"
//Break Periods
//Storyboard Layer 0 (Background)
//Storyboard Layer 1 (Fail)
//Storyboard Layer 2 (Pass)
//Storyboard Layer 3 (Foreground)
//Storyboard Sound Samples

[TimingPoints]
503,300,4,2,1,60,1,0
5453,-100,4,2,1,40,0,0
6053,-100,4,2,1,60,0,0
6203,-100,4,2,1,45,0,0
6803,-100,4,2,1,60,0,0
6953,-100,4,2,1,50,0,0
7553,-100,4,2,1,60,0,0
7703,-100,4,2,1,55,0,0
8303,-100,4,2,1,60,0,0
9053,-100,4,2,1,70,0,0
10103,-100,4,2,1,60,0,0
34703,300,4,2,1,70,1,1
34703,-75.187969924812,4,2,1,70,0,1
44303,-100,4,2,1,60,0,0
53903,-100,4,2,1,65,0,0
63503,-100,4,2,1,70,0,0
73103,-100,4,2,1,60,0,0
81503,-85.4700854700855,4,2,1,75,0,1
98303,-100,4,2,1,60,0,0

[Colours]
Combo1 : 255,225,225
Combo2 : 139,65,63
Combo3 : 182,160,188
Combo4 : 166,98,68
Combo5 : 234,222,157

[HitObjects]
352,192,503,6,0,L|400:192,1,48,2|0,0:0|0:0,0:0:0:0:
256,192,653,2,0,L|208:192,1,48
256,128,803,2,0,L|312:128,1,48
160,192,953,6,0,L|112:192,1,48,2|0,0:0|0:0,0:0:0:0:
256,192,1103,2,0,L|304:192,1,48
256,128,1253,2,0,L|200:128,1,48
352,128,1403,5,2,0:0:0:0:
416,160,1478,1,0,0:0:0:0:
416,224,1553,1,2,0:0:0:0:
352,256,1628,1,0,0:0:0:0:
192,256,1703,6,0,L|96:256,1,96,4|0,0:0|0:0,0:0:0:0:
208,256,2003,2,0,L|224:160,1,96,0|8,0:0|0:0,0:0:0:0:
352,160,2303,2,0,L|448:160,1,96
336,160,2603,2,0,L|336:64,1,96,0|8,0:0|0:0,0:0:0:0:
208,64,2903,6,0,L|304:64,1,96
192,64,3203,2,0,L|184:160,1,96,0|8,0:0|0:0,0:0:0:0:
56,160,3503,2,0,L|152:160,1,96
264,160,3803,2,0,L|272:256,1,96,8|0,0:0|0:0,0:0:0:0:
400,256,4103,6,0,L|304:256,1,96
176,256,4403,2,0,L|272:256,1,96,8|0,0:0|0:0,0:0:0:0:
144,256,4703,2,0,L|48:256,1,96,0|8,0:0|0:0,0:0:0:0:
160,256,5003,2,0,L|48:256,1,96,0|8,0:0|0:0,0:0:0:0:
112,160,5228,1,8,0:0:0:0:
256,160,5303,5,4,0:0:0:0:
344,160,5453,1,0,0:0:0:0:
256,224,5603,1,0,0:0:0:0:
344,224,5753,1,0,0:0:0:0:
256,288,5903,1,0,0:0:0:0:
472,288,6053,6,0,L|480:192,1,96,2|0,0:0|0:0,0:0:0:0:
376,192,6353,2,0,L|368:96,1,96
472,96,6653,1,0,0:0:0:0:
256,160,6803,5,2,0:0:0:0:
152,160,6953,1,0,0:0:0:0:
256,224,7103,1,0,0:0:0:0:
152,224,7253,1,0,0:0:0:0:
256,288,7403,1,0,0:0:0:0:
40,288,7553,6,0,L|32:192,1,96,2|0,0:0|0:0,0:0:0:0:
152,192,7853,2,0,L|160:96,1,96
40,96,8153,1,0,0:0:0:0:
256,160,8303,5,2,0:0:0:0:
376,160,8453,1,0,0:0:0:0:
256,224,8603,1,0,0:0:0:0:
376,224,8753,1,0,0:0:0:0:
256,288,8903,1,0,0:0:0:0:
472,288,9053,6,2,L|480:192,1,96,2|2,0:0|0:0,0:0:0:0:
344,288,9353,2,2,L|336:192,1,96,2|2,0:0|0:0,0:0:0:0:
200,288,9653,2,2,L|208:192,1,96,2|2,0:0|0:0,0:0:0:0:
72,192,9953,1,2,0:0:0:0:
288,192,10103,6,0,P|376:168|408:80,1,192,4|8,0:0|0:0,0:0:0:0:
328,80,10503,1,0,0:0:0:0:
248,80,10603,1,0,0:0:0:0:
167,80,10703,2,0,P|79:104|47:192,1,192,2|8,0:0|0:0,0:0:0:0:
288,192,11303,6,0,P|200:168|168:80,1,192,2|8,0:0|0:0,0:0:0:0:
248,80,11703,1,0,0:0:0:0:
328,80,11803,1,0,0:0:0:0:
408,80,11903,2,0,P|376:167|287:191,1,192,2|8,0:0|0:0,0:0:0:0:
208,224,12303,1,0,0:0:0:0:
208,256,12403,1,0,0:0:0:0:
368,256,12503,6,0,B|432:256|432:256|432:192|432:192|360:192,1,192,4|8,0:0|0:0,0:0:0:0:
208,256,13003,1,0,0:0:0:0:
288,256,13103,2,0,B|352:256|352:256|352:192|352:192|280:192,1,192,2|8,0:0|0:0,0:0:0:0:
88,136,13703,2,0,P|24:136|104:136,1,128,2|0,0:0|0:0,0:0:0:0:
168,136,14003,2,0,P|232:136|152:136,1,128,8|0,0:0|0:0,0:0:0:0:
88,136,14303,5,2,0:0:0:0:
32,192,14403,1,0,0:0:0:0:
88,248,14503,1,0,0:0:0:0:
248,136,14603,1,8,0:0:0:0:
304,192,14703,1,0,0:0:0:0:
248,248,14803,1,0,0:0:0:0:
408,248,14903,6,0,B|472:176|472:176|408:104,1,192,4|8,0:0|0:0,0:0:0:0:
248,104,15403,1,0,0:0:0:0:
168,104,15503,2,0,B|104:104|104:104|104:168|104:168|168:168,1,192,2|8,0:0|0:0,0:0:0:0:
367,104,16103,6,0,B|431:104|431:104|431:168|431:168|367:168,1,192,2|8,0:0|0:0,0:0:0:0:
288,168,16503,1,0,0:0:0:0:
208,168,16603,1,0,0:0:0:0:
367,232,16703,2,0,B|431:232|431:232|431:168|431:168|367:168,1,192,2|8,0:0|0:0,0:0:0:0:
288,104,17103,1,0,0:0:0:0:
367,104,17203,1,0,0:0:0:0:
208,104,17303,5,4,0:0:0:0:
208,192,17603,1,8,0:0:0:0:
288,192,17703,1,0,0:0:0:0:
368,192,17803,1,0,0:0:0:0:
208,192,17903,6,0,B|144:192|144:192|224:192,1,128,2|0,0:0|0:0,0:0:0:0:
288,256,18203,2,0,B|352:256|352:256|272:256,1,128,8|0,0:0|0:0,0:0:0:0:
128,256,18503,2,0,B|64:256|64:256|144:256,1,128,2|0,0:0|0:0,0:0:0:0:
208,256,18803,1,8,0:0:0:0:
368,256,19003,1,0,0:0:0:0:
208,256,19103,5,2,0:0:0:0:
144,232,19178,1,0,0:0:0:0:
128,184,19253,1,0,0:0:0:0:
152,136,19328,1,0,0:0:0:0:
304,128,19403,1,8,0:0:0:0:
368,152,19478,1,0,0:0:0:0:
384,200,19553,1,0,0:0:0:0:
360,248,19628,1,0,0:0:0:0:
208,256,19703,5,4,0:0:0:0:
160,232,19778,1,0,0:0:0:0:
160,168,19853,1,0,0:0:0:0:
208,144,19928,1,0,0:0:0:0:
352,144,20003,1,8,0:0:0:0:
400,168,20078,1,0,0:0:0:0:
400,232,20153,1,0,0:0:0:0:
352,256,20228,1,0,0:0:0:0:
208,256,20303,5,2,0:0:0:0:
144,232,20378,1,0,0:0:0:0:
112,168,20453,1,0,0:0:0:0:
128,104,20528,1,0,0:0:0:0:
272,104,20603,1,8,0:0:0:0:
336,128,20678,1,0,0:0:0:0:
368,192,20753,1,0,0:0:0:0:
352,256,20828,1,0,0:0:0:0:
208,224,20903,6,0,L|160:224,1,48,2|0,0:0|0:0,0:0:0:0:
304,288,21053,2,0,L|352:288,1,48
304,288,21203,2,0,L|256:288,1,48,8|0,0:0|0:0,0:0:0:0:
400,352,21353,2,0,L|448:352,1,48
304,288,21503,5,2,0:0:0:0:
296,232,21578,1,0,0:0:0:0:
320,184,21653,1,0,0:0:0:0:
384,168,21728,1,0,0:0:0:0:
240,168,21803,1,8,0:0:0:0:
176,152,21878,1,0,0:0:0:0:
152,104,21953,1,0,0:0:0:0:
160,48,22028,1,0,0:0:0:0:
304,48,22103,5,4,0:0:0:0:
352,72,22178,1,0,0:0:0:0:
352,136,22253,1,0,0:0:0:0:
304,160,22328,1,0,0:0:0:0:
160,160,22403,1,8,0:0:0:0:
112,136,22478,1,0,0:0:0:0:
112,72,22553,1,0,0:0:0:0:
160,48,22628,1,0,0:0:0:0:
304,160,22703,6,0,L|352:160,1,48,2|0,0:0|0:0,0:0:0:0:
208,224,22853,2,0,L|160:224,1,48
208,224,23003,2,0,L|256:224,1,48,8|0,0:0|0:0,0:0:0:0:
112,288,23153,2,0,L|64:288,1,48
208,352,23303,5,2,0:0:0:0:
272,336,23378,1,0,0:0:0:0:
320,288,23453,1,0,0:0:0:0:
328,224,23528,1,0,0:0:0:0:
184,224,23603,1,8,0:0:0:0:
136,192,23678,1,0,0:0:0:0:
136,128,23753,1,0,0:0:0:0:
184,96,23828,1,2,0:0:0:0:
328,96,23903,5,2,0:0:0:0:
376,128,23978,1,0,0:0:0:0:
376,192,24053,1,0,0:0:0:0:
328,224,24128,1,0,0:0:0:0:
184,224,24203,2,0,L|136:224,1,48,8|0,0:0|0:0,0:0:0:0:
280,288,24353,2,0,L|328:288,1,48
160,288,24503,5,4,0:0:0:0:
136,224,24578,1,0,0:0:0:0:
168,160,24653,1,0,0:0:0:0:
232,144,24728,1,0,0:0:0:0:
376,144,24803,1,8,0:0:0:0:
400,208,24878,1,0,0:0:0:0:
368,272,24953,1,0,0:0:0:0:
304,288,25028,1,0,0:0:0:0:
160,288,25103,5,2,0:0:0:0:
224,272,25178,1,0,0:0:0:0:
256,208,25253,1,0,0:0:0:0:
232,144,25328,1,0,0:0:0:0:
88,208,25403,1,8,0:0:0:0:
64,144,25478,1,0,0:0:0:0:
96,80,25553,1,0,0:0:0:0:
160,64,25628,1,0,0:0:0:0:
304,64,25703,6,0,L|352:64,1,48,2|0,0:0|0:0,0:0:0:0:
304,128,25853,2,0,L|256:128,1,48
400,128,26003,2,0,L|448:128,1,48,8|0,0:0|0:0,0:0:0:0:
400,192,26153,2,0,L|352:192,1,48
208,184,26303,5,2,0:0:0:0:
160,216,26378,1,0,0:0:0:0:
160,280,26453,1,0,0:0:0:0:
208,312,26528,1,0,0:0:0:0:
352,312,26603,1,8,0:0:0:0:
416,280,26678,1,0,0:0:0:0:
416,216,26753,1,0,0:0:0:0:
352,192,26828,1,0,0:0:0:0:
208,184,26903,5,4,0:0:0:0:
152,184,26978,1,0,0:0:0:0:
208,120,27053,1,0,0:0:0:0:
264,120,27128,1,0,0:0:0:0:
120,120,27203,1,8,0:0:0:0:
64,120,27278,1,0,0:0:0:0:
120,56,27353,1,0,0:0:0:0:
176,56,27428,1,0,0:0:0:0:
336,56,27503,5,2,0:0:0:0:
400,72,27578,1,0,0:0:0:0:
456,112,27653,1,0,0:0:0:0:
480,176,27728,1,0,0:0:0:0:
480,216,27803,1,8,0:0:0:0:
456,272,27878,1,0,0:0:0:0:
400,312,27953,1,0,0:0:0:0:
336,328,28028,1,0,0:0:0:0:
176,328,28103,5,2,0:0:0:0:
120,328,28178,1,0,0:0:0:0:
176,264,28253,1,0,0:0:0:0:
232,264,28328,1,0,0:0:0:0:
376,264,28403,1,8,0:0:0:0:
432,264,28478,1,0,0:0:0:0:
376,200,28553,1,0,0:0:0:0:
320,200,28628,1,0,0:0:0:0:
176,200,28703,6,0,L|128:200,1,48,2|0,0:0|0:0,0:0:0:0:
272,136,28853,2,0,L|320:136,1,48,2|0,0:0|0:0,0:0:0:0:
176,136,29003,2,0,L|128:136,1,48,8|0,0:0|0:0,0:0:0:0:
272,72,29153,2,0,L|320:72,1,48,8|0,0:0|0:0,0:0:0:0:
128,72,29303,5,4,0:0:0:0:
48,104,29453,1,0,0:0:0:0:
48,168,29603,1,8,0:0:0:0:
128,200,29753,1,0,0:0:0:0:
344,200,29903,1,2,0:0:0:0:
264,232,30053,1,0,0:0:0:0:
264,296,30203,1,8,0:0:0:0:
344,328,30353,1,0,0:0:0:0:
200,328,30503,5,2,0:0:0:0:
280,296,30653,1,0,0:0:0:0:
280,232,30803,1,8,0:0:0:0:
200,200,30953,1,0,0:0:0:0:
416,200,31103,1,2,0:0:0:0:
336,168,31253,1,0,0:0:0:0:
336,104,31403,1,8,0:0:0:0:
416,72,31553,1,0,0:0:0:0:
272,64,31703,5,2,0:0:0:0:
200,64,31853,1,0,0:0:0:0:
344,64,32003,1,8,0:0:0:0:
344,104,32153,1,2,0:0:0:0:
200,104,32303,1,2,0:0:0:0:
272,104,32453,1,0,0:0:0:0:
128,104,32603,1,8,0:0:0:0:
128,144,32753,1,2,0:0:0:0:
344,144,32903,5,2,0:0:0:0:
272,144,33053,1,0,0:0:0:0:
416,144,33203,1,8,0:0:0:0:
416,184,33353,1,2,0:0:0:0:
200,144,33503,1,2,0:0:0:0:
312,144,33653,1,8,0:0:0:0:
200,240,33803,1,2,0:0:0:0:
416,240,33953,1,8,0:0:0:0:
416,240,34253,6,0,L|368:240,1,48
224,240,34403,1,8,0:0:0:0:
200,192,34478,1,0,0:0:0:0:
232,144,34553,1,0,0:0:0:0:
288,136,34628,1,0,0:0:0:0:
480,136,34703,6,0,P|440:88|384:104,1,127.679994739746,4|0,0:0|0:0,0:0:0:0:
160,120,35003,2,0,P|264:192|384:168,1,255.359989479493,8|0,0:0|0:0,0:0:0:0:
160,120,35453,2,0,B|49:184|49:184|161:120,1,255.359989479493,2|0,0:0|0:0,0:0:0:0:
384,120,35903,6,0,P|360:184|312:216,1,127.679994739746,2|0,0:0|0:0,0:0:0:0:
184,256,36203,1,0,0:0:0:0:
312,256,36353,1,2,0:0:0:0:
184,208,36503,1,0,0:0:0:0:
56,160,36653,1,2,0:0:0:0:
280,96,36803,2,0,P|328:136|312:192,1,127.679994739746,8|0,0:0|0:0,0:0:0:0:
185,223,37103,5,2,0:0:0:0:
313,223,37253,1,0,0:0:0:0:
89,223,37403,2,0,B|33:191|33:191|89:159,1,127.679994739746,8|0,0:0|0:0,0:0:0:0:
217,159,37703,1,2,0:0:0:0:
89,159,37853,1,2,0:0:0:0:
313,159,38003,2,0,B|369:127|369:127|313:95,1,127.679994739746,8|0,0:0|0:0,0:0:0:0:
88,96,38303,6,0,P|88:160|216:288,1,255.359989479493,2|8,0:0|0:0,0:0:0:0:
440,288,38753,1,2,0:0:0:0:
368,272,38828,1,0,0:0:0:0:
328,216,38903,1,0,0:0:0:0:
304,160,38978,1,0,0:0:0:0:
296,112,39053,1,0,0:0:0:0:
312,64,39128,1,0,0:0:0:0:
392,64,39203,2,0,L|456:64,1,63.8399973698732,8|0,0:0|0:0,0:0:0:0:
375,96,39353,2,0,L|311:96,1,63.8399973698732,8|0,0:0|0:0,0:0:0:0:
480,192,39503,1,4,0:0:0:0:
480,192,39803,6,0,P|376:120|256:144,1,255.359989479493,8|0,0:0|0:0,0:0:0:0:
480,192,40253,2,0,B|384:108|384:108|481:192,1,255.359989479493,8|0,0:0|0:0,0:0:0:0:
256,143,40703,2,0,L|368:79,2,127.679994739746,2|0|8,0:0|0:0|0:0,0:0:0:0:
480,256,41153,2,0,L|368:192,2,127.679994739746,2|0|8,0:0|0:0|0:0,0:0:0:0:
256,256,41603,2,0,L|144:192,1,127.679994739746,2|8,0:0|0:0,0:0:0:0:
369,192,41903,1,4,0:0:0:0:
369,192,42203,6,0,P|265:120|145:144,1,255.359989479493,8|0,0:0|0:0,0:0:0:0:
369,192,42653,2,0,B|465:108|465:108|368:192,1,255.359989479493,8|0,0:0|0:0,0:0:0:0:
144,208,43103,2,0,L|256:144,2,127.679994739746,2|0|8,0:0|0:0|0:0,0:0:0:0:
368,208,43553,5,2,0:0:0:0:
408,176,43628,1,0,0:0:0:0:
424,120,43703,1,0,0:0:0:0:
400,64,43778,1,0,0:0:0:0:
352,40,43853,1,0,0:0:0:0:
288,32,43928,1,0,0:0:0:0:
144,40,44003,5,8,0:0:0:0:
80,72,44078,1,0,0:0:0:0:
80,136,44153,1,8,0:0:0:0:
144,168,44228,1,0,0:0:0:0:
288,176,44303,6,0,L|328:264,1,96,4|0,0:0|0:0,0:0:0:0:
184,264,44603,2,0,L|144:176,1,96,8|0,0:0|0:0,0:0:0:0:
288,176,44903,1,2,0:0:0:0:
360,144,45053,1,2,0:0:0:0:
360,80,45203,1,2,0:0:0:0:
288,48,45353,1,2,0:0:0:0:
72,176,45503,6,0,L|32:264,1,96,2|0,0:0|0:0,0:0:0:0:
176,176,45803,2,0,L|136:264,1,96,8|0,0:0|0:0,0:0:0:0:
352,176,46103,1,2,0:0:0:0:
448,176,46253,1,2,0:0:0:0:
344,240,46403,1,2,0:0:0:0:
456,240,46553,1,2,0:0:0:0:
240,240,46703,6,0,P|192:232|168:192,1,96,4|0,0:0|0:0,0:0:0:0:
312,128,47003,2,0,L|408:128,1,96,8|0,0:0|0:0,0:0:0:0:
192,128,47303,1,2,0:0:0:0:
136,144,47378,1,2,0:0:0:0:
128,192,47453,1,2,0:0:0:0:
272,192,47603,2,0,L|280:288,1,96,8|0,0:0|0:0,0:0:0:0:
64,288,47903,5,4,0:0:0:0:
32,208,48053,1,0,0:0:0:0:
64,120,48203,1,8,0:0:0:0:
152,88,48353,1,0,0:0:0:0:
368,88,48503,2,0,L|408:176,1,96,2|0,0:0|0:0,0:0:0:0:
352,176,48728,1,0,0:0:0:0:
296,176,48803,2,0,L|256:264,1,96,2|0,0:0|0:0,0:0:0:0:
312,264,49028,1,0,0:0:0:0:
456,264,49103,5,4,0:0:0:0:
464,192,49253,1,0,0:0:0:0:
416,128,49403,1,8,0:0:0:0:
336,128,49553,1,0,0:0:0:0:
120,128,49703,2,0,L|112:224,1,96,2|0,0:0|0:0,0:0:0:0:
256,128,50003,2,0,L|264:224,1,96,8|0,0:0|0:0,0:0:0:0:
408,128,50303,6,0,L|400:224,1,96,2|0,0:0|0:0,0:0:0:0:
256,128,50603,1,8,0:0:0:0:
376,128,50753,1,0,0:0:0:0:
160,176,50903,1,2,0:0:0:0:
64,176,51053,1,2,0:0:0:0:
168,240,51203,1,2,0:0:0:0:
56,240,51353,1,2,0:0:0:0:
272,240,51503,6,0,P|320:232|344:192,1,96,4|0,0:0|0:0,0:0:0:0:
200,128,51803,2,0,L|104:128,1,96,8|0,0:0|0:0,0:0:0:0:
320,128,52103,1,2,0:0:0:0:
376,144,52178,1,2,0:0:0:0:
384,192,52253,1,2,0:0:0:0:
240,192,52403,2,0,L|232:288,1,96,8|0,0:0|0:0,0:0:0:0:
448,288,52703,5,4,0:0:0:0:
480,208,52853,1,0,0:0:0:0:
448,120,53003,1,8,0:0:0:0:
360,88,53153,1,0,0:0:0:0:
144,88,53303,1,4,0:0:0:0:
256,120,53453,1,0,0:0:0:0:
144,152,53603,1,8,0:0:0:0:
288,152,53753,1,2,0:0:0:0:
72,152,53903,6,0,L|32:240,1,96,4|0,0:0|0:0,0:0:0:0:
176,264,54203,1,8,0:0:0:0:
392,264,54353,1,4,0:0:0:0:
272,264,54503,2,0,L|224:264,2,48
488,192,54803,2,0,L|392:192,2,96,4|0|0,0:0|0:0|0:0,0:0:0:0:
272,120,55253,5,4,0:0:0:0:
176,120,55403,1,0,0:0:0:0:
152,248,55553,1,0,0:0:0:0:
248,248,55703,2,0,L|296:248,2,48,2|0|0,0:0|0:0|0:0,0:0:0:0:
104,248,56003,1,8,0:0:0:0:
224,248,56153,1,8,0:0:0:0:
440,152,56303,6,0,L|480:240,1,96,4|0,0:0|0:0,0:0:0:0:
336,264,56603,1,8,0:0:0:0:
120,264,56753,1,4,0:0:0:0:
240,264,56903,2,0,L|288:264,2,48
24,192,57203,2,0,L|120:192,2,96,4|0|0,0:0|0:0|0:0,0:0:0:0:
240,120,57653,5,4,0:0:0:0:
336,120,57803,1,0,0:0:0:0:
360,248,57953,1,0,0:0:0:0:
264,248,58103,2,0,L|216:248,2,48,2|0|0,0:0|0:0|0:0,0:0:0:0:
408,248,58403,1,8,0:0:0:0:
288,312,58553,2,0,L|240:312,1,48,8|0,0:0|0:0,0:0:0:0:
384,312,58703,6,0,P|480:312|376:312,1,192,4|8,0:0|0:0,0:0:0:0:
160,312,59153,2,0,L|152:216,1,96,4|0,0:0|0:0,0:0:0:0:
200,216,59378,1,0,0:0:0:0:
248,216,59453,1,0,0:0:0:0:
464,216,59603,6,0,L|368:216,2,96,4|0|0,0:0|0:0|0:0,0:0:0:0:
248,152,60053,1,4,0:0:0:0:
176,184,60203,1,0,0:0:0:0:
152,256,60353,1,0,0:0:0:0:
272,328,60503,1,2,0:0:0:0:
224,328,60578,1,0,0:0:0:0:
176,328,60653,1,0,0:0:0:0:
320,328,60803,2,0,L|368:328,1,48,2|0,0:0|0:0,0:0:0:0:
224,328,60953,2,0,L|176:328,1,48,2|0,0:0|0:0,0:0:0:0:
368,264,61103,6,0,L|464:264,2,96,4|0|0,0:0|0:0|0:0,0:0:0:0:
152,264,61553,2,0,L|56:264,2,96,4|0|0,0:0|0:0|0:0,0:0:0:0:
368,192,62003,6,0,L|272:192,2,96,4|0|0,0:0|0:0|0:0,0:0:0:0:
152,192,62453,2,0,L|248:192,2,96,4|0|0,0:0|0:0|0:0,0:0:0:0:
296,128,62903,2,0,L|352:128,2,48,2|0|0,0:0|0:0|0:0,0:0:0:0:
152,128,63203,2,0,L|104:128,1,48,2|0,0:0|0:0,0:0:0:0:
248,128,63353,2,0,L|296:128,1,48,2|0,0:0|0:0,0:0:0:0:
104,128,63503,6,0,P|72:160|72:208,1,96,4|0,0:0|0:0,0:0:0:0:
128,208,63728,1,0,0:0:0:0:
184,208,63803,2,0,P|216:240|216:288,1,96,8|0,0:0|0:0,0:0:0:0:
160,288,64028,1,0,0:0:0:0:
104,288,64103,1,2,0:0:0:0:
104,288,64253,5,2,0:0:0:0:
176,224,64403,1,8,0:0:0:0:
32,224,64553,1,0,0:0:0:0:
248,224,64703,2,0,P|296:224|240:224,1,96,2|0,0:0|0:0,0:0:0:0:
192,224,64928,1,0,0:0:0:0:
136,224,65003,2,0,L|128:128,1,96,8|0,0:0|0:0,0:0:0:0:
344,128,65303,5,2,0:0:0:0:
400,160,65378,1,0,0:0:0:0:
408,216,65453,1,2,0:0:0:0:
360,256,65528,1,0,0:0:0:0:
216,256,65603,1,8,0:0:0:0:
160,224,65678,1,0,0:0:0:0:
152,168,65753,1,0,0:0:0:0:
200,128,65828,1,0,0:0:0:0:
368,128,65903,6,0,L|416:128,1,48,2|0,0:0|0:0,0:0:0:0:
368,64,66053,2,0,L|320:64,1,48
176,128,66203,2,0,L|128:128,1,48,8|0,0:0|0:0,0:0:0:0:
176,64,66353,2,0,L|224:64,1,48
296,192,66503,6,0,L|344:192,1,48,2|0,0:0|0:0,0:0:0:0:
296,128,66653,2,0,L|248:128,1,48
104,192,66803,2,0,L|56:192,1,48,8|0,0:0|0:0,0:0:0:0:
104,128,66953,2,0,L|152:128,1,48
320,128,67103,5,2,0:0:0:0:
376,128,67178,1,0,0:0:0:0:
400,192,67253,1,0,0:0:0:0:
344,192,67328,1,0,0:0:0:0:
200,256,67403,2,0,L|136:256,1,48,8|0,0:0|0:0,0:0:0:0:
296,192,67553,2,0,L|360:192,1,48
200,64,67703,5,2,0:0:0:0:
136,96,67778,1,0,0:0:0:0:
120,160,67853,1,8,0:0:0:0:
152,216,67928,1,0,0:0:0:0:
296,216,68003,2,0,L|344:216,1,48,8|0,0:0|0:0,0:0:0:0:
200,280,68153,2,0,L|144:280,1,48
408,128,68303,6,0,P|440:160|440:208,1,96,4|0,0:0|0:0,0:0:0:0:
384,208,68528,1,0,0:0:0:0:
328,208,68603,2,0,P|296:240|296:288,1,96,8|0,0:0|0:0,0:0:0:0:
352,288,68828,1,0,0:0:0:0:
408,288,68903,1,2,0:0:0:0:
408,288,69053,5,2,0:0:0:0:
336,224,69203,1,8,0:0:0:0:
480,224,69353,1,0,0:0:0:0:
264,224,69503,2,0,P|216:224|272:224,1,96,2|0,0:0|0:0,0:0:0:0:
320,224,69728,1,0,0:0:0:0:
376,224,69803,2,0,L|384:128,1,96,8|0,0:0|0:0,0:0:0:0:
168,128,70103,5,2,0:0:0:0:
112,160,70178,1,0,0:0:0:0:
104,216,70253,1,2,0:0:0:0:
152,256,70328,1,0,0:0:0:0:
296,256,70403,1,8,0:0:0:0:
352,224,70478,1,0,0:0:0:0:
360,168,70553,1,8,0:0:0:0:
312,128,70628,1,0,0:0:0:0:
144,128,70703,6,0,L|96:128,1,48,2|0,0:0|0:0,0:0:0:0:
144,64,70853,2,0,L|192:64,1,48
336,128,71003,2,0,L|384:128,1,48,8|0,0:0|0:0,0:0:0:0:
336,64,71153,2,0,L|288:64,1,48
216,192,71303,6,0,L|168:192,1,48,2|0,0:0|0:0,0:0:0:0:
216,128,71453,2,0,L|264:128,1,48
408,192,71603,2,0,L|456:192,1,48,8|0,0:0|0:0,0:0:0:0:
408,128,71753,2,0,L|360:128,1,48
192,128,71903,5,2,0:0:0:0:
136,128,71978,1,0,0:0:0:0:
112,192,72053,1,0,0:0:0:0:
168,192,72128,1,0,0:0:0:0:
312,256,72203,2,0,L|376:256,1,48,8|0,0:0|0:0,0:0:0:0:
216,192,72353,2,0,L|152:192,1,48
312,64,72503,5,2,0:0:0:0:
376,96,72578,1,0,0:0:0:0:
392,160,72653,1,8,0:0:0:0:
360,216,72728,1,0,0:0:0:0:
216,216,72803,2,0,L|168:216,1,48,2|0,0:0|0:0,0:0:0:0:
312,280,72953,2,0,L|368:280,1,48,8|0,0:0|0:0,0:0:0:0:
168,280,73103,5,4,0:0:0:0:
96,216,73203,1,0,0:0:0:0:
168,152,73303,1,0,0:0:0:0:
328,152,73403,1,8,0:0:0:0:
400,216,73503,1,0,0:0:0:0:
328,280,73603,1,0,0:0:0:0:
168,40,73703,5,4,0:0:0:0:
96,56,73803,1,0,0:0:0:0:
48,96,73903,1,0,0:0:0:0:
32,160,74003,1,0,0:0:0:0:
48,224,74103,1,0,0:0:0:0:
96,264,74203,1,0,0:0:0:0:
256,264,74303,5,0,0:0:0:0:
320,200,74403,1,0,0:0:0:0:
256,136,74503,1,0,0:0:0:0:
416,200,74603,1,0,0:0:0:0:
352,136,74703,1,0,0:0:0:0:
416,72,74803,1,0,0:0:0:0:
256,72,74903,5,4,0:0:0:0:
184,72,75003,1,0,0:0:0:0:
344,136,75103,1,4,0:0:0:0:
416,136,75203,1,0,0:0:0:0:
256,136,75303,1,4,0:0:0:0:
184,136,75403,1,0,0:0:0:0:
344,136,75503,5,4,0:0:0:0:
416,200,75603,1,0,0:0:0:0:
344,264,75703,1,0,0:0:0:0:
184,136,75803,1,8,0:0:0:0:
112,200,75903,1,0,0:0:0:0:
184,264,76003,1,0,0:0:0:0:
344,136,76103,5,2,0:0:0:0:
280,200,76203,1,0,0:0:0:0:
344,264,76303,1,0,0:0:0:0:
184,136,76403,1,8,0:0:0:0:
248,200,76503,1,0,0:0:0:0:
184,264,76603,1,0,0:0:0:0:
344,264,76703,5,4,0:0:0:0:
416,224,76803,1,0,0:0:0:0:
344,184,76903,1,0,0:0:0:0:
184,264,77003,1,4,0:0:0:0:
248,224,77103,1,0,0:0:0:0:
184,184,77203,1,0,0:0:0:0:
344,264,77303,5,4,0:0:0:0:
416,232,77403,1,0,0:0:0:0:
456,168,77503,1,0,0:0:0:0:
440,96,77603,1,0,0:0:0:0:
392,48,77703,1,0,0:0:0:0:
328,32,77803,1,0,0:0:0:0:
168,264,77903,5,4,0:0:0:0:
96,224,78003,1,0,0:0:0:0:
168,184,78103,1,0,0:0:0:0:
328,264,78203,1,4,0:0:0:0:
264,224,78303,1,0,0:0:0:0:
328,184,78403,1,0,0:0:0:0:
168,264,78503,5,4,0:0:0:0:
96,232,78603,1,0,0:0:0:0:
56,168,78703,1,0,0:0:0:0:
72,96,78803,1,0,0:0:0:0:
120,48,78903,1,0,0:0:0:0:
184,32,79003,1,0,0:0:0:0:
344,32,79103,5,4,0:0:0:0:
416,64,79203,1,0,0:0:0:0:
344,96,79303,1,0,0:0:0:0:
184,96,79403,1,4,0:0:0:0:
112,128,79503,1,0,0:0:0:0:
184,160,79603,1,0,0:0:0:0:
344,96,79703,5,4,0:0:0:0:
416,128,79803,1,0,0:0:0:0:
456,192,79903,1,0,0:0:0:0:
440,264,80003,1,0,0:0:0:0:
392,312,80103,1,0,0:0:0:0:
328,328,80203,1,0,0:0:0:0:
168,328,80303,5,2,0:0:0:0:
96,296,80403,1,0,0:0:0:0:
168,264,80503,1,0,0:0:0:0:
328,264,80603,1,4,0:0:0:0:
264,232,80703,1,0,0:0:0:0:
328,200,80803,1,0,0:0:0:0:
168,192,80903,5,2,0:0:0:0:
232,160,81003,1,0,0:0:0:0:
168,128,81103,1,0,0:0:0:0:
328,128,81203,1,2,0:0:0:0:
400,96,81303,1,2,0:0:0:0:
328,64,81403,1,2,0:0:0:0:
168,64,81503,6,0,B|112:56|64:96|64:96|112:136|168:128,1,224.640000856934,4|8,0:0|0:0,0:0:0:0:
392,64,81953,1,2,0:0:0:0:
478,135,82103,1,0,0:0:0:0:
392,136,82253,1,2,0:0:0:0:
256,64,82403,2,0,L|344:136,1,112.320000428467,8|0,0:0|0:0,0:0:0:0:
120,128,82703,6,0,L|32:200,1,112.320000428467,4|0,0:0|0:0,0:0:0:0:
256,128,83003,2,0,L|344:200,1,112.320000428467,8|0,0:0|0:0,0:0:0:0:
120,192,83303,2,0,L|32:264,1,112.320000428467,2|0,0:0|0:0,0:0:0:0:
256,192,83603,2,0,L|344:264,1,112.320000428467,8|0,0:0|0:0,0:0:0:0:
120,256,83903,6,0,P|80:152|160:96,1,224.640000856934,4|8,0:0|0:0,0:0:0:0:
384,96,84353,1,2,0:0:0:0:
297,24,84503,1,0,0:0:0:0:
384,32,84653,1,2,0:0:0:0:
160,96,84803,1,8,0:0:0:0:
160,96,84953,1,0,0:0:0:0:
272,96,85103,5,2,0:0:0:0:
352,120,85253,1,2,0:0:0:0:
384,192,85403,1,2,0:0:0:0:
352,264,85553,1,2,0:0:0:0:
272,288,85703,2,0,L|185:216,1,112.320000428467,2|0,0:0|0:0,0:0:0:0:
320,216,86003,2,0,L|406:144,1,112.320000428467,8|0,0:0|0:0,0:0:0:0:
352,112,86228,1,0,0:0:0:0:
185,152,86303,6,0,B|129:144|81:184|81:184|129:224|185:216,1,224.640000856934,4|8,0:0|0:0,0:0:0:0:
408,112,86753,1,2,0:0:0:0:
320,164,86903,1,0,0:0:0:0:
408,224,87053,1,0,0:0:0:0:
256,64,87203,2,0,L|168:136,1,112.320000428467,8|0,0:0|0:0,0:0:0:0:
392,128,87503,6,0,L|304:200,1,112.320000428467,4|0,0:0|0:0,0:0:0:0:
82,64,87803,2,0,L|170:136,1,112.320000428467,8|0,0:0|0:0,0:0:0:0:
392,192,88103,6,0,L|304:264,1,112.320000428467,2|0,0:0|0:0,0:0:0:0:
82,128,88403,2,0,L|170:200,1,112.320000428467,8|0,0:0|0:0,0:0:0:0:
392,264,88703,5,4,0:0:0:0:
280,264,88853,2,0,L|240:224,2,56.1600002142334,0|0|8,0:0|0:0|0:0,0:0:0:0:
168,264,89153,1,2,0:0:0:0:
312,264,89303,2,4,L|320:152,1,112.320000428467,2|0,0:0|0:0,0:0:0:0:
96,168,89603,2,0,P|64:120|80:72,1,112.320000428467,4|0,0:0|0:0,0:0:0:0:
216,72,89903,6,0,L|304:144,2,112.320000428467,2|0|8,0:0|0:0|0:0,0:0:0:0:
352,72,90353,2,0,L|264:144,2,112.320000428467,2|0|2,0:0|0:0|0:0,0:0:0:0:
128,72,90803,1,8,0:0:0:0:
120,128,90878,1,0,0:0:0:0:
144,184,90953,1,0,0:0:0:0:
208,208,91028,1,0,0:0:0:0:
376,200,91103,6,0,P|416:240|320:328,1,224.640000856934,4|8,0:0|0:0,0:0:0:0:
96,200,91553,1,2,0:0:0:0:
180,140,91703,1,0,0:0:0:0:
96,80,91853,1,2,0:0:0:0:
324,76,92003,2,8,P|372:104|380:156,1,112.320000428467,8|0,0:0|0:0,0:0:0:0:
152,152,92303,6,0,L|64:224,1,112.320000428467,4|0,0:0|0:0,0:0:0:0:
200,152,92603,2,0,L|112:224,1,112.320000428467,8|0,0:0|0:0,0:0:0:0:
248,152,92903,2,0,L|160:224,1,112.320000428467,2|0,0:0|0:0,0:0:0:0:
296,152,93203,2,0,L|208:224,1,112.320000428467,8|0,0:0|0:0,0:0:0:0:
440,152,93503,6,0,P|400:256|304:304,1,224.640000856934,4|8,0:0|0:0,0:0:0:0:
80,224,93953,2,2,P|120:120|216:72,1,224.640000856934
440,72,94403,2,0,L|448:184,1,112.320000428467,8|0,0:0|0:0,0:0:0:0:
224,192,94703,6,2,L|312:264,3,112.320000428467
88,72,95303,2,0,L|80:184,1,112.320000428467,2|0,0:0|0:0,0:0:0:0:
304,72,95603,1,8,0:0:0:0:
336,112,95678,1,0,0:0:0:0:
304,160,95753,1,0,0:0:0:0:
256,160,95828,1,0,0:0:0:0:
88,160,95903,6,0,P|128:264|224:312,1,224.640000856934,4|8,0:0|0:0,0:0:0:0:
448,160,96353,1,2,0:0:0:0:
380,240,96503,1,0,0:0:0:0:
311,312,96653,1,2,0:0:0:0:
88,72,96803,2,0,B|48:112|48:112|88:152,1,112.320000428467,8|0,0:0|0:0,0:0:0:0:
312,152,97103,6,0,L|400:224,1,112.320000428467,4|0,0:0|0:0,0:0:0:0:
264,152,97403,2,0,L|352:224,1,112.320000428467,8|0,0:0|0:0,0:0:0:0:
216,152,97703,2,0,L|304:224,1,112.320000428467,2|0,0:0|0:0,0:0:0:0:
168,152,98003,2,0,L|256:224,1,112.320000428467,8|0,0:0|0:0,0:0:0:0:
200,224,98228,1,0,0:0:0:0:
56,224,98303,5,4,0:0:0:0:
280,224,98453,1,8,0:0:0:0:
280,288,98753,1,4,0:0:0:0:
56,288,98903,1,8,0:0:0:0:
56,224,99203,5,4,0:0:0:0:
280,224,99353,1,8,0:0:0:0:
280,288,99653,1,4,0:0:0:0:
56,288,99803,1,8,0:0:0:0:
56,224,99953,2,0,L|104:224,1,48
280,160,100103,1,4,0:0:0:0:
56,160,100253,1,8,0:0:0:0:
232,160,100703,5,4,0:0:0:0:
456,160,100853,1,8,0:0:0:0:
456,224,101153,1,4,0:0:0:0:
232,224,101303,1,8,0:0:0:0:
232,160,101603,5,4,0:0:0:0:
456,160,101753,1,8,0:0:0:0:
456,224,102053,1,4,0:0:0:0:
232,224,102203,1,8,0:0:0:0:
232,160,102353,2,0,L|280:160,1,48
456,96,102503,1,4,0:0:0:0:
232,96,102653,1,8,0:0:0:0:
144,96,102803,2,0,L|200:96,1,48,2|0,0:0|0:0,0:0:0:0:
376,160,102953,2,0,L|328:160,1,48,2|0,0:0|0:0,0:0:0:0:
144,160,103103,6,0,P|48:160|160:160,1,192,4|0,0:0|0:0,0:0:0:0:
376,160,103553,5,2,0:0:0:0:
448,160,103703,1,0,0:0:0:0:
376,160,103853,1,0,0:0:0:0:
144,224,104003,5,2,0:0:0:0:
224,224,104153,1,0,0:0:0:0:
144,224,104303,1,0,0:0:0:0:
376,224,104453,5,2,0:0:0:0:
288,224,104603,1,0,0:0:0:0:
376,224,104753,1,0,0:0:0:0:
144,288,104903,5,2,0:0:0:0:
240,288,105053,1,0,0:0:0:0:
144,288,105203,1,0,0:0:0:0:
376,288,105353,5,2,0:0:0:0:
272,288,105503,1,0,0:0:0:0:
376,288,105653,1,0,0:0:0:0:
144,352,105803,5,2,0:0:0:0:
376,352,105953,1,2,0:0:0:0:
