osu file format v14

[General]
AudioFilename: Laevateinn.mp3
AudioLeadIn: 0
PreviewTime: 34253
Countdown: 0
SampleSet: Soft
StackLeniency: 0.7
Mode: 2
LetterboxInBreaks: 0
WidescreenStoryboard: 0

[Editor]
Bookmarks: 53897,63497,73097,81384,94853
DistanceSpacing: 1
BeatDivisor: 8
GridSize: 4
TimelineZoom: 2.999999

[Metadata]
Title:Lilieze to Enryuu Laevateinn
TitleUnicode:リリーゼと炎龍レーヴァテイン
Artist:Kuroneko Dungeon
ArtistUnicode:黒猫ダンジョン
Creator:Kyuare
Version:Laevateinn
Source:REFLEC BEAT colette -Summer-
Tags:zektbach beatmania iidx 22 pendual tomosuke funaki oldstyle gamemusic beatstream アニムトライヴ pop'n music うさぎと猫と少年の夢 MAYA takamura 高村真耶
BeatmapID:900956
BeatmapSetID:415827

[Difficulty]
HPDrainRate:8
CircleSize:4.2
OverallDifficulty:9.6
ApproachRate:9.6
SliderMultiplier:1.92
SliderTickRate:2

[Events]
//Background and Video events
0,0,"36528051_p0.jpg",0,0
Video,0,"25.avi"
//Break Periods
//Storyboard Layer 0 (Background)
//Storyboard Layer 1 (Fail)
//Storyboard Layer 2 (Pass)
//Storyboard Layer 3 (Foreground)
//Storyboard Sound Samples

[TimingPoints]
503,300,4,2,1,60,1,0
5453,-100,4,2,1,40,0,0
6053,-100,4,2,1,60,0,0
6203,-100,4,2,1,45,0,0
6803,-100,4,2,1,60,0,0
6953,-100,4,2,1,50,0,0
7553,-100,4,2,1,60,0,0
7703,-100,4,2,1,55,0,0
8303,-100,4,2,1,60,0,0
9053,-100,4,2,1,70,0,0
10103,-100,4,2,1,60,0,0
34703,300,4,2,1,70,1,1
34703,-75.187969924812,4,2,1,70,0,1
44303,-100,4,2,1,60,0,0
53903,-100,4,2,1,65,0,0
63503,-100,4,2,1,70,0,0
73103,-100,4,2,1,60,0,0
81503,-75.187969924812,4,2,1,75,0,1
98303,-100,4,2,1,60,0,0
103103,-75.187969924812,4,2,1,60,0,0
103403,-100,4,2,1,60,0,0

[Colours]
Combo1 : 255,225,225
Combo2 : 139,65,63
Combo3 : 182,160,188
Combo4 : 166,98,68
Combo5 : 234,222,157

[HitObjects]
344,192,503,5,2,0:0:0:0:
408,184,578,1,0,0:0:0:0:
264,176,653,1,0,0:0:0:0:
256,112,728,1,0,0:0:0:0:
336,112,803,1,0,0:0:0:0:
360,48,878,1,0,0:0:0:0:
168,192,953,5,2,0:0:0:0:
104,184,1028,1,0,0:0:0:0:
248,176,1103,1,0,0:0:0:0:
256,112,1178,1,0,0:0:0:0:
176,112,1253,1,0,0:0:0:0:
152,48,1328,1,0,0:0:0:0:
344,192,1403,5,2,0:0:0:0:
416,192,1478,1,0,0:0:0:0:
416,256,1553,1,2,0:0:0:0:
344,256,1628,1,0,0:0:0:0:
152,256,1703,6,0,L|144:160,1,96,4|0,0:0|0:0,0:0:0:0:
256,128,2003,1,0,0:0:0:0:
144,96,2153,1,8,0:0:0:0:
360,96,2303,2,0,L|368:192,1,96
256,224,2603,1,0,0:0:0:0:
368,256,2753,1,8,0:0:0:0:
152,256,2903,5,0,0:0:0:0:
40,232,3053,1,0,0:0:0:0:
152,192,3203,1,0,0:0:0:0:
40,168,3353,1,8,0:0:0:0:
256,168,3503,1,0,0:0:0:0:
368,144,3653,1,0,0:0:0:0:
256,104,3803,1,0,0:0:0:0:
368,80,3953,1,8,0:0:0:0:
152,80,4103,6,0,L|144:176,1,96
360,175,4403,2,0,L|368:79,1,96,8|0,0:0|0:0,0:0:0:0:
152,80,4703,1,0,0:0:0:0:
264,80,4853,1,8,0:0:0:0:
152,144,5003,2,0,L|88:144,1,48
248,144,5153,2,0,L|296:144,1,48,8|0,0:0|0:0,0:0:0:0:
144,216,5303,5,4,0:0:0:0:
32,192,5453,1,2,0:0:0:0:
144,184,5603,1,10,0:0:0:0:
32,160,5753,1,2,0:0:0:0:
144,152,5903,1,10,0:0:0:0:
360,216,6053,5,2,0:0:0:0:
232,192,6203,1,2,0:0:0:0:
360,184,6353,1,10,0:0:0:0:
232,160,6503,1,2,0:0:0:0:
360,152,6653,1,10,0:0:0:0:
144,216,6803,5,2,0:0:0:0:
288,192,6953,1,2,0:0:0:0:
144,184,7103,1,10,0:0:0:0:
288,160,7253,1,2,0:0:0:0:
144,152,7403,1,10,0:0:0:0:
384,216,7553,5,2,0:0:0:0:
232,192,7703,1,2,0:0:0:0:
384,184,7853,1,10,0:0:0:0:
232,160,8003,1,2,0:0:0:0:
384,152,8153,1,10,0:0:0:0:
112,216,8303,5,2,0:0:0:0:
272,192,8453,1,2,0:0:0:0:
112,184,8603,1,10,0:0:0:0:
272,160,8753,1,2,0:0:0:0:
112,152,8903,1,10,0:0:0:0:
440,224,9053,5,2,0:0:0:0:
224,192,9203,1,2,0:0:0:0:
440,192,9353,1,10,0:0:0:0:
224,160,9503,1,2,0:0:0:0:
440,160,9653,1,10,0:0:0:0:
224,128,9803,1,2,0:0:0:0:
440,128,9953,1,10,0:0:0:0:
224,296,10103,6,0,P|128:272|104:192,1,192,4|8,0:0|0:0,0:0:0:0:
184,192,10503,1,0,0:0:0:0:
264,192,10603,1,0,0:0:0:0:
104,192,10703,2,0,P|134:106|224:88,1,192,2|8,0:0|0:0,0:0:0:0:
416,88,11303,6,0,L|216:88,1,192,2|8,0:0|0:0,0:0:0:0:
304,88,11703,1,0,0:0:0:0:
384,88,11803,1,0,0:0:0:0:
224,152,11903,2,0,P|128:152|232:152,1,192,2|8,0:0|0:0,0:0:0:0:
304,152,12303,1,0,0:0:0:0:
224,152,12403,1,0,0:0:0:0:
64,232,12503,6,0,L|256:232,1,192,4|8,0:0|0:0,0:0:0:0:
176,232,12903,1,0,0:0:0:0:
96,232,13003,1,0,0:0:0:0:
288,232,13103,2,0,P|384:232|280:232,1,192,2|8,0:0|0:0,0:0:0:0:
96,232,13703,5,2,0:0:0:0:
176,232,13803,1,0,0:0:0:0:
256,232,13903,1,0,0:0:0:0:
96,232,14003,1,8,0:0:0:0:
16,192,14103,1,0,0:0:0:0:
96,152,14203,1,0,0:0:0:0:
256,152,14303,5,2,0:0:0:0:
176,152,14403,1,0,0:0:0:0:
96,152,14503,1,0,0:0:0:0:
256,152,14603,1,8,0:0:0:0:
336,112,14703,1,0,0:0:0:0:
256,72,14803,1,0,0:0:0:0:
448,72,14903,6,0,L|256:72,1,192,4|8,0:0|0:0,0:0:0:0:
336,112,15303,1,0,0:0:0:0:
256,136,15403,1,0,0:0:0:0:
416,136,15503,2,0,P|492:184|472:271,1,192,2|8,0:0|0:0,0:0:0:0:
232,272,16103,6,0,P|155:223|175:136,1,192,2|8,0:0|0:0,0:0:0:0:
256,136,16503,1,0,0:0:0:0:
175,136,16603,1,0,0:0:0:0:
336,136,16703,2,0,P|432:136|320:136,1,192,2|8,0:0|0:0,0:0:0:0:
256,136,17103,1,0,0:0:0:0:
336,136,17203,1,0,0:0:0:0:
64,232,17303,6,0,P|48:136|120:96,1,192,4|8,0:0|0:0,0:0:0:0:
200,128,17703,1,0,0:0:0:0:
120,160,17803,1,0,0:0:0:0:
280,96,17903,2,0,L|472:96,1,192,2|8,0:0|0:0,0:0:0:0:
232,96,18503,5,2,0:0:0:0:
152,128,18603,1,0,0:0:0:0:
232,160,18703,1,0,0:0:0:0:
392,160,18803,1,8,0:0:0:0:
392,160,18953,1,0,0:0:0:0:
328,160,19028,1,0,0:0:0:0:
184,160,19103,5,2,0:0:0:0:
104,192,19203,1,0,0:0:0:0:
184,224,19303,1,0,0:0:0:0:
376,224,19403,1,8,0:0:0:0:
440,200,19453,1,0,0:0:0:0:
464,136,19503,1,0,0:0:0:0:
440,72,19553,1,0,0:0:0:0:
376,48,19603,1,0,0:0:0:0:
184,48,19703,5,4,0:0:0:0:
120,80,19778,1,0,0:0:0:0:
120,144,19853,1,0,0:0:0:0:
184,176,19928,1,0,0:0:0:0:
328,176,20003,1,8,0:0:0:0:
360,144,20078,1,0,0:0:0:0:
328,112,20153,1,0,0:0:0:0:
256,112,20228,1,0,0:0:0:0:
400,112,20303,5,2,0:0:0:0:
384,80,20378,1,0,0:0:0:0:
328,56,20453,1,0,0:0:0:0:
256,56,20528,1,0,0:0:0:0:
112,136,20603,1,8,0:0:0:0:
136,176,20678,1,0,0:0:0:0:
200,192,20753,1,0,0:0:0:0:
280,192,20828,1,0,0:0:0:0:
424,144,20903,5,2,0:0:0:0:
360,176,20978,1,0,0:0:0:0:
360,240,21053,1,0,0:0:0:0:
424,272,21128,1,0,0:0:0:0:
280,256,21203,1,8,0:0:0:0:
216,240,21278,1,0,0:0:0:0:
200,192,21353,1,0,0:0:0:0:
224,152,21428,1,0,0:0:0:0:
368,152,21503,5,2,0:0:0:0:
424,144,21578,1,0,0:0:0:0:
344,136,21653,1,0,0:0:0:0:
336,80,21728,1,0,0:0:0:0:
416,72,21803,1,8,0:0:0:0:
424,16,21878,1,0,0:0:0:0:
344,24,21953,1,0,0:0:0:0:
288,16,22028,1,0,0:0:0:0:
144,16,22103,5,4,0:0:0:0:
80,40,22178,1,0,0:0:0:0:
64,96,22253,1,0,0:0:0:0:
88,144,22328,1,0,0:0:0:0:
232,144,22403,1,8,0:0:0:0:
256,192,22478,1,0,0:0:0:0:
240,248,22553,1,0,0:0:0:0:
176,272,22628,1,0,0:0:0:0:
320,272,22703,5,2,0:0:0:0:
296,240,22778,1,0,0:0:0:0:
240,216,22853,1,0,0:0:0:0:
176,216,22928,1,0,0:0:0:0:
320,192,23003,1,8,0:0:0:0:
384,192,23078,1,0,0:0:0:0:
440,168,23153,1,0,0:0:0:0:
464,136,23228,1,0,0:0:0:0:
320,112,23303,5,2,0:0:0:0:
256,136,23378,1,0,0:0:0:0:
224,192,23453,1,0,0:0:0:0:
240,256,23528,1,0,0:0:0:0:
320,256,23603,1,8,0:0:0:0:
384,232,23678,1,0,0:0:0:0:
416,176,23753,1,0,0:0:0:0:
400,112,23828,1,0,0:0:0:0:
256,112,23903,5,2,0:0:0:0:
200,120,23978,1,0,0:0:0:0:
280,120,24053,1,0,0:0:0:0:
272,168,24128,1,0,0:0:0:0:
192,168,24203,1,8,0:0:0:0:
136,176,24278,1,0,0:0:0:0:
216,176,24353,1,0,0:0:0:0:
208,224,24428,1,0,0:0:0:0:
64,224,24503,5,4,0:0:0:0:
56,176,24578,1,0,0:0:0:0:
88,136,24653,1,0,0:0:0:0:
152,128,24728,1,0,0:0:0:0:
296,192,24803,1,8,0:0:0:0:
304,240,24878,1,0,0:0:0:0:
272,280,24953,1,0,0:0:0:0:
208,288,25028,1,0,0:0:0:0:
352,288,25103,5,2,0:0:0:0:
416,264,25178,1,0,0:0:0:0:
456,208,25253,1,0,0:0:0:0:
464,144,25328,1,0,0:0:0:0:
320,144,25403,1,8,0:0:0:0:
304,96,25478,1,0,0:0:0:0:
344,56,25553,1,0,0:0:0:0:
408,48,25628,1,0,0:0:0:0:
264,288,25703,5,2,0:0:0:0:
200,264,25778,1,0,0:0:0:0:
160,208,25853,1,0,0:0:0:0:
152,144,25928,1,0,0:0:0:0:
296,144,26003,1,8,0:0:0:0:
312,96,26078,1,0,0:0:0:0:
272,56,26153,1,0,0:0:0:0:
208,48,26228,1,0,0:0:0:0:
352,48,26303,5,2,0:0:0:0:
400,48,26378,1,0,0:0:0:0:
448,48,26453,1,0,0:0:0:0:
400,48,26528,1,0,0:0:0:0:
256,48,26603,2,0,L|208:48,1,48,8|0,0:0|0:0,0:0:0:0:
352,112,26753,2,0,L|400:112,1,48
256,112,26903,5,4,0:0:0:0:
240,160,26978,1,0,0:0:0:0:
272,208,27053,1,0,0:0:0:0:
336,216,27128,1,0,0:0:0:0:
192,216,27203,1,8,0:0:0:0:
128,224,27278,1,0,0:0:0:0:
96,272,27353,1,0,0:0:0:0:
112,320,27428,1,0,0:0:0:0:
256,320,27503,5,2,0:0:0:0:
328,312,27578,1,0,0:0:0:0:
368,264,27653,1,0,0:0:0:0:
352,216,27728,1,0,0:0:0:0:
272,216,27803,1,8,0:0:0:0:
208,192,27878,1,0,0:0:0:0:
192,144,27953,1,0,0:0:0:0:
216,96,28028,1,0,0:0:0:0:
360,96,28103,5,2,0:0:0:0:
408,88,28178,1,0,0:0:0:0:
408,64,28253,1,0,0:0:0:0:
360,56,28328,1,0,0:0:0:0:
216,56,28403,2,0,L|168:56,3,48,8|0|0|0,0:0|0:0|0:0|0:0,0:0:0:0:
360,56,28703,5,2,0:0:0:0:
424,56,28778,1,0,0:0:0:0:
280,120,28853,1,2,0:0:0:0:
216,120,28928,1,0,0:0:0:0:
360,120,29003,1,8,0:0:0:0:
408,120,29078,1,0,0:0:0:0:
264,176,29153,1,2,0:0:0:0:
216,176,29228,1,0,0:0:0:0:
392,184,29303,6,0,L|400:280,1,96,2|0,0:0|0:0,0:0:0:0:
288,280,29603,1,8,0:0:0:0:
400,280,29753,1,0,0:0:0:0:
120,184,29903,2,0,L|112:280,1,96,2|0,0:0|0:0,0:0:0:0:
224,280,30203,1,8,0:0:0:0:
112,280,30353,1,0,0:0:0:0:
408,184,30503,6,0,L|416:280,1,96,2|0,0:0|0:0,0:0:0:0:
288,280,30803,1,8,0:0:0:0:
416,280,30953,1,0,0:0:0:0:
104,184,31103,2,0,L|96:280,1,96,2|0,0:0|0:0,0:0:0:0:
224,280,31403,1,8,0:0:0:0:
96,280,31553,1,0,0:0:0:0:
424,184,31703,6,0,L|432:280,1,96,2|0,0:0|0:0,0:0:0:0:
184,280,32003,1,8,0:0:0:0:
328,280,32153,1,2,0:0:0:0:
88,184,32303,2,0,L|80:280,1,96,2|0,0:0|0:0,0:0:0:0:
328,280,32603,1,8,0:0:0:0:
184,280,32753,1,2,0:0:0:0:
440,184,32903,6,0,L|448:280,1,96,2|0,0:0|0:0,0:0:0:0:
184,280,33203,1,8,0:0:0:0:
328,280,33353,1,2,0:0:0:0:
72,184,33503,1,2,0:0:0:0:
288,184,33653,1,8,0:0:0:0:
72,120,33803,1,2,0:0:0:0:
440,120,33953,1,8,0:0:0:0:
440,120,34253,1,0,0:0:0:0:
384,120,34328,1,0,0:0:0:0:
240,120,34403,5,8,0:0:0:0:
160,128,34478,1,0,0:0:0:0:
128,160,34553,1,0,0:0:0:0:
160,192,34628,1,0,0:0:0:0:
384,192,34703,6,0,P|448:192|480:144,1,127.679994739746,4|0,0:0|0:0,0:0:0:0:
256,252,35003,2,0,B|128:252|128:252|272:252,1,255.359989479493,8|2,0:0|0:0,0:0:0:0:
480,252,35453,2,0,L|352:252,2,127.679994739746,8|0|0,0:0|0:0|0:0,0:0:0:0:
256,88,35903,5,2,0:0:0:0:
240,192,36053,1,0,0:0:0:0:
464,192,36203,1,8,0:0:0:0:
324,192,36353,1,2,0:0:0:0:
308,296,36503,1,0,0:0:0:0:
448,296,36653,1,2,0:0:0:0:
224,296,36803,2,0,P|168:264|176:208,1,127.679994739746,8|0,0:0|0:0,0:0:0:0:
304,208,37103,6,0,P|360:176|352:120,1,127.679994739746,2|0,0:0|0:0,0:0:0:0:
128,120,37403,1,8,0:0:0:0:
112,192,37553,1,0,0:0:0:0:
240,192,37703,2,0,L|112:192,1,127.679994739746,2|2,0:0|0:0,0:0:0:0:
336,192,38003,1,8,0:0:0:0:
352,264,38153,1,0,0:0:0:0:
128,264,38303,6,0,L|256:264,2,127.679994739746,2|0|8,0:0|0:0|0:0,0:0:0:0:
352,264,38753,1,2,0:0:0:0:
416,240,38828,1,0,0:0:0:0:
448,176,38903,1,0,0:0:0:0:
432,112,38978,1,0,0:0:0:0:
384,64,39053,1,0,0:0:0:0:
320,56,39128,1,0,0:0:0:0:
176,56,39203,6,0,L|112:56,1,63.8399973698732,8|0,0:0|0:0,0:0:0:0:
256,120,39353,2,0,L|320:120,1,63.8399973698732,8|0,0:0|0:0,0:0:0:0:
112,120,39503,5,4,0:0:0:0:
112,120,39803,2,0,P|240:120|104:120,1,255.359989479493,8|2,0:0|0:0,0:0:0:0:
352,192,40253,2,0,L|224:192,2,127.679994739746,8|0|0,0:0|0:0|0:0,0:0:0:0:
128,192,40703,5,2,0:0:0:0:
128,88,40853,1,0,0:0:0:0:
16,88,41003,1,8,0:0:0:0:
240,192,41153,1,2,0:0:0:0:
240,296,41303,1,0,0:0:0:0:
352,296,41453,1,0,0:0:0:0:
128,232,41603,1,8,0:0:0:0:
256,232,41753,1,8,0:0:0:0:
32,160,41903,5,4,0:0:0:0:
32,96,42203,2,0,L|256:220,1,255.359989479493,8|2,0:0|0:0,0:0:0:0:
32,160,42653,2,0,L|160:160,2,127.679994739746,8|0|0,0:0|0:0|0:0,0:0:0:0:
256,232,43103,2,0,L|384:232,2,127.679994739746,4|0|8,0:0|0:0|0:0,0:0:0:0:
480,232,43553,5,2,0:0:0:0:
416,224,43628,1,0,0:0:0:0:
368,168,43703,1,0,0:0:0:0:
368,104,43778,1,0,0:0:0:0:
416,48,43853,1,0,0:0:0:0:
480,32,43928,1,0,0:0:0:0:
336,32,44003,6,0,L|272:32,1,63.8399973698732,8|0,0:0|0:0,0:0:0:0:
416,32,44153,2,0,L|480:32,1,63.8399973698732,8|0,0:0|0:0,0:0:0:0:
272,96,44303,6,0,L|176:96,1,96,4|0,0:0|0:0,0:0:0:0:
320,168,44603,2,0,L|416:168,1,96,8|0,0:0|0:0,0:0:0:0:
176,288,44903,1,2,0:0:0:0:
288,272,45053,1,2,0:0:0:0:
352,192,45203,1,8,0:0:0:0:
360,104,45353,1,2,0:0:0:0:
144,104,45503,6,0,L|48:104,1,96,2|0,0:0|0:0,0:0:0:0:
192,176,45803,2,0,L|288:176,1,96,8|0,0:0|0:0,0:0:0:0:
48,248,46103,1,2,0:0:0:0:
168,248,46253,1,2,0:0:0:0:
48,184,46403,1,8,0:0:0:0:
168,184,46553,1,2,0:0:0:0:
384,184,46703,6,0,L|392:88,1,96,4|0,0:0|0:0,0:0:0:0:
272,88,47003,1,8,0:0:0:0:
392,88,47153,1,0,0:0:0:0:
176,88,47303,1,2,0:0:0:0:
120,120,47378,1,0,0:0:0:0:
176,152,47453,1,2,0:0:0:0:
296,152,47603,2,0,L|392:152,1,96,8|0,0:0|0:0,0:0:0:0:
176,152,47903,6,0,L|112:224,1,96,4|0,0:0|0:0,0:0:0:0:
232,224,48203,2,0,L|168:296,1,96,8|0,0:0|0:0,0:0:0:0:
384,296,48503,1,2,0:0:0:0:
480,224,48653,1,0,0:0:0:0:
336,224,48803,2,0,L|288:224,1,48,8|0,0:0|0:0,0:0:0:0:
432,160,48953,2,0,L|480:160,1,48,8|0,0:0|0:0,0:0:0:0:
288,160,49103,5,4,0:0:0:0:
176,160,49253,1,0,0:0:0:0:
176,192,49403,1,8,0:0:0:0:
288,192,49553,1,0,0:0:0:0:
72,192,49703,2,0,L|72:288,1,96,2|0,0:0|0:0,0:0:0:0:
192,192,50003,2,0,L|192:288,1,96,8|0,0:0|0:0,0:0:0:0:
408,192,50303,6,0,L|408:288,1,96,2|0,0:0|0:0,0:0:0:0:
288,192,50603,2,0,L|288:288,1,96,8|0,0:0|0:0,0:0:0:0:
72,288,50903,1,2,0:0:0:0:
192,288,51053,1,2,0:0:0:0:
48,192,51203,1,8,0:0:0:0:
192,192,51353,1,2,0:0:0:0:
408,192,51503,6,0,L|480:128,1,96,4|0,0:0|0:0,0:0:0:0:
263,128,51803,2,0,L|191:192,1,96,8|0,0:0|0:0,0:0:0:0:
408,192,52103,1,2,0:0:0:0:
464,224,52178,1,2,0:0:0:0:
408,256,52253,1,2,0:0:0:0:
288,256,52403,2,0,L|192:256,1,96,8|0,0:0|0:0,0:0:0:0:
408,256,52703,5,4,0:0:0:0:
296,240,52853,1,0,0:0:0:0:
232,160,53003,1,8,0:0:0:0:
224,72,53153,1,0,0:0:0:0:
440,72,53303,1,4,0:0:0:0:
320,72,53453,1,0,0:0:0:0:
448,136,53603,1,8,0:0:0:0:
312,136,53753,1,0,0:0:0:0:
96,136,53903,6,0,L|192:136,2,96,4|0|8,0:0|0:0|0:0,0:0:0:0:
312,136,54353,1,4,0:0:0:0:
168,104,54503,1,0,0:0:0:0:
128,104,54578,1,0,0:0:0:0:
272,104,54653,1,0,0:0:0:0:
312,104,54728,1,0,0:0:0:0:
120,264,54803,6,0,L|216:264,2,96,4|0|8,0:0|0:0|0:0,0:0:0:0:
336,200,55253,2,0,L|240:200,2,96,4|0|0,0:0|0:0|0:0,0:0:0:0:
120,120,55703,5,8,0:0:0:0:
80,120,55778,1,0,0:0:0:0:
224,120,55853,1,0,0:0:0:0:
264,120,55928,1,0,0:0:0:0:
120,192,56003,1,2,0:0:0:0:
56,224,56078,1,0,0:0:0:0:
56,288,56153,1,2,0:0:0:0:
120,320,56228,1,0,0:0:0:0:
416,136,56303,6,0,L|320:136,2,96,4|0|8,0:0|0:0|0:0,0:0:0:0:
200,136,56753,1,4,0:0:0:0:
344,88,56903,1,0,0:0:0:0:
384,88,56978,1,0,0:0:0:0:
240,88,57053,1,0,0:0:0:0:
200,88,57128,1,0,0:0:0:0:
392,264,57203,6,0,L|296:264,2,96,4|0|8,0:0|0:0|0:0,0:0:0:0:
176,200,57653,2,0,L|272:200,2,96,4|0|0,0:0|0:0|0:0,0:0:0:0:
392,120,58103,6,0,L|440:120,1,48,2|0,0:0|0:0,0:0:0:0:
296,120,58253,2,0,L|248:120,1,48
392,192,58403,2,0,L|344:192,1,48,8|0,0:0|0:0,0:0:0:0:
200,192,58553,2,0,L|248:192,1,48,8|0,0:0|0:0,0:0:0:0:
424,264,58703,5,4,0:0:0:0:
304,256,58853,1,0,0:0:0:0:
304,256,59003,1,8,0:0:0:0:
88,264,59153,1,4,0:0:0:0:
208,256,59303,1,0,0:0:0:0:
208,256,59453,1,0,0:0:0:0:
424,168,59603,5,4,0:0:0:0:
304,160,59753,1,0,0:0:0:0:
424,104,59903,1,8,0:0:0:0:
88,168,60053,1,4,0:0:0:0:
208,160,60203,1,0,0:0:0:0:
88,104,60353,1,0,0:0:0:0:
352,160,60503,6,0,L|400:160,1,48,8|0,0:0|0:0,0:0:0:0:
256,224,60653,2,0,L|208:224,1,48
400,160,60803,2,0,L|448:160,1,48,2|0,0:0|0:0,0:0:0:0:
304,224,60953,2,0,L|256:224,1,48,2|0,0:0|0:0,0:0:0:0:
448,160,61103,5,4,0:0:0:0:
328,128,61253,1,0,0:0:0:0:
448,96,61403,1,8,0:0:0:0:
196,160,61553,1,4,0:0:0:0:
316,128,61703,1,0,0:0:0:0:
196,96,61853,1,0,0:0:0:0:
448,224,62003,5,4,0:0:0:0:
328,192,62153,1,0,0:0:0:0:
448,160,62303,1,8,0:0:0:0:
64,224,62453,1,4,0:0:0:0:
184,192,62603,1,0,0:0:0:0:
64,160,62753,1,0,0:0:0:0:
320,160,62903,6,0,L|368:160,1,48,2|0,0:0|0:0,0:0:0:0:
192,160,63053,2,0,L|144:160,1,48
368,160,63203,2,0,L|320:160,1,48,8|0,0:0|0:0,0:0:0:0:
144,160,63353,2,0,L|192:160,1,48,8|0,0:0|0:0,0:0:0:0:
368,224,63503,6,0,L|464:224,1,96,4|0,0:0|0:0,0:0:0:0:
416,224,63728,1,0,0:0:0:0:
272,224,63803,2,0,L|368:224,1,96,8|0,0:0|0:0,0:0:0:0:
320,224,64028,1,0,0:0:0:0:
176,224,64103,6,0,L|272:224,1,96,2|0,0:0|0:0,0:0:0:0:
224,224,64328,1,0,0:0:0:0:
80,224,64403,2,0,L|32:224,1,48,8|0,0:0|0:0,0:0:0:0:
176,160,64553,2,0,L|224:160,1,48
80,160,64703,6,0,P|32:160|96:160,1,96,2|0,0:0|0:0,0:0:0:0:
128,160,64928,1,0,0:0:0:0:
272,96,65003,2,0,L|168:96,1,96,8|0,0:0|0:0,0:0:0:0:
224,96,65228,1,0,0:0:0:0:
368,96,65303,6,0,L|416:96,1,48,2|0,0:0|0:0,0:0:0:0:
272,160,65453,2,0,L|264:96,1,48,2|0,0:0|0:0,0:0:0:0:
412,159,65603,2,0,L|420:223,1,48,8|0,0:0|0:0,0:0:0:0:
272,208,65753,2,0,L|224:208,1,48,8|0,0:0|0:0,0:0:0:0:
416,256,65903,6,0,L|368:256,1,48,4|0,0:0|0:0,0:0:0:0:
224,256,66053,2,0,L|224:208,1,48
368,208,66203,2,0,L|320:208,1,48,8|0,0:0|0:0,0:0:0:0:
176,208,66353,2,0,L|176:160,1,48
320,160,66503,6,0,L|376:160,1,48,2|0,0:0|0:0,0:0:0:0:
224,160,66653,2,0,L|224:112,1,48
368,112,66803,2,0,L|320:112,1,48,8|0,0:0|0:0,0:0:0:0:
176,112,66953,2,0,L|128:112,1,48
320,0,67103,5,2,0:0:0:0:
396,24,67178,1,0,0:0:0:0:
444,88,67253,1,0,0:0:0:0:
456,160,67328,1,0,0:0:0:0:
312,152,67403,1,8,0:0:0:0:
304,192,67478,1,0,0:0:0:0:
344,232,67553,1,0,0:0:0:0:
408,232,67628,1,0,0:0:0:0:
208,232,67703,6,0,L|160:232,1,48,2|0,0:0|0:0,0:0:0:0:
304,232,67853,2,0,L|312:168,1,48,8|0,0:0|0:0,0:0:0:0:
160,184,68003,2,0,L|152:120,1,48,8|0,0:0|0:0,0:0:0:0:
304,136,68153,2,0,L|352:136,1,48,8|0,0:0|0:0,0:0:0:0:
144,224,68303,6,0,L|48:224,1,96,4|0,0:0|0:0,0:0:0:0:
96,224,68528,1,0,0:0:0:0:
240,224,68603,2,0,L|144:224,1,96,8|0,0:0|0:0,0:0:0:0:
192,224,68828,1,0,0:0:0:0:
336,224,68903,6,0,L|240:224,1,96,2|0,0:0|0:0,0:0:0:0:
288,224,69128,1,0,0:0:0:0:
432,224,69203,2,0,L|480:224,1,48,8|0,0:0|0:0,0:0:0:0:
336,160,69353,2,0,L|288:160,1,48
432,160,69503,6,0,P|480:160|416:160,1,96,2|0,0:0|0:0,0:0:0:0:
384,160,69728,1,0,0:0:0:0:
240,96,69803,2,0,L|344:96,1,96,8|0,0:0|0:0,0:0:0:0:
288,96,70028,1,0,0:0:0:0:
144,96,70103,6,0,L|96:96,1,48,2|0,0:0|0:0,0:0:0:0:
240,160,70253,2,0,L|248:96,1,48,2|0,0:0|0:0,0:0:0:0:
100,160,70403,2,0,L|92:224,1,48,8|0,0:0|0:0,0:0:0:0:
240,208,70553,2,0,L|288:208,1,48,8|0,0:0|0:0,0:0:0:0:
96,256,70703,6,0,L|144:256,1,48,2|0,0:0|0:0,0:0:0:0:
288,256,70853,2,0,L|288:208,1,48
144,208,71003,2,0,L|192:208,1,48,8|0,0:0|0:0,0:0:0:0:
336,208,71153,2,0,L|336:160,1,48
192,160,71303,6,0,L|136:160,1,48,2|0,0:0|0:0,0:0:0:0:
288,160,71453,2,0,L|288:112,1,48
144,112,71603,2,0,L|192:112,1,48,8|0,0:0|0:0,0:0:0:0:
336,112,71753,2,0,L|336:64,1,48
192,64,71903,5,2,0:0:0:0:
192,112,71978,1,0,0:0:0:0:
224,152,72053,1,0,0:0:0:0:
288,160,72128,1,0,0:0:0:0:
144,64,72203,1,8,0:0:0:0:
80,64,72278,1,0,0:0:0:0:
144,128,72353,1,0,0:0:0:0:
208,128,72428,1,0,0:0:0:0:
144,192,72503,5,2,0:0:0:0:
80,192,72578,1,0,0:0:0:0:
224,192,72653,2,0,L|288:192,1,48
128,256,72803,1,8,0:0:0:0:
64,256,72878,1,0,0:0:0:0:
64,320,72953,1,8,0:0:0:0:
128,320,73028,1,0,0:0:0:0:
384,320,73103,5,4,0:0:0:0:
464,288,73203,1,0,0:0:0:0:
384,256,73303,1,0,0:0:0:0:
224,256,73403,1,8,0:0:0:0:
144,224,73503,1,0,0:0:0:0:
224,192,73603,1,0,0:0:0:0:
384,192,73703,5,4,0:0:0:0:
304,192,73803,1,0,0:0:0:0:
224,192,73903,1,0,0:0:0:0:
224,128,74003,1,0,0:0:0:0:
304,128,74103,1,0,0:0:0:0:
384,128,74203,1,0,0:0:0:0:
224,64,74303,5,8,0:0:0:0:
144,64,74403,1,8,0:0:0:0:
224,128,74503,1,2,0:0:0:0:
144,128,74603,1,2,0:0:0:0:
224,192,74703,1,0,0:0:0:0:
144,192,74803,1,0,0:0:0:0:
304,192,74903,5,4,0:0:0:0:
384,224,75003,1,0,0:0:0:0:
224,192,75103,1,4,0:0:0:0:
144,224,75203,1,0,0:0:0:0:
304,224,75303,1,4,0:0:0:0:
224,256,75403,1,0,0:0:0:0:
384,256,75503,5,4,0:0:0:0:
464,224,75603,1,0,0:0:0:0:
384,192,75703,1,0,0:0:0:0:
224,192,75803,1,8,0:0:0:0:
304,160,75903,1,0,0:0:0:0:
224,128,76003,1,0,0:0:0:0:
384,128,76103,5,2,0:0:0:0:
464,96,76203,1,0,0:0:0:0:
384,64,76303,1,0,0:0:0:0:
224,64,76403,1,8,0:0:0:0:
304,64,76503,1,0,0:0:0:0:
384,64,76603,1,0,0:0:0:0:
224,64,76703,5,4,0:0:0:0:
144,64,76803,1,0,0:0:0:0:
224,128,76903,1,0,0:0:0:0:
384,64,77003,1,4,0:0:0:0:
304,128,77103,1,0,0:0:0:0:
384,128,77203,1,0,0:0:0:0:
144,224,77303,5,4,0:0:0:0:
240,208,77403,1,0,0:0:0:0:
304,160,77503,1,0,0:0:0:0:
304,128,77603,1,0,0:0:0:0:
240,72,77703,1,0,0:0:0:0:
144,64,77803,1,0,0:0:0:0:
304,64,77903,5,4,0:0:0:0:
384,64,78003,1,0,0:0:0:0:
304,128,78103,1,0,0:0:0:0:
144,64,78203,1,4,0:0:0:0:
224,128,78303,1,0,0:0:0:0:
144,128,78403,1,0,0:0:0:0:
304,192,78503,5,4,0:0:0:0:
208,176,78603,1,0,0:0:0:0:
144,128,78703,1,0,0:0:0:0:
144,96,78803,1,0,0:0:0:0:
208,40,78903,1,0,0:0:0:0:
304,32,79003,1,0,0:0:0:0:
144,32,79103,5,4,0:0:0:0:
224,64,79203,1,0,0:0:0:0:
144,96,79303,1,0,0:0:0:0:
320,96,79403,1,2,0:0:0:0:
240,128,79503,1,0,0:0:0:0:
320,160,79603,1,0,0:0:0:0:
128,160,79703,5,0,0:0:0:0:
48,144,79803,1,0,0:0:0:0:
32,80,79903,1,0,0:0:0:0:
64,24,80003,1,0,0:0:0:0:
128,8,80103,1,0,0:0:0:0:
200,8,80203,1,0,0:0:0:0:
360,8,80303,5,2,0:0:0:0:
296,40,80403,1,0,0:0:0:0:
360,72,80503,1,0,0:0:0:0:
200,72,80603,1,4,0:0:0:0:
272,104,80703,1,0,0:0:0:0:
200,136,80803,1,0,0:0:0:0:
360,136,80903,5,2,0:0:0:0:
280,168,81003,1,0,0:0:0:0:
360,200,81103,1,0,0:0:0:0:
168,200,81203,1,2,0:0:0:0:
256,232,81303,1,2,0:0:0:0:
168,264,81403,1,2,0:0:0:0:
376,264,81503,6,0,B|488:200|488:200|376:136,1,255.359989479493,4|8,0:0|0:0,0:0:0:0:
232,136,81953,1,2,0:0:0:0:
376,136,82103,1,0,0:0:0:0:
376,136,82253,1,2,0:0:0:0:
152,136,82403,2,0,P|96:176|112:224,1,127.679994739746,8|0,0:0|0:0,0:0:0:0:
336,296,82703,6,0,L|464:296,1,127.679994739746,4|0,0:0|0:0,0:0:0:0:
240,232,83003,2,0,L|368:232,1,127.679994739746,8|0,0:0|0:0,0:0:0:0:
144,168,83303,2,0,L|272:168,1,127.679994739746,2|0,0:0|0:0,0:0:0:0:
48,104,83603,2,0,L|176:104,1,127.679994739746,8|0,0:0|0:0,0:0:0:0:
432,104,83903,6,0,L|176:104,1,255.359989479493,4|8,0:0|0:0,0:0:0:0:
400,192,84353,2,0,L|272:192,2,127.679994739746,2|0|2,0:0|0:0|0:0,0:0:0:0:
176,192,84803,1,8,0:0:0:0:
176,192,84953,1,0,0:0:0:0:
400,256,85103,6,2,L|272:256,3,127.679994739746,2|2|8|2,0:0|0:0|0:0|0:0,0:0:0:0:
424,256,85703,2,0,P|488:256|408:256,1,127.679994739746,2|0,0:0|0:0,0:0:0:0:
200,256,86003,2,0,P|204:200|264:176,1,127.679994739746,8|0,0:0|0:0,0:0:0:0:
328,176,86228,1,0,0:0:0:0:
136,264,86303,6,0,B|24:200|24:200|136:136,1,255.359989479493,4|8,0:0|0:0,0:0:0:0:
280,136,86753,1,2,0:0:0:0:
136,136,86903,1,0,0:0:0:0:
136,136,87053,1,2,0:0:0:0:
360,136,87203,2,0,P|416:176|400:224,1,127.679994739746,8|0,0:0|0:0,0:0:0:0:
176,296,87503,6,0,L|48:296,1,127.679994739746,4|0,0:0|0:0,0:0:0:0:
272,232,87803,2,0,L|144:232,1,127.679994739746,8|0,0:0|0:0,0:0:0:0:
368,168,88103,2,0,L|240:168,1,127.679994739746,2|0,0:0|0:0,0:0:0:0:
464,104,88403,2,0,L|336:104,1,127.679994739746,8|0,0:0|0:0,0:0:0:0:
80,104,88703,6,0,L|208:104,2,127.679994739746,4|0|8,0:0|0:0|0:0,0:0:0:0:
304,192,89153,2,0,L|176:192,2,127.679994739746,2|2|0,0:0|0:0|0:0,0:0:0:0:
80,192,89603,1,4,0:0:0:0:
304,192,89753,1,8,0:0:0:0:
80,256,89903,6,0,L|208:256,2,127.679994739746,2|0|8,0:0|0:0|0:0,0:0:0:0:
432,256,90353,2,0,L|304:256,2,127.679994739746,2|2|8,0:0|0:0|0:0,0:0:0:0:
208,256,90803,2,0,L|144:256,1,63.8399973698732,8|0,0:0|0:0,0:0:0:0:
304,192,90953,2,0,L|368:192,1,63.8399973698732,8|0,0:0|0:0,0:0:0:0:
144,256,91103,6,0,B|32:192|32:192|144:128,1,255.359989479493,4|8,0:0|0:0,0:0:0:0:
288,128,91553,1,2,0:0:0:0:
144,128,91703,1,0,0:0:0:0:
144,128,91853,1,2,0:0:0:0:
368,128,92003,2,0,P|424:168|408:216,1,127.679994739746,8|0,0:0|0:0,0:0:0:0:
184,216,92303,6,0,L|56:216,1,127.679994739746,4|0,0:0|0:0,0:0:0:0:
280,215,92603,2,0,L|408:215,1,127.679994739746,8|0,0:0|0:0,0:0:0:0:
184,152,92903,2,0,L|56:152,1,127.679994739746,2|0,0:0|0:0,0:0:0:0:
280,151,93203,2,0,L|408:151,1,127.679994739746,8|0,0:0|0:0,0:0:0:0:
184,88,93503,6,0,L|440:88,1,255.359989479493,4|8,0:0|0:0,0:0:0:0:
312,152,93953,2,0,L|440:152,2,127.679994739746,2|0|2,0:0|0:0|0:0,0:0:0:0:
88,152,94403,2,0,L|216:152,1,127.679994739746,8|0,0:0|0:0,0:0:0:0:
440,216,94703,5,2,0:0:0:0:
312,216,94853,1,2,0:0:0:0:
184,216,95003,1,8,0:0:0:0:
56,216,95153,1,8,0:0:0:0:
208,280,95303,2,0,L|72:280,1,127.679994739746,2|0,0:0|0:0,0:0:0:0:
304,280,95603,2,0,L|368:280,1,63.8399973698732,8|0,0:0|0:0,0:0:0:0:
208,216,95753,2,0,L|144:216,1,63.8399973698732,8|0,0:0|0:0,0:0:0:0:
328,216,95903,6,0,B|456:216|456:216|312:216,1,255.359989479493,4|8,0:0|0:0,0:0:0:0:
104,216,96353,2,0,P|72:160|104:112,1,127.679994739746,2|0,0:0|0:0,0:0:0:0:
232,112,96653,1,2,0:0:0:0:
456,112,96803,2,0,P|488:168|456:216,1,127.679994739746,8|0,0:0|0:0,0:0:0:0:
232,216,97103,6,0,L|104:216,1,127.679994739746,4|0,0:0|0:0,0:0:0:0:
328,152,97403,2,0,L|200:152,1,127.679994739746,8|0,0:0|0:0,0:0:0:0:
424,88,97703,2,0,L|296:88,1,127.679994739746,2|0,0:0|0:0,0:0:0:0:
72,88,98003,2,0,L|200:88,1,127.679994739746,8|0,0:0|0:0,0:0:0:0:
264,88,98228,1,0,0:0:0:0:
424,192,98303,5,4,0:0:0:0:
200,192,98453,1,8,0:0:0:0:
200,256,98753,1,4,0:0:0:0:
440,256,98903,1,8,0:0:0:0:
440,192,99203,5,4,0:0:0:0:
200,192,99353,1,8,0:0:0:0:
200,256,99653,1,4,0:0:0:0:
456,256,99803,1,8,0:0:0:0:
456,192,99953,1,0,0:0:0:0:
392,192,100028,1,0,0:0:0:0:
200,192,100103,1,4,0:0:0:0:
456,128,100253,1,8,0:0:0:0:
200,128,100703,5,4,0:0:0:0:
424,64,100853,1,8,0:0:0:0:
144,128,101153,1,4,0:0:0:0:
368,192,101303,1,8,0:0:0:0:
88,192,101603,5,4,0:0:0:0:
312,192,101753,1,8,0:0:0:0:
424,256,102053,1,4,0:0:0:0:
200,128,102203,2,0,L|96:128,1,96,8|0,0:0|0:0,0:0:0:0:
168,128,102428,1,0,0:0:0:0:
360,192,102503,1,4,0:0:0:0:
104,192,102653,1,8,0:0:0:0:
248,256,102803,2,0,L|296:256,1,48,2|0,0:0|0:0,0:0:0:0:
152,256,102953,2,0,L|104:256,1,48,2|0,0:0|0:0,0:0:0:0:
312,256,103103,6,0,P|424:208|432:88,1,255.359989479493,4|0,0:0|0:0,0:0:0:0:
208,152,103553,1,2,0:0:0:0:
288,120,103703,1,0,0:0:0:0:
208,88,103853,1,0,0:0:0:0:
432,151,104003,1,2,0:0:0:0:
344,120,104153,1,0,0:0:0:0:
432,87,104303,1,0,0:0:0:0:
176,152,104453,5,2,0:0:0:0:
272,120,104603,1,0,0:0:0:0:
176,88,104753,1,0,0:0:0:0:
432,151,104903,1,2,0:0:0:0:
328,120,105053,1,0,0:0:0:0:
432,87,105203,1,0,0:0:0:0:
144,152,105353,5,2,0:0:0:0:
288,120,105503,1,0,0:0:0:0:
144,88,105653,1,0,0:0:0:0:
432,87,105803,1,2,0:0:0:0:
80,87,105953,1,2,0:0:0:0:
