osu file format v14

[General]
AudioFilename: audio.mp3
AudioLeadIn: 0
PreviewTime: 44318
Countdown: 0
SampleSet: Soft
StackLeniency: 0.7
Mode: 3
LetterboxInBreaks: 0
SpecialStyle: 0
WidescreenStoryboard: 0

[Editor]
DistanceSpacing: 0.8
BeatDivisor: 4
GridSize: 4
TimelineZoom: 1.9

[Metadata]
Title:Lilieze to Enryuu Laevateinn
TitleUnicode:リリーゼと炎龍レーヴァテイン
Artist:Kuroneko Dungeon
ArtistUnicode:黒猫ダンジョン
Creator:DE-CADE
Version:KK's 7K Another
Source:REFLEC BEAT colette -Summer-
Tags:Raymond Kuo Kyoka beatmania IIDX 22 PENDUAL Tomosuke Funaki OLDSTYLE GAMEMUSIC BeatStream アニムトライヴ pop'n music うさぎと猫と少年の夢 plus KONAMI BEMANI
BeatmapID:1142511
BeatmapSetID:530756

[Difficulty]
HPDrainRate:8
CircleSize:7
OverallDifficulty:8
ApproachRate:5
SliderMultiplier:1.4
SliderTickRate:1

[Events]
//Background and Video events
0,0,"36528051_p0.jpg",0,0
Video,0,"BGA.avi"
//Break Periods
//Storyboard Layer 0 (Background)
//Storyboard Layer 1 (Fail)
//Storyboard Layer 2 (Pass)
//Storyboard Layer 3 (Foreground)
//Storyboard Sound Samples

[TimingPoints]
518,300,4,2,1,95,1,0
34718,300,4,2,1,95,1,0
44318,-100,4,2,1,95,0,1
53918,-100,4,2,1,95,0,0
81518,-100,4,2,1,95,0,1
98018,-100,4,2,1,95,0,0
98318,-100,4,2,1,95,0,1
98468,-100,4,2,1,95,0,0
100718,-100,4,2,1,95,0,1
100868,-100,4,2,1,95,0,0
103118,-100,4,2,1,95,0,1
103268,-100,4,2,1,95,0,0

[HitObjects]
36,192,518,5,2,0:0:0:0:
256,192,518,1,8,0:0:0:0:
475,192,518,1,0,0:0:0:0:
109,192,593,1,10,0:0:0:0:
182,192,668,1,2,0:0:0:0:
329,192,668,1,0,0:0:0:0:
256,192,743,1,2,0:0:0:0:
109,192,818,1,2,0:0:0:0:
402,192,818,1,0,0:0:0:0:
182,192,893,1,2,0:0:0:0:
256,192,968,1,2,0:0:0:0:
475,192,968,1,8,0:0:0:0:
36,192,968,1,0,0:0:0:0:
329,192,1043,1,10,0:0:0:0:
475,192,1118,1,2,0:0:0:0:
36,192,1118,1,0,0:0:0:0:
182,192,1118,1,0,0:0:0:0:
402,192,1193,1,2,0:0:0:0:
329,192,1268,1,2,0:0:0:0:
36,192,1268,1,0,0:0:0:0:
182,192,1318,1,2,0:0:0:0:
329,192,1368,1,2,0:0:0:0:
475,192,1418,1,8,0:0:0:0:
182,192,1418,1,2,0:0:0:0:
109,192,1493,1,2,0:0:0:0:
475,192,1493,1,8,0:0:0:0:
36,192,1568,1,2,0:0:0:0:
402,192,1568,1,8,0:0:0:0:
182,192,1643,1,2,0:0:0:0:
329,192,1643,1,8,0:0:0:0:
36,192,1718,128,0,1868:0:0:0:0:
329,192,1718,1,2,0:0:0:0:
475,192,1718,1,4,0:0:0:0:
256,192,1868,1,0,0:0:0:0:
182,192,2018,1,0,0:0:0:0:
36,192,2168,1,0,0:0:0:0:
475,192,2168,128,8,2318:0:0:0:0:
36,192,2318,128,0,2468:0:0:0:0:
329,192,2318,1,0,0:0:0:0:
256,192,2468,1,0,0:0:0:0:
182,192,2618,1,0,0:0:0:0:
36,192,2768,1,0,0:0:0:0:
475,192,2768,128,8,2918:0:0:0:0:
36,192,2918,128,0,3068:0:0:0:0:
329,192,2918,1,0,0:0:0:0:
256,192,3068,1,0,0:0:0:0:
182,192,3218,1,0,0:0:0:0:
36,192,3368,1,0,0:0:0:0:
475,192,3368,128,8,3518:0:0:0:0:
36,192,3518,128,0,3668:0:0:0:0:
329,192,3518,1,0,0:0:0:0:
256,192,3668,1,0,0:0:0:0:
182,192,3818,1,8,0:0:0:0:
36,192,3818,1,0,0:0:0:0:
475,192,3968,128,0,4118:0:0:0:0:
36,192,4118,128,0,4268:0:0:0:0:
329,192,4118,1,0,0:0:0:0:
256,192,4268,1,0,0:0:0:0:
182,192,4418,1,8,0:0:0:0:
36,192,4418,1,0,0:0:0:0:
475,192,4568,128,0,4718:0:0:0:0:
36,192,4718,128,0,4868:0:0:0:0:
329,192,4718,1,0,0:0:0:0:
256,192,4868,1,8,0:0:0:0:
475,192,4868,1,0,0:0:0:0:
182,192,5018,1,0,0:0:0:0:
36,192,5168,1,0,0:0:0:0:
329,192,5168,1,8,0:0:0:0:
329,192,5243,1,8,0:0:0:0:
329,192,5318,1,4,0:0:0:0:
475,192,5318,1,0,0:0:0:0:
36,192,5318,128,0,5468:0:0:0:0:
329,192,5468,128,0,5618:0:0:0:0:
109,192,5618,128,8,5768:0:0:0:0:
475,192,5618,1,0,0:0:0:0:
329,192,5768,128,0,5918:0:0:0:0:
182,192,5918,128,8,6068:0:0:0:0:
36,192,5918,1,0,0:0:0:0:
475,192,6068,128,0,6218:0:0:0:0:
182,192,6218,128,0,6368:0:0:0:0:
402,192,6368,128,8,6518:0:0:0:0:
36,192,6368,1,0,0:0:0:0:
182,192,6518,128,0,6668:0:0:0:0:
329,192,6668,128,8,6818:0:0:0:0:
36,192,6668,1,0,0:0:0:0:
475,192,6818,128,0,6968:0:0:0:0:
182,192,6968,128,0,7118:0:0:0:0:
329,192,7118,128,8,7268:0:0:0:0:
36,192,7118,1,0,0:0:0:0:
475,192,7268,128,0,7418:0:0:0:0:
182,192,7418,128,8,7568:0:0:0:0:
36,192,7418,1,0,0:0:0:0:
329,192,7568,128,0,7718:0:0:0:0:
109,192,7718,128,0,7868:0:0:0:0:
402,192,7868,128,8,8018:0:0:0:0:
256,192,7868,1,0,0:0:0:0:
36,192,8018,128,0,8168:0:0:0:0:
475,192,8168,128,8,8318:0:0:0:0:
256,192,8168,1,0,0:0:0:0:
182,192,8318,128,0,8468:0:0:0:0:
329,192,8468,128,0,8618:0:0:0:0:
182,192,8618,128,8,8768:0:0:0:0:
36,192,8618,1,0,0:0:0:0:
329,192,8768,128,0,8918:0:0:0:0:
182,192,8918,128,8,9068:0:0:0:0:
36,192,8918,1,0,0:0:0:0:
475,192,9068,128,0,9218:0:0:0:0:
109,192,9218,128,0,9368:0:0:0:0:
256,192,9218,1,8,0:0:0:0:
329,192,9293,1,8,0:0:0:0:
402,192,9368,128,8,9518:0:0:0:0:
36,192,9518,128,0,9668:0:0:0:0:
182,192,9518,1,8,0:0:0:0:
329,192,9668,128,8,9818:0:0:0:0:
475,192,9668,1,0,0:0:0:0:
36,192,9818,128,8,9968:0:0:0:0:
182,192,9818,1,0,0:0:0:0:
329,192,9968,128,8,10118:0:0:0:0:
475,192,9968,1,0,0:0:0:0:
36,192,10118,1,8,0:0:0:0:
475,192,10118,1,2,0:0:0:0:
182,192,10118,128,4,10418:0:0:0:0:
329,192,10318,1,2,0:0:0:0:
475,192,10418,1,8,0:0:0:0:
329,192,10618,1,2,0:0:0:0:
182,192,10718,128,2,11018:0:0:0:0:
36,192,10718,1,0,0:0:0:0:
329,192,10918,1,2,0:0:0:0:
475,192,11018,1,8,0:0:0:0:
329,192,11318,128,2,11618:0:0:0:0:
475,192,11318,1,0,0:0:0:0:
182,192,11318,1,0,0:0:0:0:
182,192,11518,1,2,0:0:0:0:
36,192,11618,1,8,0:0:0:0:
182,192,11818,1,2,0:0:0:0:
329,192,11918,128,2,12218:0:0:0:0:
475,192,11918,1,0,0:0:0:0:
182,192,12118,1,2,0:0:0:0:
36,192,12218,1,8,0:0:0:0:
475,192,12318,1,2,0:0:0:0:
256,192,12418,1,2,0:0:0:0:
109,192,12518,128,2,12818:0:0:0:0:
402,192,12518,1,4,0:0:0:0:
329,192,12718,1,2,0:0:0:0:
475,192,12818,1,8,0:0:0:0:
256,192,13018,1,2,0:0:0:0:
109,192,13118,128,2,13418:0:0:0:0:
402,192,13118,1,0,0:0:0:0:
329,192,13318,1,2,0:0:0:0:
475,192,13418,1,8,0:0:0:0:
402,192,13718,128,2,14018:0:0:0:0:
109,192,13718,1,0,0:0:0:0:
256,192,13718,1,0,0:0:0:0:
36,192,13918,1,2,0:0:0:0:
182,192,14018,1,8,0:0:0:0:
109,192,14218,1,2,0:0:0:0:
402,192,14318,128,8,14618:0:0:0:0:
256,192,14318,1,0,0:0:0:0:
36,192,14518,1,2,0:0:0:0:
182,192,14618,1,8,0:0:0:0:
475,192,14718,1,2,0:0:0:0:
329,192,14818,1,2,0:0:0:0:
36,192,14918,128,2,15218:0:0:0:0:
182,192,14918,1,4,0:0:0:0:
329,192,15118,1,2,0:0:0:0:
475,192,15218,1,8,0:0:0:0:
329,192,15418,1,2,0:0:0:0:
36,192,15518,128,2,15818:0:0:0:0:
182,192,15518,1,0,0:0:0:0:
329,192,15718,1,2,0:0:0:0:
475,192,15818,1,8,0:0:0:0:
475,192,16118,128,2,16418:0:0:0:0:
182,192,16118,1,0,0:0:0:0:
329,192,16118,1,0,0:0:0:0:
36,192,16318,1,2,0:0:0:0:
182,192,16418,1,8,0:0:0:0:
329,192,16618,1,2,0:0:0:0:
475,192,16718,128,2,17018:0:0:0:0:
182,192,16718,1,0,0:0:0:0:
36,192,16918,1,2,0:0:0:0:
182,192,17018,1,8,0:0:0:0:
329,192,17118,1,2,0:0:0:0:
475,192,17218,1,2,0:0:0:0:
256,192,17318,128,2,17618:0:0:0:0:
36,192,17318,1,4,0:0:0:0:
402,192,17518,1,2,0:0:0:0:
109,192,17618,1,8,0:0:0:0:
402,192,17818,1,2,0:0:0:0:
256,192,17918,128,2,18218:0:0:0:0:
36,192,17918,1,0,0:0:0:0:
402,192,18118,1,2,0:0:0:0:
109,192,18218,1,8,0:0:0:0:
256,192,18518,128,2,18818:0:0:0:0:
475,192,18518,1,0,0:0:0:0:
109,192,18718,1,2,0:0:0:0:
402,192,18818,1,8,0:0:0:0:
109,192,19018,1,2,0:0:0:0:
256,192,19118,128,8,19418:0:0:0:0:
475,192,19118,1,0,0:0:0:0:
402,192,19418,1,2,0:0:0:0:
256,192,19493,1,0,0:0:0:0:
109,192,19568,1,0,0:0:0:0:
402,192,19643,1,0,0:0:0:0:
256,192,19718,5,0,0:0:0:0:
475,192,19718,1,2,0:0:0:0:
36,192,19718,1,4,0:0:0:0:
109,192,19793,1,0,0:0:0:0:
182,192,19868,1,0,0:0:0:0:
256,192,19943,1,0,0:0:0:0:
329,192,20018,1,8,0:0:0:0:
36,192,20018,1,2,0:0:0:0:
402,192,20093,1,0,0:0:0:0:
475,192,20168,1,0,0:0:0:0:
256,192,20243,1,0,0:0:0:0:
36,192,20318,1,2,0:0:0:0:
475,192,20318,1,0,0:0:0:0:
109,192,20393,1,0,0:0:0:0:
182,192,20468,1,0,0:0:0:0:
256,192,20543,1,0,0:0:0:0:
329,192,20618,1,8,0:0:0:0:
36,192,20618,1,2,0:0:0:0:
402,192,20693,1,0,0:0:0:0:
475,192,20768,1,0,0:0:0:0:
256,192,20843,1,0,0:0:0:0:
36,192,20918,1,0,0:0:0:0:
475,192,20918,1,2,0:0:0:0:
109,192,20993,1,0,0:0:0:0:
182,192,21068,1,0,0:0:0:0:
256,192,21143,1,0,0:0:0:0:
109,192,21218,1,8,0:0:0:0:
402,192,21218,1,2,0:0:0:0:
182,192,21293,1,0,0:0:0:0:
256,192,21368,1,0,0:0:0:0:
329,192,21443,1,0,0:0:0:0:
36,192,21518,1,0,0:0:0:0:
475,192,21518,1,2,0:0:0:0:
402,192,21593,1,0,0:0:0:0:
329,192,21668,1,0,0:0:0:0:
256,192,21743,1,0,0:0:0:0:
109,192,21818,1,8,0:0:0:0:
402,192,21818,1,2,0:0:0:0:
329,192,21893,1,0,0:0:0:0:
256,192,21968,1,0,0:0:0:0:
182,192,22043,1,0,0:0:0:0:
329,192,22118,1,4,0:0:0:0:
475,192,22118,1,2,0:0:0:0:
36,192,22118,1,0,0:0:0:0:
109,192,22193,1,0,0:0:0:0:
182,192,22268,1,0,0:0:0:0:
256,192,22343,1,0,0:0:0:0:
329,192,22418,1,8,0:0:0:0:
36,192,22418,1,2,0:0:0:0:
109,192,22493,1,0,0:0:0:0:
182,192,22568,1,0,0:0:0:0:
256,192,22643,1,0,0:0:0:0:
329,192,22718,1,0,0:0:0:0:
36,192,22718,1,2,0:0:0:0:
402,192,22793,1,0,0:0:0:0:
475,192,22868,1,0,0:0:0:0:
256,192,22943,1,0,0:0:0:0:
182,192,23018,1,8,0:0:0:0:
36,192,23018,1,2,0:0:0:0:
109,192,23093,1,0,0:0:0:0:
329,192,23168,1,0,0:0:0:0:
402,192,23243,1,0,0:0:0:0:
475,192,23318,1,0,0:0:0:0:
182,192,23318,1,2,0:0:0:0:
109,192,23393,1,0,0:0:0:0:
36,192,23468,1,0,0:0:0:0:
329,192,23543,1,0,0:0:0:0:
256,192,23618,1,8,0:0:0:0:
36,192,23618,1,2,0:0:0:0:
182,192,23693,1,0,0:0:0:0:
475,192,23768,1,0,0:0:0:0:
402,192,23843,1,0,0:0:0:0:
329,192,23918,1,2,0:0:0:0:
36,192,23918,1,0,0:0:0:0:
402,192,23993,1,0,0:0:0:0:
475,192,24068,1,2,0:0:0:0:
182,192,24143,1,0,0:0:0:0:
256,192,24218,1,8,0:0:0:0:
475,192,24218,1,2,0:0:0:0:
329,192,24293,1,0,0:0:0:0:
36,192,24368,1,0,0:0:0:0:
109,192,24443,1,0,0:0:0:0:
182,192,24518,1,4,0:0:0:0:
475,192,24518,1,2,0:0:0:0:
402,192,24593,1,0,0:0:0:0:
329,192,24668,1,0,0:0:0:0:
109,192,24743,1,0,0:0:0:0:
182,192,24818,1,8,0:0:0:0:
475,192,24818,1,2,0:0:0:0:
256,192,24893,1,0,0:0:0:0:
402,192,24968,1,0,0:0:0:0:
329,192,25043,1,0,0:0:0:0:
256,192,25118,1,2,0:0:0:0:
36,192,25118,1,0,0:0:0:0:
109,192,25193,1,0,0:0:0:0:
182,192,25268,1,0,0:0:0:0:
329,192,25343,1,0,0:0:0:0:
256,192,25418,1,8,0:0:0:0:
36,192,25418,1,2,0:0:0:0:
182,192,25493,1,0,0:0:0:0:
329,192,25568,1,0,0:0:0:0:
402,192,25643,1,0,0:0:0:0:
475,192,25718,1,0,0:0:0:0:
256,192,25718,1,2,0:0:0:0:
182,192,25793,1,0,0:0:0:0:
109,192,25868,1,0,0:0:0:0:
256,192,25943,1,0,0:0:0:0:
329,192,26018,1,8,0:0:0:0:
36,192,26018,1,2,0:0:0:0:
402,192,26093,1,0,0:0:0:0:
182,192,26168,1,0,0:0:0:0:
109,192,26243,1,0,0:0:0:0:
36,192,26318,1,0,0:0:0:0:
329,192,26318,1,2,0:0:0:0:
475,192,26318,1,0,0:0:0:0:
109,192,26393,1,0,0:0:0:0:
182,192,26468,1,0,0:0:0:0:
256,192,26543,1,0,0:0:0:0:
109,192,26618,1,8,0:0:0:0:
475,192,26618,1,0,0:0:0:0:
182,192,26693,1,0,0:0:0:0:
256,192,26768,1,0,0:0:0:0:
329,192,26843,1,0,0:0:0:0:
402,192,26918,1,4,0:0:0:0:
475,192,26918,1,2,0:0:0:0:
182,192,26918,1,0,0:0:0:0:
109,192,26993,1,0,0:0:0:0:
36,192,27068,1,0,0:0:0:0:
329,192,27143,1,0,0:0:0:0:
256,192,27218,1,8,0:0:0:0:
36,192,27218,1,2,0:0:0:0:
475,192,27218,1,0,0:0:0:0:
182,192,27293,1,0,0:0:0:0:
475,192,27368,1,0,0:0:0:0:
402,192,27443,1,0,0:0:0:0:
109,192,27518,1,2,0:0:0:0:
329,192,27518,1,0,0:0:0:0:
36,192,27518,1,0,0:0:0:0:
182,192,27593,1,0,0:0:0:0:
256,192,27668,1,0,0:0:0:0:
329,192,27743,1,0,0:0:0:0:
475,192,27818,1,2,0:0:0:0:
402,192,27818,1,8,0:0:0:0:
36,192,27818,1,0,0:0:0:0:
109,192,27893,1,0,0:0:0:0:
182,192,27968,1,0,0:0:0:0:
256,192,28043,1,0,0:0:0:0:
475,192,28118,1,2,0:0:0:0:
329,192,28118,1,0,0:0:0:0:
182,192,28193,1,0,0:0:0:0:
36,192,28268,1,0,0:0:0:0:
402,192,28343,1,0,0:0:0:0:
256,192,28418,1,8,0:0:0:0:
109,192,28493,1,0,0:0:0:0:
475,192,28568,1,0,0:0:0:0:
329,192,28643,1,0,0:0:0:0:
36,192,28718,1,8,0:0:0:0:
182,192,28718,1,0,0:0:0:0:
256,192,28793,1,0,0:0:0:0:
109,192,28868,1,2,0:0:0:0:
329,192,28868,1,8,0:0:0:0:
402,192,28943,1,2,0:0:0:0:
475,192,29018,1,2,0:0:0:0:
182,192,29018,1,0,0:0:0:0:
36,192,29018,1,0,0:0:0:0:
256,192,29093,1,2,0:0:0:0:
329,192,29168,1,2,0:0:0:0:
36,192,29168,1,2,0:0:0:0:
109,192,29243,1,2,0:0:0:0:
475,192,29318,1,2,0:0:0:0:
182,192,29318,1,0,0:0:0:0:
329,192,29318,1,4,0:0:0:0:
109,192,29468,1,0,0:0:0:0:
36,192,29618,1,8,0:0:0:0:
329,192,29618,1,0,0:0:0:0:
402,192,29618,1,0,0:0:0:0:
109,192,29768,1,0,0:0:0:0:
182,192,29918,1,8,0:0:0:0:
329,192,29918,1,0,0:0:0:0:
475,192,29918,1,0,0:0:0:0:
109,192,30068,1,0,0:0:0:0:
36,192,30218,1,8,0:0:0:0:
329,192,30218,1,0,0:0:0:0:
402,192,30218,1,0,0:0:0:0:
36,192,30368,128,0,31118:0:0:0:0:
256,192,30368,1,0,0:0:0:0:
182,192,30518,1,8,0:0:0:0:
402,192,30518,1,0,0:0:0:0:
475,192,30518,1,0,0:0:0:0:
256,192,30668,1,0,0:0:0:0:
329,192,30818,1,8,0:0:0:0:
109,192,30818,1,0,0:0:0:0:
475,192,30818,1,0,0:0:0:0:
256,192,30968,1,0,0:0:0:0:
182,192,31118,128,8,31568:0:0:0:0:
475,192,31118,1,0,0:0:0:0:
402,192,31118,1,0,0:0:0:0:
36,192,31268,1,0,0:0:0:0:
329,192,31418,1,8,0:0:0:0:
475,192,31418,1,0,0:0:0:0:
329,192,31568,128,0,32018:0:0:0:0:
36,192,31568,1,0,0:0:0:0:
475,192,31718,1,8,0:0:0:0:
402,192,31718,1,0,0:0:0:0:
182,192,31868,1,0,0:0:0:0:
475,192,32018,128,8,32768:0:0:0:0:
109,192,32018,1,0,0:0:0:0:
36,192,32018,1,0,0:0:0:0:
256,192,32168,1,0,0:0:0:0:
182,192,32318,1,8,0:0:0:0:
109,192,32318,1,0,0:0:0:0:
329,192,32468,1,0,0:0:0:0:
256,192,32618,1,8,0:0:0:0:
182,192,32618,1,0,0:0:0:0:
36,192,32618,1,0,0:0:0:0:
109,192,32768,128,0,33368:0:0:0:0:
36,192,32918,1,8,0:0:0:0:
329,192,32918,1,0,0:0:0:0:
182,192,32918,1,0,0:0:0:0:
475,192,32918,1,0,0:0:0:0:
402,192,33068,128,0,33368:0:0:0:0:
36,192,33218,1,8,0:0:0:0:
329,192,33218,1,0,0:0:0:0:
475,192,33218,1,0,0:0:0:0:
256,192,33368,128,0,33968:0:0:0:0:
182,192,33518,1,8,0:0:0:0:
36,192,33518,1,0,0:0:0:0:
402,192,33518,1,0,0:0:0:0:
329,192,33668,1,8,0:0:0:0:
109,192,33668,1,0,0:0:0:0:
475,192,33668,1,0,0:0:0:0:
402,192,33818,1,8,0:0:0:0:
182,192,33818,1,0,0:0:0:0:
36,192,33818,1,0,0:0:0:0:
475,192,33968,1,8,0:0:0:0:
36,192,33968,1,0,0:0:0:0:
329,192,33968,1,0,0:0:0:0:
109,192,33968,1,0,0:0:0:0:
182,192,33968,1,0,0:0:0:0:
402,192,33968,1,0,0:0:0:0:
36,192,34268,128,2,34418:0:0:0:0:
475,192,34268,1,0,0:0:0:0:
109,192,34343,128,2,34493:0:0:0:0:
402,192,34343,1,0,0:0:0:0:
182,192,34418,128,8,34568:0:0:0:0:
329,192,34418,1,0,0:0:0:0:
475,192,34493,128,8,34643:0:0:0:0:
402,192,34568,128,2,34718:0:0:0:0:
329,192,34643,128,2,34793:0:0:0:0:
36,192,34718,1,2,0:0:0:0:
182,192,34718,1,4,0:0:0:0:
109,192,34718,1,0,0:0:0:0:
109,192,34868,1,0,0:0:0:0:
109,192,35018,128,8,35318:0:0:0:0:
256,192,35018,1,0,0:0:0:0:
475,192,35018,1,0,0:0:0:0:
402,192,35168,1,0,0:0:0:0:
329,192,35318,1,0,0:0:0:0:
36,192,35318,1,0,0:0:0:0:
182,192,35468,128,2,35768:0:0:0:0:
402,192,35468,1,0,0:0:0:0:
475,192,35618,1,8,0:0:0:0:
36,192,35618,1,0,0:0:0:0:
109,192,35768,1,0,0:0:0:0:
256,192,35918,128,2,36218:0:0:0:0:
182,192,35918,1,0,0:0:0:0:
475,192,35918,1,0,0:0:0:0:
402,192,36068,1,0,0:0:0:0:
329,192,36218,1,8,0:0:0:0:
109,192,36218,1,0,0:0:0:0:
256,192,36368,128,0,36668:0:0:0:0:
402,192,36368,1,0,0:0:0:0:
36,192,36518,1,0,0:0:0:0:
475,192,36518,1,0,0:0:0:0:
109,192,36668,1,2,0:0:0:0:
256,192,36818,128,8,37118:0:0:0:0:
182,192,36818,1,0,0:0:0:0:
109,192,37118,1,2,0:0:0:0:
329,192,37118,1,0,0:0:0:0:
475,192,37118,1,0,0:0:0:0:
182,192,37268,1,0,0:0:0:0:
402,192,37418,128,8,37718:0:0:0:0:
36,192,37418,1,0,0:0:0:0:
256,192,37418,1,0,0:0:0:0:
109,192,37568,1,0,0:0:0:0:
182,192,37718,1,0,0:0:0:0:
475,192,37718,1,0,0:0:0:0:
329,192,37868,128,2,38168:0:0:0:0:
109,192,37868,1,0,0:0:0:0:
36,192,38018,1,8,0:0:0:0:
256,192,38018,1,0,0:0:0:0:
475,192,38018,1,0,0:0:0:0:
182,192,38168,1,0,0:0:0:0:
256,192,38318,128,2,38618:0:0:0:0:
109,192,38318,1,0,0:0:0:0:
475,192,38318,1,0,0:0:0:0:
402,192,38468,1,0,0:0:0:0:
36,192,38618,128,8,38918:0:0:0:0:
329,192,38618,1,0,0:0:0:0:
182,192,38618,1,0,0:0:0:0:
402,192,38768,1,0,0:0:0:0:
475,192,38918,1,0,0:0:0:0:
256,192,38918,128,0,39218:0:0:0:0:
109,192,38918,1,0,0:0:0:0:
402,192,38993,1,0,0:0:0:0:
329,192,39068,1,2,0:0:0:0:
109,192,39068,1,0,0:0:0:0:
475,192,39143,1,0,0:0:0:0:
182,192,39218,1,8,0:0:0:0:
402,192,39218,1,0,0:0:0:0:
36,192,39218,128,0,39518:0:0:0:0:
329,192,39293,1,0,0:0:0:0:
256,192,39368,1,0,0:0:0:0:
182,192,39443,1,0,0:0:0:0:
475,192,39518,1,2,0:0:0:0:
329,192,39518,1,4,0:0:0:0:
109,192,39518,1,0,0:0:0:0:
329,192,39668,1,0,0:0:0:0:
402,192,39818,128,8,40118:0:0:0:0:
256,192,39818,1,0,0:0:0:0:
109,192,39818,1,0,0:0:0:0:
182,192,39968,1,0,0:0:0:0:
109,192,40118,1,0,0:0:0:0:
475,192,40118,1,0,0:0:0:0:
329,192,40268,128,2,40568:0:0:0:0:
36,192,40268,1,0,0:0:0:0:
182,192,40418,1,8,0:0:0:0:
475,192,40418,1,0,0:0:0:0:
402,192,40568,1,0,0:0:0:0:
256,192,40718,128,2,41018:0:0:0:0:
329,192,40718,1,0,0:0:0:0:
36,192,40718,1,0,0:0:0:0:
109,192,40868,1,0,0:0:0:0:
182,192,41018,1,8,0:0:0:0:
402,192,41018,1,0,0:0:0:0:
256,192,41168,128,0,41468:0:0:0:0:
109,192,41168,1,0,0:0:0:0:
475,192,41318,1,0,0:0:0:0:
36,192,41318,1,0,0:0:0:0:
402,192,41468,1,2,0:0:0:0:
256,192,41618,128,8,41918:0:0:0:0:
329,192,41618,1,0,0:0:0:0:
402,192,41918,1,2,0:0:0:0:
182,192,41918,1,4,0:0:0:0:
36,192,41918,1,0,0:0:0:0:
329,192,42068,1,0,0:0:0:0:
109,192,42218,128,8,42518:0:0:0:0:
475,192,42218,1,0,0:0:0:0:
256,192,42218,1,0,0:0:0:0:
402,192,42368,1,0,0:0:0:0:
329,192,42518,1,0,0:0:0:0:
36,192,42518,1,0,0:0:0:0:
182,192,42668,128,2,42968:0:0:0:0:
402,192,42668,1,0,0:0:0:0:
475,192,42818,1,8,0:0:0:0:
256,192,42818,1,0,0:0:0:0:
36,192,42818,1,0,0:0:0:0:
329,192,42968,1,0,0:0:0:0:
256,192,43118,128,2,43418:0:0:0:0:
402,192,43118,1,4,0:0:0:0:
36,192,43118,1,0,0:0:0:0:
109,192,43268,1,0,0:0:0:0:
475,192,43418,128,8,43718:0:0:0:0:
182,192,43418,1,0,0:0:0:0:
329,192,43418,1,0,0:0:0:0:
109,192,43568,1,0,0:0:0:0:
36,192,43718,1,0,0:0:0:0:
256,192,43718,128,0,44018:0:0:0:0:
402,192,43718,1,0,0:0:0:0:
109,192,43793,1,0,0:0:0:0:
182,192,43868,1,2,0:0:0:0:
402,192,43868,1,0,0:0:0:0:
36,192,43943,1,0,0:0:0:0:
475,192,44018,128,8,44318:0:0:0:0:
329,192,44018,1,0,0:0:0:0:
109,192,44018,1,0,0:0:0:0:
182,192,44093,1,8,0:0:0:0:
256,192,44168,1,8,0:0:0:0:
329,192,44243,1,8,0:0:0:0:
402,192,44318,1,2,0:0:0:0:
182,192,44318,1,4,0:0:0:0:
36,192,44318,128,0,44468:0:0:0:0:
329,192,44468,1,0,0:0:0:0:
475,192,44618,128,8,44768:0:0:0:0:
256,192,44618,1,0,0:0:0:0:
36,192,44618,1,0,0:0:0:0:
329,192,44768,1,0,0:0:0:0:
109,192,44918,128,0,45068:0:0:0:0:
182,192,44918,1,0,0:0:0:0:
475,192,44918,1,0,0:0:0:0:
256,192,45068,1,2,0:0:0:0:
402,192,45218,128,8,45368:0:0:0:0:
109,192,45218,1,0,0:0:0:0:
36,192,45218,1,0,0:0:0:0:
182,192,45368,1,0,0:0:0:0:
182,192,45518,128,2,45668:0:0:0:0:
36,192,45518,1,0,0:0:0:0:
475,192,45518,1,0,0:0:0:0:
402,192,45668,1,0,0:0:0:0:
329,192,45818,128,8,45968:0:0:0:0:
36,192,45818,1,0,0:0:0:0:
182,192,45818,1,0,0:0:0:0:
109,192,45968,1,0,0:0:0:0:
109,192,46118,128,0,46418:0:0:0:0:
475,192,46118,1,0,0:0:0:0:
329,192,46118,1,0,0:0:0:0:
182,192,46268,128,2,46418:0:0:0:0:
402,192,46418,128,8,46718:0:0:0:0:
36,192,46418,1,0,0:0:0:0:
475,192,46418,1,0,0:0:0:0:
329,192,46568,128,0,46718:0:0:0:0:
36,192,46718,128,2,46868:0:0:0:0:
182,192,46718,1,4,0:0:0:0:
109,192,46718,1,0,0:0:0:0:
475,192,46868,128,0,47018:0:0:0:0:
329,192,46868,1,0,0:0:0:0:
36,192,47018,1,8,0:0:0:0:
182,192,47018,128,0,47168:0:0:0:0:
329,192,47168,128,0,47318:0:0:0:0:
475,192,47168,1,0,0:0:0:0:
182,192,47318,1,0,0:0:0:0:
36,192,47318,1,0,0:0:0:0:
475,192,47393,1,0,0:0:0:0:
329,192,47468,128,2,47618:0:0:0:0:
109,192,47468,1,0,0:0:0:0:
182,192,47618,128,8,47768:0:0:0:0:
36,192,47618,1,0,0:0:0:0:
475,192,47618,128,0,47768:0:0:0:0:
109,192,47768,128,0,47918:0:0:0:0:
402,192,47768,128,0,47918:0:0:0:0:
36,192,47918,128,2,48068:0:0:0:0:
329,192,47918,128,4,48068:0:0:0:0:
256,192,47918,1,0,0:0:0:0:
182,192,48068,128,0,48218:0:0:0:0:
402,192,48068,128,0,48218:0:0:0:0:
36,192,48218,128,8,48368:0:0:0:0:
475,192,48218,128,0,48368:0:0:0:0:
182,192,48368,128,0,48518:0:0:0:0:
329,192,48368,128,0,48518:0:0:0:0:
402,192,48518,128,0,48668:0:0:0:0:
36,192,48518,128,0,48668:0:0:0:0:
256,192,48518,1,4,0:0:0:0:
475,192,48668,128,2,48818:0:0:0:0:
182,192,48668,128,0,48818:0:0:0:0:
402,192,48818,128,8,48968:0:0:0:0:
109,192,48818,128,0,48968:0:0:0:0:
36,192,48968,128,8,49118:0:0:0:0:
329,192,48968,128,0,49118:0:0:0:0:
182,192,49118,1,2,0:0:0:0:
475,192,49118,128,4,49268:0:0:0:0:
329,192,49268,1,0,0:0:0:0:
36,192,49418,128,8,49568:0:0:0:0:
256,192,49418,1,0,0:0:0:0:
475,192,49418,1,0,0:0:0:0:
182,192,49568,1,0,0:0:0:0:
402,192,49718,128,0,49868:0:0:0:0:
329,192,49718,1,0,0:0:0:0:
36,192,49718,1,0,0:0:0:0:
256,192,49868,1,2,0:0:0:0:
109,192,50018,128,8,50168:0:0:0:0:
402,192,50018,1,0,0:0:0:0:
475,192,50018,1,0,0:0:0:0:
329,192,50168,1,0,0:0:0:0:
329,192,50318,128,2,50468:0:0:0:0:
475,192,50318,1,0,0:0:0:0:
36,192,50318,1,0,0:0:0:0:
109,192,50468,1,0,0:0:0:0:
182,192,50618,128,8,50768:0:0:0:0:
475,192,50618,1,0,0:0:0:0:
329,192,50618,1,0,0:0:0:0:
402,192,50768,1,0,0:0:0:0:
402,192,50918,128,0,51218:0:0:0:0:
36,192,50918,1,0,0:0:0:0:
182,192,50918,1,0,0:0:0:0:
329,192,51068,128,2,51218:0:0:0:0:
109,192,51218,128,8,51518:0:0:0:0:
475,192,51218,1,0,0:0:0:0:
36,192,51218,1,0,0:0:0:0:
182,192,51368,128,0,51518:0:0:0:0:
475,192,51518,128,2,51668:0:0:0:0:
329,192,51518,1,4,0:0:0:0:
402,192,51518,1,0,0:0:0:0:
36,192,51668,128,0,51818:0:0:0:0:
182,192,51668,1,0,0:0:0:0:
475,192,51818,1,8,0:0:0:0:
329,192,51818,128,0,51968:0:0:0:0:
182,192,51968,128,0,52118:0:0:0:0:
36,192,51968,1,0,0:0:0:0:
329,192,52118,1,0,0:0:0:0:
475,192,52118,1,0,0:0:0:0:
36,192,52193,1,0,0:0:0:0:
182,192,52268,128,2,52418:0:0:0:0:
402,192,52268,1,0,0:0:0:0:
329,192,52418,128,8,52568:0:0:0:0:
475,192,52418,1,0,0:0:0:0:
36,192,52418,128,0,52568:0:0:0:0:
402,192,52568,128,0,52718:0:0:0:0:
109,192,52568,128,0,52718:0:0:0:0:
475,192,52718,128,2,52868:0:0:0:0:
182,192,52718,128,4,52868:0:0:0:0:
256,192,52718,1,0,0:0:0:0:
329,192,52868,128,0,53018:0:0:0:0:
109,192,52868,128,0,53018:0:0:0:0:
475,192,53018,128,8,53168:0:0:0:0:
36,192,53018,128,0,53168:0:0:0:0:
329,192,53168,128,0,53318:0:0:0:0:
182,192,53168,128,0,53318:0:0:0:0:
109,192,53318,128,0,53468:0:0:0:0:
256,192,53318,1,4,0:0:0:0:
475,192,53318,128,0,53468:0:0:0:0:
36,192,53468,128,2,53618:0:0:0:0:
329,192,53468,128,0,53618:0:0:0:0:
109,192,53618,128,8,53768:0:0:0:0:
402,192,53618,128,0,53768:0:0:0:0:
182,192,53768,128,0,53918:0:0:0:0:
475,192,53768,128,0,53918:0:0:0:0:
329,192,53918,1,2,0:0:0:0:
36,192,53918,1,4,0:0:0:0:
256,192,54068,1,0,0:0:0:0:
182,192,54218,128,8,54368:0:0:0:0:
475,192,54218,1,0,0:0:0:0:
36,192,54368,1,4,0:0:0:0:
329,192,54368,1,2,0:0:0:0:
402,192,54518,1,2,0:0:0:0:
182,192,54593,1,2,0:0:0:0:
475,192,54668,128,2,54818:0:0:0:0:
329,192,54818,1,2,0:0:0:0:
36,192,54818,1,4,0:0:0:0:
256,192,54968,1,0,0:0:0:0:
182,192,55118,128,8,55268:0:0:0:0:
475,192,55118,1,0,0:0:0:0:
36,192,55268,1,4,0:0:0:0:
329,192,55268,1,2,0:0:0:0:
109,192,55418,1,0,0:0:0:0:
182,192,55568,1,2,0:0:0:0:
256,192,55718,1,8,0:0:0:0:
475,192,55718,1,0,0:0:0:0:
36,192,55718,1,0,0:0:0:0:
402,192,55793,1,2,0:0:0:0:
329,192,55868,1,2,0:0:0:0:
256,192,55943,1,2,0:0:0:0:
475,192,56018,1,8,0:0:0:0:
182,192,56018,1,0,0:0:0:0:
402,192,56093,1,0,0:0:0:0:
109,192,56093,1,8,0:0:0:0:
329,192,56168,1,0,0:0:0:0:
36,192,56168,1,8,0:0:0:0:
256,192,56243,1,8,0:0:0:0:
402,192,56243,1,0,0:0:0:0:
475,192,56318,1,2,0:0:0:0:
182,192,56318,1,4,0:0:0:0:
36,192,56318,1,0,0:0:0:0:
256,192,56468,1,0,0:0:0:0:
36,192,56618,1,8,0:0:0:0:
329,192,56618,128,0,56768:0:0:0:0:
182,192,56768,1,2,0:0:0:0:
475,192,56768,1,4,0:0:0:0:
109,192,56918,1,2,0:0:0:0:
329,192,56993,1,2,0:0:0:0:
36,192,57068,128,2,57218:0:0:0:0:
475,192,57218,1,2,0:0:0:0:
182,192,57218,1,4,0:0:0:0:
256,192,57368,1,0,0:0:0:0:
36,192,57518,1,8,0:0:0:0:
329,192,57518,128,0,57668:0:0:0:0:
182,192,57668,1,4,0:0:0:0:
475,192,57668,1,2,0:0:0:0:
402,192,57818,1,0,0:0:0:0:
329,192,57968,1,2,0:0:0:0:
36,192,58118,1,8,0:0:0:0:
256,192,58118,1,0,0:0:0:0:
475,192,58118,1,0,0:0:0:0:
109,192,58193,1,2,0:0:0:0:
182,192,58268,1,2,0:0:0:0:
256,192,58343,1,2,0:0:0:0:
329,192,58418,1,8,0:0:0:0:
36,192,58418,1,0,0:0:0:0:
402,192,58493,1,0,0:0:0:0:
109,192,58493,1,8,0:0:0:0:
475,192,58568,1,0,0:0:0:0:
182,192,58568,1,8,0:0:0:0:
109,192,58643,1,8,0:0:0:0:
256,192,58643,1,0,0:0:0:0:
475,192,58718,1,4,0:0:0:0:
36,192,58718,1,2,0:0:0:0:
329,192,58718,1,0,0:0:0:0:
256,192,58868,1,0,0:0:0:0:
475,192,59018,1,8,0:0:0:0:
182,192,59018,128,0,59168:0:0:0:0:
329,192,59168,1,4,0:0:0:0:
36,192,59168,1,2,0:0:0:0:
402,192,59318,1,2,0:0:0:0:
182,192,59393,1,2,0:0:0:0:
475,192,59468,128,2,59618:0:0:0:0:
36,192,59618,1,4,0:0:0:0:
329,192,59618,1,2,0:0:0:0:
256,192,59768,1,0,0:0:0:0:
475,192,59918,1,8,0:0:0:0:
182,192,59918,128,0,60068:0:0:0:0:
329,192,60068,1,2,0:0:0:0:
36,192,60068,1,4,0:0:0:0:
109,192,60218,1,0,0:0:0:0:
182,192,60368,1,0,0:0:0:0:
475,192,60518,1,8,0:0:0:0:
256,192,60518,1,0,0:0:0:0:
36,192,60518,1,0,0:0:0:0:
402,192,60593,1,2,0:0:0:0:
329,192,60668,1,2,0:0:0:0:
256,192,60743,1,2,0:0:0:0:
182,192,60818,1,0,0:0:0:0:
475,192,60818,1,8,0:0:0:0:
109,192,60893,1,0,0:0:0:0:
402,192,60893,1,8,0:0:0:0:
36,192,60968,1,0,0:0:0:0:
329,192,60968,1,8,0:0:0:0:
402,192,61043,1,8,0:0:0:0:
256,192,61043,1,0,0:0:0:0:
182,192,61118,1,2,0:0:0:0:
475,192,61118,1,4,0:0:0:0:
36,192,61118,1,0,0:0:0:0:
256,192,61268,1,0,0:0:0:0:
329,192,61418,128,8,61568:0:0:0:0:
36,192,61418,1,0,0:0:0:0:
475,192,61568,1,2,0:0:0:0:
182,192,61568,1,4,0:0:0:0:
109,192,61718,1,2,0:0:0:0:
329,192,61793,1,2,0:0:0:0:
36,192,61868,128,2,62018:0:0:0:0:
182,192,62018,1,2,0:0:0:0:
475,192,62018,1,4,0:0:0:0:
256,192,62168,1,0,0:0:0:0:
329,192,62318,128,8,62468:0:0:0:0:
36,192,62318,1,0,0:0:0:0:
475,192,62468,1,4,0:0:0:0:
182,192,62468,1,2,0:0:0:0:
402,192,62618,1,0,0:0:0:0:
329,192,62768,1,2,0:0:0:0:
256,192,62918,1,8,0:0:0:0:
36,192,62918,1,0,0:0:0:0:
475,192,62918,1,0,0:0:0:0:
109,192,62993,1,2,0:0:0:0:
182,192,63068,1,2,0:0:0:0:
256,192,63143,1,2,0:0:0:0:
36,192,63218,1,8,0:0:0:0:
329,192,63218,1,0,0:0:0:0:
109,192,63293,1,8,0:0:0:0:
402,192,63293,1,0,0:0:0:0:
182,192,63368,1,8,0:0:0:0:
475,192,63368,1,0,0:0:0:0:
256,192,63443,1,0,0:0:0:0:
109,192,63443,1,8,0:0:0:0:
329,192,63518,1,4,0:0:0:0:
475,192,63518,1,2,0:0:0:0:
36,192,63518,1,0,0:0:0:0:
36,192,63668,1,0,0:0:0:0:
475,192,63668,1,0,0:0:0:0:
402,192,63818,1,8,0:0:0:0:
182,192,63818,1,0,0:0:0:0:
109,192,63968,128,0,64118:0:0:0:0:
329,192,63968,1,0,0:0:0:0:
256,192,64118,1,0,0:0:0:0:
475,192,64118,1,0,0:0:0:0:
182,192,64268,128,2,64418:0:0:0:0:
402,192,64268,1,0,0:0:0:0:
329,192,64418,1,8,0:0:0:0:
36,192,64418,1,0,0:0:0:0:
256,192,64568,128,0,64718:0:0:0:0:
402,192,64568,1,0,0:0:0:0:
475,192,64718,1,2,0:0:0:0:
109,192,64718,1,0,0:0:0:0:
402,192,64793,1,0,0:0:0:0:
329,192,64868,1,0,0:0:0:0:
256,192,64943,1,0,0:0:0:0:
182,192,65018,1,8,0:0:0:0:
402,192,65018,1,0,0:0:0:0:
36,192,65018,1,0,0:0:0:0:
109,192,65168,1,0,0:0:0:0:
182,192,65243,1,0,0:0:0:0:
256,192,65318,1,0,0:0:0:0:
475,192,65318,1,0,0:0:0:0:
329,192,65393,1,0,0:0:0:0:
402,192,65468,1,2,0:0:0:0:
182,192,65468,1,0,0:0:0:0:
256,192,65543,1,0,0:0:0:0:
329,192,65618,1,8,0:0:0:0:
36,192,65618,1,0,0:0:0:0:
109,192,65618,1,0,0:0:0:0:
256,192,65693,1,0,0:0:0:0:
182,192,65768,1,0,0:0:0:0:
402,192,65768,1,0,0:0:0:0:
109,192,65843,1,0,0:0:0:0:
475,192,65918,1,2,0:0:0:0:
36,192,65918,1,0,0:0:0:0:
256,192,65918,1,0,0:0:0:0:
402,192,65993,1,0,0:0:0:0:
329,192,66068,1,0,0:0:0:0:
182,192,66068,1,0,0:0:0:0:
402,192,66218,1,8,0:0:0:0:
36,192,66218,1,0,0:0:0:0:
109,192,66218,1,0,0:0:0:0:
329,192,66293,1,0,0:0:0:0:
256,192,66368,1,0,0:0:0:0:
475,192,66368,1,0,0:0:0:0:
329,192,66518,1,0,0:0:0:0:
36,192,66518,1,0,0:0:0:0:
256,192,66593,1,0,0:0:0:0:
182,192,66668,1,2,0:0:0:0:
475,192,66668,1,0,0:0:0:0:
256,192,66818,1,8,0:0:0:0:
36,192,66818,1,0,0:0:0:0:
329,192,66818,1,0,0:0:0:0:
182,192,66893,1,0,0:0:0:0:
109,192,66968,1,0,0:0:0:0:
402,192,66968,1,0,0:0:0:0:
36,192,67118,1,2,0:0:0:0:
256,192,67118,1,0,0:0:0:0:
475,192,67118,1,0,0:0:0:0:
109,192,67193,1,0,0:0:0:0:
182,192,67268,1,0,0:0:0:0:
256,192,67343,1,0,0:0:0:0:
329,192,67418,1,8,0:0:0:0:
109,192,67418,1,0,0:0:0:0:
36,192,67418,1,0,0:0:0:0:
402,192,67493,1,0,0:0:0:0:
475,192,67568,1,8,0:0:0:0:
329,192,67643,1,8,0:0:0:0:
182,192,67718,1,8,0:0:0:0:
36,192,67718,1,0,0:0:0:0:
256,192,67793,1,8,0:0:0:0:
329,192,67868,1,2,0:0:0:0:
109,192,67868,1,8,0:0:0:0:
182,192,67943,1,8,0:0:0:0:
256,192,68018,1,8,0:0:0:0:
475,192,68018,1,0,0:0:0:0:
36,192,68018,1,0,0:0:0:0:
402,192,68093,1,8,0:0:0:0:
109,192,68093,1,0,0:0:0:0:
182,192,68168,1,8,0:0:0:0:
329,192,68168,1,0,0:0:0:0:
402,192,68243,1,8,0:0:0:0:
109,192,68243,1,0,0:0:0:0:
475,192,68318,1,2,0:0:0:0:
36,192,68318,1,4,0:0:0:0:
256,192,68318,1,0,0:0:0:0:
109,192,68468,1,0,0:0:0:0:
402,192,68468,1,0,0:0:0:0:
182,192,68543,1,0,0:0:0:0:
256,192,68618,1,8,0:0:0:0:
36,192,68618,1,0,0:0:0:0:
475,192,68618,1,0,0:0:0:0:
182,192,68768,1,0,0:0:0:0:
402,192,68768,1,0,0:0:0:0:
256,192,68843,1,0,0:0:0:0:
329,192,68918,1,0,0:0:0:0:
475,192,68918,1,0,0:0:0:0:
36,192,68918,1,0,0:0:0:0:
109,192,69068,1,0,0:0:0:0:
256,192,69068,1,2,0:0:0:0:
329,192,69143,1,0,0:0:0:0:
36,192,69218,1,0,0:0:0:0:
402,192,69218,1,8,0:0:0:0:
475,192,69218,1,0,0:0:0:0:
109,192,69368,1,0,0:0:0:0:
329,192,69368,1,0,0:0:0:0:
402,192,69443,1,0,0:0:0:0:
475,192,69518,1,2,0:0:0:0:
36,192,69518,1,0,0:0:0:0:
256,192,69518,1,0,0:0:0:0:
475,192,69668,1,0,0:0:0:0:
402,192,69743,1,0,0:0:0:0:
329,192,69818,1,8,0:0:0:0:
182,192,69818,1,0,0:0:0:0:
36,192,69818,1,0,0:0:0:0:
109,192,69968,1,0,0:0:0:0:
182,192,70043,1,0,0:0:0:0:
256,192,70118,1,0,0:0:0:0:
475,192,70118,1,0,0:0:0:0:
329,192,70193,1,0,0:0:0:0:
182,192,70268,1,2,0:0:0:0:
402,192,70268,1,0,0:0:0:0:
256,192,70343,1,0,0:0:0:0:
329,192,70418,1,8,0:0:0:0:
109,192,70418,1,0,0:0:0:0:
36,192,70418,1,0,0:0:0:0:
256,192,70493,1,0,0:0:0:0:
182,192,70568,1,0,0:0:0:0:
402,192,70568,1,0,0:0:0:0:
109,192,70643,1,0,0:0:0:0:
36,192,70718,1,2,0:0:0:0:
475,192,70718,1,0,0:0:0:0:
256,192,70718,1,0,0:0:0:0:
182,192,70793,1,0,0:0:0:0:
109,192,70868,1,0,0:0:0:0:
36,192,70868,1,0,0:0:0:0:
329,192,71018,1,8,0:0:0:0:
475,192,71018,1,0,0:0:0:0:
256,192,71093,1,0,0:0:0:0:
182,192,71168,1,0,0:0:0:0:
109,192,71168,1,0,0:0:0:0:
402,192,71318,1,0,0:0:0:0:
475,192,71318,1,0,0:0:0:0:
329,192,71393,1,0,0:0:0:0:
256,192,71468,1,2,0:0:0:0:
182,192,71468,1,0,0:0:0:0:
475,192,71618,1,8,0:0:0:0:
36,192,71618,1,0,0:0:0:0:
402,192,71693,1,0,0:0:0:0:
329,192,71768,1,0,0:0:0:0:
256,192,71768,1,0,0:0:0:0:
36,192,71918,1,2,0:0:0:0:
475,192,71918,1,0,0:0:0:0:
109,192,71993,1,0,0:0:0:0:
182,192,72068,1,0,0:0:0:0:
256,192,72143,1,0,0:0:0:0:
329,192,72218,1,8,0:0:0:0:
36,192,72218,1,0,0:0:0:0:
109,192,72218,1,0,0:0:0:0:
402,192,72293,1,0,0:0:0:0:
475,192,72368,1,0,0:0:0:0:
182,192,72368,1,0,0:0:0:0:
256,192,72443,1,0,0:0:0:0:
329,192,72518,1,0,0:0:0:0:
36,192,72518,1,0,0:0:0:0:
109,192,72593,1,0,0:0:0:0:
182,192,72668,1,2,0:0:0:0:
475,192,72668,1,0,0:0:0:0:
402,192,72743,1,0,0:0:0:0:
329,192,72818,1,8,0:0:0:0:
109,192,72818,1,0,0:0:0:0:
36,192,72818,1,0,0:0:0:0:
256,192,72893,1,8,0:0:0:0:
475,192,72893,1,0,0:0:0:0:
182,192,72968,1,8,0:0:0:0:
402,192,72968,1,0,0:0:0:0:
109,192,73043,1,8,0:0:0:0:
329,192,73043,1,0,0:0:0:0:
36,192,73118,1,2,0:0:0:0:
475,192,73118,1,4,0:0:0:0:
256,192,73118,1,0,0:0:0:0:
36,192,73418,1,2,0:0:0:0:
256,192,73418,1,0,0:0:0:0:
475,192,73418,1,0,0:0:0:0:
475,192,73718,1,2,0:0:0:0:
256,192,73718,1,4,0:0:0:0:
36,192,73718,1,0,0:0:0:0:
109,192,73818,1,0,0:0:0:0:
182,192,73918,1,0,0:0:0:0:
402,192,74018,1,0,0:0:0:0:
329,192,74118,1,0,0:0:0:0:
256,192,74218,1,0,0:0:0:0:
182,192,74318,1,2,0:0:0:0:
36,192,74318,1,0,0:0:0:0:
329,192,74418,1,2,0:0:0:0:
475,192,74418,1,0,0:0:0:0:
109,192,74518,1,2,0:0:0:0:
182,192,74618,1,2,0:0:0:0:
256,192,74718,1,2,0:0:0:0:
329,192,74818,1,2,0:0:0:0:
402,192,74918,1,6,0:0:0:0:
36,192,74918,1,2,0:0:0:0:
109,192,75018,1,0,0:0:0:0:
182,192,75118,1,2,0:0:0:0:
475,192,75118,1,6,0:0:0:0:
402,192,75218,1,0,0:0:0:0:
329,192,75318,1,6,0:0:0:0:
109,192,75318,1,2,0:0:0:0:
182,192,75418,1,0,0:0:0:0:
256,192,75518,1,2,0:0:0:0:
36,192,75518,1,4,0:0:0:0:
475,192,75518,1,0,0:0:0:0:
329,192,75618,1,0,0:0:0:0:
402,192,75718,1,0,0:0:0:0:
182,192,75818,1,8,0:0:0:0:
109,192,75918,1,0,0:0:0:0:
36,192,76018,1,0,0:0:0:0:
182,192,76118,1,8,0:0:0:0:
475,192,76118,1,0,0:0:0:0:
402,192,76218,1,8,0:0:0:0:
256,192,76218,1,0,0:0:0:0:
329,192,76318,1,8,0:0:0:0:
36,192,76318,1,0,0:0:0:0:
475,192,76418,1,2,0:0:0:0:
109,192,76418,1,0,0:0:0:0:
402,192,76518,1,2,0:0:0:0:
182,192,76518,1,0,0:0:0:0:
329,192,76618,1,2,0:0:0:0:
109,192,76618,1,0,0:0:0:0:
256,192,76718,1,4,0:0:0:0:
36,192,76718,1,2,0:0:0:0:
475,192,76718,1,0,0:0:0:0:
402,192,76818,1,0,0:0:0:0:
329,192,76918,1,0,0:0:0:0:
36,192,77018,1,0,0:0:0:0:
256,192,77018,1,0,0:0:0:0:
109,192,77118,1,0,0:0:0:0:
182,192,77218,1,0,0:0:0:0:
36,192,77318,1,2,0:0:0:0:
256,192,77318,1,4,0:0:0:0:
475,192,77318,1,0,0:0:0:0:
402,192,77418,1,0,0:0:0:0:
329,192,77518,1,0,0:0:0:0:
256,192,77618,1,0,0:0:0:0:
36,192,77618,1,0,0:0:0:0:
329,192,77718,1,0,0:0:0:0:
402,192,77818,1,0,0:0:0:0:
36,192,77918,1,4,0:0:0:0:
256,192,77918,1,2,0:0:0:0:
475,192,77918,1,0,0:0:0:0:
109,192,78018,5,0,0:0:0:0:
182,192,78118,1,0,0:0:0:0:
256,192,78218,1,4,0:0:0:0:
475,192,78218,1,2,0:0:0:0:
36,192,78218,1,0,0:0:0:0:
402,192,78318,1,0,0:0:0:0:
329,192,78418,1,0,0:0:0:0:
256,192,78518,1,2,0:0:0:0:
475,192,78518,1,4,0:0:0:0:
36,192,78518,1,0,0:0:0:0:
109,192,78618,1,0,0:0:0:0:
182,192,78718,1,0,0:0:0:0:
256,192,78818,1,0,0:0:0:0:
475,192,78818,1,0,0:0:0:0:
182,192,78918,1,0,0:0:0:0:
402,192,78918,1,0,0:0:0:0:
109,192,79018,1,0,0:0:0:0:
329,192,79018,1,0,0:0:0:0:
475,192,79118,128,2,80218:0:0:0:0:
36,192,79118,1,0,0:0:0:0:
256,192,79118,1,0,0:0:0:0:
36,192,79418,128,2,80218:0:0:0:0:
256,192,79418,1,0,0:0:0:0:
256,192,79718,128,6,79918:0:0:0:0:
402,192,79718,1,0,0:0:0:0:
182,192,79818,128,0,80018:0:0:0:0:
109,192,79918,128,0,80118:0:0:0:0:
256,192,80018,1,0,0:0:0:0:
182,192,80118,1,0,0:0:0:0:
109,192,80218,1,0,0:0:0:0:
36,192,80318,1,2,0:0:0:0:
475,192,80318,1,0,0:0:0:0:
109,192,80418,1,2,0:0:0:0:
329,192,80418,1,0,0:0:0:0:
182,192,80518,1,2,0:0:0:0:
256,192,80618,1,2,0:0:0:0:
475,192,80618,1,4,0:0:0:0:
36,192,80618,1,0,0:0:0:0:
329,192,80718,1,0,0:0:0:0:
109,192,80718,1,2,0:0:0:0:
182,192,80818,1,2,0:0:0:0:
256,192,80918,1,2,0:0:0:0:
475,192,80918,1,0,0:0:0:0:
329,192,81018,1,2,0:0:0:0:
36,192,81068,1,2,0:0:0:0:
182,192,81118,1,2,0:0:0:0:
256,192,81218,1,2,0:0:0:0:
475,192,81218,1,0,0:0:0:0:
329,192,81318,1,2,0:0:0:0:
36,192,81368,1,2,0:0:0:0:
402,192,81418,1,2,0:0:0:0:
475,192,81518,1,4,0:0:0:0:
182,192,81518,1,2,0:0:0:0:
36,192,81518,128,0,82718:0:0:0:0:
402,192,81668,1,0,0:0:0:0:
475,192,81818,1,8,0:0:0:0:
109,192,81818,1,0,0:0:0:0:
256,192,81818,1,0,0:0:0:0:
182,192,81968,128,0,82718:0:0:0:0:
402,192,81968,1,0,0:0:0:0:
475,192,82118,1,0,0:0:0:0:
402,192,82268,1,2,0:0:0:0:
329,192,82268,1,0,0:0:0:0:
475,192,82418,1,8,0:0:0:0:
109,192,82418,1,0,0:0:0:0:
256,192,82418,1,0,0:0:0:0:
402,192,82568,1,0,0:0:0:0:
475,192,82718,128,2,83018:0:0:0:0:
109,192,82718,1,0,0:0:0:0:
256,192,82868,1,0,0:0:0:0:
329,192,83018,128,8,83318:0:0:0:0:
36,192,83018,1,0,0:0:0:0:
109,192,83018,1,0,0:0:0:0:
182,192,83168,1,0,0:0:0:0:
182,192,83318,128,0,83618:0:0:0:0:
402,192,83318,1,0,0:0:0:0:
256,192,83468,1,2,0:0:0:0:
109,192,83468,1,0,0:0:0:0:
36,192,83618,128,8,83918:0:0:0:0:
475,192,83618,1,0,0:0:0:0:
402,192,83618,1,0,0:0:0:0:
329,192,83768,1,0,0:0:0:0:
329,192,83918,128,4,86018:0:0:0:0:
109,192,83918,1,2,0:0:0:0:
256,192,83918,1,0,0:0:0:0:
475,192,83918,1,0,0:0:0:0:
182,192,84068,1,0,0:0:0:0:
256,192,84218,1,8,0:0:0:0:
109,192,84218,1,0,0:0:0:0:
36,192,84218,1,0,0:0:0:0:
475,192,84368,128,0,86018:0:0:0:0:
182,192,84368,1,0,0:0:0:0:
109,192,84518,1,0,0:0:0:0:
182,192,84668,1,2,0:0:0:0:
256,192,84668,1,0,0:0:0:0:
402,192,84818,128,8,86018:0:0:0:0:
109,192,84818,1,0,0:0:0:0:
36,192,84818,1,0,0:0:0:0:
182,192,84968,1,0,0:0:0:0:
256,192,85118,1,2,0:0:0:0:
109,192,85118,1,0,0:0:0:0:
182,192,85268,1,0,0:0:0:0:
109,192,85418,1,8,0:0:0:0:
36,192,85418,1,0,0:0:0:0:
256,192,85418,1,0,0:0:0:0:
182,192,85568,1,0,0:0:0:0:
109,192,85718,1,0,0:0:0:0:
256,192,85868,1,2,0:0:0:0:
182,192,85868,1,0,0:0:0:0:
109,192,86018,1,8,0:0:0:0:
36,192,86018,1,0,0:0:0:0:
256,192,86168,1,8,0:0:0:0:
475,192,86168,1,0,0:0:0:0:
402,192,86168,1,0,0:0:0:0:
109,192,86318,128,4,87518:0:0:0:0:
36,192,86318,1,2,0:0:0:0:
182,192,86318,1,0,0:0:0:0:
329,192,86318,1,0,0:0:0:0:
475,192,86468,1,0,0:0:0:0:
36,192,86618,1,8,0:0:0:0:
329,192,86618,1,0,0:0:0:0:
182,192,86618,1,0,0:0:0:0:
402,192,86768,128,0,87518:0:0:0:0:
475,192,86768,1,0,0:0:0:0:
36,192,86918,1,0,0:0:0:0:
256,192,87068,1,2,0:0:0:0:
475,192,87068,1,0,0:0:0:0:
36,192,87218,1,8,0:0:0:0:
182,192,87218,1,0,0:0:0:0:
329,192,87218,1,0,0:0:0:0:
475,192,87368,1,0,0:0:0:0:
36,192,87518,1,2,0:0:0:0:
182,192,87518,128,0,87818:0:0:0:0:
475,192,87668,1,0,0:0:0:0:
256,192,87818,128,8,88118:0:0:0:0:
36,192,87818,1,0,0:0:0:0:
329,192,87818,1,0,0:0:0:0:
475,192,87968,1,0,0:0:0:0:
329,192,88118,128,0,88418:0:0:0:0:
36,192,88118,1,0,0:0:0:0:
475,192,88268,1,2,0:0:0:0:
182,192,88268,1,0,0:0:0:0:
402,192,88418,128,8,88718:0:0:0:0:
36,192,88418,1,0,0:0:0:0:
109,192,88418,1,0,0:0:0:0:
475,192,88568,1,0,0:0:0:0:
182,192,88568,1,0,0:0:0:0:
256,192,88718,128,4,89618:0:0:0:0:
36,192,88718,1,2,0:0:0:0:
329,192,88718,1,0,0:0:0:0:
109,192,88868,1,0,0:0:0:0:
475,192,88868,1,2,0:0:0:0:
402,192,88943,1,2,0:0:0:0:
36,192,89018,1,0,0:0:0:0:
329,192,89018,1,2,0:0:0:0:
402,192,89093,1,2,0:0:0:0:
475,192,89168,128,2,89618:0:0:0:0:
109,192,89168,1,0,0:0:0:0:
36,192,89318,1,0,0:0:0:0:
329,192,89318,1,2,0:0:0:0:
109,192,89468,1,0,0:0:0:0:
182,192,89618,128,4,89768:0:0:0:0:
329,192,89618,128,2,89768:0:0:0:0:
36,192,89618,1,0,0:0:0:0:
109,192,89768,128,0,89918:0:0:0:0:
402,192,89768,128,0,89918:0:0:0:0:
36,192,89918,128,0,90743:0:0:0:0:
256,192,89918,1,2,0:0:0:0:
475,192,89918,128,0,90368:0:0:0:0:
329,192,90068,1,0,0:0:0:0:
256,192,90143,1,0,0:0:0:0:
182,192,90218,1,0,0:0:0:0:
109,192,90218,1,0,0:0:0:0:
402,192,90218,1,0,0:0:0:0:
182,192,90368,128,0,90743:0:0:0:0:
109,192,90368,1,0,0:0:0:0:
329,192,90443,1,0,0:0:0:0:
475,192,90518,128,0,90593:0:0:0:0:
402,192,90593,128,0,90668:0:0:0:0:
109,192,90668,1,0,0:0:0:0:
329,192,90668,128,0,90743:0:0:0:0:
256,192,90743,128,0,90818:0:0:0:0:
36,192,90818,1,0,0:0:0:0:
475,192,90818,1,0,0:0:0:0:
182,192,90818,128,8,90893:0:0:0:0:
256,192,90893,128,8,90968:0:0:0:0:
109,192,90968,1,0,0:0:0:0:
329,192,90968,128,8,91043:0:0:0:0:
402,192,91043,128,8,91118:0:0:0:0:
36,192,91118,1,2,0:0:0:0:
475,192,91118,128,4,92318:0:0:0:0:
256,192,91118,1,0,0:0:0:0:
182,192,91118,1,0,0:0:0:0:
109,192,91268,1,0,0:0:0:0:
36,192,91418,1,8,0:0:0:0:
402,192,91418,1,0,0:0:0:0:
256,192,91418,1,0,0:0:0:0:
329,192,91568,128,0,92318:0:0:0:0:
109,192,91568,1,0,0:0:0:0:
36,192,91718,1,0,0:0:0:0:
109,192,91868,1,2,0:0:0:0:
182,192,91868,1,0,0:0:0:0:
36,192,92018,1,8,0:0:0:0:
402,192,92018,1,0,0:0:0:0:
256,192,92018,1,0,0:0:0:0:
109,192,92168,1,0,0:0:0:0:
36,192,92318,128,2,92618:0:0:0:0:
402,192,92318,1,0,0:0:0:0:
256,192,92468,1,0,0:0:0:0:
182,192,92618,128,8,92918:0:0:0:0:
475,192,92618,1,0,0:0:0:0:
402,192,92618,1,0,0:0:0:0:
329,192,92768,1,0,0:0:0:0:
329,192,92918,128,0,93218:0:0:0:0:
109,192,92918,1,0,0:0:0:0:
256,192,93068,1,2,0:0:0:0:
402,192,93068,1,0,0:0:0:0:
475,192,93218,128,8,93518:0:0:0:0:
36,192,93218,1,0,0:0:0:0:
109,192,93218,1,0,0:0:0:0:
182,192,93368,1,0,0:0:0:0:
329,192,93368,1,8,0:0:0:0:
182,192,93518,128,4,95618:0:0:0:0:
402,192,93518,1,2,0:0:0:0:
256,192,93518,1,0,0:0:0:0:
36,192,93518,1,0,0:0:0:0:
329,192,93668,1,0,0:0:0:0:
256,192,93818,1,0,0:0:0:0:
402,192,93818,1,8,0:0:0:0:
475,192,93818,1,0,0:0:0:0:
36,192,93968,128,0,95618:0:0:0:0:
329,192,93968,1,0,0:0:0:0:
475,192,94118,1,0,0:0:0:0:
402,192,94118,1,8,0:0:0:0:
256,192,94118,1,0,0:0:0:0:
329,192,94268,1,2,0:0:0:0:
109,192,94268,1,0,0:0:0:0:
109,192,94418,128,8,95618:0:0:0:0:
402,192,94418,1,0,0:0:0:0:
475,192,94418,1,0,0:0:0:0:
256,192,94418,1,0,0:0:0:0:
329,192,94568,1,0,0:0:0:0:
256,192,94718,1,2,0:0:0:0:
402,192,94718,1,0,0:0:0:0:
329,192,94868,1,0,0:0:0:0:
402,192,95018,1,8,0:0:0:0:
475,192,95018,1,0,0:0:0:0:
256,192,95018,1,0,0:0:0:0:
329,192,95168,1,0,0:0:0:0:
402,192,95318,1,0,0:0:0:0:
256,192,95468,1,2,0:0:0:0:
329,192,95468,1,0,0:0:0:0:
402,192,95618,1,8,0:0:0:0:
475,192,95618,1,0,0:0:0:0:
329,192,95693,1,8,0:0:0:0:
36,192,95693,1,0,0:0:0:0:
256,192,95768,1,8,0:0:0:0:
109,192,95768,1,0,0:0:0:0:
182,192,95843,1,8,0:0:0:0:
402,192,95918,128,4,97118:0:0:0:0:
475,192,95918,1,2,0:0:0:0:
329,192,95918,1,0,0:0:0:0:
36,192,95918,1,0,0:0:0:0:
36,192,96068,1,0,0:0:0:0:
475,192,96218,1,8,0:0:0:0:
182,192,96218,1,0,0:0:0:0:
329,192,96218,1,0,0:0:0:0:
109,192,96368,128,0,97118:0:0:0:0:
36,192,96368,1,0,0:0:0:0:
475,192,96518,1,0,0:0:0:0:
256,192,96668,1,2,0:0:0:0:
36,192,96668,1,0,0:0:0:0:
475,192,96818,1,8,0:0:0:0:
329,192,96818,1,0,0:0:0:0:
182,192,96818,1,0,0:0:0:0:
36,192,96968,1,0,0:0:0:0:
475,192,97118,1,4,0:0:0:0:
329,192,97118,128,2,97418:0:0:0:0:
182,192,97118,1,0,0:0:0:0:
36,192,97268,1,0,0:0:0:0:
256,192,97418,128,8,97718:0:0:0:0:
475,192,97418,1,0,0:0:0:0:
182,192,97418,1,0,0:0:0:0:
329,192,97568,1,2,0:0:0:0:
402,192,97643,1,2,0:0:0:0:
182,192,97718,128,0,98018:0:0:0:0:
475,192,97718,1,2,0:0:0:0:
109,192,97718,1,0,0:0:0:0:
329,192,97868,1,2,0:0:0:0:
109,192,98018,128,8,98318:0:0:0:0:
475,192,98018,1,0,0:0:0:0:
36,192,98018,1,0,0:0:0:0:
402,192,98093,1,8,0:0:0:0:
329,192,98168,1,8,0:0:0:0:
402,192,98243,1,8,0:0:0:0:
475,192,98318,1,4,0:0:0:0:
182,192,98318,1,2,0:0:0:0:
36,192,98318,1,0,0:0:0:0:
109,192,98468,1,2,0:0:0:0:
256,192,98468,1,0,0:0:0:0:
475,192,98468,1,0,0:0:0:0:
109,192,98768,1,2,0:0:0:0:
256,192,98768,1,4,0:0:0:0:
475,192,98768,1,0,0:0:0:0:
182,192,98918,1,4,0:0:0:0:
329,192,98918,1,2,0:0:0:0:
475,192,98918,1,0,0:0:0:0:
182,192,99218,1,2,0:0:0:0:
329,192,99218,1,0,0:0:0:0:
36,192,99218,1,0,0:0:0:0:
256,192,99368,1,2,0:0:0:0:
402,192,99368,1,0,0:0:0:0:
36,192,99368,1,0,0:0:0:0:
256,192,99668,1,2,0:0:0:0:
402,192,99668,1,4,0:0:0:0:
36,192,99668,1,0,0:0:0:0:
329,192,99818,1,4,0:0:0:0:
475,192,99818,1,2,0:0:0:0:
36,192,99818,1,0,0:0:0:0:
182,192,100118,1,2,0:0:0:0:
36,192,100118,1,4,0:0:0:0:
329,192,100118,1,0,0:0:0:0:
475,192,100118,1,0,0:0:0:0:
329,192,100268,1,4,0:0:0:0:
475,192,100268,1,2,0:0:0:0:
182,192,100268,1,0,0:0:0:0:
36,192,100268,1,0,0:0:0:0:
36,192,100718,1,2,0:0:0:0:
329,192,100718,1,4,0:0:0:0:
475,192,100718,1,0,0:0:0:0:
402,192,100868,1,2,0:0:0:0:
256,192,100868,1,0,0:0:0:0:
36,192,100868,1,0,0:0:0:0:
402,192,101168,1,0,0:0:0:0:
256,192,101168,1,2,0:0:0:0:
36,192,101168,1,0,0:0:0:0:
329,192,101318,1,2,0:0:0:0:
182,192,101318,1,0,0:0:0:0:
36,192,101318,1,0,0:0:0:0:
329,192,101618,1,2,0:0:0:0:
182,192,101618,1,0,0:0:0:0:
475,192,101618,1,0,0:0:0:0:
256,192,101768,1,2,0:0:0:0:
109,192,101768,1,0,0:0:0:0:
475,192,101768,1,0,0:0:0:0:
256,192,102068,1,2,0:0:0:0:
109,192,102068,1,4,0:0:0:0:
475,192,102068,1,0,0:0:0:0:
182,192,102218,1,4,0:0:0:0:
36,192,102218,1,2,0:0:0:0:
475,192,102218,1,0,0:0:0:0:
329,192,102518,1,2,0:0:0:0:
475,192,102518,1,4,0:0:0:0:
182,192,102518,1,0,0:0:0:0:
36,192,102518,1,0,0:0:0:0:
182,192,102668,1,4,0:0:0:0:
36,192,102668,1,2,0:0:0:0:
329,192,102668,1,0,0:0:0:0:
475,192,102668,1,0,0:0:0:0:
475,192,102818,1,2,0:0:0:0:
329,192,102818,1,0,0:0:0:0:
402,192,102893,1,2,0:0:0:0:
256,192,102893,1,0,0:0:0:0:
329,192,102968,1,2,0:0:0:0:
182,192,102968,1,0,0:0:0:0:
256,192,103043,1,2,0:0:0:0:
109,192,103043,1,0,0:0:0:0:
36,192,103118,1,2,0:0:0:0:
182,192,103118,1,4,0:0:0:0:
475,192,103118,1,0,0:0:0:0:
182,192,103268,1,0,0:0:0:0:
36,192,103268,1,0,0:0:0:0:
182,192,103418,128,0,103868:0:0:0:0:
36,192,103418,128,0,103868:0:0:0:0:
329,192,103568,1,8,0:0:0:0:
475,192,103568,1,0,0:0:0:0:
475,192,103718,1,0,0:0:0:0:
329,192,103718,1,0,0:0:0:0:
329,192,103868,128,0,104318:0:0:0:0:
475,192,103868,128,0,104318:0:0:0:0:
182,192,104018,1,8,0:0:0:0:
109,192,104018,1,0,0:0:0:0:
182,192,104168,1,0,0:0:0:0:
109,192,104168,1,0,0:0:0:0:
182,192,104318,128,0,104768:0:0:0:0:
109,192,104318,128,0,104768:0:0:0:0:
329,192,104468,1,8,0:0:0:0:
402,192,104468,1,0,0:0:0:0:
402,192,104618,1,0,0:0:0:0:
329,192,104618,1,0,0:0:0:0:
329,192,104768,128,0,105218:0:0:0:0:
402,192,104768,128,0,105218:0:0:0:0:
182,192,104918,1,8,0:0:0:0:
36,192,104918,1,0,0:0:0:0:
109,192,104918,1,0,0:0:0:0:
182,192,105068,1,0,0:0:0:0:
109,192,105068,1,0,0:0:0:0:
36,192,105068,1,0,0:0:0:0:
182,192,105218,128,0,105668:0:0:0:0:
109,192,105218,128,0,105668:0:0:0:0:
36,192,105218,128,0,105668:0:0:0:0:
329,192,105368,1,8,0:0:0:0:
475,192,105368,1,0,0:0:0:0:
402,192,105368,1,0,0:0:0:0:
402,192,105518,1,0,0:0:0:0:
329,192,105518,1,0,0:0:0:0:
475,192,105518,1,0,0:0:0:0:
329,192,105668,1,0,0:0:0:0:
475,192,105668,1,0,0:0:0:0:
402,192,105668,1,0,0:0:0:0:
36,192,105818,1,8,0:0:0:0:
475,192,105818,1,0,0:0:0:0:
182,192,105818,1,4,0:0:0:0:
329,192,105818,1,0,0:0:0:0:
329,192,105968,128,0,106718:0:0:0:0:
475,192,105968,128,8,106718:0:0:0:0:
182,192,105968,128,4,106718:0:0:0:0:
36,192,105968,128,0,106718:0:0:0:0:
