osu file format v14

[General]
AudioFilename: audio.mp3
AudioLeadIn: 0
PreviewTime: 44318
Countdown: 0
SampleSet: Soft
StackLeniency: 0.7
Mode: 3
LetterboxInBreaks: 0
SpecialStyle: 0
WidescreenStoryboard: 1

[Editor]
Bookmarks: 47318
DistanceSpacing: 0.8
BeatDivisor: 6
GridSize: 4
TimelineZoom: 1.8

[Metadata]
Title:Lilieze to Enryuu Laevateinn
TitleUnicode:リリーゼと炎龍レーヴァテイン
Artist:Kuroneko Dungeon
ArtistUnicode:黒猫ダンジョン
Creator:DE-CADE
Version:7K Normal
Source:REFLEC BEAT colette -Summer-
Tags:Raymond Kuo Kyoka beatmania IIDX 22 PENDUAL Tomosuke Funaki OLDSTYLE GAMEMUSIC BeatStream アニムトライヴ pop'n music うさぎと猫と少年の夢 plus KONAMI BEMANI
BeatmapID:1190408
BeatmapSetID:530756

[Difficulty]
HPDrainRate:7
CircleSize:7
OverallDifficulty:7
ApproachRate:5
SliderMultiplier:1.4
SliderTickRate:1

[Events]
//Background and Video events
0,0,"36528051_p0.jpg",0,0
Video,0,"BGA.avi"
//Break Periods
//Storyboard Layer 0 (Background)
//Storyboard Layer 1 (Fail)
//Storyboard Layer 2 (Pass)
//Storyboard Layer 3 (Foreground)
//Storyboard Sound Samples

[TimingPoints]
518,300,4,2,1,95,1,0
34718,300,4,2,1,95,1,0
44318,-100,4,2,1,95,0,1
53918,-100,4,2,1,95,0,0
81518,-100,4,2,1,95,0,1
98018,-100,4,2,1,95,0,0
98318,-100,4,2,1,95,0,1
98468,-100,4,2,1,95,0,0
100718,-100,4,2,1,95,0,1
100868,-100,4,2,1,95,0,0
103118,-100,4,2,1,95,0,1
103268,-100,4,2,1,95,0,0

[HitObjects]
36,192,518,5,2,0:0:0:0:
329,192,668,1,2,0:0:0:0:
182,192,818,1,2,0:0:0:0:
475,192,968,1,2,0:0:0:0:
109,192,1118,1,2,0:0:0:0:
402,192,1268,1,2,0:0:0:0:
256,192,1418,128,2,1718:0:0:0:0:
36,192,1718,1,2,0:0:0:0:
475,192,1718,1,4,0:0:0:0:
402,192,1868,1,0,0:0:0:0:
182,192,2018,1,0,0:0:0:0:
329,192,2168,1,8,0:0:0:0:
475,192,2318,1,0,0:0:0:0:
256,192,2468,1,0,0:0:0:0:
36,192,2618,1,0,0:0:0:0:
182,192,2768,1,8,0:0:0:0:
329,192,2918,1,0,0:0:0:0:
256,192,3068,1,0,0:0:0:0:
329,192,3218,1,0,0:0:0:0:
475,192,3368,1,8,0:0:0:0:
256,192,3518,1,0,0:0:0:0:
36,192,3668,1,0,0:0:0:0:
182,192,3818,1,8,0:0:0:0:
329,192,3968,1,0,0:0:0:0:
402,192,4118,1,0,0:0:0:0:
256,192,4268,1,0,0:0:0:0:
182,192,4418,1,8,0:0:0:0:
329,192,4568,1,0,0:0:0:0:
475,192,4718,1,0,0:0:0:0:
256,192,4868,1,8,0:0:0:0:
109,192,5018,1,0,0:0:0:0:
329,192,5168,1,8,0:0:0:0:
475,192,5318,1,4,0:0:0:0:
36,192,5318,1,0,0:0:0:0:
402,192,5618,1,8,0:0:0:0:
109,192,5618,1,0,0:0:0:0:
329,192,5918,1,8,0:0:0:0:
182,192,5918,1,0,0:0:0:0:
475,192,6368,1,8,0:0:0:0:
109,192,6368,1,0,0:0:0:0:
402,192,6668,1,8,0:0:0:0:
182,192,6668,1,0,0:0:0:0:
329,192,7118,1,8,0:0:0:0:
36,192,7118,1,0,0:0:0:0:
256,192,7418,1,8,0:0:0:0:
109,192,7418,1,0,0:0:0:0:
182,192,7868,1,8,0:0:0:0:
402,192,7868,1,0,0:0:0:0:
329,192,8168,1,8,0:0:0:0:
256,192,8168,1,0,0:0:0:0:
329,192,8618,1,8,0:0:0:0:
109,192,8618,1,0,0:0:0:0:
182,192,8918,1,8,0:0:0:0:
256,192,8918,1,0,0:0:0:0:
402,192,9218,1,0,0:0:0:0:
475,192,9218,1,0,0:0:0:0:
36,192,9368,1,8,0:0:0:0:
109,192,9368,1,0,0:0:0:0:
329,192,9668,1,8,0:0:0:0:
182,192,9818,1,8,0:0:0:0:
329,192,9968,1,8,0:0:0:0:
475,192,10118,1,4,0:0:0:0:
36,192,10118,1,2,0:0:0:0:
109,192,10418,1,8,0:0:0:0:
256,192,10418,1,0,0:0:0:0:
402,192,10618,1,2,0:0:0:0:
182,192,10718,1,2,0:0:0:0:
402,192,11018,1,8,0:0:0:0:
36,192,11018,1,0,0:0:0:0:
109,192,11318,1,2,0:0:0:0:
475,192,11318,1,0,0:0:0:0:
36,192,11618,1,8,0:0:0:0:
329,192,11618,1,0,0:0:0:0:
182,192,11818,1,2,0:0:0:0:
402,192,11918,1,2,0:0:0:0:
329,192,12218,1,8,0:0:0:0:
109,192,12218,1,0,0:0:0:0:
36,192,12518,1,2,0:0:0:0:
475,192,12518,1,4,0:0:0:0:
402,192,12818,1,8,0:0:0:0:
256,192,12818,1,0,0:0:0:0:
109,192,13018,1,2,0:0:0:0:
329,192,13118,1,2,0:0:0:0:
402,192,13418,1,8,0:0:0:0:
182,192,13418,1,0,0:0:0:0:
329,192,13718,1,2,0:0:0:0:
36,192,13718,1,0,0:0:0:0:
475,192,14018,1,8,0:0:0:0:
109,192,14018,1,0,0:0:0:0:
402,192,14218,1,0,0:0:0:0:
182,192,14318,1,8,0:0:0:0:
329,192,14618,1,8,0:0:0:0:
109,192,14618,1,0,0:0:0:0:
475,192,14918,1,2,0:0:0:0:
36,192,14918,1,4,0:0:0:0:
256,192,15218,1,8,0:0:0:0:
109,192,15218,1,0,0:0:0:0:
402,192,15418,1,0,0:0:0:0:
182,192,15518,1,2,0:0:0:0:
402,192,15818,1,8,0:0:0:0:
109,192,15818,1,0,0:0:0:0:
182,192,16118,1,2,0:0:0:0:
36,192,16118,1,0,0:0:0:0:
475,192,16418,1,8,0:0:0:0:
109,192,16418,1,0,0:0:0:0:
36,192,16618,1,2,0:0:0:0:
256,192,16718,1,2,0:0:0:0:
402,192,17018,1,8,0:0:0:0:
109,192,17018,1,0,0:0:0:0:
475,192,17318,1,2,0:0:0:0:
36,192,17318,1,4,0:0:0:0:
402,192,17618,1,8,0:0:0:0:
256,192,17618,1,0,0:0:0:0:
329,192,17818,1,2,0:0:0:0:
109,192,17918,1,2,0:0:0:0:
402,192,18218,1,8,0:0:0:0:
182,192,18218,1,0,0:0:0:0:
329,192,18518,1,2,0:0:0:0:
109,192,18518,1,0,0:0:0:0:
475,192,18818,1,8,0:0:0:0:
182,192,18818,1,0,0:0:0:0:
402,192,19018,1,2,0:0:0:0:
109,192,19118,1,8,0:0:0:0:
182,192,19418,1,2,0:0:0:0:
329,192,19418,1,0,0:0:0:0:
475,192,19718,1,2,0:0:0:0:
36,192,19718,128,4,22118:0:0:0:0:
182,192,20018,1,8,0:0:0:0:
256,192,20318,1,0,0:0:0:0:
475,192,20618,1,8,0:0:0:0:
182,192,20918,1,0,0:0:0:0:
475,192,21218,1,8,0:0:0:0:
402,192,21518,1,0,0:0:0:0:
182,192,21818,1,8,0:0:0:0:
256,192,22118,1,4,0:0:0:0:
475,192,22118,128,0,24518:0:0:0:0:
36,192,22418,1,8,0:0:0:0:
182,192,22718,1,0,0:0:0:0:
256,192,23018,1,8,0:0:0:0:
36,192,23318,1,0,0:0:0:0:
256,192,23618,1,8,0:0:0:0:
329,192,23918,1,0,0:0:0:0:
36,192,24218,1,8,0:0:0:0:
109,192,24518,128,4,26918:0:0:0:0:
256,192,24518,1,0,0:0:0:0:
475,192,24818,1,8,0:0:0:0:
182,192,25118,1,0,0:0:0:0:
475,192,25418,1,8,0:0:0:0:
256,192,25718,1,0,0:0:0:0:
475,192,26018,1,8,0:0:0:0:
329,192,26318,1,0,0:0:0:0:
475,192,26618,1,8,0:0:0:0:
402,192,26918,128,4,28718:0:0:0:0:
36,192,26918,1,0,0:0:0:0:
182,192,27218,1,8,0:0:0:0:
109,192,27518,1,0,0:0:0:0:
36,192,27818,1,8,0:0:0:0:
256,192,28118,1,0,0:0:0:0:
182,192,28268,1,0,0:0:0:0:
36,192,28418,1,8,0:0:0:0:
182,192,28718,128,10,29318:0:0:0:0:
36,192,29318,1,4,0:0:0:0:
475,192,29318,1,2,0:0:0:0:
329,192,29468,1,0,0:0:0:0:
109,192,29618,1,8,0:0:0:0:
256,192,29768,1,0,0:0:0:0:
402,192,29918,1,8,0:0:0:0:
256,192,30068,1,0,0:0:0:0:
182,192,30218,1,8,0:0:0:0:
329,192,30368,1,0,0:0:0:0:
256,192,30518,1,8,0:0:0:0:
109,192,30668,1,0,0:0:0:0:
329,192,30818,1,8,0:0:0:0:
475,192,30968,1,0,0:0:0:0:
402,192,31118,1,8,0:0:0:0:
256,192,31268,1,0,0:0:0:0:
182,192,31418,1,8,0:0:0:0:
402,192,31568,1,0,0:0:0:0:
329,192,31718,1,8,0:0:0:0:
109,192,31868,1,0,0:0:0:0:
36,192,32018,1,8,0:0:0:0:
182,192,32168,1,0,0:0:0:0:
402,192,32318,1,8,0:0:0:0:
256,192,32468,1,0,0:0:0:0:
329,192,32618,1,8,0:0:0:0:
475,192,32768,1,0,0:0:0:0:
402,192,32918,1,8,0:0:0:0:
256,192,33068,1,0,0:0:0:0:
36,192,33218,1,8,0:0:0:0:
182,192,33368,1,0,0:0:0:0:
329,192,33518,1,8,0:0:0:0:
402,192,33668,1,8,0:0:0:0:
402,192,33818,1,8,0:0:0:0:
256,192,33968,1,8,0:0:0:0:
36,192,34418,1,8,0:0:0:0:
36,192,34718,1,2,0:0:0:0:
475,192,34718,1,4,0:0:0:0:
329,192,34868,1,0,0:0:0:0:
256,192,35018,128,8,35168:0:0:0:0:
109,192,35318,1,0,0:0:0:0:
36,192,35468,128,2,35618:0:0:0:0:
475,192,35618,1,8,0:0:0:0:
402,192,35768,1,0,0:0:0:0:
182,192,35918,128,2,36068:0:0:0:0:
402,192,36218,1,8,0:0:0:0:
256,192,36368,1,0,0:0:0:0:
36,192,36518,1,0,0:0:0:0:
329,192,36668,1,2,0:0:0:0:
402,192,36818,1,8,0:0:0:0:
182,192,36968,1,0,0:0:0:0:
109,192,37118,1,2,0:0:0:0:
256,192,37268,1,0,0:0:0:0:
402,192,37418,128,8,37568:0:0:0:0:
36,192,37718,1,0,0:0:0:0:
329,192,37868,128,2,38018:0:0:0:0:
109,192,38018,1,8,0:0:0:0:
402,192,38168,1,0,0:0:0:0:
182,192,38318,128,2,38468:0:0:0:0:
329,192,38618,1,8,0:0:0:0:
475,192,38768,1,0,0:0:0:0:
36,192,38918,1,0,0:0:0:0:
182,192,39068,128,2,39518:0:0:0:0:
329,192,39218,128,8,39518:0:0:0:0:
475,192,39518,1,2,0:0:0:0:
36,192,39518,1,4,0:0:0:0:
256,192,39668,1,0,0:0:0:0:
109,192,39818,128,8,39968:0:0:0:0:
475,192,40118,1,0,0:0:0:0:
182,192,40268,128,2,40418:0:0:0:0:
402,192,40418,1,8,0:0:0:0:
256,192,40568,1,0,0:0:0:0:
475,192,40718,128,2,40868:0:0:0:0:
36,192,41018,1,8,0:0:0:0:
329,192,41168,1,0,0:0:0:0:
182,192,41318,1,0,0:0:0:0:
402,192,41468,1,2,0:0:0:0:
109,192,41618,1,8,0:0:0:0:
329,192,41768,1,0,0:0:0:0:
475,192,41918,1,2,0:0:0:0:
36,192,41918,1,4,0:0:0:0:
182,192,42068,1,0,0:0:0:0:
256,192,42218,128,8,42368:0:0:0:0:
402,192,42518,1,0,0:0:0:0:
109,192,42668,128,2,42818:0:0:0:0:
329,192,42818,1,8,0:0:0:0:
256,192,42968,1,0,0:0:0:0:
36,192,43118,1,2,0:0:0:0:
475,192,43118,1,4,0:0:0:0:
329,192,43268,1,0,0:0:0:0:
109,192,43418,1,8,0:0:0:0:
182,192,43718,1,0,0:0:0:0:
402,192,43868,1,2,0:0:0:0:
256,192,44018,128,8,44318:0:0:0:0:
36,192,44318,1,2,0:0:0:0:
475,192,44318,1,4,0:0:0:0:
109,192,44618,128,8,44768:0:0:0:0:
182,192,44618,128,0,44768:0:0:0:0:
402,192,44918,1,0,0:0:0:0:
182,192,45218,128,8,45368:0:0:0:0:
36,192,45218,128,0,45368:0:0:0:0:
329,192,45518,1,2,0:0:0:0:
256,192,45818,128,8,45968:0:0:0:0:
475,192,45818,128,0,45968:0:0:0:0:
36,192,46118,1,0,0:0:0:0:
109,192,46268,1,2,0:0:0:0:
182,192,46418,1,8,0:0:0:0:
256,192,46568,1,0,0:0:0:0:
475,192,46718,1,2,0:0:0:0:
329,192,46718,1,4,0:0:0:0:
402,192,47018,1,8,0:0:0:0:
109,192,47168,1,0,0:0:0:0:
256,192,47318,128,0,47618:0:0:0:0:
109,192,47618,1,8,0:0:0:0:
329,192,47768,1,0,0:0:0:0:
182,192,47918,1,2,0:0:0:0:
36,192,47918,1,4,0:0:0:0:
402,192,48068,1,0,0:0:0:0:
109,192,48218,1,8,0:0:0:0:
329,192,48368,1,0,0:0:0:0:
182,192,48518,1,0,0:0:0:0:
256,192,48668,1,2,0:0:0:0:
36,192,48818,1,8,0:0:0:0:
182,192,48968,1,8,0:0:0:0:
475,192,49118,1,2,0:0:0:0:
329,192,49118,1,4,0:0:0:0:
182,192,49418,128,8,49568:0:0:0:0:
36,192,49418,128,0,49568:0:0:0:0:
402,192,49718,1,0,0:0:0:0:
182,192,50018,128,8,50168:0:0:0:0:
109,192,50018,128,0,50168:0:0:0:0:
475,192,50168,1,0,0:0:0:0:
329,192,50318,1,2,0:0:0:0:
256,192,50618,128,8,50768:0:0:0:0:
402,192,50618,128,0,50768:0:0:0:0:
36,192,50918,1,0,0:0:0:0:
109,192,51068,1,2,0:0:0:0:
182,192,51218,1,8,0:0:0:0:
256,192,51368,1,0,0:0:0:0:
475,192,51518,1,2,0:0:0:0:
329,192,51518,1,4,0:0:0:0:
109,192,51668,1,0,0:0:0:0:
402,192,51818,1,8,0:0:0:0:
182,192,51968,1,0,0:0:0:0:
256,192,52118,128,0,52418:0:0:0:0:
36,192,52418,1,8,0:0:0:0:
182,192,52568,1,0,0:0:0:0:
475,192,52718,1,2,0:0:0:0:
329,192,52718,1,4,0:0:0:0:
256,192,52868,1,0,0:0:0:0:
109,192,53018,1,8,0:0:0:0:
402,192,53168,1,0,0:0:0:0:
182,192,53318,1,0,0:0:0:0:
329,192,53468,1,2,0:0:0:0:
256,192,53618,1,8,0:0:0:0:
402,192,53768,1,0,0:0:0:0:
475,192,53918,1,2,0:0:0:0:
36,192,53918,1,4,0:0:0:0:
402,192,54368,1,4,0:0:0:0:
109,192,54368,1,2,0:0:0:0:
329,192,54818,1,2,0:0:0:0:
182,192,54818,1,4,0:0:0:0:
475,192,55268,1,4,0:0:0:0:
256,192,55268,1,2,0:0:0:0:
36,192,55718,1,8,0:0:0:0:
182,192,55868,1,2,0:0:0:0:
329,192,56018,1,8,0:0:0:0:
36,192,56318,1,2,0:0:0:0:
402,192,56318,1,4,0:0:0:0:
329,192,56768,1,2,0:0:0:0:
109,192,56768,1,4,0:0:0:0:
256,192,57218,1,2,0:0:0:0:
182,192,57218,1,4,0:0:0:0:
475,192,57668,1,4,0:0:0:0:
329,192,57668,1,2,0:0:0:0:
402,192,58118,1,8,0:0:0:0:
256,192,58268,1,2,0:0:0:0:
109,192,58418,1,8,0:0:0:0:
475,192,58718,1,4,0:0:0:0:
36,192,58718,1,2,0:0:0:0:
402,192,59168,1,4,0:0:0:0:
109,192,59168,1,2,0:0:0:0:
329,192,59618,1,4,0:0:0:0:
182,192,59618,1,2,0:0:0:0:
256,192,60068,1,2,0:0:0:0:
36,192,60068,1,4,0:0:0:0:
329,192,60518,1,8,0:0:0:0:
182,192,60668,1,2,0:0:0:0:
36,192,60818,1,8,0:0:0:0:
475,192,61118,1,2,0:0:0:0:
109,192,61118,1,4,0:0:0:0:
182,192,61568,1,2,0:0:0:0:
402,192,61568,1,4,0:0:0:0:
329,192,62018,1,2,0:0:0:0:
256,192,62018,1,4,0:0:0:0:
36,192,62468,1,4,0:0:0:0:
182,192,62468,1,2,0:0:0:0:
402,192,62918,1,8,0:0:0:0:
109,192,63068,1,2,0:0:0:0:
329,192,63218,1,8,0:0:0:0:
182,192,63368,1,0,0:0:0:0:
475,192,63518,1,4,0:0:0:0:
36,192,63518,1,2,0:0:0:0:
256,192,63818,1,8,0:0:0:0:
402,192,63968,1,0,0:0:0:0:
109,192,64268,1,2,0:0:0:0:
182,192,64418,1,8,0:0:0:0:
475,192,64418,1,0,0:0:0:0:
329,192,64718,1,2,0:0:0:0:
402,192,65018,1,8,0:0:0:0:
109,192,65168,1,0,0:0:0:0:
329,192,65468,1,2,0:0:0:0:
182,192,65618,1,8,0:0:0:0:
36,192,65618,1,0,0:0:0:0:
402,192,65918,1,2,0:0:0:0:
182,192,66218,1,8,0:0:0:0:
475,192,66368,1,0,0:0:0:0:
256,192,66668,1,2,0:0:0:0:
36,192,66818,1,8,0:0:0:0:
182,192,66818,1,0,0:0:0:0:
402,192,67118,1,2,0:0:0:0:
182,192,67418,1,8,0:0:0:0:
36,192,67568,1,8,0:0:0:0:
475,192,67718,1,8,0:0:0:0:
329,192,67868,1,2,0:0:0:0:
256,192,68018,128,8,68318:0:0:0:0:
475,192,68318,1,4,0:0:0:0:
36,192,68318,1,4,0:0:0:0:
109,192,68618,1,8,0:0:0:0:
402,192,68768,1,0,0:0:0:0:
109,192,69068,1,2,0:0:0:0:
256,192,69218,1,8,0:0:0:0:
475,192,69218,1,0,0:0:0:0:
329,192,69518,1,2,0:0:0:0:
402,192,69818,1,8,0:0:0:0:
109,192,69968,1,0,0:0:0:0:
256,192,70268,1,2,0:0:0:0:
182,192,70418,1,8,0:0:0:0:
36,192,70418,1,0,0:0:0:0:
402,192,70718,1,2,0:0:0:0:
109,192,71018,1,8,0:0:0:0:
329,192,71168,1,0,0:0:0:0:
182,192,71468,1,2,0:0:0:0:
329,192,71618,1,8,0:0:0:0:
475,192,71618,1,0,0:0:0:0:
256,192,71918,1,2,0:0:0:0:
402,192,72218,1,8,0:0:0:0:
256,192,72368,1,0,0:0:0:0:
109,192,72518,1,0,0:0:0:0:
329,192,72668,128,2,73118:0:0:0:0:
475,192,73118,1,2,0:0:0:0:
36,192,73118,1,4,0:0:0:0:
36,192,73418,1,2,0:0:0:0:
475,192,73418,1,0,0:0:0:0:
109,192,73718,1,4,0:0:0:0:
256,192,73718,1,2,0:0:0:0:
36,192,74918,1,4,0:0:0:0:
182,192,74918,1,2,0:0:0:0:
329,192,75118,1,2,0:0:0:0:
475,192,75118,1,4,0:0:0:0:
109,192,75318,1,4,0:0:0:0:
182,192,75318,1,2,0:0:0:0:
402,192,75518,1,4,0:0:0:0:
329,192,75518,1,2,0:0:0:0:
182,192,76718,1,4,0:0:0:0:
475,192,76718,1,2,0:0:0:0:
182,192,77018,1,4,0:0:0:0:
475,192,77018,1,0,0:0:0:0:
329,192,77318,1,2,0:0:0:0:
36,192,77318,1,4,0:0:0:0:
109,192,77918,1,4,0:0:0:0:
329,192,77918,1,2,0:0:0:0:
329,192,78218,1,4,0:0:0:0:
109,192,78218,1,2,0:0:0:0:
182,192,78518,1,2,0:0:0:0:
402,192,78518,1,4,0:0:0:0:
329,192,79118,1,2,0:0:0:0:
329,192,79418,1,2,0:0:0:0:
256,192,79718,1,2,0:0:0:0:
36,192,79718,1,4,0:0:0:0:
402,192,80318,1,2,0:0:0:0:
402,192,80618,1,2,0:0:0:0:
36,192,80618,1,4,0:0:0:0:
182,192,80918,128,2,81518:0:0:0:0:
329,192,81218,128,0,81518:0:0:0:0:
36,192,81518,128,4,81968:0:0:0:0:
475,192,81518,1,2,0:0:0:0:
402,192,81968,128,0,82718:0:0:0:0:
256,192,82718,128,2,83018:0:0:0:0:
109,192,83018,128,8,83318:0:0:0:0:
36,192,83318,128,0,83618:0:0:0:0:
256,192,83618,128,8,83918:0:0:0:0:
329,192,83918,128,4,84368:0:0:0:0:
36,192,83918,1,2,0:0:0:0:
402,192,84368,128,0,84818:0:0:0:0:
475,192,84818,128,8,86018:0:0:0:0:
256,192,86018,1,8,0:0:0:0:
329,192,86168,1,8,0:0:0:0:
109,192,86318,128,4,86768:0:0:0:0:
402,192,86318,1,2,0:0:0:0:
329,192,86768,128,0,87518:0:0:0:0:
36,192,87518,128,2,87818:0:0:0:0:
182,192,87818,128,8,88118:0:0:0:0:
256,192,88118,128,0,88418:0:0:0:0:
402,192,88418,128,8,88718:0:0:0:0:
109,192,88718,128,4,89168:0:0:0:0:
329,192,88718,1,2,0:0:0:0:
475,192,89168,128,0,89618:0:0:0:0:
256,192,89618,1,4,0:0:0:0:
329,192,89768,1,0,0:0:0:0:
182,192,89918,128,0,90368:0:0:0:0:
329,192,90368,128,0,90818:0:0:0:0:
475,192,90818,1,8,0:0:0:0:
256,192,90968,1,8,0:0:0:0:
36,192,91118,128,2,91568:0:0:0:0:
402,192,91118,1,4,0:0:0:0:
329,192,91568,128,0,92318:0:0:0:0:
402,192,92318,128,2,92618:0:0:0:0:
256,192,92618,128,8,92918:0:0:0:0:
109,192,92918,128,0,93218:0:0:0:0:
36,192,93218,128,8,93518:0:0:0:0:
329,192,93518,128,4,93968:0:0:0:0:
402,192,93968,128,0,94418:0:0:0:0:
475,192,94418,128,8,95618:0:0:0:0:
329,192,95618,1,8,0:0:0:0:
256,192,95768,1,8,0:0:0:0:
109,192,95918,128,4,96368:0:0:0:0:
329,192,95918,1,2,0:0:0:0:
402,192,96368,128,0,97118:0:0:0:0:
475,192,97118,128,4,97418:0:0:0:0:
109,192,97118,1,2,0:0:0:0:
329,192,97418,128,8,97718:0:0:0:0:
182,192,97718,128,0,98018:0:0:0:0:
109,192,98018,128,8,98318:0:0:0:0:
36,192,98318,1,4,0:0:0:0:
475,192,98318,1,2,0:0:0:0:
256,192,98468,1,2,0:0:0:0:
402,192,98768,1,2,0:0:0:0:
109,192,98768,1,4,0:0:0:0:
182,192,98918,1,4,0:0:0:0:
329,192,98918,1,2,0:0:0:0:
475,192,99218,1,2,0:0:0:0:
256,192,99218,1,0,0:0:0:0:
36,192,99368,1,2,0:0:0:0:
109,192,99668,1,2,0:0:0:0:
256,192,99668,1,4,0:0:0:0:
402,192,99818,1,4,0:0:0:0:
36,192,100118,1,2,0:0:0:0:
256,192,100118,1,4,0:0:0:0:
182,192,100268,1,4,0:0:0:0:
402,192,100268,1,2,0:0:0:0:
475,192,100718,1,2,0:0:0:0:
36,192,100718,1,4,0:0:0:0:
256,192,100868,1,2,0:0:0:0:
402,192,101168,1,4,0:0:0:0:
109,192,101168,1,2,0:0:0:0:
329,192,101318,1,2,0:0:0:0:
182,192,101318,1,0,0:0:0:0:
36,192,101618,1,2,0:0:0:0:
256,192,101618,1,0,0:0:0:0:
475,192,101768,1,2,0:0:0:0:
402,192,102068,1,2,0:0:0:0:
256,192,102068,1,4,0:0:0:0:
109,192,102218,1,4,0:0:0:0:
182,192,102518,1,2,0:0:0:0:
329,192,102518,1,4,0:0:0:0:
475,192,102668,1,4,0:0:0:0:
36,192,102668,1,2,0:0:0:0:
329,192,103118,1,2,0:0:0:0:
182,192,103118,1,4,0:0:0:0:
256,192,103118,1,0,0:0:0:0:
36,192,103568,1,8,0:0:0:0:
182,192,103568,1,0,0:0:0:0:
36,192,104018,1,8,0:0:0:0:
256,192,104018,1,0,0:0:0:0:
36,192,104468,1,8,0:0:0:0:
402,192,104468,1,0,0:0:0:0:
36,192,104918,1,8,0:0:0:0:
475,192,104918,1,0,0:0:0:0:
36,192,105368,1,8,0:0:0:0:
475,192,105368,1,0,0:0:0:0:
182,192,105818,1,8,0:0:0:0:
329,192,105818,1,0,0:0:0:0:
329,192,105968,1,0,0:0:0:0:
182,192,105968,1,8,0:0:0:0:
