osu file format v14

[General]
AudioFilename: audio.mp3
AudioLeadIn: 0
PreviewTime: 44318
Countdown: 0
SampleSet: Soft
StackLeniency: 0.7
Mode: 3
LetterboxInBreaks: 0
SpecialStyle: 0
WidescreenStoryboard: 0

[Editor]
DistanceSpacing: 0.8
BeatDivisor: 4
GridSize: 4
TimelineZoom: 1.4

[Metadata]
Title:Lilieze to Enryuu Laevateinn
TitleUnicode:リリーゼと炎龍レーヴァテイン
Artist:Kuroneko Dungeon
ArtistUnicode:黒猫ダンジョン
Creator:DE-CADE
Version:4K Hyper
Source:REFLEC BEAT colette -Summer-
Tags:Raymond Kuo Kyoka beatmania IIDX 22 PENDUAL Tomosuke Funaki OLDSTYLE GAMEMUSIC BeatStream アニムトライヴ pop'n music うさぎと猫と少年の夢 plus KONAMI BEMANI
BeatmapID:1125049
BeatmapSetID:530756

[Difficulty]
HPDrainRate:8
CircleSize:4
OverallDifficulty:7
ApproachRate:5
SliderMultiplier:1.4
SliderTickRate:1

[Events]
//Background and Video events
0,0,"36528051_p0.jpg",0,0
Video,0,"BGA.avi"
//Break Periods
//Storyboard Layer 0 (Background)
//Storyboard Layer 1 (Fail)
//Storyboard Layer 2 (Pass)
//Storyboard Layer 3 (Foreground)
//Storyboard Sound Samples

[TimingPoints]
518,300,4,2,1,95,1,0
34718,300,4,2,1,95,1,0
44318,-100,4,2,1,95,0,1
53918,-100,4,2,1,95,0,0
81518,-100,4,2,1,95,0,1
98018,-100,4,2,1,95,0,0
98318,-100,4,2,1,95,0,1
98468,-100,4,2,1,95,0,0
100718,-100,4,2,1,95,0,1
100868,-100,4,2,1,95,0,0
103118,-100,4,2,1,95,0,1
103268,-100,4,2,1,95,0,0

[HitObjects]
64,192,518,5,8,0:0:0:0:
448,192,593,1,8,0:0:0:0:
192,192,668,1,2,0:0:0:0:
320,192,743,1,2,0:0:0:0:
192,192,818,1,2,0:0:0:0:
320,192,893,1,2,0:0:0:0:
64,192,968,1,8,0:0:0:0:
448,192,1043,1,8,0:0:0:0:
192,192,1118,1,2,0:0:0:0:
320,192,1193,1,2,0:0:0:0:
192,192,1268,1,2,0:0:0:0:
64,192,1318,1,2,0:0:0:0:
448,192,1368,1,2,0:0:0:0:
320,192,1418,1,8,0:0:0:0:
192,192,1493,1,8,0:0:0:0:
320,192,1568,1,8,0:0:0:0:
192,192,1643,1,8,0:0:0:0:
64,192,1718,1,2,0:0:0:0:
448,192,1718,1,4,0:0:0:0:
320,192,1868,1,0,0:0:0:0:
192,192,2018,1,0,0:0:0:0:
64,192,2168,1,8,0:0:0:0:
320,192,2168,1,0,0:0:0:0:
448,192,2318,128,0,2468:0:0:0:0:
64,192,2468,1,0,0:0:0:0:
192,192,2618,1,0,0:0:0:0:
320,192,2768,1,8,0:0:0:0:
448,192,2768,1,0,0:0:0:0:
64,192,2918,128,0,3068:0:0:0:0:
192,192,3068,1,0,0:0:0:0:
320,192,3218,1,0,0:0:0:0:
64,192,3368,1,8,0:0:0:0:
192,192,3368,1,0,0:0:0:0:
448,192,3518,128,0,3668:0:0:0:0:
64,192,3668,1,0,0:0:0:0:
192,192,3818,1,8,0:0:0:0:
320,192,3818,1,0,0:0:0:0:
448,192,3968,1,0,0:0:0:0:
64,192,4118,128,0,4268:0:0:0:0:
192,192,4268,1,0,0:0:0:0:
320,192,4418,1,8,0:0:0:0:
448,192,4418,1,0,0:0:0:0:
64,192,4568,1,0,0:0:0:0:
448,192,4718,128,0,4868:0:0:0:0:
192,192,4868,1,8,0:0:0:0:
320,192,4868,1,0,0:0:0:0:
64,192,5018,1,0,0:0:0:0:
192,192,5168,1,8,0:0:0:0:
320,192,5243,1,8,0:0:0:0:
448,192,5318,1,4,0:0:0:0:
64,192,5318,1,0,0:0:0:0:
192,192,5468,1,0,0:0:0:0:
320,192,5618,1,8,0:0:0:0:
448,192,5618,1,0,0:0:0:0:
192,192,5768,1,0,0:0:0:0:
64,192,5918,1,8,0:0:0:0:
320,192,5918,1,0,0:0:0:0:
448,192,6068,1,0,0:0:0:0:
448,192,6218,1,0,0:0:0:0:
64,192,6368,1,8,0:0:0:0:
192,192,6368,1,0,0:0:0:0:
320,192,6518,1,0,0:0:0:0:
448,192,6668,1,8,0:0:0:0:
64,192,6668,1,0,0:0:0:0:
320,192,6818,1,0,0:0:0:0:
320,192,6968,1,0,0:0:0:0:
448,192,7118,1,8,0:0:0:0:
192,192,7118,1,0,0:0:0:0:
320,192,7268,1,0,0:0:0:0:
64,192,7418,1,8,0:0:0:0:
448,192,7418,1,0,0:0:0:0:
192,192,7568,1,0,0:0:0:0:
192,192,7718,1,0,0:0:0:0:
320,192,7868,1,8,0:0:0:0:
448,192,7868,1,0,0:0:0:0:
64,192,8018,1,0,0:0:0:0:
192,192,8168,1,8,0:0:0:0:
448,192,8168,1,0,0:0:0:0:
64,192,8318,1,0,0:0:0:0:
64,192,8468,1,0,0:0:0:0:
320,192,8618,1,8,0:0:0:0:
448,192,8618,1,0,0:0:0:0:
192,192,8768,1,0,0:0:0:0:
448,192,8918,1,8,0:0:0:0:
64,192,8918,1,0,0:0:0:0:
320,192,9068,1,0,0:0:0:0:
320,192,9218,1,0,0:0:0:0:
192,192,9293,1,8,0:0:0:0:
64,192,9368,1,8,0:0:0:0:
448,192,9518,1,0,0:0:0:0:
192,192,9518,1,0,0:0:0:0:
320,192,9668,1,8,0:0:0:0:
448,192,9818,1,8,0:0:0:0:
64,192,9818,1,0,0:0:0:0:
192,192,9968,1,8,0:0:0:0:
320,192,10118,1,8,0:0:0:0:
64,192,10118,1,2,0:0:0:0:
448,192,10118,1,4,0:0:0:0:
192,192,10418,1,8,0:0:0:0:
320,192,10418,1,0,0:0:0:0:
64,192,10618,1,2,0:0:0:0:
320,192,10718,1,2,0:0:0:0:
448,192,10718,1,0,0:0:0:0:
64,192,11018,1,8,0:0:0:0:
192,192,11018,1,0,0:0:0:0:
448,192,11318,1,2,0:0:0:0:
64,192,11318,1,0,0:0:0:0:
320,192,11618,1,8,0:0:0:0:
192,192,11718,1,2,0:0:0:0:
64,192,11818,1,2,0:0:0:0:
320,192,11918,1,0,0:0:0:0:
448,192,11918,1,2,0:0:0:0:
192,192,12218,1,8,0:0:0:0:
320,192,12318,1,2,0:0:0:0:
192,192,12418,1,2,0:0:0:0:
64,192,12518,1,2,0:0:0:0:
448,192,12518,1,4,0:0:0:0:
192,192,12818,1,8,0:0:0:0:
320,192,12818,1,0,0:0:0:0:
448,192,13018,1,2,0:0:0:0:
64,192,13118,1,2,0:0:0:0:
192,192,13118,1,0,0:0:0:0:
320,192,13418,1,8,0:0:0:0:
448,192,13418,1,0,0:0:0:0:
64,192,13718,1,2,0:0:0:0:
448,192,13718,1,0,0:0:0:0:
192,192,13918,1,2,0:0:0:0:
320,192,14018,1,8,0:0:0:0:
192,192,14118,1,2,0:0:0:0:
320,192,14218,1,2,0:0:0:0:
448,192,14318,1,8,0:0:0:0:
64,192,14418,1,2,0:0:0:0:
320,192,14518,1,2,0:0:0:0:
192,192,14618,1,8,0:0:0:0:
320,192,14718,1,2,0:0:0:0:
448,192,14818,1,2,0:0:0:0:
64,192,14918,1,2,0:0:0:0:
192,192,14918,1,4,0:0:0:0:
320,192,15218,1,8,0:0:0:0:
192,192,15218,1,0,0:0:0:0:
64,192,15418,1,2,0:0:0:0:
320,192,15518,1,2,0:0:0:0:
448,192,15518,1,0,0:0:0:0:
64,192,15818,1,8,0:0:0:0:
448,192,15818,1,0,0:0:0:0:
192,192,16118,1,2,0:0:0:0:
320,192,16218,1,2,0:0:0:0:
192,192,16318,1,2,0:0:0:0:
64,192,16418,1,8,0:0:0:0:
448,192,16518,1,0,0:0:0:0:
320,192,16618,1,2,0:0:0:0:
192,192,16718,1,2,0:0:0:0:
64,192,16718,1,0,0:0:0:0:
320,192,17018,1,8,0:0:0:0:
192,192,17118,1,2,0:0:0:0:
320,192,17218,1,2,0:0:0:0:
448,192,17318,1,2,0:0:0:0:
64,192,17318,1,4,0:0:0:0:
192,192,17618,1,8,0:0:0:0:
320,192,17618,1,0,0:0:0:0:
64,192,17818,1,2,0:0:0:0:
320,192,17918,1,2,0:0:0:0:
448,192,17918,1,0,0:0:0:0:
64,192,18218,1,8,0:0:0:0:
192,192,18218,1,0,0:0:0:0:
448,192,18518,1,2,0:0:0:0:
64,192,18518,1,0,0:0:0:0:
192,192,18618,1,2,0:0:0:0:
320,192,18718,1,2,0:0:0:0:
192,192,18818,1,8,0:0:0:0:
320,192,18918,1,2,0:0:0:0:
192,192,19018,1,2,0:0:0:0:
64,192,19118,1,8,0:0:0:0:
448,192,19118,1,0,0:0:0:0:
320,192,19218,1,2,0:0:0:0:
192,192,19318,1,2,0:0:0:0:
64,192,19418,1,2,0:0:0:0:
320,192,19493,1,2,0:0:0:0:
192,192,19568,1,0,0:0:0:0:
320,192,19643,1,0,0:0:0:0:
64,192,19718,1,2,0:0:0:0:
448,192,19718,1,4,0:0:0:0:
192,192,19868,1,0,0:0:0:0:
320,192,19943,1,0,0:0:0:0:
448,192,20018,1,8,0:0:0:0:
64,192,20093,1,0,0:0:0:0:
192,192,20168,1,0,0:0:0:0:
320,192,20243,1,0,0:0:0:0:
192,192,20318,1,2,0:0:0:0:
320,192,20393,1,0,0:0:0:0:
448,192,20468,1,0,0:0:0:0:
64,192,20543,1,0,0:0:0:0:
192,192,20618,1,8,0:0:0:0:
320,192,20693,1,0,0:0:0:0:
448,192,20768,1,0,0:0:0:0:
192,192,20843,1,0,0:0:0:0:
64,192,20918,1,2,0:0:0:0:
320,192,20993,1,0,0:0:0:0:
448,192,21068,1,0,0:0:0:0:
320,192,21143,1,0,0:0:0:0:
192,192,21218,1,8,0:0:0:0:
64,192,21293,1,0,0:0:0:0:
192,192,21368,1,0,0:0:0:0:
320,192,21443,1,0,0:0:0:0:
448,192,21518,1,2,0:0:0:0:
320,192,21593,1,0,0:0:0:0:
192,192,21668,1,0,0:0:0:0:
320,192,21743,1,0,0:0:0:0:
448,192,21818,1,8,0:0:0:0:
64,192,21893,1,0,0:0:0:0:
192,192,21968,1,0,0:0:0:0:
320,192,22043,1,0,0:0:0:0:
448,192,22118,1,4,0:0:0:0:
64,192,22118,1,2,0:0:0:0:
192,192,22268,1,0,0:0:0:0:
320,192,22343,1,0,0:0:0:0:
192,192,22418,1,8,0:0:0:0:
320,192,22493,1,0,0:0:0:0:
448,192,22568,1,0,0:0:0:0:
64,192,22643,1,0,0:0:0:0:
192,192,22718,1,2,0:0:0:0:
320,192,22793,1,0,0:0:0:0:
448,192,22868,1,0,0:0:0:0:
320,192,22943,1,0,0:0:0:0:
64,192,23018,1,8,0:0:0:0:
192,192,23093,1,0,0:0:0:0:
320,192,23168,1,0,0:0:0:0:
448,192,23243,1,0,0:0:0:0:
320,192,23318,1,2,0:0:0:0:
192,192,23393,1,0,0:0:0:0:
320,192,23468,1,0,0:0:0:0:
448,192,23543,1,0,0:0:0:0:
320,192,23618,1,8,0:0:0:0:
192,192,23693,1,0,0:0:0:0:
64,192,23768,1,0,0:0:0:0:
192,192,23843,1,0,0:0:0:0:
320,192,23918,1,2,0:0:0:0:
448,192,23993,1,0,0:0:0:0:
64,192,24068,1,0,0:0:0:0:
192,192,24143,1,0,0:0:0:0:
320,192,24218,1,8,0:0:0:0:
448,192,24293,1,0,0:0:0:0:
192,192,24368,1,0,0:0:0:0:
320,192,24443,1,0,0:0:0:0:
64,192,24518,1,4,0:0:0:0:
448,192,24518,1,2,0:0:0:0:
192,192,24668,1,0,0:0:0:0:
64,192,24743,1,0,0:0:0:0:
448,192,24818,1,8,0:0:0:0:
320,192,24893,1,0,0:0:0:0:
192,192,24968,1,0,0:0:0:0:
64,192,25043,1,0,0:0:0:0:
320,192,25118,1,2,0:0:0:0:
448,192,25193,1,0,0:0:0:0:
64,192,25268,1,0,0:0:0:0:
192,192,25343,1,0,0:0:0:0:
320,192,25418,1,8,0:0:0:0:
192,192,25493,1,0,0:0:0:0:
320,192,25568,1,0,0:0:0:0:
448,192,25643,1,0,0:0:0:0:
64,192,25718,1,2,0:0:0:0:
192,192,25793,1,0,0:0:0:0:
320,192,25868,1,0,0:0:0:0:
448,192,25943,1,0,0:0:0:0:
320,192,26018,1,8,0:0:0:0:
192,192,26093,1,0,0:0:0:0:
320,192,26168,1,0,0:0:0:0:
448,192,26243,1,0,0:0:0:0:
320,192,26318,1,2,0:0:0:0:
192,192,26393,1,0,0:0:0:0:
64,192,26468,1,0,0:0:0:0:
192,192,26543,1,0,0:0:0:0:
448,192,26618,1,8,0:0:0:0:
320,192,26693,1,0,0:0:0:0:
448,192,26768,1,0,0:0:0:0:
320,192,26843,1,0,0:0:0:0:
64,192,26918,1,4,0:0:0:0:
192,192,26918,1,2,0:0:0:0:
320,192,26993,1,0,0:0:0:0:
448,192,27068,1,0,0:0:0:0:
320,192,27143,1,0,0:0:0:0:
192,192,27218,1,8,0:0:0:0:
64,192,27293,1,0,0:0:0:0:
192,192,27368,1,0,0:0:0:0:
320,192,27443,1,0,0:0:0:0:
448,192,27518,1,2,0:0:0:0:
64,192,27593,1,0,0:0:0:0:
192,192,27668,1,0,0:0:0:0:
320,192,27743,1,0,0:0:0:0:
192,192,27818,1,8,0:0:0:0:
64,192,27893,1,0,0:0:0:0:
448,192,27968,1,0,0:0:0:0:
320,192,28043,1,0,0:0:0:0:
192,192,28118,1,2,0:0:0:0:
320,192,28193,1,0,0:0:0:0:
448,192,28268,1,0,0:0:0:0:
64,192,28343,1,0,0:0:0:0:
192,192,28418,1,8,0:0:0:0:
320,192,28493,1,0,0:0:0:0:
448,192,28568,1,0,0:0:0:0:
320,192,28643,1,0,0:0:0:0:
64,192,28718,1,8,0:0:0:0:
192,192,28793,1,2,0:0:0:0:
64,192,28868,1,8,0:0:0:0:
448,192,28943,1,2,0:0:0:0:
320,192,29018,1,2,0:0:0:0:
192,192,29093,1,2,0:0:0:0:
320,192,29168,1,2,0:0:0:0:
192,192,29243,1,2,0:0:0:0:
64,192,29318,1,4,0:0:0:0:
448,192,29318,1,2,0:0:0:0:
320,192,29468,1,0,0:0:0:0:
192,192,29618,1,8,0:0:0:0:
64,192,29618,1,0,0:0:0:0:
320,192,29768,1,0,0:0:0:0:
64,192,29918,1,8,0:0:0:0:
448,192,29918,1,0,0:0:0:0:
192,192,30068,1,0,0:0:0:0:
320,192,30218,1,8,0:0:0:0:
448,192,30218,1,0,0:0:0:0:
192,192,30368,1,0,0:0:0:0:
448,192,30518,1,8,0:0:0:0:
64,192,30518,1,0,0:0:0:0:
320,192,30668,1,0,0:0:0:0:
192,192,30818,1,8,0:0:0:0:
64,192,30818,1,0,0:0:0:0:
320,192,30968,1,0,0:0:0:0:
448,192,31118,1,8,0:0:0:0:
192,192,31118,1,0,0:0:0:0:
64,192,31268,1,0,0:0:0:0:
320,192,31418,1,8,0:0:0:0:
448,192,31418,1,0,0:0:0:0:
192,192,31568,1,0,0:0:0:0:
320,192,31718,1,8,0:0:0:0:
64,192,31718,1,0,0:0:0:0:
448,192,31868,1,0,0:0:0:0:
64,192,32018,1,8,0:0:0:0:
192,192,32018,1,0,0:0:0:0:
320,192,32168,1,0,0:0:0:0:
192,192,32318,1,8,0:0:0:0:
448,192,32318,1,0,0:0:0:0:
64,192,32468,1,0,0:0:0:0:
320,192,32618,1,8,0:0:0:0:
448,192,32618,1,0,0:0:0:0:
192,192,32768,1,0,0:0:0:0:
448,192,32918,1,8,0:0:0:0:
64,192,32918,1,0,0:0:0:0:
320,192,33068,1,0,0:0:0:0:
192,192,33218,1,8,0:0:0:0:
64,192,33218,1,0,0:0:0:0:
320,192,33368,1,0,0:0:0:0:
448,192,33518,1,8,0:0:0:0:
64,192,33518,1,0,0:0:0:0:
192,192,33668,1,8,0:0:0:0:
320,192,33668,1,0,0:0:0:0:
320,192,33818,1,8,0:0:0:0:
192,192,33818,1,0,0:0:0:0:
64,192,33968,1,8,0:0:0:0:
448,192,33968,1,0,0:0:0:0:
448,192,34268,1,2,0:0:0:0:
320,192,34343,1,2,0:0:0:0:
64,192,34418,1,8,0:0:0:0:
192,192,34493,1,8,0:0:0:0:
320,192,34568,1,2,0:0:0:0:
448,192,34643,1,2,0:0:0:0:
64,192,34718,1,2,0:0:0:0:
192,192,34718,1,4,0:0:0:0:
320,192,34868,1,0,0:0:0:0:
64,192,35018,1,8,0:0:0:0:
448,192,35018,128,0,35168:0:0:0:0:
192,192,35168,1,0,0:0:0:0:
320,192,35318,1,0,0:0:0:0:
192,192,35468,128,2,35618:0:0:0:0:
448,192,35618,1,8,0:0:0:0:
64,192,35618,1,0,0:0:0:0:
320,192,35768,1,0,0:0:0:0:
192,192,35918,1,2,0:0:0:0:
64,192,35918,128,0,36068:0:0:0:0:
320,192,36068,1,0,0:0:0:0:
448,192,36218,1,8,0:0:0:0:
192,192,36218,1,0,0:0:0:0:
320,192,36368,128,0,36668:0:0:0:0:
64,192,36518,1,0,0:0:0:0:
192,192,36668,1,2,0:0:0:0:
64,192,36818,1,8,0:0:0:0:
448,192,36818,1,0,0:0:0:0:
320,192,36968,1,0,0:0:0:0:
64,192,37118,1,2,0:0:0:0:
192,192,37118,1,0,0:0:0:0:
320,192,37268,1,0,0:0:0:0:
64,192,37418,1,8,0:0:0:0:
448,192,37418,128,0,37568:0:0:0:0:
192,192,37568,1,0,0:0:0:0:
320,192,37718,1,0,0:0:0:0:
192,192,37868,128,2,38018:0:0:0:0:
64,192,38018,1,8,0:0:0:0:
448,192,38018,1,0,0:0:0:0:
320,192,38168,1,0,0:0:0:0:
192,192,38318,1,2,0:0:0:0:
64,192,38318,128,0,38468:0:0:0:0:
448,192,38468,1,0,0:0:0:0:
320,192,38618,1,8,0:0:0:0:
192,192,38618,1,0,0:0:0:0:
64,192,38768,1,0,0:0:0:0:
192,192,38843,1,0,0:0:0:0:
320,192,38918,1,0,0:0:0:0:
448,192,38993,1,0,0:0:0:0:
320,192,39068,1,2,0:0:0:0:
192,192,39143,1,0,0:0:0:0:
64,192,39218,1,8,0:0:0:0:
192,192,39293,1,0,0:0:0:0:
320,192,39368,1,0,0:0:0:0:
192,192,39443,1,0,0:0:0:0:
320,192,39518,1,2,0:0:0:0:
448,192,39518,1,4,0:0:0:0:
192,192,39668,1,0,0:0:0:0:
448,192,39818,1,8,0:0:0:0:
64,192,39818,128,0,39968:0:0:0:0:
320,192,39968,1,0,0:0:0:0:
192,192,40118,1,0,0:0:0:0:
320,192,40268,128,2,40418:0:0:0:0:
448,192,40418,1,8,0:0:0:0:
64,192,40418,1,0,0:0:0:0:
192,192,40568,1,0,0:0:0:0:
320,192,40718,1,2,0:0:0:0:
448,192,40718,128,0,40868:0:0:0:0:
64,192,40868,1,0,0:0:0:0:
192,192,41018,1,8,0:0:0:0:
320,192,41168,128,0,41468:0:0:0:0:
64,192,41318,1,0,0:0:0:0:
192,192,41468,1,2,0:0:0:0:
448,192,41618,1,8,0:0:0:0:
64,192,41618,1,0,0:0:0:0:
320,192,41768,1,0,0:0:0:0:
192,192,41918,1,2,0:0:0:0:
64,192,41918,1,4,0:0:0:0:
320,192,42068,1,0,0:0:0:0:
448,192,42218,1,8,0:0:0:0:
64,192,42218,128,0,42368:0:0:0:0:
192,192,42368,1,0,0:0:0:0:
320,192,42518,1,0,0:0:0:0:
448,192,42668,128,2,42818:0:0:0:0:
64,192,42668,1,0,0:0:0:0:
192,192,42818,1,8,0:0:0:0:
320,192,42968,1,0,0:0:0:0:
448,192,43118,1,2,0:0:0:0:
64,192,43118,1,4,0:0:0:0:
192,192,43268,1,0,0:0:0:0:
320,192,43418,1,8,0:0:0:0:
64,192,43418,1,0,0:0:0:0:
448,192,43568,1,0,0:0:0:0:
320,192,43643,1,0,0:0:0:0:
192,192,43718,1,0,0:0:0:0:
64,192,43793,1,0,0:0:0:0:
448,192,43868,1,2,0:0:0:0:
320,192,43943,1,0,0:0:0:0:
192,192,44018,1,8,0:0:0:0:
64,192,44093,1,8,0:0:0:0:
192,192,44168,1,8,0:0:0:0:
320,192,44243,1,8,0:0:0:0:
448,192,44318,1,2,0:0:0:0:
64,192,44318,1,4,0:0:0:0:
320,192,44468,1,0,0:0:0:0:
448,192,44618,128,8,44768:0:0:0:0:
192,192,44618,128,0,44768:0:0:0:0:
64,192,44768,1,0,0:0:0:0:
320,192,44918,1,0,0:0:0:0:
192,192,45068,1,2,0:0:0:0:
64,192,45218,128,8,45368:0:0:0:0:
448,192,45218,128,0,45368:0:0:0:0:
320,192,45368,1,0,0:0:0:0:
448,192,45518,1,2,0:0:0:0:
64,192,45668,1,0,0:0:0:0:
320,192,45818,128,8,45968:0:0:0:0:
192,192,45818,128,0,45968:0:0:0:0:
448,192,45968,1,0,0:0:0:0:
64,192,46118,128,0,46268:0:0:0:0:
192,192,46268,128,2,46418:0:0:0:0:
448,192,46418,1,8,0:0:0:0:
320,192,46568,1,0,0:0:0:0:
64,192,46718,1,2,0:0:0:0:
192,192,46718,1,4,0:0:0:0:
320,192,46868,1,0,0:0:0:0:
64,192,47018,128,8,47168:0:0:0:0:
448,192,47168,128,0,47318:0:0:0:0:
320,192,47318,1,0,0:0:0:0:
192,192,47393,1,0,0:0:0:0:
64,192,47468,1,2,0:0:0:0:
320,192,47618,1,8,0:0:0:0:
448,192,47768,1,0,0:0:0:0:
192,192,47918,1,2,0:0:0:0:
64,192,47918,1,4,0:0:0:0:
320,192,48068,1,0,0:0:0:0:
192,192,48218,128,8,48368:0:0:0:0:
448,192,48368,128,0,48518:0:0:0:0:
64,192,48518,1,0,0:0:0:0:
192,192,48668,1,2,0:0:0:0:
320,192,48668,1,0,0:0:0:0:
448,192,48818,1,8,0:0:0:0:
320,192,48893,1,8,0:0:0:0:
192,192,48968,1,8,0:0:0:0:
320,192,49043,1,8,0:0:0:0:
448,192,49118,1,2,0:0:0:0:
64,192,49118,1,4,0:0:0:0:
192,192,49268,1,0,0:0:0:0:
64,192,49418,128,8,49568:0:0:0:0:
320,192,49418,128,0,49568:0:0:0:0:
448,192,49568,1,0,0:0:0:0:
192,192,49718,1,0,0:0:0:0:
320,192,49868,1,2,0:0:0:0:
448,192,50018,128,8,50168:0:0:0:0:
64,192,50018,128,0,50168:0:0:0:0:
192,192,50168,1,0,0:0:0:0:
64,192,50318,1,2,0:0:0:0:
448,192,50468,1,0,0:0:0:0:
192,192,50618,128,8,50768:0:0:0:0:
320,192,50618,128,0,50768:0:0:0:0:
64,192,50768,1,0,0:0:0:0:
448,192,50918,128,0,51068:0:0:0:0:
320,192,51068,128,2,51218:0:0:0:0:
64,192,51218,1,8,0:0:0:0:
192,192,51368,1,0,0:0:0:0:
320,192,51518,1,2,0:0:0:0:
448,192,51518,1,4,0:0:0:0:
192,192,51668,1,0,0:0:0:0:
448,192,51818,128,8,51968:0:0:0:0:
64,192,51968,128,0,52118:0:0:0:0:
192,192,52118,1,0,0:0:0:0:
320,192,52193,1,0,0:0:0:0:
448,192,52268,1,2,0:0:0:0:
320,192,52418,1,8,0:0:0:0:
192,192,52568,1,0,0:0:0:0:
64,192,52718,1,2,0:0:0:0:
448,192,52718,1,4,0:0:0:0:
320,192,52868,1,0,0:0:0:0:
192,192,53018,128,8,53168:0:0:0:0:
64,192,53168,128,0,53318:0:0:0:0:
448,192,53318,1,0,0:0:0:0:
320,192,53318,1,0,0:0:0:0:
192,192,53468,1,2,0:0:0:0:
320,192,53618,1,8,0:0:0:0:
448,192,53768,1,0,0:0:0:0:
64,192,53918,1,2,0:0:0:0:
192,192,53918,1,4,0:0:0:0:
320,192,54068,1,0,0:0:0:0:
448,192,54218,1,8,0:0:0:0:
64,192,54368,1,4,0:0:0:0:
192,192,54368,1,2,0:0:0:0:
448,192,54518,1,0,0:0:0:0:
320,192,54668,1,0,0:0:0:0:
192,192,54818,1,2,0:0:0:0:
64,192,54818,1,4,0:0:0:0:
320,192,54968,1,0,0:0:0:0:
64,192,55118,1,8,0:0:0:0:
448,192,55268,1,4,0:0:0:0:
320,192,55268,1,2,0:0:0:0:
192,192,55418,1,0,0:0:0:0:
64,192,55568,1,0,0:0:0:0:
192,192,55718,1,8,0:0:0:0:
320,192,55793,1,2,0:0:0:0:
192,192,55868,1,2,0:0:0:0:
448,192,56018,1,8,0:0:0:0:
320,192,56168,1,0,0:0:0:0:
64,192,56318,1,2,0:0:0:0:
192,192,56318,1,4,0:0:0:0:
320,192,56468,1,0,0:0:0:0:
448,192,56618,1,8,0:0:0:0:
192,192,56768,1,2,0:0:0:0:
64,192,56768,1,4,0:0:0:0:
320,192,56918,1,0,0:0:0:0:
64,192,57068,1,0,0:0:0:0:
448,192,57218,1,2,0:0:0:0:
320,192,57218,1,4,0:0:0:0:
192,192,57368,1,0,0:0:0:0:
448,192,57518,1,8,0:0:0:0:
64,192,57668,1,4,0:0:0:0:
192,192,57668,1,2,0:0:0:0:
320,192,57818,1,0,0:0:0:0:
192,192,57968,1,0,0:0:0:0:
64,192,58118,1,8,0:0:0:0:
192,192,58193,1,2,0:0:0:0:
320,192,58268,1,2,0:0:0:0:
448,192,58418,1,8,0:0:0:0:
192,192,58568,1,0,0:0:0:0:
448,192,58718,1,4,0:0:0:0:
320,192,58718,1,2,0:0:0:0:
192,192,58868,1,0,0:0:0:0:
64,192,59018,1,8,0:0:0:0:
448,192,59168,1,4,0:0:0:0:
320,192,59168,1,2,0:0:0:0:
64,192,59318,1,2,0:0:0:0:
192,192,59468,1,2,0:0:0:0:
448,192,59618,1,4,0:0:0:0:
320,192,59618,1,2,0:0:0:0:
192,192,59768,1,0,0:0:0:0:
448,192,59918,1,8,0:0:0:0:
64,192,60068,1,2,0:0:0:0:
192,192,60068,1,4,0:0:0:0:
320,192,60218,1,0,0:0:0:0:
448,192,60368,1,0,0:0:0:0:
192,192,60518,1,8,0:0:0:0:
320,192,60593,1,2,0:0:0:0:
192,192,60668,1,2,0:0:0:0:
64,192,60818,1,8,0:0:0:0:
192,192,60968,1,0,0:0:0:0:
448,192,61118,1,2,0:0:0:0:
320,192,61118,1,4,0:0:0:0:
192,192,61268,1,0,0:0:0:0:
64,192,61418,1,8,0:0:0:0:
448,192,61568,1,2,0:0:0:0:
320,192,61568,1,4,0:0:0:0:
64,192,61718,1,2,0:0:0:0:
192,192,61868,1,2,0:0:0:0:
448,192,62018,1,2,0:0:0:0:
320,192,62018,1,4,0:0:0:0:
192,192,62168,1,0,0:0:0:0:
448,192,62318,1,8,0:0:0:0:
64,192,62468,1,4,0:0:0:0:
192,192,62468,1,2,0:0:0:0:
320,192,62618,1,0,0:0:0:0:
448,192,62768,1,0,0:0:0:0:
320,192,62918,1,8,0:0:0:0:
192,192,62993,1,2,0:0:0:0:
64,192,63068,1,2,0:0:0:0:
448,192,63218,1,8,0:0:0:0:
320,192,63293,1,8,0:0:0:0:
192,192,63368,1,8,0:0:0:0:
320,192,63443,1,8,0:0:0:0:
448,192,63518,1,4,0:0:0:0:
64,192,63518,1,2,0:0:0:0:
192,192,63668,1,0,0:0:0:0:
320,192,63743,1,0,0:0:0:0:
448,192,63818,1,8,0:0:0:0:
64,192,63968,1,0,0:0:0:0:
192,192,64043,1,0,0:0:0:0:
320,192,64118,1,0,0:0:0:0:
192,192,64268,1,2,0:0:0:0:
320,192,64343,1,0,0:0:0:0:
448,192,64418,1,8,0:0:0:0:
64,192,64568,1,0,0:0:0:0:
192,192,64643,1,0,0:0:0:0:
320,192,64718,1,2,0:0:0:0:
192,192,64793,1,0,0:0:0:0:
64,192,64868,1,0,0:0:0:0:
192,192,64943,1,0,0:0:0:0:
320,192,65018,1,8,0:0:0:0:
448,192,65093,1,0,0:0:0:0:
320,192,65168,1,0,0:0:0:0:
192,192,65243,1,0,0:0:0:0:
320,192,65318,1,0,0:0:0:0:
448,192,65393,1,0,0:0:0:0:
64,192,65468,1,2,0:0:0:0:
192,192,65543,1,0,0:0:0:0:
320,192,65618,1,8,0:0:0:0:
448,192,65693,1,0,0:0:0:0:
320,192,65768,1,0,0:0:0:0:
192,192,65843,1,0,0:0:0:0:
320,192,65918,1,2,0:0:0:0:
64,192,65993,1,0,0:0:0:0:
192,192,66068,1,0,0:0:0:0:
320,192,66143,1,0,0:0:0:0:
448,192,66218,1,8,0:0:0:0:
320,192,66293,1,0,0:0:0:0:
192,192,66368,1,0,0:0:0:0:
320,192,66443,1,0,0:0:0:0:
448,192,66518,1,0,0:0:0:0:
320,192,66593,1,0,0:0:0:0:
192,192,66668,1,2,0:0:0:0:
320,192,66743,1,0,0:0:0:0:
448,192,66818,1,8,0:0:0:0:
192,192,66893,1,0,0:0:0:0:
64,192,66968,1,0,0:0:0:0:
192,192,67043,1,0,0:0:0:0:
320,192,67118,1,2,0:0:0:0:
448,192,67193,1,0,0:0:0:0:
64,192,67268,1,0,0:0:0:0:
192,192,67343,1,0,0:0:0:0:
320,192,67418,1,8,0:0:0:0:
448,192,67493,1,0,0:0:0:0:
320,192,67568,1,8,0:0:0:0:
192,192,67643,1,8,0:0:0:0:
64,192,67718,1,8,0:0:0:0:
192,192,67793,1,8,0:0:0:0:
320,192,67868,1,8,0:0:0:0:
192,192,67943,1,8,0:0:0:0:
320,192,68018,1,8,0:0:0:0:
448,192,68093,1,8,0:0:0:0:
64,192,68168,1,8,0:0:0:0:
192,192,68243,1,8,0:0:0:0:
320,192,68318,1,2,0:0:0:0:
448,192,68318,1,4,0:0:0:0:
192,192,68468,1,0,0:0:0:0:
64,192,68543,1,0,0:0:0:0:
320,192,68618,1,8,0:0:0:0:
192,192,68768,1,0,0:0:0:0:
320,192,68843,1,0,0:0:0:0:
448,192,68918,1,0,0:0:0:0:
192,192,69068,1,2,0:0:0:0:
64,192,69143,1,0,0:0:0:0:
320,192,69218,1,8,0:0:0:0:
192,192,69368,1,0,0:0:0:0:
320,192,69443,1,0,0:0:0:0:
448,192,69518,1,2,0:0:0:0:
64,192,69668,1,0,0:0:0:0:
192,192,69743,1,0,0:0:0:0:
320,192,69818,1,8,0:0:0:0:
192,192,69893,1,0,0:0:0:0:
320,192,69968,1,0,0:0:0:0:
448,192,70043,1,0,0:0:0:0:
320,192,70118,1,0,0:0:0:0:
192,192,70193,1,0,0:0:0:0:
320,192,70268,1,2,0:0:0:0:
192,192,70343,1,0,0:0:0:0:
64,192,70418,1,8,0:0:0:0:
192,192,70493,1,0,0:0:0:0:
320,192,70568,1,0,0:0:0:0:
448,192,70643,1,0,0:0:0:0:
64,192,70718,1,2,0:0:0:0:
192,192,70793,1,0,0:0:0:0:
64,192,70868,1,0,0:0:0:0:
192,192,70943,1,0,0:0:0:0:
320,192,71018,1,8,0:0:0:0:
448,192,71093,1,0,0:0:0:0:
320,192,71168,1,0,0:0:0:0:
192,192,71243,1,0,0:0:0:0:
320,192,71318,1,0,0:0:0:0:
448,192,71393,1,0,0:0:0:0:
320,192,71468,1,2,0:0:0:0:
192,192,71543,1,0,0:0:0:0:
320,192,71618,1,8,0:0:0:0:
448,192,71693,1,0,0:0:0:0:
320,192,71768,1,0,0:0:0:0:
192,192,71843,1,0,0:0:0:0:
64,192,71918,1,2,0:0:0:0:
448,192,71993,1,0,0:0:0:0:
320,192,72068,1,0,0:0:0:0:
192,192,72143,1,0,0:0:0:0:
64,192,72218,1,8,0:0:0:0:
320,192,72293,1,0,0:0:0:0:
448,192,72368,1,0,0:0:0:0:
64,192,72443,1,0,0:0:0:0:
192,192,72518,1,0,0:0:0:0:
320,192,72593,1,0,0:0:0:0:
448,192,72668,1,2,0:0:0:0:
64,192,72743,1,0,0:0:0:0:
192,192,72818,1,8,0:0:0:0:
320,192,72893,1,8,0:0:0:0:
448,192,72968,1,8,0:0:0:0:
320,192,73043,1,8,0:0:0:0:
64,192,73118,1,2,0:0:0:0:
192,192,73118,1,4,0:0:0:0:
64,192,73418,1,2,0:0:0:0:
192,192,73418,1,0,0:0:0:0:
448,192,73718,1,2,0:0:0:0:
64,192,73718,1,4,0:0:0:0:
448,192,74318,1,2,0:0:0:0:
320,192,74418,1,2,0:0:0:0:
192,192,74518,1,2,0:0:0:0:
64,192,74618,1,2,0:0:0:0:
192,192,74718,1,2,0:0:0:0:
320,192,74818,1,2,0:0:0:0:
64,192,74918,1,4,0:0:0:0:
192,192,74918,1,2,0:0:0:0:
64,192,75118,1,2,0:0:0:0:
192,192,75118,1,4,0:0:0:0:
448,192,75318,1,4,0:0:0:0:
320,192,75318,1,2,0:0:0:0:
320,192,75518,1,2,0:0:0:0:
448,192,75518,1,4,0:0:0:0:
192,192,75718,1,0,0:0:0:0:
64,192,75818,1,0,0:0:0:0:
192,192,75918,1,0,0:0:0:0:
320,192,76018,1,0,0:0:0:0:
448,192,76118,1,0,0:0:0:0:
320,192,76218,1,8,0:0:0:0:
192,192,76318,1,8,0:0:0:0:
64,192,76418,1,2,0:0:0:0:
320,192,76518,1,2,0:0:0:0:
192,192,76618,1,2,0:0:0:0:
320,192,76718,1,4,0:0:0:0:
448,192,76718,1,2,0:0:0:0:
320,192,77018,1,0,0:0:0:0:
448,192,77018,1,4,0:0:0:0:
448,192,77318,1,2,0:0:0:0:
64,192,77318,1,4,0:0:0:0:
192,192,77418,1,0,0:0:0:0:
320,192,77518,1,0,0:0:0:0:
448,192,77618,1,0,0:0:0:0:
192,192,77718,1,0,0:0:0:0:
320,192,77818,1,0,0:0:0:0:
64,192,77918,1,4,0:0:0:0:
192,192,77918,1,2,0:0:0:0:
192,192,78218,1,4,0:0:0:0:
64,192,78218,1,2,0:0:0:0:
64,192,78518,1,2,0:0:0:0:
448,192,78518,1,4,0:0:0:0:
320,192,78618,1,0,0:0:0:0:
192,192,78718,1,0,0:0:0:0:
64,192,78818,1,0,0:0:0:0:
320,192,78918,1,0,0:0:0:0:
64,192,79018,1,0,0:0:0:0:
448,192,79118,1,2,0:0:0:0:
192,192,79118,1,0,0:0:0:0:
448,192,79418,1,2,0:0:0:0:
192,192,79418,1,0,0:0:0:0:
64,192,79718,1,2,0:0:0:0:
448,192,79718,1,4,0:0:0:0:
320,192,79818,1,0,0:0:0:0:
192,192,79918,1,0,0:0:0:0:
64,192,80018,1,0,0:0:0:0:
192,192,80118,1,0,0:0:0:0:
320,192,80218,1,0,0:0:0:0:
64,192,80318,1,2,0:0:0:0:
448,192,80418,1,2,0:0:0:0:
320,192,80518,1,2,0:0:0:0:
64,192,80618,1,2,0:0:0:0:
192,192,80618,1,0,0:0:0:0:
320,192,80718,1,2,0:0:0:0:
192,192,80818,1,2,0:0:0:0:
64,192,80918,1,2,0:0:0:0:
192,192,81018,1,2,0:0:0:0:
320,192,81118,1,2,0:0:0:0:
448,192,81218,1,2,0:0:0:0:
192,192,81318,1,2,0:0:0:0:
320,192,81418,1,2,0:0:0:0:
448,192,81518,1,4,0:0:0:0:
64,192,81518,128,2,81968:0:0:0:0:
448,192,81818,1,8,0:0:0:0:
192,192,81968,128,0,82718:0:0:0:0:
320,192,82118,1,0,0:0:0:0:
448,192,82268,1,2,0:0:0:0:
64,192,82418,1,8,0:0:0:0:
448,192,82718,128,2,83318:0:0:0:0:
320,192,82718,128,0,83018:0:0:0:0:
64,192,83018,1,8,0:0:0:0:
64,192,83318,128,0,83918:0:0:0:0:
192,192,83318,128,0,83618:0:0:0:0:
448,192,83468,1,0,0:0:0:0:
320,192,83618,1,8,0:0:0:0:
192,192,83918,1,4,0:0:0:0:
448,192,83918,128,2,84368:0:0:0:0:
320,192,84218,1,8,0:0:0:0:
64,192,84368,128,0,84818:0:0:0:0:
192,192,84368,1,0,0:0:0:0:
448,192,84518,1,0,0:0:0:0:
192,192,84668,1,2,0:0:0:0:
320,192,84818,128,8,86018:0:0:0:0:
448,192,84818,1,0,0:0:0:0:
192,192,85118,1,2,0:0:0:0:
448,192,85268,1,0,0:0:0:0:
192,192,85418,1,8,0:0:0:0:
64,192,85568,1,0,0:0:0:0:
192,192,85718,1,0,0:0:0:0:
448,192,85868,1,2,0:0:0:0:
64,192,86018,1,8,0:0:0:0:
192,192,86018,1,0,0:0:0:0:
320,192,86168,1,8,0:0:0:0:
448,192,86318,1,4,0:0:0:0:
64,192,86318,128,2,86768:0:0:0:0:
448,192,86618,1,8,0:0:0:0:
192,192,86768,128,0,87518:0:0:0:0:
320,192,86918,1,0,0:0:0:0:
448,192,87068,1,2,0:0:0:0:
64,192,87218,1,8,0:0:0:0:
448,192,87518,128,2,87818:0:0:0:0:
320,192,87818,128,8,88118:0:0:0:0:
192,192,87818,1,0,0:0:0:0:
64,192,88118,1,0,0:0:0:0:
448,192,88268,1,2,0:0:0:0:
192,192,88418,128,8,88718:0:0:0:0:
320,192,88418,1,0,0:0:0:0:
64,192,88718,1,4,0:0:0:0:
448,192,88718,1,2,0:0:0:0:
320,192,88868,1,2,0:0:0:0:
192,192,88943,1,2,0:0:0:0:
64,192,89018,1,2,0:0:0:0:
192,192,89093,1,2,0:0:0:0:
320,192,89168,1,2,0:0:0:0:
448,192,89243,1,2,0:0:0:0:
320,192,89318,1,2,0:0:0:0:
192,192,89393,1,0,0:0:0:0:
64,192,89468,1,0,0:0:0:0:
192,192,89543,1,0,0:0:0:0:
320,192,89618,1,4,0:0:0:0:
448,192,89618,1,2,0:0:0:0:
192,192,89768,1,0,0:0:0:0:
64,192,89918,1,0,0:0:0:0:
320,192,89918,1,0,0:0:0:0:
448,192,90068,1,0,0:0:0:0:
192,192,90143,1,0,0:0:0:0:
320,192,90218,1,0,0:0:0:0:
64,192,90368,1,0,0:0:0:0:
192,192,90518,1,0,0:0:0:0:
320,192,90668,1,0,0:0:0:0:
448,192,90668,1,0,0:0:0:0:
64,192,90818,1,8,0:0:0:0:
192,192,90893,1,8,0:0:0:0:
320,192,90968,1,8,0:0:0:0:
192,192,91043,1,8,0:0:0:0:
448,192,91118,1,2,0:0:0:0:
64,192,91118,128,4,91568:0:0:0:0:
448,192,91418,1,8,0:0:0:0:
192,192,91568,128,0,92318:0:0:0:0:
320,192,91718,1,0,0:0:0:0:
448,192,91868,1,2,0:0:0:0:
64,192,92018,1,8,0:0:0:0:
320,192,92318,128,2,92618:0:0:0:0:
448,192,92318,128,0,92918:0:0:0:0:
64,192,92618,1,8,0:0:0:0:
64,192,92918,128,0,93518:0:0:0:0:
192,192,92918,128,0,93218:0:0:0:0:
448,192,93068,1,2,0:0:0:0:
320,192,93218,1,8,0:0:0:0:
192,192,93518,1,4,0:0:0:0:
448,192,93518,128,2,93968:0:0:0:0:
320,192,93818,1,8,0:0:0:0:
64,192,93968,128,0,94418:0:0:0:0:
192,192,93968,1,0,0:0:0:0:
448,192,94118,1,0,0:0:0:0:
192,192,94268,1,2,0:0:0:0:
448,192,94418,1,8,0:0:0:0:
320,192,94418,128,0,95618:0:0:0:0:
64,192,94718,1,2,0:0:0:0:
192,192,94868,1,0,0:0:0:0:
448,192,95018,1,8,0:0:0:0:
64,192,95168,1,0,0:0:0:0:
448,192,95318,1,0,0:0:0:0:
192,192,95468,1,2,0:0:0:0:
64,192,95618,1,8,0:0:0:0:
192,192,95693,1,8,0:0:0:0:
320,192,95768,1,8,0:0:0:0:
192,192,95843,1,8,0:0:0:0:
448,192,95918,1,4,0:0:0:0:
64,192,95918,1,2,0:0:0:0:
320,192,96068,1,0,0:0:0:0:
64,192,96218,1,8,0:0:0:0:
192,192,96218,1,0,0:0:0:0:
448,192,96368,128,0,97118:0:0:0:0:
320,192,96368,1,0,0:0:0:0:
192,192,96668,1,2,0:0:0:0:
320,192,96818,1,8,0:0:0:0:
64,192,96818,1,0,0:0:0:0:
64,192,97118,128,4,97418:0:0:0:0:
320,192,97118,1,2,0:0:0:0:
192,192,97268,1,0,0:0:0:0:
448,192,97418,128,8,97718:0:0:0:0:
320,192,97418,1,0,0:0:0:0:
64,192,97568,1,0,0:0:0:0:
192,192,97718,128,0,98018:0:0:0:0:
448,192,97868,1,2,0:0:0:0:
320,192,98018,128,8,98318:0:0:0:0:
64,192,98018,1,0,0:0:0:0:
64,192,98318,1,4,0:0:0:0:
448,192,98318,1,2,0:0:0:0:
320,192,98468,1,2,0:0:0:0:
192,192,98468,1,0,0:0:0:0:
64,192,98768,1,2,0:0:0:0:
448,192,98768,1,4,0:0:0:0:
448,192,98918,1,4,0:0:0:0:
64,192,98918,1,2,0:0:0:0:
320,192,99218,1,2,0:0:0:0:
448,192,99218,1,0,0:0:0:0:
192,192,99368,1,2,0:0:0:0:
64,192,99368,1,0,0:0:0:0:
192,192,99668,1,2,0:0:0:0:
64,192,99668,1,4,0:0:0:0:
320,192,99818,1,4,0:0:0:0:
448,192,99818,1,2,0:0:0:0:
192,192,100118,1,2,0:0:0:0:
320,192,100118,1,4,0:0:0:0:
320,192,100268,1,4,0:0:0:0:
192,192,100268,1,2,0:0:0:0:
64,192,100718,1,2,0:0:0:0:
448,192,100718,1,4,0:0:0:0:
192,192,100718,1,0,0:0:0:0:
320,192,100868,1,2,0:0:0:0:
192,192,100868,1,0,0:0:0:0:
64,192,101168,1,4,0:0:0:0:
448,192,101168,1,2,0:0:0:0:
64,192,101318,1,2,0:0:0:0:
448,192,101318,1,0,0:0:0:0:
64,192,101618,1,2,0:0:0:0:
192,192,101618,1,0,0:0:0:0:
320,192,101768,1,2,0:0:0:0:
448,192,101768,1,0,0:0:0:0:
448,192,102068,1,2,0:0:0:0:
320,192,102068,1,4,0:0:0:0:
192,192,102218,1,4,0:0:0:0:
64,192,102218,1,2,0:0:0:0:
320,192,102518,1,2,0:0:0:0:
192,192,102518,1,4,0:0:0:0:
192,192,102668,1,4,0:0:0:0:
320,192,102668,1,2,0:0:0:0:
64,192,103118,1,2,0:0:0:0:
448,192,103118,1,4,0:0:0:0:
320,192,103118,1,0,0:0:0:0:
64,192,103568,1,8,0:0:0:0:
192,192,103568,1,0,0:0:0:0:
320,192,103718,1,0,0:0:0:0:
448,192,103868,1,0,0:0:0:0:
64,192,104018,1,8,0:0:0:0:
192,192,104018,1,0,0:0:0:0:
320,192,104168,1,0,0:0:0:0:
320,192,104318,1,0,0:0:0:0:
448,192,104468,1,0,0:0:0:0:
64,192,104468,1,8,0:0:0:0:
192,192,104618,1,0,0:0:0:0:
192,192,104768,1,0,0:0:0:0:
64,192,104918,1,8,0:0:0:0:
448,192,104918,1,0,0:0:0:0:
320,192,105068,1,0,0:0:0:0:
320,192,105218,1,0,0:0:0:0:
64,192,105368,1,8,0:0:0:0:
192,192,105368,1,0,0:0:0:0:
448,192,105518,1,0,0:0:0:0:
448,192,105668,1,0,0:0:0:0:
320,192,105818,1,0,0:0:0:0:
192,192,105818,1,0,0:0:0:0:
64,192,105818,1,8,0:0:0:0:
320,192,105968,1,0,0:0:0:0:
192,192,105968,1,0,0:0:0:0:
64,192,105968,1,8,0:0:0:0:
