osu file format v14

[General]
AudioFilename: audio.mp3
AudioLeadIn: 0
PreviewTime: 278991
Countdown: 0
SampleSet: Soft
StackLeniency: 0.2
Mode: 0
LetterboxInBreaks: 0
WidescreenStoryboard: 1

[Editor]
Bookmarks: 233,12233,24233,36233,48233,60233,72233,82899,93566,104232,114899,125566,136232,146899,157566,167166,176766,186366,195966,205566,215166,224766,234366,245130,254978,263705,272432,281023,289751,298614,307341,316069,324796,333523
DistanceSpacing: 0.3
BeatDivisor: 8
GridSize: 32
TimelineZoom: 2.8

[Metadata]
Title:escape (the looking-glass, and what alice found there)
TitleUnicode:escape (the looking-glass, and what alice found there)
Artist:Kurokotei feat. Sennzai
ArtistUnicode:黒皇帝 feat. Sennzai
Creator:Realazy
Version:Jabberwocky
Source:osu! World Cup 2022
Tags:owc2022sftb featured artist footwork riddim artcore hardtek breakcore amenpunk electronic conlang japanese
BeatmapID:3871800
BeatmapSetID:1880652

[Difficulty]
HPDrainRate:5
CircleSize:4
OverallDifficulty:9
ApproachRate:9.7
SliderMultiplier:2
SliderTickRate:1

[Events]
//Background and Video events
0,0,"Artwork_1014.jpg",0,0
//Break Periods
2,72433,82404
2,157766,166671
//Storyboard Layer 0 (Background)
//Storyboard Layer 1 (Fail)
//Storyboard Layer 2 (Pass)
//Storyboard Layer 3 (Foreground)
//Storyboard Layer 4 (Overlay)
//Storyboard Sound Samples

[TimingPoints]
233,375,4,2,1,50,1,0
14764,-133.333333333333,4,2,1,50,0,0
15233,-100,4,2,1,50,0,0
23483,-666.666666666667,4,2,1,50,0,0
24045,-50,4,2,1,50,0,0
24233,-66.6666666666667,4,2,1,60,0,0
29483,-40,4,2,4,60,0,0
30233,-66.6666666666667,4,2,1,60,0,0
31358,-200,4,2,1,60,0,0
31826,-66.6666666666667,4,2,1,60,0,0
36608,-80,4,2,1,60,0,0
36983,-100,4,2,1,40,0,0
39983,-100,4,2,1,50,0,0
42233,-80,4,2,1,60,0,0
43733,-66.6666666666667,4,2,1,60,0,0
50608,-100,4,2,1,60,0,0
52108,-66.6666666666667,4,2,1,60,0,0
53108,-100,4,2,1,60,0,0
54233,-40,4,2,1,60,0,0
55108,-66.6666666666667,4,2,1,60,0,0
56483,-50,4,2,1,60,0,0
56858,-100,4,2,1,60,0,0
57233,-166.666666666667,4,2,1,60,0,0
57983,-66.6666666666667,4,2,1,60,0,0
58733,-80,4,2,1,60,0,0
59483,-57.1428571428571,4,2,1,60,0,0
62608,-100,4,2,1,60,0,0
63233,-133.333333333333,4,2,1,60,0,0
63983,-57.1428571428571,4,2,1,60,0,0
64483,-100,4,2,1,60,0,0
64733,-57.1428571428571,4,2,1,60,0,0
65764,-80,4,2,1,60,0,0
66045,-57.1428571428571,4,2,1,60,0,0
66233,-400,4,2,1,60,0,0
66983,-57.1428571428571,4,2,1,60,0,0
68858,-100,4,2,1,60,0,0
69608,-200,4,2,1,60,0,0
70358,-80,4,2,1,60,0,0
70733,-303.030303030303,4,2,1,60,0,0
72233,333.333333333333,4,2,0,70,1,0
82899,-100,4,2,2,70,0,0
93399,-50,4,2,2,70,0,0
93566,-66.6666666666667,4,2,2,80,0,0
93899,-66.6666666666667,4,2,3,80,0,0
102899,-100,4,2,3,80,0,0
103232,-66.6666666666667,4,2,3,80,0,0
103732,-100,4,2,3,80,0,0
104232,-50,4,2,4,90,0,0
109232,-66.6666666666667,4,2,4,90,0,0
109566,-50,4,2,4,90,0,0
113566,-100,4,2,1,80,0,0
114066,-66.6666666666667,4,2,1,80,0,0
114399,-80,4,2,1,80,0,0
114899,-66.6666666666667,4,2,1,80,0,0
124232,-100,4,2,1,80,0,0
125399,-50,4,2,1,80,0,0
125566,-66.6666666666667,4,2,1,90,0,0
134899,-133.333333333333,4,2,1,90,0,0
135566,-80,4,2,1,90,0,0
135732,-57.1428571428571,4,2,1,90,0,0
136232,-666.666666666667,4,2,6,70,0,0
136648,-666.666666666667,4,2,6,5,0,0
136732,-666.666666666667,4,2,6,70,0,0
136982,-666.666666666667,4,2,6,5,0,0
137066,-666.666666666667,4,2,6,70,0,0
137232,-666.666666666667,4,2,6,5,0,0
137316,-666.666666666667,4,2,6,70,0,0
137982,-666.666666666667,4,2,6,5,0,0
138066,-333.333333333333,4,2,6,70,0,0
138316,-333.333333333333,4,2,6,5,0,0
138399,-333.333333333333,4,2,6,70,0,0
138482,-666.666666666667,4,2,6,70,0,0
139315,-666.666666666667,4,2,6,5,0,0
139399,-666.666666666667,4,2,6,70,0,0
139649,-666.666666666667,4,2,6,5,0,0
139732,-666.666666666667,4,2,6,70,0,0
139898,-666.666666666667,4,2,6,5,0,0
139982,-666.666666666667,4,2,6,70,0,0
140648,-666.666666666667,4,2,6,5,0,0
140732,-250,4,2,6,70,0,0
141149,-666.666666666667,4,2,6,70,0,0
141982,-666.666666666667,4,2,6,5,0,0
142066,-666.666666666667,4,2,6,70,0,0
142565,-666.666666666667,4,2,6,5,0,0
142649,-666.666666666667,4,2,6,70,0,0
142899,-400,4,2,6,70,0,0
143315,-400,4,2,6,5,0,0
143399,-666.666666666667,4,2,6,70,0,0
143982,-666.666666666667,4,2,6,5,0,0
144066,-666.666666666667,4,2,6,70,0,0
144648,-666.666666666667,4,2,6,5,0,0
144732,-666.666666666667,4,2,6,70,0,0
145232,-666.666666666667,4,2,6,5,0,0
145316,-666.666666666667,4,2,6,70,0,0
145566,-200,4,2,1,70,0,0
146899,-333.333333333333,4,2,6,70,0,0
147065,-333.333333333333,4,2,6,5,0,0
147149,-333.333333333333,4,2,6,70,0,0
147315,-333.333333333333,4,2,6,5,0,0
147399,-333.333333333333,4,2,6,70,0,0
147565,-333.333333333333,4,2,6,5,0,0
147649,-333.333333333333,4,2,6,70,0,0
148398,-333.333333333333,4,2,6,5,0,0
148482,-333.333333333333,4,2,6,70,0,0
148648,-333.333333333333,4,2,6,5,0,0
148732,-333.333333333333,4,2,6,70,0,0
148898,-333.333333333333,4,2,6,5,0,0
148982,-333.333333333333,4,2,6,70,0,0
149732,-333.333333333333,4,2,6,5,0,0
149816,-333.333333333333,4,2,6,70,0,0
149982,-333.333333333333,4,2,6,5,0,0
150066,-333.333333333333,4,2,6,70,0,0
150232,-333.333333333333,4,2,6,5,0,0
150316,-333.333333333333,4,2,6,70,0,0
151065,-333.333333333333,4,2,6,5,0,0
151149,-333.333333333333,4,2,6,70,0,0
151315,-333.333333333333,4,2,6,5,0,0
151399,-333.333333333333,4,2,6,70,0,0
151565,-333.333333333333,4,2,6,5,0,0
151649,-333.333333333333,4,2,6,70,0,0
152398,-333.333333333333,4,2,6,5,0,0
152482,-333.333333333333,4,2,6,70,0,0
152648,-333.333333333333,4,2,6,5,0,0
152732,-333.333333333333,4,2,6,70,0,0
152898,-333.333333333333,4,2,6,5,0,0
152982,-333.333333333333,4,2,6,70,0,0
153732,-333.333333333333,4,2,6,5,0,0
153816,-333.333333333333,4,2,6,70,0,0
153982,-333.333333333333,4,2,6,5,0,0
154066,-333.333333333333,4,2,6,70,0,0
154232,-333.333333333333,4,2,6,5,0,0
154316,-333.333333333333,4,2,6,70,0,0
155065,-333.333333333333,4,2,6,5,0,0
155149,-333.333333333333,4,2,6,70,0,0
155315,-333.333333333333,4,2,6,5,0,0
155399,-333.333333333333,4,2,6,70,0,0
155565,-333.333333333333,4,2,6,5,0,0
155649,-333.333333333333,4,2,6,70,0,0
156232,-333.333333333333,4,2,6,30,0,0
157566,300,4,2,6,70,1,0
167166,-100,4,2,6,40,0,0
168366,-133.333333333333,4,2,6,40,0,0
170466,-100,4,2,6,40,0,0
171966,-133.333333333333,4,2,6,40,0,0
172116,-111.111111111111,4,2,6,40,0,0
172266,-95.2380952380951,4,2,6,40,0,0
172416,-83.3333333333333,4,2,6,40,0,0
172566,-74.074074074074,4,2,6,40,0,0
172716,-66.6666666666667,4,2,6,40,0,0
172866,-60.6060606060605,4,2,6,40,0,0
173016,-55.5555555555556,4,2,6,40,0,0
175566,-55.5555555555556,4,2,6,60,0,0
175641,-133.333333333333,4,2,6,60,0,0
176766,-80,4,2,6,70,0,0
177066,-80,4,2,7,70,0,0
178866,-133.333333333333,4,2,7,70,0,0
179466,-80,4,2,7,70,0,0
181266,-57.1428571428571,4,2,7,70,0,0
181866,-80,4,2,7,70,0,0
185166,-133.333333333333,4,2,7,70,0,0
186666,-79.9999999999999,4,2,7,70,0,0
190866,-66.6666666666667,4,2,7,70,0,0
191166,-79.9999999999999,4,2,7,70,0,0
194766,-133.333333333333,4,2,1,70,0,0
196266,-66.6666666666667,4,2,7,80,0,0
200466,-57.1428571428571,4,2,7,80,0,0
200766,-66.6666666666667,4,2,7,80,0,0
205416,-50,4,2,7,80,0,0
205566,-100,4,2,7,80,0,0
205866,-66.6666666666667,4,2,7,80,0,0
213966,-66.6666666666667,4,2,7,50,0,0
215166,-133.333333333333,4,2,8,60,0,0
217416,-100,4,2,8,60,0,0
217566,-133.333333333333,4,2,8,60,0,0
222216,-100,4,2,8,60,0,0
222516,-133.333333333333,4,2,8,60,0,0
224766,-133.333333333333,4,2,8,70,0,0
225366,-100,4,2,8,70,0,0
225966,-200,4,2,8,70,0,0
226266,-80,4,2,4,70,0,0
226566,-80,4,2,8,70,0,0
227016,-100,4,2,8,70,0,0
234366,-100,4,2,1,50,0,0
234516,-133.333333333333,4,2,1,50,0,0
239166,-100,4,2,1,55,0,0
239466,-80,4,2,1,60,0,0
239766,-66.6666666666667,4,2,1,65,0,0
240066,-57.1428571428571,4,2,1,70,0,0
241566,-66.6666666666667,4,2,1,70,0,0
242766,-100,4,2,1,70,0,0
243666,-100,4,2,8,70,0,0
243816,-200,4,2,8,70,0,0
243966,294.117647058824,4,2,8,70,1,0
244554,288.461538461538,4,2,8,70,1,0
245130,283.018867924528,4,2,8,70,1,0
245696,277.777777777778,4,2,8,70,1,0
246251,272.727272727273,4,2,9,70,1,0
246251,-66.6666666666667,4,2,9,70,0,0
248023,-133.333333333333,4,2,9,70,0,0
248432,-100,4,2,9,70,0,0
250614,-66.6666666666667,4,2,9,70,0,0
252796,-100,4,2,9,70,0,0
254705,-200,4,2,9,70,0,0
254978,-66.6666666666667,4,2,9,70,0,0
256887,-57.1428571428571,4,2,9,70,0,0
257160,-100,4,2,9,70,0,0
257432,-66.6666666666667,4,2,9,70,0,0
257569,-100,4,2,9,70,0,0
259069,-57.1428571428571,4,2,9,70,0,0
259341,-66.6666666666667,4,2,9,70,0,0
260432,-133.333333333333,4,2,9,70,0,0
261251,-66.6666666666667,4,2,9,70,0,0
261523,-79.9999999999999,4,2,9,70,0,0
263705,-79.9999999999999,4,2,9,60,0,0
264251,-133.333333333333,4,2,9,60,0,0
264455,-133.333333333333,4,2,3,60,0,0
272432,-100,4,2,3,70,0,0
277887,-80,4,2,3,70,0,0
280614,-133.333333333333,4,2,3,40,0,0
281023,-79.9999999999999,4,2,3,80,0,0
281432,-79.9999999999999,4,2,2,80,0,0
282796,-66.6666666666667,4,2,2,80,0,0
283205,-79.9999999999999,4,2,2,80,0,0
284978,-66.6666666666667,4,2,2,80,0,0
285387,-79.9999999999999,4,2,2,80,0,0
287432,-100,4,2,2,80,0,0
287569,-79.9999999999999,4,2,2,80,0,0
291591,-100,4,2,2,80,0,0
291932,-79.9999999999999,4,2,2,80,0,0
293705,-100,4,2,2,80,0,0
294114,-79.9999999999999,4,2,2,80,0,0
296296,-66.6666666666667,4,2,2,80,0,0
297523,-100,4,2,2,80,0,0
298614,-66.6666666666667,4,2,2,90,0,0
302705,-100,4,2,2,90,0,0
302978,-66.6666666666667,4,2,2,90,0,0
306251,-80,4,2,2,90,0,0
307341,-66.6666666666667,4,2,2,90,0,0
313887,-57.1428571428571,4,2,2,90,0,0
314978,-100,4,2,2,90,0,0
316069,-133.333333333333,4,2,2,80,0,0
316205,-133.333333333333,4,2,2,40,0,0
324796,-200,4,2,2,30,0,0
329159,-200,4,2,2,20,0,0
329705,-300.00300003,4,2,2,20,0,0

[Colours]
Combo1 : 200,215,181
Combo2 : 154,182,192
Combo3 : 209,126,126
Combo4 : 219,205,196

[HitObjects]
430,262,12233,6,0,P|401:350|308:345,1,200,4|0,1:0|2:0,2:0:0:0:
485,205,12795,1,0,3:0:0:0:
490,195,12889,1,0,3:0:0:0:
419,160,12983,2,0,P|406:111|394:63,1,100,8|0,2:0|2:0,2:0:0:0:
358,216,13358,1,2,2:3:0:0:
358,216,13545,2,0,P|333:209|309:203,1,50,2|0,2:0|2:0,2:0:0:0:
241,256,13733,5,0,1:0:0:0:
202,142,13920,1,0,2:0:0:0:
238,248,14108,2,0,P|224:198|207:152,1,100,0|0,2:0|1:0,2:0:0:0:
202,142,14389,1,0,3:0:0:0:
254,81,14483,1,8,2:0:0:0:
68,23,14670,5,0,3:0:0:0:
73,36,14764,2,0,P|79:53|85:71,1,37.5000000000001,2|0,3:0|2:0,2:0:0:0:
159,48,14951,1,0,3:0:0:0:
154,35,15045,2,0,P|147:17|141:0,1,37.5000000000001,2|0,3:0|2:0,2:0:0:0:
1,99,15233,6,0,P|98:119|192:154,1,200,0|0,1:0|2:0,2:0:0:0:
36,360,15795,1,0,3:0:0:0:
49,365,15889,1,0,3:0:0:0:
102,304,15983,2,0,P|83:257|60:212,1,100,8|0,2:0|2:0,2:0:0:0:
215,366,16358,1,2,2:3:0:0:
215,366,16545,2,0,P|191:359|168:350,1,50,2|0,2:0|2:0,2:0:0:0:
286,298,16733,5,0,1:0:0:0:
384,340,16920,1,0,2:0:0:0:
289,308,17108,2,0,P|321:344|370:345,1,100,2|0,2:3|1:0,2:0:0:0:
384,340,17389,1,0,1:0:0:0:
457,371,17483,2,0,P|464:338|472:306,1,66.6666666666667,10|0,2:0|2:0,2:0:0:0:
482,230,17733,2,0,P|474:262|466:294,1,66.6666666666667,2|0,2:0|2:0,2:0:0:0:
462,384,17983,2,0,P|469:351|477:319,1,66.6666666666667,2|0,2:0|2:0,2:0:0:0:
432,161,18233,6,0,P|334:164|259:101,1,200,4|2,1:0|2:3,2:0:0:0:
205,308,18795,1,0,3:0:0:0:
219,313,18889,1,0,3:0:0:0:
290,279,18983,2,0,P|310:233|311:183,1,100,8|0,2:0|2:0,2:0:0:0:
252,18,19358,1,2,2:3:0:0:
252,18,19545,2,0,P|227:23|203:28,1,50,2|0,2:0|2:0,2:0:0:0:
122,0,19733,5,0,1:0:0:0:
91,115,19920,1,0,2:0:0:0:
120,9,20108,2,0,P|106:57|93:105,1,100,0|0,3:0|1:0,2:0:0:0:
91,115,20389,1,0,3:0:0:0:
21,75,20483,1,8,2:0:0:0:
0,250,20670,1,0,3:0:0:0:
6,251,20764,1,0,3:0:0:0:
14,247,20858,1,8,3:0:0:0:
25,252,20951,1,8,3:0:0:0:
37,241,21045,1,4,3:0:0:0:
59,251,21139,1,4,3:0:0:0:
78,233,21233,6,0,P|176:213|274:197,1,200,0|2,1:0|2:3,2:0:0:0:
348,354,21795,1,0,3:0:0:0:
355,367,21889,1,0,3:0:0:0:
415,316,21983,2,0,P|463:327|512:338,1,100,8|0,2:0|2:0,2:0:0:0:
346,273,22358,1,2,2:3:0:0:
346,273,22545,2,0,P|352:248|358:224,1,50,2|0,2:0|2:0,2:0:0:0:
366,70,22733,6,0,P|431:76|416:140,1,150,0|0,1:0|2:0,2:0:0:0:
415,141,23108,2,0,P|349:122|365:57,1,150,2|0,2:0|2:0,2:0:0:0:
446,26,23483,6,0,L|483:16,1,37.5,10|0,2:0|2:0,2:0:0:0:
482,16,24045,6,0,B|534:4|534:4|494:28,1,100,8|0,2:3|2:0,2:0:0:0:
303,128,24233,6,0,P|231:110|158:93,1,150,4|0,1:0|2:0,2:0:0:0:
30,9,24514,1,2,1:2:0:0:
25,22,24608,2,0,P|45:52|81:60,1,75,8|0,2:3|2:0,2:0:0:0:
209,20,24795,2,0,B|247:8|247:8|216:24,1,75,2|0,1:2|2:0,2:0:0:0:
37,139,24983,6,0,P|53:192|78:289,1,150,2|0,1:2|2:0,2:0:0:0:
227,211,25264,1,2,1:2:0:0:
220,197,25358,2,0,P|183:187|147:177,1,75,8|0,2:3|2:0,2:0:0:0:
0,342,25545,5,2,1:2:0:0:
13,361,25639,1,0,3:0:0:0:
27,382,25733,2,0,P|100:365|173:348,1,150,2|0,1:2|2:0,2:0:0:0:
367,349,26014,1,2,1:2:0:0:
355,358,26108,5,8,2:3:0:0:
303,358,26201,1,2,2:0:0:0:
262,327,26295,1,2,2:0:0:0:
248,277,26389,1,2,2:0:0:0:
268,229,26483,2,2,P|341:245|414:262,1,150,2|2,1:2|1:2,1:2:0:0:
510,377,26764,1,0,2:0:0:0:
493,384,26858,2,0,P|486:347|477:310,1,75,8|0,2:3|2:0,2:0:0:0:
425,87,27045,5,2,1:2:0:0:
457,93,27139,1,0,3:0:0:0:
489,100,27233,2,0,P|460:201|355:207,1,225,2|0,1:2|2:0,2:0:0:0:
329,96,27608,5,8,2:3:0:0:
320,59,27701,1,8,2:3:0:0:
288,80,27795,1,2,2:3:0:0:
279,43,27889,1,8,2:3:0:0:
247,64,27983,2,0,L|238:27,4,37.5,2|2|2|0|0,3:2|3:2|3:2|3:2|3:2,2:0:0:0:
199,128,28264,1,0,1:0:0:0:
129,91,28358,1,8,2:3:0:0:
127,83,28451,1,2,2:0:0:0:
125,76,28545,1,2,2:0:0:0:
123,69,28639,1,2,2:0:0:0:
199,128,28733,6,0,P|124:115|51:103,1,150,2|8,1:2|2:3,2:0:0:0:
221,208,29014,2,0,P|147:195|73:183,1,150,0|0,1:0|2:0,2:0:0:0:
9,231,29295,2,0,B|0:271|0:271|21:244,1,75,0|0,1:0|2:0,2:0:0:0:
129,91,29483,6,0,B|114:9|114:9|32:23,1,166.666666666667,2|0,1:2|2:0,2:0:0:0:
221,208,29733,6,0,B|302:193|302:193|288:111,1,166.666666666667,2|0,1:2|2:0,2:0:0:0:
104,300,29983,6,0,B|118:381,1,83.3333333333333,2|0,1:2|2:0,2:0:0:0:
118,381,30108,2,0,B|200:367,1,83.3333333333333,0|0,1:0|2:0,2:0:0:0:
213,349,30233,6,0,P|285:366|358:384,1,150,4|0,1:0|2:0,2:0:0:0:
481,296,30514,2,0,P|445:304|409:315,1,75,2|0,1:2|2:0,2:0:0:0:
329,180,30701,5,0,1:2:0:0:
319,195,30795,1,2,2:0:0:0:
311,209,30889,2,0,P|323:244|335:279,1,75,0|8,3:0|2:3,2:0:0:0:
500,206,31076,2,0,P|430:202|419:133,1,150,2|8,2:0|2:3,2:0:0:0:
488,76,31358,2,0,L|512:82,3,25,0|0|0|0,3:0|3:0|3:0|3:0,2:0:0:0:
425,7,31733,5,0,1:0:0:0:
417,19,31826,2,0,L|364:28,4,37.5,2|2|2|2|2,2:0|2:0|2:0|2:0|2:0,2:0:0:0:
383,100,32108,2,0,B|339:104|309:76|324:67|296:37|252:41,1,150,8|0,2:3|1:0,2:0:0:0:
143,89,32389,1,0,3:0:0:0:
127,100,32483,6,0,P|57:96|43:27,1,150,2|0,3:2|2:0,2:0:0:0:
223,136,32764,2,0,P|201:207|183:280,1,150,0|0,1:0|2:0,2:0:0:0:
63,210,33045,2,0,L|98:198,1,37.5,2|2,3:0|3:0,2:0:0:0:
70,218,33139,2,0,L|105:206,1,37.5,2|2,3:0|3:0,2:0:0:0:
3,263,33233,6,0,P|73:255|106:317,1,150,2|0,1:2|2:0,2:0:0:0:
221,369,33514,1,0,1:0:0:0:
229,352,33608,1,2,2:0:0:0:
279,337,33701,1,2,2:0:0:0:
330,324,33795,1,0,1:2:0:0:
381,313,33889,1,2,2:0:0:0:
433,305,33983,5,2,1:3:0:0:
439,289,34076,1,2,2:3:0:0:
428,267,34170,1,2,2:3:0:0:
450,248,34264,1,2,1:2:0:0:
418,220,34358,1,2,2:3:0:0:
464,194,34451,1,2,2:3:0:0:
404,144,34545,2,0,L|395:107,1,37.5,2|2,1:3|2:3,2:0:0:0:
393,138,34639,2,0,L|384:101,1,37.5,2|2,2:3|2:3,2:0:0:0:
480,116,34733,5,2,1:2:0:0:
481,112,34826,1,2,2:0:0:0:
482,108,34920,1,2,2:0:0:0:
483,105,35014,1,2,2:0:0:0:
484,101,35108,1,2,2:0:0:0:
485,97,35201,1,2,2:0:0:0:
486,93,35295,1,2,1:2:0:0:
487,90,35389,1,2,2:0:0:0:
488,86,35483,1,10,2:0:0:0:
489,82,35576,1,2,2:0:0:0:
490,78,35670,1,2,2:0:0:0:
491,75,35764,1,2,2:0:0:0:
492,71,35858,1,2,2:0:0:0:
493,67,35951,1,2,2:0:0:0:
494,63,36045,1,2,2:0:0:0:
495,60,36139,1,2,2:0:0:0:
409,43,36233,6,0,B|391:3|326:-12|284:8|284:8|322:31|316:78,1,225,0|0,1:0|2:0,1:0:0:0:
314,89,36608,2,0,P|236:120|210:40,1,187.5,0|0,2:0|2:0,1:0:0:0:
323,87,36983,6,0,P|306:151|290:216,1,133.333333333333,2|0,1:2|2:0,2:0:0:0:
452,260,37358,1,2,1:2:0:0:
475,172,37483,2,0,P|442:163|410:154,1,66.6666666666667,2|0,2:0|2:0,2:0:0:0:
358,291,37733,6,0,P|374:226|390:161,1,133.333333333333,2|0,1:2|2:0,2:0:0:0:
406,376,38108,5,2,1:2:0:0:
431,356,38233,1,2,1:2:0:0:
463,353,38358,1,2,2:0:0:0:
339,298,38483,6,0,B|324:362|324:362|259:347,1,133.333333333333,2|0,1:2|2:0,2:0:0:0:
209,261,38858,2,0,B|224:197|224:197|289:212,1,133.333333333333,2|0,1:2|2:0,2:0:0:0:
131,308,39233,5,4,1:0:0:0:
131,308,39983,6,0,P|116:243|95:179,1,133.333333333333,6|0,1:0|2:0,2:0:0:0:
191,361,40358,1,2,1:0:0:0:
208,340,40483,1,0,2:0:0:0:
217,365,40608,1,0,2:0:0:0:
44,343,40733,5,2,1:0:0:0:
69,266,40858,1,0,1:0:0:0:
87,188,40983,1,0,1:0:0:0:
17,154,41108,5,2,1:0:0:0:
9,131,41233,1,2,2:0:0:0:
0,111,41358,1,2,2:0:0:0:
118,35,41483,5,2,1:2:0:0:
89,106,41608,2,0,P|99:74|110:43,1,66.6666666666667,2|0,2:1|1:0,2:0:0:0:
256,54,41858,2,0,P|223:61|190:70,1,66.6666666666667,2|0,1:2|1:0,2:0:0:0:
186,78,42045,1,0,1:0:0:0:
182,87,42108,2,0,P|176:102|170:118,1,33.3333333333333,0|0,1:0|1:0,2:0:0:0:
145,201,42233,6,0,P|195:163|254:142,1,125,6|0,1:0|2:0,2:0:0:0:
268,141,42514,2,0,P|329:149|385:176,1,125,2|0,1:0|2:0,2:0:0:0:
396,184,42795,2,0,P|433:233|453:290,1,93.75,2|0,1:0|2:0,2:0:0:0:
445,262,42983,6,0,P|409:282|392:320,1,83.3333333333333,6|0,1:0|2:0,2:0:0:0:
305,295,43233,1,2,1:0:0:0:
330,384,43358,1,2,2:0:0:0:
295,300,43483,2,0,P|254:290|213:280,1,83.3333333333333,2|0,2:1|2:0,2:0:0:0:
31,380,43733,6,0,P|104:363|177:347,1,150,2|0,1:0|2:0,2:0:0:0:
189,343,44014,2,0,P|172:269|156:196,1,150,2|0,1:0|2:0,2:0:0:0:
153,183,44295,2,0,P|207:170|262:157,1,112.5,2|0,1:0|2:0,2:0:0:0:
262,157,44483,6,0,P|299:218|370:216,1,150,2|0,1:0|2:0,2:0:0:0:
383,207,44733,1,2,1:0:0:0:
420,90,44858,1,8,3:0:0:0:
396,197,44983,2,0,P|409:148|422:100,1,100,2|0,1:0|2:0,2:0:0:0:
361,9,45233,5,4,1:0:0:0:
361,9,47108,1,2,2:3:0:0:
365,18,47233,1,2,2:3:0:0:
370,27,47358,1,2,2:3:0:0:
329,105,47483,5,0,3:0:0:0:
329,105,47545,1,0,3:0:0:0:
329,105,47608,2,0,P|280:118|233:133,1,100,0|0,3:0|2:0,2:0:0:0:
209,329,47858,2,0,B|171:303|171:303|222:321,1,100,8|0,2:0|2:0,2:0:0:0:
239,328,48045,2,0,L|252:376,2,50,0|0|0,1:0|1:0|1:0,2:0:0:0:
310,292,48233,5,0,1:0:0:0:
371,229,48358,1,0,3:0:0:0:
456,246,48483,1,0,3:0:0:0:
452,258,48608,5,2,3:0:0:0:
375,242,48733,1,0,3:0:0:0:
319,299,48858,1,0,3:0:0:0:
215,250,48983,5,8,1:2:0:0:
277,181,49108,2,0,P|257:108|233:37,1,150,2|0,2:3|2:0,2:0:0:0:
229,31,49358,2,0,P|181:16|131:4,1,100,2|0,2:3|2:0,2:0:0:0:
335,83,49608,1,2,2:3:0:0:
176,137,49733,5,0,1:0:0:0:
282,189,49858,2,0,P|306:259|325:332,1,150,2|0,2:3|2:0,2:0:0:0:
327,341,50108,2,0,P|376:350|424:361,1,100,2|0,2:3|2:0,2:0:0:0:
501,384,50358,1,0,1:0:0:0:
349,239,50483,5,8,2:0:0:0:
247,344,50608,2,0,L|238:376,1,33.3333333333333,2|0,2:3|2:0,2:0:0:0:
195,257,50733,2,0,L|186:225,1,33.3333333333333,2|0,2:3|2:0,2:0:0:0:
233,348,50858,2,0,L|224:380,1,33.3333333333333,2|0,2:3|2:0,2:0:0:0:
181,253,50983,2,0,L|172:221,1,33.3333333333333,2|0,2:3|2:0,2:0:0:0:
219,352,51108,2,0,L|210:384,1,33.3333333333333,2|0,2:3|2:0,2:0:0:0:
128,322,51233,6,0,P|80:335|32:352,1,100,0|0,1:0|2:0,2:0:0:0:
21,357,51514,2,0,L|13:380,4,25,0|0|0|0|0,3:0|3:0|3:0|3:0|3:0,2:0:0:0:
44,242,51795,1,0,3:0:0:0:
37,231,51889,1,0,1:0:0:0:
93,173,51983,5,8,1:2:0:0:
27,98,52108,2,0,P|43:29|113:22,1,150,2|0,2:3|2:0,2:0:0:0:
192,73,52358,2,0,P|145:75|119:35,1,100,2|0,3:2|2:0,2:0:0:0:
280,14,52608,1,2,2:3:0:0:
107,35,52733,5,0,1:0:0:0:
206,77,52858,2,0,P|228:148|246:221,1,150,2|0,2:3|2:0,2:0:0:0:
187,280,53108,2,0,L|217:294,1,33.3333333333333,2|0,2:3|2:0,2:0:0:0:
328,237,53233,2,0,L|309:264,1,33.3333333333333,2|0,2:3|1:0,2:0:0:0:
291,370,53358,2,0,L|279:333,1,33.3333333333333,2|0,2:3|2:0,2:0:0:0:
149,201,53483,5,8,2:0:0:0:
128,210,53608,2,0,P|97:222|65:231,1,66.6666666666667,2|0,2:0|2:0,2:0:0:0:
18,167,53858,2,0,P|9:135|0:103,1,66.6666666666667,2|0,3:0|2:0,2:0:0:0:
165,195,54108,1,0,1:0:0:0:
61,244,54233,6,0,B|51:281|51:281|53:286|53:286|43:324,1,83.3333333333333,2|0,2:1|2:0,2:0:0:0:
255,83,54514,6,0,B|244:45|244:45|247:40|247:40|236:2,1,83.3333333333333,2|0,2:1|2:0,2:0:0:0:
427,303,54795,6,0,B|417:340|417:340|419:345|419:345|409:383,1,83.3333333333333,2|0,2:1|2:0,2:0:0:0:
500,233,54983,5,8,2:0:0:0:
399,152,55108,2,0,P|392:127|375:95,1,50,2|0,2:3|2:0,2:0:0:0:
439,57,55233,2,0,P|464:101|476:150,1,100,2|0,2:3|2:0,2:0:0:0:
356,245,55483,6,0,P|334:232|312:223,1,50,2|0,2:3|2:0,2:0:0:0:
223,168,55608,2,0,P|246:159|268:147,1,50,2|0,2:3|2:0,2:0:0:0:
368,94,55733,5,0,1:0:0:0:
478,167,55858,2,0,P|491:188|500:211,1,50,2|0,2:3|2:0,2:0:0:0:
490,168,55983,2,0,P|502:190|510:213,1,50,2|0,2:3|2:0,2:0:0:0:
445,268,56108,5,2,2:3:0:0:
445,268,56170,1,2,2:3:0:0:
445,268,56233,2,0,P|431:313|384:325,1,100,2|0,2:3|1:0,2:0:0:0:
464,383,56483,6,0,B|457:327|365:283|300:307|300:307|316:370,1,266.666666666667,8|0,2:0|2:0,2:0:0:0:
231,368,56858,6,0,L|223:335,1,33.3333333333333,2|0,2:3|2:0,2:0:0:0:
248,216,56983,2,0,L|240:249,1,33.3333333333333,2|0,2:3|2:0,2:0:0:0:
165,280,57108,1,2,2:0:0:0:
165,280,57233,6,0,P|131:196|87:117,1,180,0|0,1:0|2:0,2:0:0:0:
77,104,57858,1,0,1:0:0:0:
15,236,57983,6,0,B|84:262|129:200|113:189|156:128|230:156,1,250,8|0,2:0|2:0,2:0:0:0:
250,231,58358,6,0,P|258:255|268:278,1,50,2|0,2:3|2:0,2:0:0:0:
288,101,58483,2,0,P|303:81|318:61,1,50,2|0,2:3|2:0,2:0:0:0:
307,176,58608,2,0,P|331:181|356:184,1,50,2|0,2:3|2:0,2:0:0:0:
394,114,58733,6,0,P|422:61|482:57,1,125,4|0,1:0|3:0,2:0:0:0:
490,66,59014,1,0,3:0:0:0:
498,76,59108,2,0,P|504:106|512:136,1,62.5,8|0,3:0|2:0,2:0:0:0:
318,61,59295,6,0,L|308:31,1,31.25,0|0,3:0|2:0,2:0:0:0:
325,52,59389,2,0,L|315:22,1,31.25,0|0,3:0|2:0,2:0:0:0:
319,141,59483,6,0,B|276:143|242:178|242:178|256:131|237:93,1,175,2|0,1:2|2:0,2:0:0:0:
189,243,59764,6,0,B|157:214|108:215|108:215|150:192|164:151,1,175,2|0,1:2|2:0,2:0:0:0:
29,235,60045,6,0,B|5:230|-12:245|-12:245|11:250|29:235,1,87.5000000000001,2|0,1:2|2:0,2:0:0:0:
242,178,60233,5,0,1:0:0:0:
242,167,60983,2,0,P|251:139|261:112,1,58.3333333333334,10|0,2:1|2:0,2:0:0:0:
172,34,61108,1,2,2:0:0:0:
239,182,61233,2,0,P|303:166|352:153,1,116.666666666667,2|0,2:1|1:0,2:0:0:0:
495,84,61483,5,2,2:1:0:0:
376,22,61608,1,2,2:0:0:0:
500,95,61733,2,0,P|459:136|443:192,1,116.666666666667,2|0,1:0|2:0,2:0:0:0:
512,248,61983,5,2,2:1:0:0:
355,173,62108,1,2,2:0:0:0:
400,295,62233,5,2,2:1:0:0:
287,343,62358,1,2,2:0:0:0:
205,260,62483,5,10,2:0:0:0:
205,260,62545,1,2,2:0:0:0:
205,260,62608,2,2,P|201:245|195:229,3,33.3333333333333,0|0|0|0,2:0|2:0|2:0|2:0,2:0:0:0:
130,362,62858,6,0,P|159:348|191:340,2,66.6666666666667,2|2|2,2:1|2:0|2:0,2:0:0:0:
0,350,63233,6,0,L|4:325,3,25.0000000000001,0|0|0|0,3:0|3:0|3:0|3:0,2:0:0:0:
79,293,63483,1,4,3:0:0:0:
79,293,63545,1,4,3:0:0:0:
79,293,63608,2,0,L|59:226,1,50.0000000000001,4|0,3:0|2:0,2:0:0:0:
0,201,63858,1,0,1:0:0:0:
36,83,63983,6,0,L|48:139,1,58.3333333333334,10|0,2:1|2:0,2:0:0:0:
65,156,64108,1,2,2:0:0:0:
111,7,64233,1,2,2:1:0:0:
165,101,64358,5,2,1:0:0:0:
165,101,64420,1,2,2:0:0:0:
165,101,64483,2,0,P|180:103|196:108,3,33.3333333333333,2|2|2|2,2:0|2:0|2:0|2:0,2:0:0:0:
80,164,64733,6,2,P|167:130|308:92,1,233.333333333333,2|0,1:0|2:0,1:0:0:0:
512,34,65108,1,2,2:1:0:0:
394,5,65233,1,2,2:0:0:0:
423,118,65358,1,2,2:1:0:0:
298,11,65483,6,0,P|322:95|342:180,1,175,10|0,2:1|2:0,2:0:0:0:
354,183,65764,2,0,P|414:201|474:220,1,125,2|0,1:2|2:0,2:0:0:0:
480,233,66045,2,0,P|466:294|405:304,1,131.25,2|0,1:0|2:0,2:0:0:0:
405,304,66233,6,0,L|383:297,7,12.5,2|2|2|2|2|2|2|2,2:0|2:0|2:0|2:0|2:0|2:0|2:0|2:0,2:0:0:0:
226,320,66983,6,0,P|140:331|116:385,1,116.666666666667,10|0,2:1|2:0,2:0:0:0:
22,157,67233,5,2,2:1:0:0:
123,233,67358,1,2,1:2:0:0:
0,321,67483,2,0,P|47:353|104:350,1,116.666666666667,2|0,2:1|2:0,2:0:0:0:
227,312,67733,6,0,P|232:254|258:202,1,116.666666666667,2|0,1:0|2:0,2:0:0:0:
210,114,67983,1,0,1:0:0:0:
210,114,68045,1,0,3:0:0:0:
210,114,68108,1,2,2:1:0:0:
150,163,68201,2,0,P|78:148|127:93,1,175,2|0,1:2|2:0,2:0:0:0:
210,114,68483,5,10,2:0:0:0:
358,41,68608,1,2,2:1:0:0:
320,151,68733,1,0,2:1:0:0:
247,2,68858,2,0,P|260:31|272:63,1,66.6666666666667,2|0,2:1|2:0,2:0:0:0:
323,162,69108,2,0,P|313:194|302:225,1,66.6666666666667,2|0,2:1|1:0,2:0:0:0:
397,322,69420,5,2,3:0:0:0:
397,322,69608,2,0,L|404:350,2,25,0|0|0,3:0|3:0|3:0,2:0:0:0:
222,301,69983,1,10,2:1:0:0:
197,297,70076,1,2,2:0:0:0:
172,294,70170,1,2,2:0:0:0:
147,290,70264,1,2,2:0:0:0:
122,287,70358,2,0,P|90:256|90:196,1,93.75,0|0,1:0|2:0,2:0:0:0:
77,198,70545,2,0,P|101:151|139:134,1,93.75,2|0,2:1|2:0,2:0:0:0:
144,122,70733,6,0,B|138:57|67:6|-11:20|-25:67|10:99|44:70,1,247.5,4|0,1:0|2:0,2:0:0:0:
195,0,72233,5,4,1:0:0:0:
195,0,82899,5,0,1:0:0:0:
143,115,83066,1,0,2:0:0:0:
28,63,83232,1,8,2:0:0:0:
263,177,83399,5,0,1:0:0:0:
148,125,83566,1,0,2:0:0:0:
96,240,83732,1,8,2:0:0:0:
96,240,83816,1,0,3:0:0:0:
96,240,83899,2,0,P|113:296|125:349,1,100,0|0,1:0|2:0,2:0:0:0:
243,370,84232,6,0,P|285:309|360:311,1,150,0|0,1:0|2:0,2:0:0:0:
366,306,84566,2,0,L|378:354,1,50,8|0,2:0|2:0,2:0:0:0:
240,221,84732,1,0,1:0:0:0:
240,221,84816,1,0,1:0:0:0:
240,221,84899,1,0,1:0:0:0:
342,135,85066,2,0,L|354:86,1,50,8|0,2:0|2:0,2:0:0:0:
300,29,85232,1,0,1:0:0:0:
280,33,85316,1,0,1:0:0:0:
260,37,85399,1,8,2:0:0:0:
241,41,85482,1,0,1:0:0:0:
221,45,85566,5,0,1:0:0:0:
342,135,85732,1,0,1:0:0:0:
232,229,85899,2,0,L|219:180,1,50,8|0,2:0|2:0,2:0:0:0:
357,3,86066,5,0,1:0:0:0:
478,93,86232,1,0,1:0:0:0:
368,187,86399,2,0,L|355:138,1,50,8|0,2:0|2:0,2:0:0:0:
487,84,86566,2,0,P|473:132|462:180,1,100,0|0,1:0|2:0,2:0:0:0:
402,343,86899,5,0,1:0:0:0:
363,198,87066,1,0,1:0:0:0:
218,237,87232,2,0,L|209:286,1,50,8|0,2:0|2:0,2:0:0:0:
194,363,87399,1,0,1:0:0:0:
169,369,87482,1,0,3:0:0:0:
145,376,87566,1,0,1:0:0:0:
157,180,87732,6,0,L|107:171,1,50,8|0,2:0|2:0,2:0:0:0:
34,152,87899,1,2,2:3:0:0:
39,131,87982,1,2,2:3:0:0:
29,117,88066,1,8,2:0:0:0:
46,101,88149,1,8,2:0:0:0:
16,72,88232,5,0,1:0:0:0:
174,54,88399,1,0,3:0:0:0:
192,213,88566,2,0,L|199:262,1,50,8|0,2:0|2:0,2:0:0:0:
323,29,88732,5,0,1:0:0:0:
340,187,88899,1,0,3:0:0:0:
182,205,89066,2,8,L|132:212,1,50,8|0,2:0|2:0,2:0:0:0:
62,292,89232,5,0,1:0:0:0:
63,326,89316,1,0,3:0:0:0:
83,354,89399,1,0,2:0:0:0:
115,367,89482,1,0,2:0:0:0:
149,360,89566,5,0,1:0:0:0:
290,263,89732,1,0,3:0:0:0:
119,203,89899,2,0,L|107:154,1,50,8|0,2:0|2:0,2:0:0:0:
261,360,90066,5,0,3:0:0:0:
261,360,90149,1,0,3:0:0:0:
261,360,90232,1,0,1:0:0:0:
319,180,90399,2,0,L|333:132,1,50,8|0,2:0|2:0,2:0:0:0:
267,87,90566,1,0,1:0:0:0:
259,110,90649,1,0,1:0:0:0:
252,134,90732,1,8,2:0:0:0:
245,158,90816,1,0,1:0:0:0:
238,182,90899,5,0,1:0:0:0:
371,286,91066,1,0,3:0:0:0:
473,159,91232,1,8,2:0:0:0:
366,303,91399,2,0,L|361:319,3,16.6666666666667,0|0|0|0,1:0|1:0|1:0|1:0,2:0:0:0:
285,264,91566,5,0,3:0:0:0:
260,270,91649,1,0,3:0:0:0:
236,276,91732,2,0,L|187:286,1,50,8|0,2:0|2:0,2:0:0:0:
238,173,91899,1,0,3:0:0:0:
213,167,91982,1,0,3:0:0:0:
189,161,92066,2,0,L|183:145,3,16.6666666666667,0|0|0|0,3:0|3:0|3:0|3:0,2:0:0:0:
246,92,92232,6,0,P|253:69|261:45,1,50,0|0,1:0|2:0,2:0:0:0:
336,71,92399,2,0,P|329:94|321:118,1,50,0|0,1:0|2:0,2:0:0:0:
183,145,92566,6,0,P|152:107|103:103,1,100,8|0,2:0|3:0,2:0:0:0:
89,110,92816,1,0,3:0:0:0:
77,121,92899,2,0,L|66:171,1,50,0|0,3:0|2:0,2:0:0:0:
17,66,93066,2,0,L|9:35,2,25,0|0|0,3:0|3:0|3:0,2:0:0:0:
11,80,93232,2,0,L|-1:31,1,50,8|0,2:0|2:0,2:0:0:0:
230,27,93399,6,0,B|256:-8|256:-8|240:46,1,100,8|0,1:2|2:0,2:0:0:0:
178,357,93566,6,0,B|167:353|167:353|133:232|133:232|121:226,1,150.000005722046,4|0,1:0|2:0,2:0:0:0:
111,224,93816,2,0,B|74:217,1,37.5000014305115,0|0,1:0|0:0,0:0:0:0:
217,242,93899,6,0,B|251:247|251:247|214:230,1,75.0000028610231,8|0,2:0|2:0,2:0:0:0:
0,292,94066,2,0,B|9:286|9:286|72:297,1,75.0000028610231,0|0,1:0|2:0,2:0:0:0:
265,325,94232,6,0,L|412:351,1,150.000005722046,0|0,1:0|2:0,2:0:0:0:
423,353,94482,2,0,L|459:359,1,37.5000014305115,0|0,1:0|0:0,0:0:0:0:
340,373,94566,6,0,B|299:387|299:387|325:370,1,75.0000028610231,8|0,2:0|2:0,2:0:0:0:
512,298,94732,2,0,B|504:292|504:292|486:229,1,75.0000028610231,0|0,1:0|2:0,2:0:0:0:
275,185,94899,6,0,B|280:197|280:197|402:218|402:218|411:208,1,150.000005722046,0|0,1:0|2:0,2:0:0:0:
408,199,95149,2,0,L|398:162,1,37.5000014305115,0|0,1:0|0:0,0:0:0:0:
473,146,95232,6,0,L|493:219,1,75.0000028610231,8|0,2:0|2:0,2:0:0:0:
332,244,95399,2,0,B|325:281|325:281|343:249,1,75.0000028610231,0|0,1:0|2:0,2:0:0:0:
452,7,95566,6,0,B|446:19|446:19|311:42,1,150.000005722046,0|0,1:0|2:0,2:0:0:0:
301,44,95816,2,0,B|264:50,1,37.5000014305115,0|0,1:0|0:0,0:0:0:0:
386,63,95899,6,0,B|425:80|425:80|398:61,1,75.0000028610231,8|0,2:0|2:0,2:0:0:0:
195,10,96066,5,0,1:0:0:0:
143,72,96149,1,0,1:0:0:0:
74,30,96232,6,0,B|0:48|0:48|40:109,1,150.000005722046,0|0,1:0|2:0,2:0:0:0:
40,109,96482,2,0,B|77:114,1,37.5000014305115,0|0,1:0|0:0,0:0:0:0:
148,82,96566,6,0,B|154:91|154:91|144:154,1,75.0000028610231,8|0,2:0|2:0,2:0:0:0:
1,213,96732,2,0,B|7:202|7:202|69:193,1,75.0000028610231,0|0,1:0|2:0,2:0:0:0:
283,185,96899,6,0,B|227:198|227:198|209:231|209:231|156:245,1,150.000005722046,0|0,1:0|2:0,2:0:0:0:
154,255,97149,2,0,L|146:291,1,37.5000014305115,0|0,1:0|0:0,0:0:0:0:
143,154,97232,6,0,B|155:123|155:123|147:163,1,75.0000028610231,8|0,2:0|2:0,2:0:0:0:
0,297,97399,2,0,B|42:288|42:288|48:282|48:282|71:278,1,75.0000028610231,0|0,1:0|2:0,2:0:0:0:
321,277,97566,6,0,B|325:288|325:288|446:322|446:322|452:334,1,150.000005722046,0|0,1:0|2:0,2:0:0:0:
456,344,97816,2,0,L|469:380,1,37.5000014305115,0|0,1:0|0:0,0:0:0:0:
504,269,97899,6,0,B|512:229|512:229|494:258,1,75.0000028610231,8|0,2:0|2:0,2:0:0:0:
369,384,98066,5,0,1:0:0:0:
295,366,98149,1,0,3:0:0:0:
219,344,98232,1,0,1:0:0:0:
226,333,98316,2,0,L|210:256,1,75.0000028610231,0|0,1:0|2:0,2:0:0:0:
386,223,98482,5,0,1:0:0:0:
332,164,98566,1,8,1:2:0:0:
375,97,98649,1,0,1:0:0:0:
317,44,98732,2,0,L|306:8,1,37.5000014305115,2|2,3:0|3:0,2:0:0:0:
324,36,98816,2,0,L|313:0,1,37.5000014305115,2|2,3:0|3:0,2:0:0:0:
380,89,98899,6,0,B|373:74|373:74|257:59|257:59|246:71,1,150.000005722046,0|0,1:0|2:0,2:0:0:0:
248,81,99149,2,0,L|255:117,1,37.5000014305115,0|0,1:0|0:0,0:0:0:0:
184,152,99232,6,0,L|169:78,1,75.0000028610231,8|0,2:0|2:0,2:0:0:0:
322,177,99399,2,0,B|316:182|316:182|250:195,1,75.0000028610231,0|0,1:0|2:0,2:0:0:0:
31,184,99566,6,0,B|91:140|91:140|106:213,1,150.000005722046,0|0,1:0|2:0,2:0:0:0:
103,224,99816,2,0,L|91:259,1,37.5000014305115,0|0,1:0|0:0,0:0:0:0:
159,296,99899,6,0,L|182:224,1,75.0000028610231,8|0,2:0|2:0,2:0:0:0:
23,95,100066,2,0,B|-1:68|-1:68|10:105,1,75.0000028610231,0|0,1:0|2:0,2:0:0:0:
159,296,100232,6,0,B|163:306|163:306|298:340,1,150.000005722046,0|0,1:0|2:0,2:0:0:0:
310,343,100482,2,0,L|319:380,1,37.5000014305115,0|0,1:0|0:0,0:0:0:0:
290,249,100565,6,0,B|258:251|258:251|299:261,1,75.0000028610231,8|0,2:0|2:0,2:0:0:0:
444,264,100732,2,0,B|439:273|439:273|375:287,1,75.0000028610231,0|0,1:0|2:0,2:0:0:0:
152,310,100899,6,0,L|5:342,1,150.000005722046,0|0,1:0|2:0,2:0:0:0:
15,345,101149,2,0,B|49:358,1,37.5000014305115,0|0,1:0|0:0,0:0:0:0:
75,280,101232,6,0,B|145:307,1,75.0000028610231,8|0,2:0|2:0,2:0:0:0:
318,344,101399,5,0,1:0:0:0:
375,287,101482,1,0,1:0:0:0:
456,317,101566,6,0,B|472:306|472:306|492:176,1,150.000005722046,0|0,1:0|2:0,2:0:0:0:
494,166,101816,2,0,L|444:181,1,37.5000014305115,0|0,1:0|0:0,0:0:0:0:
383,210,101899,6,0,B|377:202|377:202|387:137,1,75.0000028610231,8|0,2:0|2:0,2:0:0:0:
403,54,102066,2,0,B|408:61|408:61|398:126,1,75.0000028610231,0|0,1:0|2:0,2:0:0:0:
224,370,102232,6,0,L|210:321,1,50.0000019073487,0|0,1:0|2:0,2:0:0:0:
188,250,102344,2,0,L|174:201,1,50.0000019073487,0|0,1:0|2:0,2:0:0:0:
152,130,102455,6,0,L|138:81,1,50.0000019073487,0|0,1:0|2:0,2:0:0:0:
192,23,102566,6,0,B|211:-5|211:-5|202:34,1,75.0000028610231,8|0,2:0|2:0,2:0:0:0:
92,192,102732,2,0,L|55:202,1,37.5000014305115,0|0,3:0|0:0,2:0:0:0:
84,182,102816,2,0,L|47:192,1,37.5000014305115,0|0,3:0|0:0,0:0:0:0:
152,130,102899,6,0,P|220:163|294:167,1,150,0|0,1:0|2:0,2:0:0:0:
305,179,103232,2,0,B|329:173|341:157|341:157|327:167|311:170,1,75,8|0,2:0|2:0,2:0:0:0:
167,289,103399,5,0,3:0:0:0:
183,285,103482,1,0,3:0:0:0:
196,294,103566,1,2,3:0:0:0:
212,291,103649,1,0,3:0:0:0:
226,300,103732,2,0,L|284:312,1,50,0|0,3:0|2:0,2:0:0:0:
422,314,103899,5,2,2:0:0:0:
427,325,103982,1,2,2:0:0:0:
432,337,104066,1,2,2:0:0:0:
437,348,104149,1,2,2:0:0:0:
357,384,104232,6,0,B|365:356|365:356|496:307|496:307|505:277,1,200,0|0,1:0|2:0,2:0:0:0:
339,198,104482,1,2,2:0:0:0:
319,201,104566,2,0,B|256:210|256:210|290:222,1,100,2|0,1:2|2:0,2:0:0:0:
509,265,104732,1,2,2:0:0:0:
322,84,104899,6,0,B|318:67|318:67|380:8|380:8|403:90|403:90|392:102,1,200,0|0,1:0|2:0,2:0:0:0:
182,259,105149,1,2,2:0:0:0:
172,246,105232,2,0,B|147:203|147:203|182:167,1,100,2|0,1:2|2:0,2:0:0:0:
403,90,105399,1,2,2:0:0:0:
46,142,105566,6,0,B|-13:132|-13:132|122:95,1,200,0|0,1:0|2:0,2:0:0:0:
270,186,105816,1,2,2:1:0:0:
273,196,105899,2,0,B|258:217|258:217|279:230|279:230|293:211|293:211|273:196,1,100,2|0,1:2|2:0,2:0:0:0:
221,0,106066,1,2,2:0:0:0:
76,229,106232,6,0,B|50:324|50:324|147:350,1,200,0|0,1:0|2:0,2:0:0:0:
336,384,106482,1,2,2:0:0:0:
333,374,106566,2,0,B|327:352|327:352|252:331,1,100,2|0,1:2|2:0,2:0:0:0:
8,272,106732,1,2,2:0:0:0:
76,229,106816,2,0,B|83:200|83:200|69:228,1,50,0|0,1:0|2:0,2:0:0:0:
76,229,106899,6,0,B|61:217|61:217|33:59|33:59|16:47,1,200,0|0,1:0|2:0,2:0:0:0:
211,155,107149,1,2,2:0:0:0:
229,162,107232,2,0,B|287:186|287:186|249:186,1,100,2|0,1:2|2:0,2:0:0:0:
0,124,107399,1,2,2:0:0:0:
287,79,107566,6,0,B|369:53|369:53|421:96|421:96|373:83,1,200,0|0,1:0|2:0,2:0:0:0:
139,27,107816,1,2,2:0:0:0:
126,35,107899,2,0,B|115:44|115:44|134:128,1,100,2|0,1:2|2:0,2:0:0:0:
181,296,108066,1,2,2:0:0:0:
7,217,108232,6,0,B|-23:201|-23:201|90:224,1,150,0|0,1:0|2:0,2:0:0:0:
90,224,108399,2,0,L|122:231,3,33.3333333333333,0|0|0|0,1:0|1:0|1:0|1:0,2:0:0:0:
5,293,108566,5,0,1:0:0:0:
41,298,108649,1,0,1:0:0:0:
76,313,108732,1,0,1:0:0:0:
107,334,108816,1,0,1:0:0:0:
132,362,108899,2,0,B|79:377|79:377|119:356,1,100,0|0,1:0|2:0,2:0:0:0:
305,263,109066,2,0,B|316:230|316:230|298:258,2,66.6666666666667,0|0|0,1:0|1:0|1:0,2:0:0:0:
243,318,109232,6,0,B|200:309|200:309|225:326,1,75,2|0,2:0|2:0,2:0:0:0:
475,324,109399,2,0,L|510:334,1,37.5,2|0,2:0|2:0,2:0:0:0:
477,335,109482,2,0,L|512:345,1,37.5,2|0,2:0|2:0,2:0:0:0:
411,384,109566,6,0,B|465:371|465:371|440:224,1,200,0|0,1:2|2:0,2:0:0:0:
421,41,109816,1,2,2:0:0:0:
431,26,109899,2,0,B|452:-3|452:-3|428:57,1,100,2|0,1:2|2:0,2:0:0:0:
321,282,110066,1,2,2:0:0:0:
168,68,110232,6,0,B|164:57|164:57|278:11|278:11|251:71,1,200,0|0,1:0|2:0,2:0:0:0:
150,271,110482,1,2,2:0:0:0:
133,264,110566,2,0,B|118:260|118:260|95:178,1,100,2|0,1:2|2:0,2:0:0:0:
54,1,110732,1,2,2:0:0:0:
37,306,110899,6,0,B|47:329|47:329|117:353,1,100,0|0,1:0|2:0,2:0:0:0:
308,384,111066,1,2,2:0:0:0:
299,357,111149,1,2,2:0:0:0:
235,310,111232,1,2,1:2:0:0:
244,283,111316,1,2,2:0:0:0:
253,256,111399,2,0,B|246:226|218:213|218:213|236:231|240:249,1,100,2|0,2:0|2:0,2:0:0:0:
481,309,111566,6,0,L|471:358,1,50,0|0,1:0|2:0,2:0:0:0:
477,374,111649,2,0,L|498:276,1,100,2|0,1:2|2:0,2:0:0:0:
352,193,111816,2,0,L|365:242,1,50,0|0,1:0|2:0,2:0:0:0:
377,253,111899,2,0,L|353:155,1,100,0|0,1:0|2:0,2:0:0:0:
453,7,112066,6,0,L|420:0,3,33.3333333333333,2|2|2|2,3:0|3:0|3:0|3:0,2:0:0:0:
512,76,112232,6,0,B|490:94|490:94|350:64|350:64|339:37,1,200,0|0,1:0|2:0,2:0:0:0:
163,25,112482,1,2,2:0:0:0:
180,18,112566,2,0,B|229:2|229:2|247:47,1,100,2|0,1:2|2:0,2:0:0:0:
313,300,112732,1,2,2:0:0:0:
93,167,112899,6,0,B|58:155|58:155|88:161,1,66.6666666666667,0|0,1:0|0:0,0:0:0:0:
170,144,113010,2,0,B|196:119|196:119|176:142,1,66.6666666666667,0|0,1:0|0:0,0:0:0:0:
151,222,113121,2,0,B|158:257|158:257|148:227,1,66.6666666666667,0|0,1:0|0:0,0:0:0:0:
123,133,113232,6,0,B|115:96|115:96|124:126,1,66.6666666666667,0|0,1:0|0:0,0:0:0:0:
182,189,113344,2,0,B|215:199|215:199|185:193,1,66.6666666666667,0|0,1:0|0:0,0:0:0:0:
104,211,113456,2,0,B|76:234|76:234|96:211,1,66.6666666666667,0|0,1:0|0:0,0:0:0:0:
264,58,113566,6,0,P|297:179|329:300,1,250,4|0,1:0|2:0,2:0:0:0:
331,310,114066,2,0,B|335:332|326:351|326:351|329:335|326:318,1,75,0|0,1:0|2:0,2:0:0:0:
374,114,114232,5,8,2:0:0:0:
374,114,114399,2,0,P|396:91|425:80,1,62.5,2|0,2:0|2:0,2:0:0:0:
441,155,114566,2,0,P|472:154|500:166,1,62.5,2|0,2:0|2:0,2:0:0:0:
460,233,114732,2,0,P|482:255|494:284,1,62.5,2|0,2:0|2:0,2:0:0:0:
284,169,114899,6,0,L|266:241,1,75.0000028610231,6|0,1:2|2:0,2:0:0:0:
239,366,115066,1,0,2:0:0:0:
296,176,115232,2,0,B|198:200|198:200|191:216|191:216|86:242,1,225.000008583069,10|0,2:0|2:0,2:0:0:0:
22,197,115566,1,2,3:2:0:0:
16,174,115649,1,0,3:0:0:0:
10,153,115732,1,2,1:2:0:0:
233,375,115899,6,0,B|214:302,1,75.0000028610231,8|0,2:0|2:0,2:0:0:0:
167,123,116066,1,2,2:0:0:0:
0,343,116232,5,0,1:0:0:0:
0,343,116316,1,0,3:0:0:0:
0,343,116399,2,0,P|36:334|72:325,1,75.0000028610231,2|0,3:2|2:0,2:0:0:0:
219,293,116566,6,0,B|286:304|286:304|295:317|295:317|359:328,1,150.000005722046,10|0,2:0|2:0,2:0:0:0:
417,384,116816,1,2,3:0:0:0:
439,379,116899,1,2,3:2:0:0:
461,374,116982,1,0,3:0:0:0:
483,370,117066,2,0,L|499:297,1,75.0000028610231,2|0,1:2|2:0,2:0:0:0:
479,91,117232,2,0,L|463:164,1,75.0000028610231,10|0,2:0|2:0,2:0:0:0:
372,196,117399,2,0,L|427:246,1,75.0000028610231,2|0,2:0|2:0,2:0:0:0:
429,16,117566,6,0,B|350:32,1,75.0000028610231,0|0,1:0|2:0,2:0:0:0:
162,68,117732,1,2,2:0:0:0:
346,24,117899,6,0,B|321:29|321:29|284:201|284:201|260:207,1,225.000008583069,10|0,2:0|2:0,2:0:0:0:
187,224,118232,1,2,3:2:0:0:
179,252,118315,1,0,3:0:0:0:
171,281,118398,1,2,1:2:0:0:
172,54,118566,6,0,B|187:127,1,75.0000028610231,8|0,2:0|2:0,2:0:0:0:
231,354,118732,1,2,2:0:0:0:
1,325,118899,5,0,1:0:0:0:
1,325,118982,1,0,3:0:0:0:
1,325,119066,2,0,P|53:310|79:290,1,75.0000028610231,0|0,3:0|2:0,2:0:0:0:
112,161,119232,2,0,P|42:157|26:224,1,150.000005722046,10|0,2:0|2:0,2:0:0:0:
82,280,119482,6,0,P|120:283|153:300,1,75.0000028610231,8|0,2:0|2:0,2:0:0:0:
252,237,119649,1,8,2:0:0:0:
206,176,119732,2,0,P|225:209|234:245,1,75.0000028610231,0|0,1:0|2:0,2:0:0:0:
187,384,119899,2,0,P|242:333|312:307,1,150.000005722046,8|0,2:0|2:0,2:0:0:0:
462,215,120149,1,8,2:0:0:0:
436,292,120232,6,0,L|452:218,1,75.0000028610231,6|0,1:2|2:0,2:0:0:0:
485,71,120399,1,2,2:0:0:0:
327,304,120566,6,0,B|352:298|352:298|391:129|391:129|417:124,1,225.000008583069,8|0,2:0|2:0,2:0:0:0:
479,78,120899,1,2,3:2:0:0:
472,50,120982,1,0,3:0:0:0:
466,24,121065,1,2,1:2:0:0:
436,292,121232,6,0,L|417:219,1,75.0000028610231,8|0,2:0|2:0,2:0:0:0:
376,51,121399,1,2,2:0:0:0:
311,233,121566,5,0,1:0:0:0:
311,233,121649,1,0,3:0:0:0:
311,233,121732,2,0,P|276:219|239:210,1,75.0000028610231,0|0,3:0|2:0,2:0:0:0:
104,148,121899,6,0,B|148:137|177:165|170:172|199:203|239:193,1,150.000005722046,10|0,2:0|2:0,2:0:0:0:
292,135,122149,1,0,3:0:0:0:
299,115,122232,1,2,3:2:0:0:
299,93,122315,1,0,3:0:0:0:
290,73,122399,2,0,P|256:88|233:118,1,75.0000028610231,2|0,1:2|2:0,2:0:0:0:
154,111,122566,2,0,P|122:131|85:138,1,75.0000028610231,10|0,2:0|2:0,2:0:0:0:
255,4,122732,2,0,P|221:21|192:45,1,75.0000028610231,2|0,2:0|2:0,2:0:0:0:
18,181,122899,6,0,P|35:213|46:249,1,75.0000028610231,2|0,1:2|2:0,2:0:0:0:
78,377,123066,1,0,2:0:0:0:
12,170,123232,2,0,P|122:190|224:237,1,225.000008583069,10|0,2:0|2:0,2:0:0:0:
268,302,123565,1,2,3:2:0:0:
289,315,123648,1,0,3:0:0:0:
318,321,123732,1,2,1:2:0:0:
141,218,123899,6,0,P|178:221|216:233,1,75.0000028610231,8|0,2:0|2:0,2:0:0:0:
392,299,124066,1,2,2:0:0:0:
218,113,124232,6,0,B|206:67|206:67|203:70|203:70|192:22,2,100,0|0|8,1:0|2:0|2:3,2:0:0:0:
127,219,124732,1,0,3:0:0:0:
107,212,124816,1,2,3:0:0:0:
98,182,124900,1,0,3:0:0:0:
88,153,124982,1,2,3:0:0:0:
68,145,125066,1,8,3:0:0:0:
68,145,125399,6,0,B|27:135|27:135|76:164,1,100,8|0,2:0|2:0,2:0:0:0:
313,255,125566,6,0,P|321:218|328:181,1,75,4|0,1:2|2:0,2:0:0:0:
359,13,125732,1,0,2:0:0:0:
305,261,125899,2,0,B|312:273|312:273|478:254|478:254|498:216,1,225,10|0,2:0|2:0,2:0:0:0:
429,182,126232,1,2,3:2:0:0:
421,153,126316,1,0,3:0:0:0:
413,124,126399,1,2,1:2:0:0:
443,364,126566,6,0,B|424:383|424:383|440:338,1,75,8|0,2:0|2:0,2:0:0:0:
512,58,126732,1,2,2:0:0:0:
338,358,126899,5,0,1:0:0:0:
338,358,126982,1,0,3:0:0:0:
338,358,127066,2,0,L|265:339,1,75,0|0,3:0|2:0,2:0:0:0:
1,373,127232,6,0,B|18:388|18:388|139:348,1,150,10|0,2:0|2:0,2:0:0:0:
97,281,127482,1,0,3:0:0:0:
55,294,127566,1,2,3:2:0:0:
15,274,127649,1,0,3:0:0:0:
1,233,127732,2,0,L|16:159,1,75,2|0,1:2|2:0,2:0:0:0:
181,12,127899,2,0,L|112:41,1,75,10|0,2:0|2:0,2:0:0:0:
2,144,128066,2,0,L|17:71,1,75,2|0,2:0|2:0,2:0:0:0:
169,171,128232,6,0,L|240:192,1,75,2|0,1:2|2:0,2:0:0:0:
439,254,128399,1,0,2:0:0:0:
182,168,128566,2,0,B|278:149|278:149|285:139|285:139|397:116,1,225,10|0,2:0|2:0,2:0:0:0:
449,56,128899,1,2,3:2:0:0:
477,64,128982,1,0,3:0:0:0:
506,73,129066,1,2,1:2:0:0:
154,46,129232,6,0,B|156:53|156:53|218:76,1,75,8|0,2:0|2:0,2:0:0:0:
486,179,129399,1,2,2:0:0:0:
312,4,129566,5,0,1:0:0:0:
312,4,129649,1,0,3:0:0:0:
312,4,129732,2,0,B|326:77,1,75,0|0,3:0|2:0,2:0:0:0:
350,227,129899,2,0,B|363:284|363:284|392:300|392:300|405:357,1,150,10|0,2:0|2:0,2:0:0:0:
421,345,130149,6,0,L|493:365,1,75,8|0,2:0|2:0,2:0:0:0:
342,240,130316,1,8,2:0:0:0:
287,298,130399,2,0,L|214:318,1,75,0|0,1:0|2:0,2:0:0:0:
488,278,130566,6,0,B|531:269|531:269|430:235,1,150,8|0,2:0|2:0,2:0:0:0:
262,188,130816,1,8,2:0:0:0:
343,163,130899,6,0,B|389:154|389:154|363:167,1,75,6|0,1:2|2:0,2:0:0:0:
91,230,131066,1,0,2:0:0:0:
274,93,131232,2,0,L|217:310,1,225,10|0,2:0|2:0,2:0:0:0:
273,363,131566,1,2,3:2:0:0:
309,353,131649,1,0,3:0:0:0:
345,343,131732,1,2,1:2:0:0:
84,217,131899,6,0,L|156:236,1,75,8|0,2:0|2:0,2:0:0:0:
426,308,132066,1,2,2:0:0:0:
148,383,132232,5,0,1:0:0:0:
148,383,132316,1,0,3:0:0:0:
148,383,132399,2,0,L|127:310,1,75,0|0,3:0|2:0,2:0:0:0:
85,235,132566,6,0,P|15:222|6:153,1,150,10|0,2:0|2:0,2:0:0:0:
62,96,132816,1,0,3:0:0:0:
99,88,132899,1,2,3:2:0:0:
136,81,132982,1,0,3:0:0:0:
173,74,133066,2,0,B|217:62|217:62|188:55,1,75,0|0,1:0|2:0,2:0:0:0:
6,3,133232,2,0,B|-22:9|-22:9|21:21,1,75,8|0,2:0|2:0,2:0:0:0:
267,131,133399,5,2,1:2:0:0:
344,108,133482,1,2,1:2:0:0:
421,85,133566,2,0,L|439:12,1,75,2|0,1:2|2:0,2:0:0:0:
512,29,133732,2,0,L|493:101,1,75,0|0,1:0|2:0,2:0:0:0:
318,229,133899,6,0,L|245:210,1,75,2|0,1:2|2:0,2:0:0:0:
262,138,134066,2,0,L|334:156,1,75,0|0,1:0|2:0,2:0:0:0:
460,317,134232,5,0,1:0:0:0:
471,316,134316,1,0,1:0:0:0:
483,306,134399,1,0,1:0:0:0:
487,287,134482,1,0,1:0:0:0:
470,265,134566,1,0,1:0:0:0:
437,259,134649,1,0,1:0:0:0:
402,280,134732,1,0,1:0:0:0:
371,320,134816,1,0,1:0:0:0:
322,349,134899,6,0,P|232:374|139:365,1,187.5,2|0,1:2|2:0,2:0:0:0:
128,379,135399,2,0,L|114:330,1,37.5000000000001,0|0,1:0|2:0,2:0:0:0:
308,347,135566,6,0,P|276:343|247:334,1,62.5,8|0,2:0|2:0,2:0:0:0:
0,346,135732,6,0,B|-14:386|52:400|71:319|28:275|7:291|-42:253|-22:176|54:197|37:241,1,262.5,6|0,1:0|2:0,2:0:0:0:
6,335,136066,2,0,L|32:251,1,87.5000000000001,2|0,1:0|2:0,2:0:0:0:
69,50,136232,6,0,L|60:13,1,37.5,0|0,1:0|2:0,2:0:0:0:
251,176,136732,2,0,L|242:203,1,22.5,0|0,1:0|2:0,2:0:0:0:
37,239,137066,2,0,L|55:234,1,15,0|0,1:0|2:0,2:0:0:0:
63,244,137316,1,0,3:0:0:0:
74,253,137399,1,0,3:0:0:0:
85,261,137482,1,0,3:0:0:0:
133,179,137566,6,0,L|144:143,1,37.5,0|0,1:0|2:0,2:0:0:0:
267,350,138066,6,0,B|256:378|266:383|273:355,1,45.0000000000001,0|0,1:0|2:0,2:0:0:0:
304,247,138399,5,0,1:0:0:0:
289,250,138482,2,0,L|270:254,1,15,0|0,3:0|2:0,2:0:0:0:
202,267,138732,1,0,3:0:0:0:
187,270,138816,1,0,3:0:0:0:
132,344,138899,6,0,L|122:385,1,37.5,0|0,1:0|2:0,2:0:0:0:
375,294,139399,2,0,L|397:289,1,22.5,0|0,1:0|2:0,2:0:0:0:
240,161,139732,2,0,L|235:141,1,15,0|0,1:0|2:0,2:0:0:0:
239,134,139982,1,0,3:0:0:0:
226,116,140066,1,0,3:0:0:0:
241,89,140149,1,0,3:0:0:0:
180,35,140232,6,0,L|142:29,1,37.5,0|0,1:0|2:0,2:0:0:0:
408,179,140732,6,0,B|412:172|412:172|458:164|458:164|463:159,1,60,0|0,1:0|2:0,2:0:0:0:
334,130,141066,5,0,1:0:0:0:
329,115,141149,2,0,L|323:96,1,15,0|0,3:0|2:0,2:0:0:0:
297,28,141399,1,0,3:0:0:0:
292,14,141482,1,0,3:0:0:0:
381,31,141566,6,0,L|417:39,1,37.5,0|0,1:0|2:0,2:0:0:0:
329,190,142066,6,0,L|321:188,1,7.5,0|0,1:0|2:0,2:0:0:0:
0,99,142232,1,8,2:0:0:0:
272,122,142399,6,0,L|254:118,1,15,0|0,1:0|2:0,2:0:0:0:
245,124,142649,1,0,3:0:0:0:
239,111,142732,1,0,3:0:0:0:
235,99,142816,1,0,3:0:0:0:
180,189,142899,6,0,B|169:183|169:183|156:134,1,62.5,0|0,1:0|2:0,2:0:0:0:
148,275,143399,6,0,L|150:268,1,7.5,0|0,1:0|2:0,2:0:0:0:
196,24,143566,1,8,2:0:0:0:
116,350,143732,5,0,1:0:0:0:
132,354,143816,2,0,L|152:359,1,15,0|0,3:0|2:0,2:0:0:0:
219,375,144066,1,0,3:0:0:0:
233,378,144149,1,0,3:0:0:0:
277,306,144232,6,0,L|313:299,1,37.5,0|0,1:0|2:0,2:0:0:0:
504,369,144732,6,0,L|500:360,1,7.5,0|0,1:0|2:0,2:0:0:0:
421,121,144899,1,8,2:0:0:0:
464,289,145066,6,0,L|465:274,1,15,0|0,1:0|2:0,2:0:0:0:
476,261,145316,1,0,3:0:0:0:
470,245,145399,1,0,3:0:0:0:
462,229,145482,1,0,3:0:0:0:
382,274,145566,6,0,P|345:276|319:303,1,75,0|0,1:0|2:0,2:0:0:0:
315,316,145899,2,0,L|321:346,1,25,2|0,2:3|2:0,2:0:0:0:
237,147,146066,1,0,1:0:0:0:
156,285,146232,2,0,L|131:290,1,25,2|0,2:3|2:0,2:0:0:0:
55,299,146399,1,0,1:0:0:0:
49,311,146482,1,0,1:0:0:0:
43,323,146566,1,8,2:3:0:0:
43,323,146732,6,0,L|1:330,1,25,2|0,2:0|2:0,2:0:0:0:
31,121,146899,6,0,L|1:113,1,30,4|0,1:0|2:0,2:0:0:0:
240,97,147149,2,0,L|210:89,1,30,0|0,1:0|2:0,2:0:0:0:
117,32,147399,2,0,L|87:24,1,30,0|0,1:0|2:0,2:0:0:0:
176,192,147649,2,0,L|146:184,1,30,0|0,1:0|1:0,2:0:0:0:
316,30,147899,5,0,3:0:0:0:
311,21,147982,1,0,3:0:0:0:
301,26,148066,1,0,1:0:0:0:
307,35,148149,1,0,3:0:0:0:
237,84,148232,6,0,L|207:76,1,30,0|0,1:0|2:0,2:0:0:0:
323,230,148482,2,0,L|293:222,1,30,0|0,1:0|2:0,2:0:0:0:
166,201,148732,2,0,L|136:193,1,30,0|0,1:0|2:0,2:0:0:0:
379,118,148982,2,0,L|349:110,1,30,0|0,1:0|1:0,2:0:0:0:
410,248,149232,5,0,3:0:0:0:
416,265,149316,1,0,3:0:0:0:
422,285,149399,1,0,1:0:0:0:
427,302,149482,1,0,3:0:0:0:
329,305,149566,6,0,L|299:297,1,30,0|0,1:0|2:0,2:0:0:0:
512,207,149816,2,0,L|482:199,1,30,0|0,1:0|2:0,2:0:0:0:
360,126,150066,2,0,L|330:118,1,30,0|0,1:0|2:0,2:0:0:0:
512,379,150316,2,0,L|482:371,1,30,0|0,1:0|1:0,2:0:0:0:
270,220,150566,5,0,3:0:0:0:
264,203,150649,1,0,2:0:0:0:
258,183,150732,1,0,1:0:0:0:
253,166,150816,1,0,2:0:0:0:
185,219,150899,6,0,L|155:211,1,30,0|0,1:0|2:0,2:0:0:0:
325,63,151149,2,0,L|295:55,1,30,0|0,1:0|2:0,2:0:0:0:
162,101,151399,2,0,L|132:93,1,30,0|0,1:0|2:0,2:0:0:0:
369,185,151649,2,0,L|339:177,1,30,0|0,1:0|1:0,2:0:0:0:
202,269,151899,5,0,3:0:0:0:
209,286,151982,1,0,3:0:0:0:
217,303,152066,1,0,1:0:0:0:
225,320,152149,1,0,3:0:0:0:
290,262,152232,6,0,L|320:270,1,30,4|0,1:0|2:0,2:0:0:0:
111,333,152482,2,0,L|141:341,1,30,0|0,1:0|2:0,2:0:0:0:
283,249,152732,2,0,L|313:257,1,30,0|0,1:0|2:0,2:0:0:0:
101,321,152982,2,0,L|131:329,1,30,0|0,1:0|1:0,2:0:0:0:
187,104,153232,5,0,3:0:0:0:
183,86,153315,1,0,3:0:0:0:
178,67,153399,1,0,1:0:0:0:
173,49,153482,1,0,3:0:0:0:
236,171,153566,6,0,L|266:179,1,30,0|0,1:0|2:0,2:0:0:0:
10,215,153816,2,0,L|40:223,1,30,0|0,1:0|2:0,2:0:0:0:
173,261,154066,2,0,L|203:269,1,30,0|0,1:0|2:0,2:0:0:0:
63,125,154316,2,0,L|93:133,1,30,0|0,1:0|1:0,2:0:0:0:
282,183,154566,5,0,3:0:0:0:
287,200,154649,1,0,3:0:0:0:
292,217,154732,1,0,1:0:0:0:
297,234,154816,1,0,3:0:0:0:
375,196,154899,6,0,L|405:204,1,30,4|0,1:0|2:0,2:0:0:0:
228,96,155149,2,0,L|257:104,1,30,0|0,1:0|2:0,1:0:0:0:
444,101,155399,2,0,L|474:109,1,30,0|0,1:0|2:0,2:0:0:0:
298,2,155649,2,0,L|328:10,1,30,0|0,1:0|1:0,2:0:0:0:
191,174,155899,5,0,3:0:0:0:
181,178,155982,1,0,3:0:0:0:
186,189,156066,1,0,1:0:0:0:
196,183,156149,1,0,3:0:0:0:
115,136,156232,5,2,1:2:0:0:
177,84,156399,1,2,2:0:0:0:
253,112,156566,1,2,2:0:0:0:
276,189,156732,1,2,2:0:0:0:
299,266,156899,1,2,2:0:0:0:
375,294,157066,1,2,2:0:0:0:
437,242,157232,1,2,2:0:0:0:
72,359,157566,5,4,1:0:0:0:
162,356,167166,5,0,1:0:0:0:
167,337,167241,1,0,3:0:0:0:
172,318,167316,1,0,3:0:0:0:
177,299,167391,1,0,3:0:0:0:
165,284,167466,5,0,1:0:0:0:
170,265,167541,1,0,3:0:0:0:
175,246,167616,1,0,3:0:0:0:
180,227,167691,1,0,3:0:0:0:
168,212,167766,5,0,1:0:0:0:
173,193,167841,1,0,3:0:0:0:
178,174,167916,1,0,3:0:0:0:
183,155,167991,1,0,3:0:0:0:
171,140,168066,5,0,1:0:0:0:
176,121,168141,1,0,3:0:0:0:
181,102,168216,1,0,3:0:0:0:
186,83,168291,1,0,3:0:0:0:
174,68,168366,6,0,L|137:76,1,37.5000000000001,0|0,1:0|3:0,2:0:0:0:
307,33,168516,2,0,L|271:21,1,37.5000000000001,0|0,3:0|3:0,2:0:0:0:
3,193,168666,5,0,1:0:0:0:
32,200,168741,1,0,3:0:0:0:
60,208,168816,1,0,3:0:0:0:
88,215,168891,1,0,3:0:0:0:
111,197,168966,5,0,1:0:0:0:
140,205,169041,1,0,3:0:0:0:
168,212,169116,1,0,3:0:0:0:
197,220,169191,1,0,3:0:0:0:
219,202,169266,5,0,1:0:0:0:
248,209,169341,1,0,3:0:0:0:
276,217,169416,1,0,3:0:0:0:
305,224,169491,1,0,3:0:0:0:
327,206,169566,5,0,1:0:0:0:
318,169,169641,1,0,3:0:0:0:
310,132,169716,1,0,3:0:0:0:
302,96,169791,1,0,3:0:0:0:
294,59,169866,5,0,1:0:0:0:
331,50,169941,1,0,3:0:0:0:
368,42,170016,1,0,3:0:0:0:
404,34,170091,1,0,3:0:0:0:
441,26,170166,5,0,1:0:0:0:
450,63,170241,1,0,3:0:0:0:
458,100,170316,1,0,3:0:0:0:
466,136,170391,1,0,3:0:0:0:
474,173,170466,6,0,L|426:160,1,50,0|0,1:0|3:0,2:0:0:0:
216,212,170616,2,0,L|264:225,1,50,0|0,3:0|3:0,2:0:0:0:
425,248,170766,5,0,1:0:0:0:
379,268,170841,1,0,3:0:0:0:
338,294,170916,1,0,3:0:0:0:
303,328,170991,1,0,3:0:0:0:
271,365,171066,5,0,1:0:0:0:
230,336,171141,1,0,3:0:0:0:
187,314,171216,1,0,3:0:0:0:
140,300,171291,1,0,3:0:0:0:
92,293,171366,5,0,1:0:0:0:
97,242,171441,1,0,3:0:0:0:
94,194,171516,1,0,3:0:0:0:
82,146,171591,1,0,3:0:0:0:
65,101,171666,2,0,L|46:54,1,50,0|0,1:0|3:0,2:0:0:0:
214,16,171816,5,0,3:0:0:0:
214,16,171891,1,0,3:0:0:0:
214,16,171966,2,0,L|224:51,1,37.5000000000001,0|0,1:0|2:0,2:0:0:0:
304,59,172116,2,0,P|294:79|286:100,1,45,0|0,1:0|2:0,2:0:0:0:
160,101,172266,2,0,P|181:116|201:133,1,52.5000000000001,0|0,1:0|2:0,2:0:0:0:
375,144,172416,2,0,P|347:156|322:172,1,60,0|0,1:0|2:0,2:0:0:0:
114,196,172566,2,0,P|147:201|179:211,1,67.5000000000001,0|0,1:0|2:0,2:0:0:0:
423,261,172716,2,0,P|387:251|350:246,1,75,0|0,1:0|2:0,2:0:0:0:
81,314,172866,2,0,P|120:299|159:288,1,82.5000000000001,0|0,1:0|2:0,2:0:0:0:
448,373,173016,2,0,P|410:347|368:332,1,89.9999999999999,0|0,1:0|2:0,2:0:0:0:
68,307,173166,5,0,1:0:0:0:
118,288,173241,1,0,1:0:0:0:
169,270,173316,1,0,1:0:0:0:
220,253,173391,1,0,1:0:0:0:
272,237,173466,1,0,1:0:0:0:
324,223,173541,1,0,1:0:0:0:
376,210,173616,1,0,1:0:0:0:
429,198,173691,1,0,1:0:0:0:
482,188,173766,2,0,L|488:147,3,30,0|0|0|0,1:0|3:0|3:0|3:0,2:0:0:0:
456,81,173916,5,0,1:0:0:0:
456,81,173991,1,0,1:0:0:0:
456,81,174066,1,0,1:0:0:0:
379,133,174166,1,0,1:0:0:0:
488,196,174266,1,0,1:0:0:0:
358,257,174366,1,4,1:0:0:0:
352,258,175566,5,2,3:0:0:0:
348,243,175641,2,0,L|340:205,1,37.5000000000001,8|0,3:0|2:0,2:0:0:0:
325,130,175791,1,8,3:0:0:0:
322,115,175866,1,4,3:0:0:0:
271,295,176016,5,2,3:0:0:0:
268,281,176091,2,0,L|260:243,1,37.5000000000001,8|0,3:0|2:0,2:0:0:0:
245,168,176241,1,8,3:0:0:0:
241,154,176316,1,4,3:0:0:0:
190,332,176466,6,0,L|182:294,1,37.5000000000001,2|0,3:0|2:0,2:0:0:0:
159,183,176616,2,0,L|166:220,1,37.5000000000001,2|0,2:0|2:0,2:0:0:0:
482,377,176766,6,0,P|497:316|513:255,1,125,4|0,1:0|2:0,2:0:0:0:
241,154,177066,2,0,P|228:92|216:31,1,125,8|0,2:0|2:0,2:0:0:0:
289,0,177291,1,0,3:0:0:0:
306,4,177366,1,0,1:0:0:0:
324,10,177441,1,0,3:0:0:0:
341,15,177516,1,0,3:0:0:0:
138,202,177666,2,0,P|78:186|17:171,1,125,8|0,2:0|2:0,2:0:0:0:
362,132,177966,5,0,1:0:0:0:
234,345,178116,1,0,2:0:0:0:
27,161,178266,2,0,P|13:100|-1:39,1,125,8|0,2:0|2:0,2:0:0:0:
25,22,178491,1,0,3:0:0:0:
55,22,178566,1,0,1:0:0:0:
80,40,178641,1,0,3:0:0:0:
90,69,178716,1,0,3:0:0:0:
18,267,178866,6,0,L|10:303,1,37.5000000000001,8|0,2:0|2:0,2:0:0:0:
82,322,179016,2,0,L|89:285,1,37.5000000000001,2|0,2:0|2:0,2:0:0:0:
214,143,179166,5,0,1:0:0:0:
368,293,179316,1,0,2:0:0:0:
431,55,179466,2,0,P|490:57|506:113,1,125,8|0,2:0|2:0,2:0:0:0:
498,132,179691,1,0,3:0:0:0:
473,136,179766,1,0,1:0:0:0:
448,141,179841,1,0,3:0:0:0:
424,146,179916,1,0,3:0:0:0:
157,76,180066,2,0,P|172:19|231:17,1,125,8|0,2:0|2:0,2:0:0:0:
512,311,180366,6,0,P|482:321|455:336,1,62.5,2|0,1:2|2:0,2:0:0:0:
415,155,180516,2,0,P|385:144|355:131,1,62.5,2|0,1:2|2:0,2:0:0:0:
294,352,180666,2,0,P|267:367|241:385,1,62.5,10|0,2:0|2:0,2:0:0:0:
139,207,180816,5,0,1:0:0:0:
105,183,180891,1,0,1:0:0:0:
65,179,180966,1,0,1:2:0:0:
28,196,181041,1,8,3:2:0:0:
5,230,181116,1,0,1:0:0:0:
1,270,181191,1,0,1:0:0:0:
19,307,181266,2,0,B|59:314|59:314|62:317|62:317|104:324,1,87.5000000000001,2|0,2:1|2:0,2:0:0:0:
340,262,181416,2,0,B|300:255|300:255|297:252|297:252|255:245,1,87.5000000000001,2|0,2:1|2:0,2:0:0:0:
15,86,181566,5,4,1:0:0:0:
197,2,181716,1,0,2:0:0:0:
303,159,181866,2,0,P|362:155|374:98,1,125,8|0,2:0|2:0,2:0:0:0:
359,82,182091,1,0,3:0:0:0:
334,78,182166,1,0,1:0:0:0:
309,73,182241,1,0,3:0:0:0:
285,68,182316,1,0,3:0:0:0:
438,0,182466,2,0,P|497:4|509:61,1,125,8|0,2:0|2:0,2:0:0:0:
377,298,182766,5,0,1:0:0:0:
285,68,182916,1,0,2:0:0:0:
97,228,183066,2,0,P|46:224|27:189,1,93.75,8|0,2:0|2:0,2:0:0:0:
27,190,183216,2,0,L|21:157,2,31.25,0|0|0,3:0|3:0|3:0,2:0:0:0:
0,86,183366,5,0,1:0:0:0:
0,86,183441,1,0,3:0:0:0:
0,86,183516,1,0,3:0:0:0:
238,220,183666,2,0,P|228:249|219:279,1,62.5,8|0,2:0|2:0,2:0:0:0:
185,353,183816,1,0,1:0:0:0:
108,366,183891,1,0,1:0:0:0:
31,379,183966,6,0,P|21:349|11:319,1,62.5,4|0,1:0|2:0,2:0:0:0:
211,274,184116,2,0,P|239:184|268:95,1,187.5,2|0,2:3|2:0,2:0:0:0:
120,283,184416,6,0,P|110:253|100:223,1,62.5,4|0,1:0|2:0,2:0:0:0:
337,201,184566,2,0,P|365:111|394:22,1,187.5,2|0,2:3|2:0,2:0:0:0:
170,6,184866,6,0,P|182:34|195:63,1,62.5,4|0,1:0|2:0,2:0:0:0:
306,286,185016,2,0,P|318:314|331:343,1,62.5,0|0,1:0|2:0,2:0:0:0:
496,88,185166,6,0,L|478:82,1,18.7500007152558,2|0,2:0|0:0,0:0:0:0:
412,124,185241,2,0,L|394:131,1,18.7500007152558,2|0,2:0|0:0,0:0:0:0:
326,96,185316,2,0,L|308:90,1,18.7500007152558,2|0,2:0|0:0,0:0:0:0:
243,133,185391,2,0,L|225:140,1,18.7500007152558,2|0,2:0|0:0,0:0:0:0:
156,104,185466,2,0,L|138:98,6,18.7500007152558,2|0|2|0|2|0|2,2:0|0:0|2:0|0:0|2:0|0:0|2:0,2:0:0:0:
243,142,185766,6,0,L|225:149,1,18.7500007152558,2|0,2:0|0:0,0:0:0:0:
153,113,185841,2,0,L|135:107,1,18.7500007152558,2|0,2:0|0:0,0:0:0:0:
70,150,185916,2,0,L|34:163,1,37.5000014305115,2|0,2:0|2:0,2:0:0:0:
0,39,186066,5,0,1:0:0:0:
109,229,186216,6,0,L|136:238,1,18.75,2|0,2:0|2:0,2:0:0:0:
114,242,186291,2,0,L|141:251,1,18.75,2|0,2:0|2:0,2:0:0:0:
41,290,186366,5,4,1:0:0:0:
331,205,186516,1,0,2:0:0:0:
29,298,186666,2,0,P|87:319|146:341,1,125,8|0,2:0|2:0,2:0:0:0:
210,384,186891,1,0,3:0:0:0:
244,369,186966,1,0,1:0:0:0:
280,360,187041,1,0,3:0:0:0:
318,356,187116,1,0,3:0:0:0:
138,225,187266,2,0,P|147:167|205:160,1,125,8|0,2:0|2:0,2:0:0:0:
464,247,187566,5,0,1:0:0:0:
155,341,187716,1,0,2:0:0:0:
472,255,187866,2,0,P|475:224|480:193,1,62.5000000000001,8|0,2:0|2:0,2:0:0:0:
438,135,188016,2,0,P|433:120|430:104,1,31.25,2|0,2:0|0:0,0:0:0:0:
425,147,188091,2,0,P|413:136|403:124,1,31.25,2|0,2:0|0:0,0:0:0:0:
419,163,188166,2,0,P|403:159|389:154,1,31.25,2|0,1:0|0:0,0:0:0:0:
350,132,188241,2,0,P|338:121|328:109,1,31.25,2|0,2:0|0:0,0:0:0:0:
305,70,188316,2,0,P|296:40|291:9,1,62.5,2|0,2:0|2:0,2:0:0:0:
505,10,188466,6,0,P|475:20|445:30,1,62.5000000000001,10|0,2:0|2:0,2:0:0:0:
195,122,188616,1,2,1:0:0:0:
152,133,188691,1,0,2:0:0:0:
112,147,188766,6,0,P|52:137|39:79,1,125,0|0,1:0|2:0,2:0:0:0:
218,251,189066,2,0,P|200:310|182:370,1,125,8|0,2:0|2:0,2:0:0:0:
113,332,189291,1,0,3:0:0:0:
78,345,189366,1,0,1:0:0:0:
42,358,189441,1,0,3:0:0:0:
7,370,189516,1,0,3:0:0:0:
304,349,189666,2,0,P|364:330|425:316,1,125,8|0,2:0|2:0,2:0:0:0:
497,355,189891,1,0,3:0:0:0:
497,355,189966,6,0,P|503:324|512:294,1,62.5000000000001,0|0,1:0|2:0,2:0:0:0:
414,189,190116,2,0,P|433:213|449:240,1,62.5000000000001,2|0,1:2|2:0,2:0:0:0:
292,340,190266,2,0,P|340:322|348:253,1,125,10|0,2:0|2:0,2:0:0:0:
301,193,190491,1,0,1:0:0:0:
231,227,190566,1,0,1:0:0:0:
212,222,190641,1,0,3:0:0:0:
194,218,190716,1,0,3:0:0:0:
176,214,190791,1,0,3:0:0:0:
156,209,190866,6,0,P|147:172|137:136,1,75,10|0,2:1|2:0,2:0:0:0:
66,14,191016,2,0,B|82:31|82:31|51:115,1,112.5,2|0,2:0|2:0,2:0:0:0:
46,125,191166,6,0,P|53:155|61:185,1,62.5000000000001,4|0,1:0|2:0,2:0:0:0:
126,377,191316,1,0,2:0:0:0:
230,142,191466,2,0,P|249:83|268:23,1,125,8|0,2:0|2:0,2:0:0:0:
193,3,191691,1,0,3:0:0:0:
180,42,191766,1,0,1:0:0:0:
167,81,191841,1,0,3:0:0:0:
155,120,191916,1,0,3:0:0:0:
399,356,192066,6,0,B|425:338|425:338|405:245,1,125,8|0,2:0|2:0,2:0:0:0:
145,223,192366,1,0,1:0:0:0:
149,236,192441,2,0,L|208:255,1,62.5000000000001,0|0,1:0|2:0,2:0:0:0:
512,349,192591,1,0,1:0:0:0:
495,271,192666,2,0,B|482:209,1,62.5000000000001,8|0,2:0|2:0,2:0:0:0:
423,45,192816,6,0,L|429:14,1,31.25,2|0,2:0|0:0,0:0:0:0:
435,69,192891,2,0,L|441:38,1,31.25,2|0,2:0|0:0,0:0:0:0:
447,93,192966,2,0,L|417:83,1,31.25,2|0,1:0|0:0,0:0:0:0:
372,71,193041,2,0,L|342:61,1,31.25,2|0,2:0|0:0,0:0:0:0:
297,49,193116,2,0,L|237:30,1,62.5,2|0,2:0|2:0,2:0:0:0:
405,246,193266,2,0,B|392:184,1,62.5000000000001,10|0,2:0|2:0,2:0:0:0:
232,23,193416,5,2,1:0:0:0:
157,46,193491,1,0,1:0:0:0:
82,68,193566,2,0,L|22:49,1,62.5000000000001,4|0,1:0|2:0,2:0:0:0:
134,250,193716,5,0,1:0:0:0:
138,267,193791,2,0,L|146:301,1,31.25,0|0,1:0|2:0,2:0:0:0:
84,346,193866,2,0,L|24:328,1,62.5000000000001,8|0,2:0|2:0,2:0:0:0:
332,203,194016,2,0,L|391:185,1,62.5000000000001,0|0,1:0|2:0,2:0:0:0:
170,54,194166,5,0,1:0:0:0:
158,48,194241,1,0,3:0:0:0:
163,37,194316,1,0,1:0:0:0:
175,42,194391,1,0,3:0:0:0:
166,45,194466,5,0,1:0:0:0:
181,118,194541,1,0,1:0:0:0:
197,191,194616,1,0,1:0:0:0:
212,265,194691,1,0,1:0:0:0:
227,338,194766,6,0,P|281:353|334:371,1,112.5,0|0,1:0|2:0,2:0:0:0:
354,380,195066,1,8,2:3:0:0:
114,358,195216,6,0,L|108:339,1,18.75,0|0,1:0|2:0,2:0:0:0:
104,364,195291,2,0,L|98:345,1,18.75,0|0,1:0|2:0,2:0:0:0:
115,370,195366,1,0,1:0:0:0:
230,264,195516,1,8,2:3:0:0:
33,156,195666,2,0,L|27:173,1,18.75,0|0,1:0|2:0,2:0:0:0:
33,156,195966,6,0,L|39:139,1,18.75,2|0,1:3|2:0,2:0:0:0:
109,237,196116,2,0,L|114:254,1,18.75,2|0,1:3|2:0,2:0:0:0:
39,138,196266,6,0,P|111:120|184:102,1,150,12|0,2:1|2:0,2:0:0:0:
244,151,196491,1,0,3:0:0:0:
262,109,196566,1,0,1:0:0:0:
281,69,196641,1,0,3:0:0:0:
301,28,196716,1,0,3:0:0:0:
44,32,196866,2,0,B|14:8|14:8|122:36,1,150,8|0,2:0|2:0,2:0:0:0:
508,243,197166,6,0,P|497:207|486:171,1,75,2|0,1:3|2:0,2:0:0:0:
350,120,197316,2,0,P|360:155|371:191,1,75,0|0,2:3|2:0,2:0:0:0:
512,260,197466,2,0,P|446:224|374:202,1,150,8|0,2:0|2:0,2:0:0:0:
317,258,197691,1,0,3:0:0:0:
337,294,197766,1,0,1:3:0:0:
331,334,197841,1,0,3:0:0:0:
357,367,197916,1,0,3:0:0:0:
209,182,198066,6,0,P|199:218|189:254,1,75,8|0,2:0|2:0,2:0:0:0:
165,327,198216,1,0,1:0:0:0:
92,344,198291,1,0,1:0:0:0:
19,361,198366,6,0,B|92:378,1,75,2|0,1:3|2:0,2:0:0:0:
420,332,198516,2,0,B|346:314,1,75,0|0,2:0|2:0,2:0:0:0:
24,280,198666,6,0,L|170:246,1,150,8|0,2:0|2:0,2:0:0:0:
209,182,198891,1,0,3:0:0:0:
200,145,198966,1,0,1:0:0:0:
191,108,199041,1,0,3:0:0:0:
183,72,199116,2,0,L|163:0,1,75,0|0,2:0|2:0,2:0:0:0:
98,170,199266,2,0,P|29:174|16:106,1,150,10|0,2:0|2:0,2:0:0:0:
289,116,199566,6,0,P|325:126|361:135,1,75,2|0,1:3|2:0,2:0:0:0:
437,158,199716,2,0,P|473:168|509:177,1,75,0|0,1:0|2:0,2:0:0:0:
286,16,199866,2,0,B|260:-6|260:-6|287:106,1,150,8|0,2:0|2:0,2:0:0:0:
353,151,200091,1,0,1:3:0:0:
345,167,200166,1,0,1:3:0:0:
360,215,200241,1,0,3:0:0:0:
374,261,200316,1,0,1:0:0:0:
390,311,200391,1,0,1:0:0:0:
383,328,200466,6,0,B|365:363|365:363|375:316,1,87.5000000000001,10|0,2:1|2:0,2:0:0:0:
464,73,200616,2,0,B|482:38|482:38|471:84,1,87.5000000000001,2|0,2:1|2:0,2:0:0:0:
197,324,200766,6,0,B|202:316|202:316|266:302,1,75,4|0,1:0|2:0,2:0:0:0:
485,251,200916,1,0,2:0:0:0:
113,368,201066,2,0,B|101:358|101:358|123:225,1,150,8|0,2:0|2:0,2:0:0:0:
87,159,201291,1,0,3:0:0:0:
43,153,201366,1,0,1:0:0:0:
8,180,201441,1,0,3:0:0:0:
1,223,201516,2,0,L|25:299,1,75,0|0,3:0|2:0,2:0:0:0:
193,333,201666,2,0,B|197:342|197:342|325:365|325:365|330:373,1,150,8|0,2:0|2:0,2:0:0:0:
143,222,201966,5,0,1:0:0:0:
404,148,202116,1,0,2:0:0:0:
140,211,202266,2,0,L|115:101,1,112.5,8|0,2:0|2:0,2:0:0:0:
112,87,202416,2,0,L|103:50,2,37.5,0|0|0,3:0|3:0|3:0,2:0:0:0:
42,120,202566,1,0,1:0:0:0:
31,116,202641,1,0,3:0:0:0:
19,111,202716,1,0,3:0:0:0:
301,10,202866,6,0,P|291:46|281:82,1,75,8|0,2:0|2:0,2:0:0:0:
214,278,203016,1,0,1:0:0:0:
218,290,203091,1,0,1:0:0:0:
222,302,203166,1,0,1:0:0:0:
200,159,203316,5,0,1:0:0:0:
248,178,203391,1,0,1:0:0:0:
297,197,203466,2,0,L|323:267,1,75,8|0,2:0|2:0,2:0:0:0:
364,380,203616,1,0,2:0:0:0:
410,171,203766,5,0,1:0:0:0:
441,153,203841,1,0,3:0:0:0:
477,160,203916,1,0,3:0:0:0:
499,189,203991,1,0,3:0:0:0:
496,226,204066,2,0,L|424:249,1,75,8|0,2:0|2:0,2:0:0:0:
260,374,204216,1,0,1:0:0:0:
186,357,204291,1,0,1:0:0:0:
112,340,204366,6,0,L|98:266,1,75,4|0,1:0|2:0,2:0:0:0:
47,205,204516,2,0,B|37:192|37:192|71:102|71:102|135:175|135:175|129:191,1,225,2|0,2:3|2:0,2:0:0:0:
204,257,204816,6,0,L|229:186,1,75,4|0,1:0|2:0,2:0:0:0:
215,107,204966,2,0,B|212:91|212:91|287:30|287:30|306:125|306:125|293:136,1,225,2|0,2:3|2:0,2:0:0:0:
341,232,205266,5,0,1:0:0:0:
341,232,205416,2,0,B|334:258|334:258|352:277|352:277|358:251|358:251|341:232,1,100,8|0,2:0|2:0,2:0:0:0:
414,55,205566,6,0,L|438:62,1,25,0|0,1:0|2:0,2:0:0:0:
422,47,205716,2,0,L|446:54,1,25,0|0,1:0|2:0,2:0:0:0:
430,39,205866,2,0,B|502:58|502:58|483:131,1,150,12|0,1:0|2:0,2:0:0:0:
415,168,206091,1,0,3:0:0:0:
433,200,206166,1,2,1:3:0:0:
449,234,206241,1,0,3:0:0:0:
463,269,206316,1,0,3:0:0:0:
174,151,206466,2,0,L|212:6,1,150,8|0,2:0|2:0,2:0:0:0:
364,280,206766,6,0,P|383:311|386:348,1,75,2|0,1:3|2:0,2:0:0:0:
383,367,206916,1,0,2:0:0:0:
228,90,207066,1,8,2:0:0:0:
86,278,207216,6,0,L|78:314,1,37.5000014305115,2|0,2:0|0:0,0:0:0:0:
74,254,207291,2,0,L|66:290,1,37.5000014305115,2|0,2:0|0:0,0:0:0:0:
62,230,207366,2,0,L|97:241,1,37.5000014305115,2|0,1:0|0:0,0:0:0:0:
137,252,207441,2,0,L|172:263,1,37.5000014305115,2|0,2:0|0:0,0:0:0:0:
212,274,207516,2,0,L|283:296,1,75.0000028610231,2|0,2:0|2:0,2:0:0:0:
429,173,207666,2,0,L|320:207,1,112.5,10|0,2:0|2:0,2:0:0:0:
322,207,207816,2,0,L|299:135,1,75,2|0,1:0|2:0,2:0:0:0:
188,37,207966,6,0,P|150:37|115:49,1,75,2|0,1:3|2:0,2:0:0:0:
102,57,208116,1,0,2:0:0:0:
294,121,208266,2,0,P|357:89|357:18,1,150,8|0,2:0|2:0,2:0:0:0:
411,72,208491,1,0,3:0:0:0:
442,51,208566,1,0,1:0:0:0:
475,34,208641,1,0,3:0:0:0:
512,24,208716,1,0,3:0:0:0:
488,324,208866,2,0,P|421:290|348:275,1,150,8|0,2:0|2:0,2:0:0:0:
32,70,209166,6,0,L|48:144,1,75,2|0,1:3|2:0,2:0:0:0:
51,157,209316,2,0,L|66:230,1,75,0|0,1:0|2:0,2:0:0:0:
69,243,209466,1,8,2:0:0:0:
297,137,209616,5,0,3:0:0:0:
260,118,209691,1,0,3:0:0:0:
223,99,209766,1,0,1:0:0:0:
226,113,209841,1,0,3:0:0:0:
230,127,209916,1,0,3:0:0:0:
234,141,209991,1,0,3:0:0:0:
238,155,210066,2,0,B|253:191|253:191|278:165,1,75,10|0,2:1|2:0,2:0:0:0:
156,26,210216,2,0,B|130:0|130:0|115:36,1,75,2|0,2:1|2:0,2:0:0:0:
22,303,210366,6,0,L|40:375,1,75,4|0,1:0|2:0,2:0:0:0:
236,349,210516,2,0,L|18:290,1,225,2|0,2:3|2:0,2:0:0:0:
105,230,210816,6,0,L|123:302,1,75,4|0,1:0|2:0,2:0:0:0:
319,276,210966,2,0,L|101:217,1,225,2|0,2:3|2:0,2:0:0:0:
188,157,211266,6,0,L|206:229,1,75,4|0,1:0|2:0,2:0:0:0:
402,203,211416,2,0,L|184:144,1,225,2|0,2:3|2:0,2:0:0:0:
271,84,211716,6,0,L|289:156,1,75,4|0,1:0|2:0,2:0:0:0:
485,129,211866,2,0,L|267:70,1,225,2|0,2:3|2:0,2:0:0:0:
138,33,212166,6,0,P|141:51|147:69,1,37.5000014305115,2|0,1:0|0:0,0:0:0:0:
153,26,212241,2,0,P|167:13|179:-1,1,37.5000014305115,2|0,2:0|0:0,0:0:0:0:
138,15,212316,2,0,P|102:3|65:0,1,75.0000028610231,2|0,2:0|2:0,2:0:0:0:
269,72,212466,2,0,P|296:47|318:16,1,75.0000028610231,2|0,2:0|2:0,2:0:0:0:
153,155,212616,2,0,P|157:174|161:192,1,37.5000014305115,2|0,1:0|0:0,0:0:0:0:
165,200,212691,2,0,P|171:217|180:234,1,37.5000014305115,2|0,1:2|0:0,0:0:0:0:
188,241,212766,5,2,1:2:0:0:
457,344,212916,1,0,1:0:0:0:
131,299,213066,5,8,2:0:0:0:
463,351,213216,1,0,1:0:0:0:
329,384,213366,5,0,1:0:0:0:
317,343,213441,1,0,1:0:0:0:
306,302,213516,1,0,1:0:0:0:
295,262,213591,1,0,1:0:0:0:
273,274,213666,5,8,2:0:0:0:
286,202,213741,1,0,1:0:0:0:
301,131,213816,1,0,1:0:0:0:
315,59,213891,1,0,1:0:0:0:
300,44,213966,5,0,1:0:0:0:
221,60,214116,1,2,2:0:0:0:
161,8,214266,1,2,2:0:0:0:
213,69,214416,1,2,2:0:0:0:
199,146,214566,1,2,2:0:0:0:
225,70,214716,1,2,2:0:0:0:
301,45,214866,1,2,2:0:0:0:
301,142,215166,6,0,L|319:214,1,75.0000000000002,4|0,1:0|3:0,2:0:0:0:
333,220,215391,1,0,3:0:0:0:
346,225,215466,1,0,3:0:0:0:
466,157,215616,1,0,1:0:0:0:
393,91,215766,2,0,P|401:51|408:14,1,75.0000000000002,8|0,2:0|2:0,2:0:0:0:
420,23,215991,2,0,L|456:13,1,37.5000000000001,0|0,1:0|2:0,2:0:0:0:
325,40,216141,1,0,1:0:0:0:
312,34,216216,2,0,L|275:43,1,37.5000000000001,8|0,2:0|2:0,2:0:0:0:
220,105,216366,6,0,P|231:140|242:176,1,75.0000000000002,0|0,1:0|2:0,2:0:0:0:
247,189,216591,1,0,3:0:0:0:
252,206,216666,1,0,3:0:0:0:
321,142,216816,2,0,L|314:119,4,18.75,0|0|0|0|0,3:0|3:0|3:0|3:0|3:0,2:0:0:0:
195,23,217116,5,0,3:0:0:0:
195,23,217191,1,0,3:0:0:0:
195,23,217266,1,0,1:0:0:0:
195,23,217341,1,0,3:0:0:0:
194,23,217416,2,0,P|171:33|146:38,1,50,0|0,1:0|2:0,2:0:0:0:
95,98,217566,2,0,P|63:73|16:57,1,75.0000000000002,4|0,1:0|2:0,2:0:0:0:
19,55,217791,1,0,3:0:0:0:
6,51,217866,1,0,3:0:0:0:
165,181,218016,6,0,L|155:217,1,37.5000000000001,8|0,2:0|2:0,2:0:0:0:
122,288,218166,1,0,3:0:0:0:
101,281,218241,1,0,3:0:0:0:
82,293,218316,1,8,2:0:0:0:
61,286,218391,1,0,3:0:0:0:
44,300,218466,1,8,2:0:0:0:
75,204,218616,2,0,L|78:191,3,12.5,0|0|0|0,3:0|3:0|3:0|3:0,2:0:0:0:
11,148,218766,5,0,3:0:0:0:
11,148,218916,1,0,3:0:0:0:
165,180,219066,2,0,P|200:168|236:157,1,75.0000000000002,8|0,2:0|2:0,2:0:0:0:
284,94,219291,1,0,3:0:0:0:
288,78,219366,2,0,P|292:59|296:41,1,37.5000000000001,0|0,3:0|2:0,2:0:0:0:
313,170,219516,5,0,1:0:0:0:
309,184,219591,1,0,3:0:0:0:
305,198,219666,1,0,1:0:0:0:
301,212,219741,1,0,1:0:0:0:
297,226,219816,2,0,L|261:238,1,37.5000000000001,0|0,1:0|2:0,2:0:0:0:
180,266,219966,5,4,1:0:0:0:
307,331,220116,1,0,1:0:0:0:
307,331,220191,1,0,3:0:0:0:
307,331,220266,2,0,L|313:360,2,18.75,2|2|2,3:0|3:0|3:0,2:0:0:0:
215,345,220416,5,0,3:0:0:0:
193,350,220491,1,0,3:0:0:0:
173,354,220566,1,0,3:0:0:0:
153,358,220641,1,0,3:0:0:0:
133,362,220716,2,0,L|127:385,2,18.75,2|2|2,3:0|3:0|3:0,2:0:0:0:
81,303,220866,1,0,3:0:0:0:
61,297,220941,1,0,3:0:0:0:
41,291,221016,2,0,L|38:278,3,12.5,2|2|2|2,3:0|3:0|3:0|3:0,2:0:0:0:
134,234,221166,5,0,1:0:0:0:
134,234,221316,2,0,P|145:197|155:161,1,75.0000000000002,0|8,3:0|2:0,2:0:0:0:
152,139,221541,1,0,3:0:0:0:
167,123,221616,1,8,2:0:0:0:
159,101,221691,1,0,3:0:0:0:
177,84,221766,2,0,L|182:66,2,18.75,2|2|2,3:0|3:0|3:0,2:0:0:0:
112,27,221916,5,2,2:0:0:0:
256,17,222066,1,8,2:0:0:0:
105,37,222216,2,0,L|55:44,1,50,0|0,1:0|2:0,2:0:0:0:
263,7,222366,5,4,1:0:0:0:
320,83,222516,2,0,P|356:91|393:98,1,75.0000000000002,0|0,2:0|3:0,2:0:0:0:
407,102,222741,1,0,3:0:0:0:
421,105,222816,1,0,3:0:0:0:
275,157,222966,5,2,3:0:0:0:
262,161,223041,2,0,L|225:170,1,37.5000000000001,2|0,3:0|3:0,3:0:0:0:
335,217,223191,1,2,3:0:0:0:
331,230,223266,2,0,L|321:266,1,37.5000000000001,2|0,3:0|2:0,2:0:0:0:
418,192,223416,2,0,L|450:210,1,37.5000000000001,2|0,3:0|2:0,2:0:0:0:
496,284,223566,6,0,P|482:319|471:355,1,75.0000000000002,0|0,1:0|3:0,2:0:0:0:
414,287,223791,1,0,3:0:0:0:
414,287,223866,2,0,P|400:321|389:357,1,75.0000000000002,8|0,2:0|3:0,2:0:0:0:
311,377,224091,1,0,3:0:0:0:
311,377,224166,6,0,P|274:366|238:357,1,75.0000000000002,0|0,1:0|2:0,2:0:0:0:
278,221,224391,2,0,P|288:257|297:293,1,75.0000000000002,0|0,1:0|2:0,2:0:0:0:
176,288,224616,2,0,P|194:282|212:278,1,37.5000000000001,0|0,1:0|2:0,2:0:0:0:
392,202,224766,5,4,1:0:0:0:
360,43,224916,1,0,2:0:0:0:
396,189,225066,5,2,3:0:0:0:
419,181,225141,1,0,3:0:0:0:
443,175,225216,1,0,3:0:0:0:
468,168,225291,1,0,3:0:0:0:
491,161,225366,2,0,L|496:136,4,25,0|0|0|0|0,3:0|3:0|3:0|3:0|3:0,2:0:0:0:
488,245,225591,1,0,3:0:0:0:
488,245,225666,1,8,2:0:0:0:
429,89,225816,1,0,3:0:0:0:
289,151,225966,6,0,L|264:155,3,25,0|0|0|0,3:0|3:0|3:0|3:0,2:0:0:0:
255,167,226266,6,0,L|242:207,1,41.6666666666667,0|0,1:0|2:0,2:0:0:0:
164,195,226366,6,0,L|151:235,1,41.6666666666667,0|0,1:0|2:0,2:0:0:0:
71,221,226466,6,0,L|58:261,1,41.6666666666667,0|0,1:0|2:0,2:0:0:0:
11,152,226566,5,0,1:0:0:0:
146,76,226716,1,0,3:0:0:0:
146,76,226791,1,0,3:0:0:0:
146,76,226866,1,8,2:0:0:0:
32,1,227016,2,0,L|44:49,1,50,0|0,1:0|2:0,2:0:0:0:
155,200,227166,5,0,1:0:0:0:
155,200,227316,2,0,P|133:246|117:293,1,100,0|0,2:0|3:0,2:0:0:0:
119,311,227541,1,0,3:0:0:0:
126,330,227616,1,0,3:0:0:0:
138,322,227691,1,0,3:0:0:0:
142,343,227766,1,0,3:0:0:0:
165,333,227841,1,0,3:0:0:0:
171,359,227916,1,0,3:0:0:0:
193,340,227991,1,0,3:0:0:0:
204,369,228066,2,0,P|228:376|251:384,1,50,2|0,3:0|2:0,2:0:0:0:
265,378,228216,2,0,P|271:354|279:331,1,50,2|0,3:0|2:0,2:0:0:0:
190,254,228366,5,0,1:0:0:0:
340,211,228516,1,0,3:0:0:0:
297,61,228666,2,0,L|291:43,3,16.6666666666667,0|0|0|0,3:0|3:0|3:0|3:0,2:0:0:0:
252,125,228816,5,0,3:0:0:0:
233,118,228891,1,0,3:0:0:0:
215,111,228966,1,2,3:0:0:0:
381,33,229116,1,0,1:0:0:0:
448,179,229266,2,0,P|432:227|419:275,1,100,0|0,3:0|1:0,2:0:0:0:
463,339,229491,1,0,3:0:0:0:
452,354,229566,2,0,P|426:359|402:363,1,50,0|0,1:0|2:0,2:0:0:0:
268,380,229716,5,0,3:0:0:0:
263,365,229791,1,0,3:0:0:0:
259,351,229866,1,0,3:0:0:0:
255,336,229941,1,0,3:0:0:0:
251,322,230016,1,0,3:0:0:0:
247,307,230091,1,0,3:0:0:0:
230,313,230166,6,0,P|241:269|242:264,1,50,8|0,2:0|2:0,2:0:0:0:
303,154,230316,1,0,3:0:0:0:
303,154,230391,1,0,3:0:0:0:
303,154,230466,2,0,P|309:178|315:202,1,50,8|0,2:0|2:0,2:0:0:0:
356,308,230616,1,0,3:0:0:0:
356,308,230691,1,0,3:0:0:0:
356,308,230766,1,0,1:0:0:0:
229,259,230916,6,0,L|213:251,6,16.6666666666667,2|2|2|2|2|2|2,3:0|3:0|3:0|3:0|3:0|3:0|3:0,2:0:0:0:
382,125,231216,2,0,L|396:117,3,16.6666666666667,2|2|2|2,3:0|3:0|3:0|3:0,2:0:0:0:
310,96,231366,1,0,3:0:0:0:
303,71,231441,1,2,3:0:0:0:
296,47,231516,1,0,3:0:0:0:
288,24,231591,1,2,3:0:0:0:
280,0,231666,1,8,3:2:0:0:
452,126,231816,6,0,P|427:119|403:113,1,50,0|0,1:0|2:0,2:0:0:0:
206,25,231966,2,0,L|194:2,1,25,0|0,1:0|2:0,2:0:0:0:
179,24,232041,2,0,L|167:1,1,25,2|2,3:0|3:0,2:0:0:0:
149,28,232116,1,0,3:0:0:0:
126,43,232191,1,0,3:0:0:0:
110,61,232266,2,0,L|123:109,1,50,8|0,2:0|2:0,2:0:0:0:
146,182,232416,2,0,L|151:206,4,25,2|2|2|2|2,3:0|3:0|3:0|3:0|3:0,2:0:0:0:
250,137,232716,5,2,3:0:0:0:
250,137,232791,1,2,3:0:0:0:
250,137,232866,2,0,P|225:130|201:124,1,50,8|0,2:0|2:0,2:0:0:0:
66,167,233016,2,0,P|41:160|17:154,1,50,8|0,2:0|2:0,2:0:0:0:
286,251,233166,6,0,P|278:274|268:297,1,50,0|0,1:0|2:0,2:0:0:0:
160,227,233316,1,0,3:0:0:0:
160,227,233391,1,0,3:0:0:0:
160,227,233466,2,0,P|183:234|206:244,1,50,0|0,1:0|2:0,2:0:0:0:
136,353,233616,1,0,3:0:0:0:
136,353,233691,1,0,3:0:0:0:
136,353,233766,2,0,P|143:329|153:306,1,50,0|0,1:0|2:0,2:0:0:0:
262,377,233916,1,0,3:0:0:0:
262,377,233991,1,0,3:0:0:0:
262,377,234066,2,0,L|238:369,6,25,0|0|0|0|0|0|0,1:0|3:0|3:0|3:0|3:0|3:0|3:0,2:0:0:0:
160,315,234366,5,0,1:0:0:0:
78,157,234516,2,0,P|69:120|62:83,1,75.0000000000002,2|0,2:0|1:0,2:0:0:0:
90,154,234816,2,0,P|81:117|74:80,1,75.0000000000002,2|0,2:0|1:0,2:0:0:0:
123,145,235116,2,0,P|114:108|107:71,1,75.0000000000002,2|0,2:0|1:0,2:0:0:0:
181,132,235416,2,0,P|172:95|165:58,1,75.0000000000002,2|0,2:0|1:0,2:0:0:0:
252,116,235716,2,0,P|243:79|236:42,1,75.0000000000002,2|0,2:0|1:0,2:0:0:0:
328,97,236016,2,0,P|319:60|312:23,1,75.0000000000002,2|0,2:0|1:0,2:0:0:0:
410,79,236316,6,0,P|405:60|401:42,1,37.5000000000001,2|0,2:0|2:0,2:0:0:0:
236,42,236466,2,0,P|254:46|272:50,1,37.5000000000001,2|0,1:2|2:0,2:0:0:0:
504,150,236616,6,0,P|489:184|483:221,1,75.0000000000002,2|0,2:0|1:0,2:0:0:0:
489,155,236916,2,0,P|476:190|474:227,1,75.0000000000002,2|0,2:0|1:0,2:0:0:0:
469,166,237216,2,0,P|459:202|460:239,1,75.0000000000002,2|0,2:0|1:0,2:0:0:0:
441,185,237516,2,0,P|434:221|438:259,1,75.0000000000002,2|0,2:0|1:0,2:0:0:0:
488,320,237741,1,2,2:0:0:0:
482,334,237816,1,0,3:0:0:0:
491,343,237891,1,0,3:0:0:0:
319,232,238116,6,0,P|338:264|364:290,1,75.0000000000002,2|0,1:2|2:0,2:0:0:0:
308,351,238416,2,0,P|342:366|379:372,1,75.0000000000002,2|0,1:2|2:0,2:0:0:0:
380,373,238716,1,0,1:0:0:0:
369,371,238791,1,0,1:0:0:0:
348,365,238866,1,0,1:0:0:0:
326,354,238941,1,0,1:0:0:0:
301,335,239016,1,0,1:0:0:0:
273,305,239091,1,0,1:0:0:0:
250,258,239166,6,0,P|244:233|236:209,1,50,2|0,1:2|2:0,2:0:0:0:
165,234,239316,2,0,P|170:258|178:282,1,50,2|0,1:2|2:0,2:0:0:0:
249,328,239466,6,0,P|264:301|274:271,1,62.5,2|0,1:2|2:0,2:0:0:0:
157,163,239616,2,0,P|141:189|131:219,1,62.5,2|0,1:2|2:0,2:0:0:0:
197,384,239766,6,0,P|230:367|257:341,1,75,2|0,1:2|2:0,2:0:0:0:
217,106,239916,2,0,P|183:122|156:148,1,75,2|0,1:2|2:0,2:0:0:0:
81,335,240066,6,0,P|120:315|160:298,1,87.5000000000001,2|0,1:2|2:0,2:0:0:0:
347,151,240216,2,0,P|306:169|267:187,1,87.5000000000001,2|0,1:2|2:0,2:0:0:0:
146,14,240366,5,0,1:0:0:0:
141,26,240441,1,0,1:0:0:0:
141,46,240516,1,0,1:0:0:0:
152,69,240591,1,0,1:0:0:0:
181,83,240666,1,8,1:3:0:0:
221,84,240741,1,0,1:0:0:0:
250,66,240816,1,0,1:0:0:0:
287,31,240891,1,0,1:0:0:0:
337,18,240966,2,0,L|372:28,3,29.1666666666667,0|0|0|0,3:0|3:0|3:0|3:0,2:0:0:0:
335,109,241116,5,0,3:0:0:0:
335,109,241191,1,0,3:0:0:0:
335,109,241266,1,0,3:0:0:0:
349,150,241341,1,0,3:0:0:0:
362,192,241416,1,0,3:0:0:0:
372,234,241491,1,0,3:0:0:0:
380,277,241566,6,0,L|362:349,1,75,4|0,1:0|2:0,2:0:0:0:
152,338,241716,2,0,L|370:279,1,225,2|0,3:0|2:0,2:0:0:0:
262,204,242016,6,0,L|244:276,1,75,4|0,1:0|2:0,2:0:0:0:
32,267,242166,2,0,L|250:208,1,225,2|0,3:0|2:0,2:0:0:0:
168,131,242466,6,0,L|150:203,1,75,4|0,1:0|2:0,2:0:0:0:
105,365,242616,2,0,L|123:293,1,75,0|0,1:0|2:0,2:0:0:0:
60,122,242766,6,0,B|48:76|48:76|45:79|45:79|34:31,2,100,0|0|8,1:0|2:0|2:3,2:0:0:0:
149,203,243216,2,0,B|137:249|137:249|134:246|134:246|122:294,2,100,0|0|8,1:0|2:0|2:3,2:0:0:0:
255,46,243666,5,0,1:0:0:0:
255,46,243816,2,0,L|247:22,1,25,2|2,2:0|2:0,2:0:0:0:
193,97,243966,5,4,1:0:0:0:
379,9,244113,2,0,B|388:17|388:17|370:103,1,100,0|0,2:0|1:0,2:0:0:0:
190,108,244407,6,0,L|238:97,1,50,0|0,2:0|2:0,2:0:0:0:
475,51,244554,1,0,1:0:0:0:
300,151,244698,5,0,1:0:0:0:
330,172,244770,1,0,1:0:0:0:
358,194,244842,2,0,L|368:242,1,50,0|0,1:0|2:0,2:0:0:0:
385,320,244986,2,0,L|395:368,1,50,0|0,1:0|2:0,2:0:0:0:
415,125,245130,6,0,B|457:133|457:133|460:138|460:138|510:146,2,100,0|0|8,3:0|3:0|2:0,2:0:0:0:
306,299,245554,2,0,L|257:285,1,50,0|0,3:0|3:0,2:0:0:0:
185,259,245696,1,0,0:0:0:0:
185,259,245765,1,0,0:0:0:0:
185,259,245834,1,0,0:0:0:0:
461,249,245973,6,0,L|509:260,1,50,8|0,2:0|2:0,2:0:0:0:
500,270,246112,2,0,L|451:258,1,50,2|0,2:0|2:0,2:0:0:0:
203,138,246251,6,0,B|189:62|189:62|185:66|185:66|173:0,2,150,0|0|0,3:0|2:0|2:0,2:0:0:0:
409,44,246660,2,0,B|333:30|333:30|337:26|337:26|270:14,2,150,0|0|0,3:0|2:0|2:0,2:0:0:0:
316,240,247069,2,0,B|302:164|302:164|298:168|298:168|286:101,1,150,0|0,3:0|2:0,2:0:0:0:
273,23,247341,1,0,1:0:0:0:
471,202,247478,5,8,2:0:0:0:
448,213,247546,1,2,2:3:0:0:
424,211,247614,1,8,2:0:0:0:
403,199,247682,1,2,2:3:0:0:
390,178,247751,1,8,2:0:0:0:
388,153,247819,1,2,2:3:0:0:
398,131,247887,1,0,2:0:0:0:
512,352,248023,2,0,P|476:340|440:331,1,75.0000000000002,2|0,2:3|2:0,2:0:0:0:
425,328,248228,1,0,2:0:0:0:
410,325,248296,1,0,2:0:0:0:
246,175,248432,6,0,L|291:196,1,50,0|0,1:0|2:0,2:0:0:0:
302,202,248569,2,0,L|276:298,1,100,2|8,2:0|2:0,2:0:0:0:
144,213,248773,1,0,0:0:0:0:
154,218,248841,2,0,L|199:239,1,50,0|0,1:0|2:0,2:0:0:0:
210,245,248978,2,0,L|184:341,1,100,2|8,2:0|2:0,2:0:0:0:
51,256,249182,1,0,0:0:0:0:
62,261,249250,2,0,L|107:282,1,50,0|0,1:0|2:0,2:0:0:0:
118,288,249387,2,0,L|105:336,1,50,2|2,2:3|2:3,2:0:0:0:
8,370,249523,5,8,2:0:0:0:
114,134,249660,1,0,1:0:0:0:
51,256,249796,6,0,L|36:202,1,50,8|0,2:0|2:0,2:0:0:0:
8,58,249932,1,0,1:0:0:0:
114,134,250069,1,0,1:0:0:0:
126,5,250205,1,8,2:0:0:0:
38,209,250341,5,2,2:0:0:0:
58,214,250410,1,2,2:0:0:0:
77,219,250478,1,2,2:0:0:0:
96,224,250546,1,2,2:0:0:0:
116,229,250614,6,0,B|134:245|134:245|111:368,2,150,0|0|0,3:0|2:0|2:0,2:0:0:0:
326,203,251023,2,0,B|327:227|327:227|223:298,2,150,0|0|0,3:0|2:0|2:0,2:0:0:0:
492,333,251432,2,0,B|475:351|475:351|352:328,1,150,0|0,3:0|2:0,2:0:0:0:
230,168,251705,5,2,1:0:0:0:
220,135,251773,1,2,2:0:0:0:
210,103,251841,1,2,2:0:0:0:
201,70,251910,1,2,2:0:0:0:
191,38,251978,2,0,B|178:-2|178:-2|178:30,1,75,2|0,2:0|2:0,2:0:0:0:
223,298,252114,5,2,1:0:0:0:
245,272,252182,1,2,2:0:0:0:
268,248,252251,1,2,2:0:0:0:
292,224,252319,1,2,2:0:0:0:
315,199,252387,2,0,B|343:167|343:167|314:184,1,75,2|0,2:0|2:0,2:0:0:0:
166,232,252523,5,2,1:0:0:0:
132,224,252591,1,2,2:0:0:0:
99,216,252660,1,2,2:0:0:0:
66,208,252728,1,2,2:0:0:0:
32,199,252796,6,0,P|0:164|10:117,1,100,2|0,1:2|2:0,2:0:0:0:
12,102,253001,2,0,P|58:91|94:123,1,100,2|0,1:2|2:0,2:0:0:0:
150,235,253205,2,0,L|144:259,1,25,0|0,1:0|2:0,2:0:0:0:
156,243,253273,2,0,L|150:267,1,25,0|0,1:0|2:0,2:0:0:0:
166,232,253341,6,0,P|201:199|248:209,1,100,2|0,1:2|2:0,2:0:0:0:
263,207,253546,2,0,P|295:171|284:124,1,100,2|0,1:2|2:0,2:0:0:0:
197,53,253751,2,0,L|192:36,3,16.6666666666667,2|2|2|2,2:3|2:3|2:3|2:3,2:0:0:0:
202,66,253887,5,2,1:2:0:0:
360,14,254023,1,0,2:0:0:0:
299,119,254160,2,0,P|323:124|348:128,1,50,8|0,2:0|2:0,2:0:0:0:
423,144,254296,1,2,2:3:0:0:
430,167,254364,1,2,2:3:0:0:
439,190,254432,1,2,2:3:0:0:
476,35,254569,6,0,L|452:26,1,25,0|0,1:0|2:0,2:0:0:0:
483,46,254637,2,0,L|459:37,1,25,2|0,2:3|2:0,2:0:0:0:
489,57,254705,2,0,L|465:48,3,25,2|2|2|2,2:0|2:0|2:0|2:0,2:0:0:0:
360,14,254978,6,0,B|292:34|292:34|290:40|290:40|218:61,2,150,0|0|0,3:0|2:0|2:0,2:0:0:0:
439,190,255387,2,0,B|376:157|376:157|370:159|370:159|305:123,2,150,0|0|0,3:0|2:0|2:0,2:0:0:0:
370,370,255796,2,0,B|349:302|349:302|343:300|343:300|322:228,1,150,0|0,3:0|2:0,2:0:0:0:
297,134,256069,1,0,1:0:0:0:
236,341,256205,5,2,2:3:0:0:
213,336,256273,1,2,2:3:0:0:
191,332,256341,1,8,2:0:0:0:
169,328,256410,1,2,2:3:0:0:
147,324,256478,1,2,2:3:0:0:
125,320,256546,1,2,2:3:0:0:
103,316,256614,2,0,L|82:243,1,75,8|0,2:0|2:0,2:0:0:0:
27,24,256751,1,0,1:0:0:0:
96,239,256887,6,0,B|119:227|119:227|153:102|153:102|170:94,1,175,8|0,2:0|2:0,2:0:0:0:
246,70,257091,1,2,2:3:0:0:
251,54,257160,2,0,L|263:5,1,50,0|0,1:0|2:0,2:0:0:0:
157,90,257296,1,2,2:0:0:0:
315,138,257432,2,0,B|326:180|326:180|324:143,1,75,8|0,2:0|2:0,2:0:0:0:
402,92,257569,6,0,L|414:43,1,50,0|0,1:0|2:0,2:0:0:0:
305,126,257705,2,0,L|317:174,1,50,0|0,1:0|2:0,2:0:0:0:
418,30,257841,1,8,2:0:0:0:
456,185,257978,6,0,L|468:233,1,50,0|0,1:0|2:0,2:0:0:0:
491,307,258114,2,0,L|497:331,2,25,0|0|0,1:0|1:0|1:0,2:0:0:0:
417,290,258251,5,2,2:0:0:0:
412,288,258319,1,2,2:0:0:0:
407,286,258387,1,2,2:0:0:0:
402,285,258455,1,2,2:0:0:0:
397,284,258523,1,10,2:0:0:0:
392,284,258591,1,2,2:0:0:0:
387,282,258660,1,2,2:3:0:0:
382,281,258728,1,2,2:3:0:0:
377,280,258796,2,0,L|328:266,1,50,0|0,1:0|2:0,2:0:0:0:
291,337,258932,2,0,L|244:356,1,50,8|0,2:0|2:0,2:0:0:0:
204,238,259069,6,0,B|191:183|191:183|182:212,1,87.5000000000001,8|0,2:0|2:0,2:0:0:0:
138,365,259205,1,2,2:0:0:0:
45,189,259341,6,0,B|31:113|31:113|27:117|27:117|15:50,2,150,0|0|0,3:0|2:0|2:0,2:0:0:0:
251,95,259751,2,0,B|175:81|175:81|179:77|179:77|112:65,2,150,0|0|0,3:0|2:0|2:0,2:0:0:0:
158,291,260160,2,0,B|144:215|144:215|140:219|140:219|128:152,1,150,0|0,3:0|2:0,2:0:0:0:
70,328,260432,6,0,L|61:364,1,37.5000000000001,0|0,1:0|2:0,2:0:0:0:
55,333,260569,2,0,L|46:369,1,37.5000000000001,0|0,1:0|2:0,2:0:0:0:
174,289,260705,1,2,2:3:0:0:
191,293,260773,1,2,2:3:0:0:
208,297,260841,2,0,L|244:305,1,37.5000000000001,2|0,2:3|2:0,2:0:0:0:
277,377,260978,5,2,1:0:0:0:
324,367,261046,1,2,2:3:0:0:
372,358,261114,1,2,2:3:0:0:
420,348,261182,1,2,2:3:0:0:
468,339,261251,2,0,L|489:267,1,75,8|0,2:0|2:0,2:0:0:0:
316,272,261387,2,0,L|294:200,1,75,0|0,1:0|2:0,2:0:0:0:
510,192,261523,6,0,P|470:181|441:153,1,83.3333333333334,2|0,1:2|2:0,2:0:0:0:
385,208,261705,2,0,P|365:173|364:131,1,83.3333333333334,2|0,1:2|2:0,2:0:0:0:
284,123,261887,2,0,P|295:83|323:52,1,83.3333333333334,2|0,1:2|2:0,2:0:0:0:
512,99,262069,6,0,P|482:127|442:139,1,83.3333333333334,2|0,1:2|2:0,2:0:0:0:
273,115,262251,2,0,P|244:85|232:45,1,83.3333333333334,2|0,1:2|2:0,2:0:0:0:
389,220,262432,2,0,L|398:258,4,20.8333333333334,2|2|2|2|2,2:3|2:3|2:3|2:3|2:3,2:0:0:0:
364,131,262614,5,2,1:2:0:0:
492,217,262751,1,0,2:0:0:0:
278,259,262887,2,0,B|241:267|241:267|261:253,1,62.5000000000001,8|0,2:0|2:0,2:0:0:0:
406,345,263023,1,0,2:0:0:0:
216,341,263160,5,2,2:3:0:0:
209,362,263228,1,2,2:3:0:0:
202,383,263296,1,8,2:0:0:0:
148,243,263432,5,0,1:0:0:0:
141,222,263501,1,0,1:0:0:0:
134,201,263569,1,8,2:0:0:0:
0,358,263705,5,6,2:0:0:0:
73,384,263841,1,0,2:0:0:0:
98,310,263978,1,0,2:0:0:0:
27,284,264114,1,0,2:0:0:0:
145,198,264251,6,0,P|154:161|163:125,1,75.0000000000002,2|0,2:0|2:0,2:0:0:0:
240,141,264455,1,0,3:0:0:0:
240,141,264523,2,0,P|230:177|221:213,1,75.0000000000002,2|0,3:2|2:0,2:0:0:0:
18,23,264796,5,2,2:0:0:0:
42,97,264932,1,0,2:0:0:0:
26,18,265069,1,0,2:0:0:0:
50,92,265205,1,0,2:0:0:0:
187,43,265341,6,2,P|222:55|259:57,1,75.0000000000002,2|0,2:0|2:0,2:0:0:0:
320,112,265546,1,0,3:0:0:0:
320,112,265614,2,0,P|347:87|381:71,1,75.0000000000002,2|0,3:2|2:0,2:0:0:0:
173,140,265887,5,2,2:0:0:0:
214,202,266023,1,0,2:0:0:0:
241,272,266160,1,0,2:0:0:0:
252,347,266296,1,0,2:0:0:0:
374,177,266432,6,0,P|409:188|446:197,1,75.0000000000002,2|0,2:0|2:0,2:0:0:0:
494,263,266637,1,0,3:0:0:0:
494,263,266705,2,0,P|483:299|473:335,1,75.0000000000002,2|0,3:2|2:0,2:0:0:0:
253,265,266978,5,2,2:0:0:0:
265,345,267114,1,0,2:0:0:0:
327,294,267251,1,0,2:0:0:0:
191,316,267387,1,0,3:0:0:0:
191,316,267455,1,0,3:0:0:0:
191,316,267523,2,0,P|154:325|118:334,1,75.0000000000002,2|0,3:2|2:0,2:0:0:0:
60,383,267728,1,0,3:0:0:0:
60,383,267796,5,2,3:2:0:0:
180,232,267932,1,2,2:0:0:0:
31,114,268069,5,2,2:0:0:0:
9,187,268205,1,0,2:0:0:0:
85,207,268341,1,0,2:0:0:0:
105,133,268478,1,0,2:0:0:0:
23,292,268614,5,2,2:0:0:0:
180,232,268750,1,0,3:0:0:0:
180,232,268819,1,0,3:0:0:0:
180,232,268887,2,0,P|214:218|250:207,1,75.0000000000002,2|0,2:0|2:0,2:0:0:0:
332,384,269160,5,2,2:0:0:0:
271,338,269296,1,0,2:0:0:0:
202,308,269432,1,0,2:0:0:0:
129,293,269569,1,0,2:0:0:0:
338,243,269705,6,0,P|378:231|412:223,1,75.0000000000002,2|0,2:0|2:0,2:0:0:0:
415,208,269910,1,0,3:0:0:0:
420,192,269978,2,0,P|430:151|440:117,1,75.0000000000002,2|0,3:2|2:0,2:0:0:0:
474,98,270182,1,0,3:0:0:0:
510,77,270251,5,2,3:2:0:0:
446,19,270387,1,2,2:0:0:0:
364,43,270523,1,2,2:0:0:0:
338,125,270660,1,2,2:0:0:0:
156,44,270796,6,0,P|168:79|178:115,1,75.0000000000002,2|0,2:0|2:0,2:0:0:0:
333,115,271069,2,0,P|297:102|263:87,1,75.0000000000002,2|0,2:0|2:0,2:0:0:0:
48,0,271341,5,2,2:0:0:0:
97,145,271478,1,0,2:0:0:0:
145,48,271614,1,2,2:0:0:0:
0,97,271751,1,0,2:0:0:0:
51,10,271887,5,2,2:0:0:0:
134,51,272023,1,2,2:0:0:0:
93,134,272160,1,2,2:0:0:0:
10,93,272296,1,2,2:0:0:0:
79,312,272432,6,0,P|65:263|51:215,1,100,2|0,1:2|2:0,2:0:0:0:
206,351,272705,1,8,2:0:0:0:
255,209,272841,1,0,3:0:0:0:
255,209,272910,1,0,3:0:0:0:
255,209,272978,1,0,3:0:0:0:
90,319,273114,1,0,1:0:0:0:
321,382,273251,2,0,P|366:365|376:318,1,100,10|0,2:0|2:0,2:0:0:0:
312,100,273523,5,2,1:2:0:0:
440,148,273660,2,0,B|470:162|470:162|442:158,1,50,0|0,2:0|2:0,2:0:0:0:
223,74,273796,1,8,2:0:0:0:
487,24,273932,5,0,3:2:0:0:
487,24,274001,1,0,3:2:0:0:
486,24,274069,2,0,P|437:36|389:48,1,100,0|0,3:2|1:0,2:0:0:0:
215,81,274341,2,0,L|225:32,3,50,0|0|0|0,3:0|3:0|3:0|3:0,2:0:0:0:
245,12,274614,5,0,1:0:0:0:
115,104,274751,1,0,2:0:0:0:
266,197,274887,1,8,2:0:0:0:
115,287,275023,1,0,3:0:0:0:
115,287,275091,1,0,3:0:0:0:
115,287,275160,2,0,P|131:242|179:237,1,100,0|0,3:0|1:0,2:0:0:0:
338,313,275432,2,0,P|289:323|241:337,1,100,8|0,2:0|3:0,2:0:0:0:
230,353,275637,1,0,3:0:0:0:
221,370,275705,5,0,1:0:0:0:
259,186,275841,1,0,2:0:0:0:
419,357,275978,6,0,P|425:332|432:308,1,50,8|0,2:0|2:0,2:0:0:0:
455,233,276114,1,0,3:0:0:0:
466,193,276182,1,0,3:0:0:0:
477,154,276251,1,0,3:0:0:0:
505,358,276387,1,0,1:0:0:0:
463,147,276523,6,0,L|451:98,1,50,8|0,2:0|2:0,2:0:0:0:
323,202,276660,2,0,L|275:191,1,50,0|0,2:0|2:0,2:0:0:0:
232,12,276796,5,0,1:0:0:0:
112,118,276932,1,0,3:0:0:0:
112,118,277001,1,0,3:0:0:0:
112,118,277069,2,0,P|81:79|83:31,1,100,8|0,2:0|2:0,2:0:0:0:
265,190,277341,5,0,2:0:0:0:
54,268,277478,1,0,1:0:0:0:
201,348,277614,2,0,B|216:338|216:338|296:351,1,100,8|0,2:0|2:0,2:0:0:0:
480,262,277887,6,0,L|493:201,1,62.5,0|0,1:0|2:0,2:0:0:0:
373,238,278023,2,0,L|314:256,1,62.5,0|0,1:0|2:0,2:0:0:0:
405,342,278160,2,0,L|450:383,1,62.5,0|0,1:0|2:0,2:0:0:0:
432,123,278296,5,0,1:0:0:0:
441,90,278364,1,0,1:0:0:0:
448,57,278432,2,0,B|469:38|469:38|455:69,1,62.5,8|0,2:0|2:0,2:0:0:0:
328,156,278569,5,0,1:0:0:0:
280,142,278637,1,0,1:0:0:0:
232,128,278705,2,0,L|226:107,12,20.8333333333333,0|0|0|0|0|0|0|0|0|0|0|0|0,3:0|3:0|3:0|3:0|3:0|3:0|3:0|3:0|3:0|3:0|3:0|3:0|3:0,2:0:0:0:
232,128,280614,6,0,B|190:96|190:47|190:47|173:92|126:109,1,187.5,0|0,2:0|2:0,2:0:0:0:
165,180,281023,6,0,P|253:148|344:127,1,187.5,4|0,1:0|2:0,2:0:0:0:
349,116,281296,2,0,P|358:86|367:56,1,62.5000000000001,0|0,1:0|2:0,2:0:0:0:
487,187,281432,2,0,P|430:199|421:257,1,125,8|0,2:0|2:0,2:0:0:0:
485,306,281637,1,8,3:2:0:0:
503,310,281705,1,0,3:0:0:0:
224,383,281841,5,0,1:0:0:0:
288,180,281978,2,0,P|297:209|306:239,1,62.5000000000001,8|0,2:0|2:0,2:0:0:0:
386,355,282114,2,0,P|356:344|326:334,1,62.5000000000001,0|8,1:0|2:0,2:0:0:0:
125,269,282251,5,0,1:0:0:0:
120,252,282319,1,0,1:0:0:0:
115,235,282387,1,0,1:0:0:0:
110,218,282455,1,0,1:0:0:0:
105,201,282523,1,8,2:0:0:0:
296,244,282660,2,0,P|266:253|236:263,1,62.5000000000001,0|0,1:0|1:0,1:0:0:0:
16,350,282796,6,0,L|2:385,1,37.5,8|0,2:0|2:0,2:0:0:0:
231,275,282932,2,0,L|217:310,1,37.5,8|0,2:0|2:0,2:0:0:0:
41,148,283069,2,0,L|27:183,1,37.5,8|0,2:0|2:0,2:0:0:0:
288,49,283205,6,0,P|319:159|433:146,1,250,4|0,1:0|2:0,2:0:0:0:
507,383,283614,2,0,P|491:382|475:384,1,31.25,8|0,2:0|2:0,2:0:0:0:
475,362,283682,2,0,P|460:367|446:373,1,31.25,8|0,2:0|2:0,2:0:0:0:
442,345,283751,1,2,1:3:0:0:
407,331,283819,1,2,1:3:0:0:
370,320,283887,2,0,P|309:304|247:297,1,125,0|0,1:0|1:0,2:0:0:0:
442,157,284160,1,8,2:0:0:0:
219,57,284296,6,0,P|160:56|141:112,1,125,0|0,1:0|3:0,2:0:0:0:
130,128,284501,1,8,1:2:0:0:
136,151,284569,1,0,1:0:0:0:
143,175,284637,1,0,1:0:0:0:
150,199,284705,1,8,2:0:0:0:
350,110,284841,1,0,1:0:0:0:
81,35,284978,6,0,L|69:-1,1,37.5,8|0,2:0|2:0,2:0:0:0:
237,62,285114,2,0,L|272:50,1,37.5,8|0,2:0|2:0,2:0:0:0:
50,191,285251,2,0,L|10:179,1,37.5,8|0,2:0|2:0,2:0:0:0:
243,281,285387,6,0,B|298:291|331:251|314:240|344:197|401:208,1,187.5,4|0,1:0|2:0,2:0:0:0:
412,213,285660,2,0,P|418:243|425:274,1,62.5000000000001,0|0,1:0|2:0,2:0:0:0:
510,134,285796,2,0,P|452:126|443:68,1,125,8|0,2:0|2:0,2:0:0:0:
490,6,286001,1,8,3:2:0:0:
507,2,286069,1,0,3:0:0:0:
331,122,286205,1,0,1:0:0:0:
495,222,286341,6,8,P|498:237|501:252,2,31.25,8|2|2,2:0|3:2|3:2,2:0:0:0:
421,286,286478,2,8,P|424:301|427:316,2,31.25,10|2|2,3:2|3:2|3:2,2:0:0:0:
411,196,286614,5,0,1:0:0:0:
402,208,286682,2,0,L|342:225,1,62.5000000000001,8|0,3:2|1:0,2:0:0:0:
266,108,286819,1,0,1:0:0:0:
257,96,286887,2,0,L|197:79,1,62.5000000000001,8|0,2:0|2:0,2:0:0:0:
154,146,287023,2,0,L|214:163,1,62.5000000000001,2|0,3:0|2:0,2:0:0:0:
335,239,287160,5,2,1:3:0:0:
197,307,287296,1,2,1:3:0:0:
197,307,287364,1,2,1:3:0:0:
197,307,287432,2,0,P|202:331|207:355,1,50,8|0,2:0|2:0,2:0:0:0:
319,366,287569,6,0,P|199:329|78:296,1,250,4|0,1:0|1:0,2:0:0:0:
60,292,287910,1,0,3:0:0:0:
41,287,287978,2,0,P|34:256|27:226,1,62.5000000000001,8|0,2:0|2:0,2:0:0:0:
150,158,288114,2,0,L|142:188,4,31.25,0|0|0|0|0,3:0|3:0|3:0|3:0|3:0,2:0:0:0:
68,384,288387,5,0,1:0:0:0:
68,384,288455,1,0,1:0:0:0:
68,384,288523,2,0,P|98:375|128:367,1,62.5000000000001,8|0,2:0|2:0,2:0:0:0:
322,239,288660,2,0,P|272:226|142:188,1,187.5,0|0,1:0|2:0,2:0:0:0:
131,177,288932,2,0,L|125:146,2,31.25,0|0|0,1:0|3:0|3:0,2:0:0:0:
13,152,289069,5,10,3:2:0:0:
32,148,289137,1,10,3:2:0:0:
63,141,289205,1,2,1:2:0:0:
99,129,289273,1,0,1:2:0:0:
147,110,289341,1,8,3:2:0:0:
197,84,289410,1,8,3:2:0:0:
247,60,289478,1,8,3:2:0:0:
295,40,289546,1,2,3:2:0:0:
331,27,289614,1,2,1:2:0:0:
362,21,289682,1,2,1:2:0:0:
382,18,289751,6,0,B|414:36|414:36|387:184,1,187.5,4|0,1:0|2:0,2:0:0:0:
375,193,290023,2,0,L|363:254,1,62.5000000000001,0|0,1:0|2:0,2:0:0:0:
512,316,290160,2,0,P|454:301|445:242,1,125,8|0,2:0|2:0,2:0:0:0:
470,170,290364,1,8,3:2:0:0:
485,165,290432,1,0,3:0:0:0:
406,384,290569,5,0,1:0:0:0:
197,216,290705,2,0,L|257:231,1,62.5000000000001,8|0,2:0|2:0,2:0:0:0:
350,256,290841,2,0,L|354:286,2,31.25,8|0|0,3:2|3:0|3:0,2:0:0:0:
355,244,290978,1,0,1:0:0:0:
187,349,291114,2,0,L|182:379,2,31.25,0|0|0,1:0|3:0|3:0,2:0:0:0:
182,337,291251,1,8,2:0:0:0:
67,168,291387,5,0,1:0:0:0:
80,172,291455,1,0,1:0:0:0:
92,176,291523,1,0,3:0:0:0:
99,195,291591,2,0,L|114:242,1,50,10|0,3:2|1:0,2:0:0:0:
51,301,291728,1,0,1:0:0:0:
44,282,291796,2,0,L|28:234,1,50,8|0,2:0|2:0,2:0:0:0:
0,37,291932,6,0,B|7:59|7:59|204:116|204:116|211:138,1,250,4|0,1:0|1:0,2:0:0:0:
215,154,292273,1,0,3:0:0:0:
220,170,292341,1,8,2:0:0:0:
228,139,292410,1,8,2:0:0:0:
237,109,292478,1,2,1:3:0:0:
245,79,292546,1,2,1:3:0:0:
253,49,292614,2,0,L|313:33,1,62.5000000000001,0|0,1:0|2:0,2:0:0:0:
450,16,292751,1,0,1:0:0:0:
450,16,292819,1,0,1:0:0:0:
450,16,292887,1,8,2:0:0:0:
335,238,293023,6,0,B|315:220|315:220|339:124,1,125,0|0,1:0|2:0,2:0:0:0:
501,207,293296,2,0,L|470:213,1,31.25,2|0,1:2|0:0,0:0:0:0:
493,195,293364,2,0,L|462:201,1,31.25,2|0,1:2|0:0,0:0:0:0:
485,184,293432,2,0,L|423:197,1,62.5,8|0,2:0|2:0,2:0:0:0:
190,244,293569,1,0,1:0:0:0:
494,366,293705,6,0,P|496:354|498:342,1,25,2|0,1:2|0:0,0:0:0:0:
487,335,293773,2,0,P|485:323|481:311,1,25,8|0,2:0|0:0,0:0:0:0:
467,312,293841,2,0,P|460:303|452:293,1,25,2|0,3:0|0:0,0:0:0:0:
438,301,293910,2,0,P|427:296|416:291,1,25,2|0,3:0|0:0,0:0:0:0:
408,305,293978,2,0,P|383:310|358:314,1,50,10|0,3:2|2:0,2:0:0:0:
253,384,294114,6,0,P|136:340|13:314,1,250,4|0,1:0|1:0,2:0:0:0:
21,331,294455,1,0,1:0:0:0:
27,347,294523,2,0,P|57:352|88:359,1,62.5000000000001,8|0,2:0|2:0,2:0:0:0:
203,235,294660,1,0,1:0:0:0:
195,218,294728,1,0,1:0:0:0:
189,202,294796,2,0,P|158:196|127:189,1,62.5000000000001,0|0,1:0|2:0,2:0:0:0:
71,246,294932,1,0,1:0:0:0:
79,263,295001,1,0,1:0:0:0:
85,279,295069,2,0,P|116:285|147:292,1,62.5000000000001,8|0,2:0|2:0,2:0:0:0:
261,167,295205,1,0,1:0:0:0:
253,150,295273,1,0,1:0:0:0:
247,134,295341,6,0,L|216:127,1,31.25,8|0,1:2|2:0,2:0:0:0:
432,57,295478,2,0,L|463:49,1,31.25,8|0,2:0|2:0,2:0:0:0:
199,22,295614,2,0,L|168:15,1,31.25,8|0,2:0|2:0,2:0:0:0:
479,145,295751,2,0,L|510:137,1,31.25,8|0,2:0|2:0,2:0:0:0:
321,27,295887,5,2,1:3:0:0:
334,72,295955,1,2,1:3:0:0:
348,118,296023,1,8,2:0:0:0:
362,164,296091,1,8,2:0:0:0:
376,210,296160,2,0,L|436:236,1,62.5000000000001,10|0,2:0|2:0,2:0:0:0:
482,369,296296,6,0,P|380:320|276:278,1,225,4|0,1:0|2:0,2:0:0:0:
274,265,296569,2,0,P|263:228|253:192,1,75,0|0,1:0|2:0,2:0:0:0:
189,346,296705,5,8,2:0:0:0:
177,334,296773,1,8,2:0:0:0:
153,317,296841,1,8,2:0:0:0:
116,303,296910,1,8,2:0:0:0:
68,304,296978,1,2,1:3:0:0:
36,334,297046,1,10,3:2:0:0:
37,363,297114,1,2,1:3:0:0:
50,380,297182,1,2,1:3:0:0:
72,384,297251,2,0,P|67:346|60:309,1,75,8|0,1:2|2:0,2:0:0:0:
29,172,297387,5,0,1:0:0:0:
34,187,297455,1,0,1:0:0:0:
39,200,297523,2,0,L|87:213,1,50,8|0,2:0|2:0,2:0:0:0:
338,279,297660,5,0,1:0:0:0:
348,268,297728,1,0,1:0:0:0:
355,257,297796,2,0,L|341:208,1,50,8|0,2:0|2:0,2:0:0:0:
153,317,297932,5,0,1:0:0:0:
168,320,298001,1,0,1:0:0:0:
181,321,298069,2,0,L|215:285,1,50,8|0,2:0|2:0,2:0:0:0:
400,100,298205,5,0,1:0:0:0:
395,86,298273,1,0,1:0:0:0:
389,74,298341,2,0,L|340:60,1,50,8|0,2:0|2:0,2:0:0:0:
146,15,298478,2,0,L|97:1,1,50,8|0,2:0|2:0,2:0:0:0:
342,209,298614,6,0,L|486:167,1,150,4|0,1:2|2:0,2:0:0:0:
302,378,298819,1,0,3:0:0:0:
306,366,298887,2,0,L|342:220,1,150,8|0,1:2|2:0,2:0:0:0:
14,113,299160,6,0,L|87:95,1,75,0|0,1:0|2:0,2:0:0:0:
176,137,299296,1,0,1:0:0:0:
176,137,299364,1,0,1:0:0:0:
176,137,299432,2,0,B|215:75|215:75|157:26,1,150,8|0,1:2|2:0,2:0:0:0:
174,365,299705,6,0,P|245:366|272:300,1,150,0|0,1:0|1:0,2:0:0:0:
22,230,299910,1,0,1:0:0:0:
34,218,299978,2,0,P|104:217|131:283,1,150,8|0,1:2|2:0,2:0:0:0:
410,161,300251,5,0,1:0:0:0:
390,154,300319,1,10,3:2:0:0:
372,148,300387,1,0,3:0:0:0:
355,143,300455,1,2,3:0:0:0:
336,137,300523,2,0,L|321:63,1,75,8|0,1:2|2:0,2:0:0:0:
397,0,300660,2,0,L|411:73,1,75,8|0,2:0|2:0,2:0:0:0:
495,369,300796,6,0,B|507:352|507:352|462:231,1,150,0|0,1:0|2:0,2:0:0:0:
266,287,301001,1,0,1:0:0:0:
271,307,301069,2,0,B|279:326|279:326|407:348,1,150,8|0,1:2|2:0,2:0:0:0:
116,12,301341,6,0,L|103:85,1,75,0|0,1:0|2:0,2:0:0:0:
216,156,301478,1,0,1:0:0:0:
216,156,301546,1,0,1:0:0:0:
216,156,301614,2,0,L|240:8,1,150,8|0,1:2|2:0,2:0:0:0:
90,348,301887,6,0,P|20:349|0:282,1,150,0|0,1:0|1:2,2:0:0:0:
124,178,302091,1,0,1:0:0:0:
132,197,302160,2,0,P|156:267|182:338,1,150,8|0,2:0|1:0,2:0:0:0:
480,379,302432,5,8,2:0:0:0:
490,333,302501,1,8,2:0:0:0:
479,305,302569,1,2,1:3:0:0:
461,283,302637,1,2,1:3:0:0:
447,274,302705,2,0,P|423:264|400:254,1,50,8|0,1:2|2:0,2:0:0:0:
292,282,302841,2,0,P|315:289|339:297,1,50,8|0,1:2|2:0,2:0:0:0:
501,16,302978,6,0,P|495:84|426:89,1,150,0|0,1:0|2:0,2:0:0:0:
271,0,303182,1,0,1:0:0:0:
287,3,303251,2,0,B|361:22|329:57|413:75,1,150,8|0,1:2|2:0,2:0:0:0:
18,93,303523,6,0,P|8:56|-1:20,1,75,0|0,1:0|2:0,2:0:0:0:
240,159,303660,1,0,1:0:0:0:
240,159,303728,1,0,1:0:0:0:
240,159,303796,2,0,P|168:135|97:113,1,150,8|0,1:2|2:0,2:0:0:0:
111,383,304069,6,0,P|166:337|153:267,1,150,0|0,1:0|2:0,2:0:0:0:
14,348,304273,1,0,1:0:0:0:
14,348,304341,2,0,P|1:278|56:232,1,150,8|8,1:2|2:0,2:0:0:0:
253,334,304614,5,0,1:0:0:0:
292,356,304682,1,8,1:2:0:0:
330,378,304751,1,0,1:0:0:0:
352,340,304819,1,0,1:0:0:0:
376,302,304887,1,8,2:0:0:0:
275,190,305023,2,0,L|297:261,1,75,8|0,1:2|2:0,2:0:0:0:
458,375,305160,6,0,B|479:367|479:367|511:245,1,150,0|0,1:0|2:0,2:0:0:0:
357,66,305364,1,0,1:0:0:0:
346,75,305432,2,0,B|330:91|330:91|368:212,1,150,8|0,1:2|2:0,2:0:0:0:
115,0,305705,6,0,L|102:73,1,75,0|0,1:0|2:0,2:0:0:0:
52,146,305841,2,0,L|125:159,1,75,0|0,1:0|2:0,2:0:0:0:
198,209,305978,2,0,L|211:136,1,75,8|0,2:0|2:0,2:0:0:0:
261,63,306114,2,0,L|188:50,1,75,0|0,1:0|2:0,2:0:0:0:
43,135,306251,6,0,L|12:129,2,31.25,8|2|2,2:0|3:0|3:0,2:0:0:0:
205,216,306387,1,0,1:0:0:0:
205,216,306455,1,0,1:0:0:0:
205,216,306523,2,0,L|235:210,2,31.25,8|2|2,2:0|3:0|3:0,2:0:0:0:
53,273,306660,5,0,1:0:0:0:
53,273,306728,1,0,1:0:0:0:
53,273,306796,2,0,L|68:334,1,62.5,8|0,1:2|2:0,2:0:0:0:
168,366,306932,2,0,L|198:374,2,31.25,8|2|2,2:0|3:0|3:0,2:0:0:0:
72,348,307069,1,0,1:0:0:0:
247,210,307205,6,0,L|263:271,1,62.5,8|0,2:0|2:0,2:0:0:0:
428,368,307341,6,0,P|498:363|512:295,1,150,4|0,1:0|2:0,2:0:0:0:
349,187,307546,1,0,1:0:0:0:
343,197,307614,2,0,P|357:265|426:270,1,150,8|0,1:2|2:0,2:0:0:0:
488,31,307887,6,0,L|470:103,1,75,0|0,1:0|2:0,2:0:0:0:
284,79,308023,1,0,1:0:0:0:
284,79,308091,1,0,1:0:0:0:
284,79,308160,2,0,L|356:60,1,75,8|0,1:2|2:0,2:0:0:0:
491,20,308296,1,0,2:0:0:0:
300,294,308432,6,0,B|275:287|275:287|247:166,1,150,0|0,1:0|1:0,2:0:0:0:
177,19,308637,1,0,1:0:0:0:
190,22,308705,2,0,B|215:29|215:29|242:149,1,150,8|8,1:2|2:0,2:0:0:0:
0,66,308978,5,0,1:0:0:0:
36,73,309046,1,8,3:2:0:0:
73,80,309114,1,0,1:0:0:0:
110,88,309182,1,0,1:0:0:0:
147,95,309251,2,0,B|163:168,1,75,8|0,1:2|2:0,2:0:0:0:
393,232,309387,2,0,L|314:212,1,75,8|0,1:2|2:0,2:0:0:0:
0,171,309523,6,0,P|68:166|84:233,1,150,0|0,1:0|2:0,2:0:0:0:
140,364,309728,1,0,1:0:0:0:
131,373,309796,2,0,P|62:378|47:311,1,150,8|0,1:2|2:0,2:0:0:0:
265,374,310069,6,0,P|274:337|282:301,1,75,0|0,1:0|2:0,2:0:0:0:
381,268,310205,1,0,1:0:0:0:
402,260,310273,1,0,1:0:0:0:
424,250,310341,2,0,P|442:177|459:104,1,150,8|0,1:2|2:0,2:0:0:0:
89,74,310614,6,0,B|99:37|99:37|207:9,1,150,0|0,1:0|1:0,2:0:0:0:
333,125,310819,1,0,1:0:0:0:
329,140,310887,2,0,B|319:177|319:177|210:204,1,150,8|0,1:2|1:0,2:0:0:0:
7,384,311160,6,0,P|1:357|-1:331,1,37.5000014305115,8|0,2:0|0:0,0:0:0:0:
19,325,311229,2,0,P|22:299|30:274,1,37.5000014305115,8|0,2:0|0:0,0:0:0:0:
55,284,311296,2,0,P|70:262|89:243,1,37.5000014305115,2|0,2:3|0:0,0:0:0:0:
107,263,311364,2,0,P|131:251|156:241,1,37.5000014305115,2|0,2:3|0:0,0:0:0:0:
164,272,311433,1,2,1:3:0:0:
175,310,311502,1,0,1:0:0:0:
202,338,311570,1,8,1:2:0:0:
241,349,311638,1,2,1:3:0:0:
279,339,311706,1,0,1:0:0:0:
468,384,311841,5,0,1:0:0:0:
452,376,311910,1,0,1:0:0:0:
436,371,311978,2,0,B|408:359|408:359|386:240,1,150,8|0,2:0|2:0,2:0:0:0:
512,0,312251,6,0,L|494:72,1,75,0|0,1:0|2:0,2:0:0:0:
291,174,312387,1,0,1:0:0:0:
291,174,312455,1,0,1:0:0:0:
291,174,312523,2,0,B|295:165|295:165|421:135|421:135|424:125,1,150,8|0,1:2|1:0,2:0:0:0:
22,108,312796,6,0,P|93:101|122:165,1,150,0|0,1:0|2:0,2:0:0:0:
273,7,313001,1,0,1:0:0:0:
259,0,313069,2,0,P|190:18|184:88,1,150,8|8,1:2|2:0,2:0:0:0:
330,361,313341,5,2,1:3:0:0:
339,338,313410,1,8,3:2:0:0:
349,315,313478,1,0,1:0:0:0:
359,292,313546,1,0,1:0:0:0:
368,269,313614,2,0,L|296:291,1,75,8|0,2:0|2:0,2:0:0:0:
24,352,313751,5,8,1:2:0:0:
24,352,313819,1,0,1:0:0:0:
24,352,313887,2,0,P|142:358|139:240,1,262.5,0|0,1:0|2:0,2:0:0:0:
120,249,314160,2,0,P|40:251|36:172,1,175,8|0,2:0|2:0,2:0:0:0:
101,125,314364,1,0,1:0:0:0:
101,125,314432,6,0,P|143:133|186:141,1,87.5000000000001,0|0,1:0|2:0,2:0:0:0:
265,154,314569,2,0,P|307:162|350:170,1,87.5000000000001,0|0,1:0|2:0,2:0:0:0:
427,186,314705,1,8,2:0:0:0:
164,16,314841,5,0,1:0:0:0:
164,16,314910,1,0,1:0:0:0:
164,16,314978,2,0,L|177:65,1,50,10|0,1:2|2:0,2:0:0:0:
334,108,315114,2,0,L|347:157,1,50,0|0,1:0|2:0,2:0:0:0:
118,226,315251,2,0,L|131:275,1,50,10|0,1:2|2:0,2:0:0:0:
413,297,315387,2,0,L|426:346,1,50,0|0,1:0|2:0,2:0:0:0:
94,365,315523,5,10,1:2:0:0:
102,348,315591,1,0,1:0:0:0:
119,356,315660,1,0,1:0:0:0:
111,372,315728,1,0,1:0:0:0:
106,361,315796,5,10,1:2:0:0:
179,342,315864,1,8,1:2:0:0:
252,324,315932,1,8,1:2:0:0:
324,305,316001,1,8,1:2:0:0:
397,285,316069,6,0,P|403:247|409:211,1,75.0000000000002,6|0,1:0|2:0,2:0:0:0:
473,336,316341,2,0,P|487:262|501:188,1,150,2|0,3:0|2:0,2:0:0:0:
376,127,316751,1,0,3:0:0:0:
376,127,316819,1,0,3:0:0:0:
376,127,316887,1,0,3:0:0:0:
463,68,317023,1,0,2:0:0:0:
303,189,317160,6,0,P|291:153|280:117,2,75.0000000000002,2|0|0,3:2|2:0|2:0,2:0:0:0:
367,233,317569,1,2,2:3:0:0:
273,108,317705,2,0,P|236:99|199:91,2,75.0000000000002,0|0|0,3:0|2:0|2:0,2:0:0:0:
327,50,318114,1,2,2:3:0:0:
209,178,318251,6,0,P|135:194|63:214,1,150,2|0,3:2|3:0,2:0:0:0:
48,218,318591,1,0,3:0:0:0:
32,222,318660,1,0,3:0:0:0:
113,113,318796,2,0,P|119:76|126:39,1,75.0000000000002,0|0,3:0|3:0,2:0:0:0:
126,39,319001,1,0,3:0:0:0:
126,39,319069,1,2,3:0:0:0:
32,96,319205,1,0,2:0:0:0:
199,171,319341,6,0,P|214:213|219:246,1,75.0000000000002,2|0,2:0|2:0,2:0:0:0:
152,303,319614,1,2,3:0:0:0:
126,292,319682,1,0,3:0:0:0:
98,298,319751,1,2,3:0:0:0:
79,317,319819,1,2,3:0:0:0:
72,344,319887,2,0,L|83:387,3,37.5000000000001,2|0|0|0,3:2|3:0|3:0|3:0,2:0:0:0:
0,307,320160,1,0,2:0:0:0:
204,379,320296,5,0,3:0:0:0:
204,379,320364,1,0,3:0:0:0:
204,379,320432,2,0,P|276:360|349:344,1,150,2|2,3:2|3:0,2:0:0:0:
428,325,320841,1,0,2:0:0:0:
298,253,320978,5,0,3:0:0:0:
298,253,321046,1,0,3:0:0:0:
298,253,321114,2,0,P|334:260|371:268,1,75.0000000000002,0|2,3:0|3:0,2:0:0:0:
428,325,321387,1,0,2:0:0:0:
503,202,321523,5,2,3:2:0:0:
459,127,321660,1,2,3:0:0:0:
459,127,321728,1,2,3:0:0:0:
459,127,321796,1,0,3:0:0:0:
512,60,321932,1,0,2:0:0:0:
395,185,322069,6,0,P|359:171|323:162,1,75.0000000000002,0|0,3:0|3:0,2:0:0:0:
311,158,322273,1,0,3:0:0:0:
297,154,322341,1,2,3:0:0:0:
262,81,322478,1,0,2:0:0:0:
208,178,322614,6,0,P|231:249|252:321,1,150,2|2,3:2|2:3,2:0:0:0:
325,346,323023,1,0,2:0:0:0:
193,379,323160,1,2,3:0:0:0:
174,374,323228,1,2,3:0:0:0:
156,370,323296,1,0,3:0:0:0:
91,326,323432,2,0,L|54:335,2,37.5000000000001,0|0|0,3:0|3:0|3:0,2:0:0:0:
146,251,323705,6,0,P|84:239|77:154,1,150,2|0,3:2|2:0,2:0:0:0:
138,102,324114,1,0,2:0:0:0:
40,85,324251,2,0,P|51:120|61:156,1,75.0000000000002,2|0,2:0|2:0,2:0:0:0:
132,10,324523,1,0,3:0:0:0:
151,14,324591,1,0,3:0:0:0:
169,19,324660,1,0,3:0:0:0:
187,23,324728,1,0,3:0:0:0:
205,27,324796,6,0,P|230:123|258:219,1,200,2|0,2:0|2:0,2:0:0:0:
329,252,325478,2,0,L|352:261,2,25,0|0|0,3:0|3:0|3:0,2:0:0:0:
252,229,325751,1,0,3:0:0:0:
342,159,325887,5,2,3:2:0:0:
323,86,326023,2,0,L|314:52,4,25,0|0|0|0|0,3:0|3:0|3:0|3:0|3:0,2:0:0:0:
417,204,326432,5,0,3:0:0:0:
437,131,326569,2,0,L|446:97,4,25,0|0|0|0|0,3:0|3:0|3:0|3:0|3:0,2:0:0:0:
482,263,326978,6,0,P|389:263|363:352,1,200,2|0,3:2|2:0,2:0:0:0:
444,334,327660,1,0,2:0:0:0:
444,334,327728,1,0,2:0:0:0:
444,334,327796,1,0,3:0:0:0:
356,268,327932,1,0,2:0:0:0:
246,317,328069,6,0,B|190:308|139:348|162:358|123:391|61:384,2,200,2|0|2,2:0|2:0|2:0,2:0:0:0:
246,317,329705,2,0,L|255:338,4,16.6665,0|0|0|0|0,3:0|3:0|3:0|3:0|3:0,2:0:0:0:
209,249,330114,1,0,2:0:0:0:
138,291,330251,6,0,P|47:278|49:186,1,199.998,2|0,2:0|2:0,2:0:0:0:
120,149,331341,2,0,P|210:136|208:44,1,199.998,2|0,2:0|2:0,2:0:0:0:
338,198,332432,6,0,B|405:222|429:286|429:286|429:216|489:170,1,266.664,2|0,2:0|2:0,2:0:0:0:
