osu file format v14

[General]
AudioFilename: audio.mp3
AudioLeadIn: 0
PreviewTime: 175573
Countdown: 0
SampleSet: Normal
StackLeniency: 0.7
Mode: 1
LetterboxInBreaks: 0
WidescreenStoryboard: 1

[Editor]
Bookmarks: 12239,24240,36240,48240,60240,72239,82906,93573,104240,114907,136240,146907,157573,176772,195973,215173,234373,246257,263713,281030,298621,316076,324803,333530,340076
DistanceSpacing: 0.2
BeatDivisor: 4
GridSize: 32
TimelineZoom: 3.599999

[Metadata]
Title:escape (the looking-glass, and what alice found there)
TitleUnicode:escape (the looking-glass, and what alice found there)
Artist:Kurokotei feat. Sennzai
ArtistUnicode:黒皇帝 feat. Sennzai
Creator:Megafan
Version:Bandersnatch
Source:osu! World Cup 2022
Tags:owc2022sftb owc owc2022 sf semi finals tb tiebreaker featured artist footwork riddim artcore hardtek breakcore amenpunk electronic conlang japanese paz08
BeatmapID:3935137
BeatmapSetID:1908229

[Difficulty]
HPDrainRate:6
CircleSize:2
OverallDifficulty:7.2
ApproachRate:10
SliderMultiplier:1.4
SliderTickRate:1

[Events]
//Background and Video events
0,0,"Artwork_1014.jpg",0,80
//Break Periods
//Storyboard Layer 0 (Background)
//Storyboard Layer 1 (Fail)
//Storyboard Layer 2 (Pass)
//Storyboard Layer 3 (Foreground)
//Storyboard Layer 4 (Overlay)
//Storyboard Sound Samples

[TimingPoints]
240,375,4,1,0,30,1,0
240,-142.857142857143,4,1,0,30,0,0
6232,-142.857142857143,4,1,0,50,0,0
6326,-142.844785164401,4,1,0,50,0,0
6420,-142.807732389738,4,1,0,50,0,0
6607,-142.660871117824,4,1,0,50,0,0
6795,-142.415950227275,4,1,0,50,0,0
6982,-142.077150682437,4,1,0,50,0,0
7076,-141.871653217905,4,1,0,50,0,0
7170,-141.643036973772,4,1,0,50,0,0
7263,-141.394458393081,4,1,0,50,0,0
7357,-141.120965317791,4,1,0,50,0,0
7545,-140.508639636396,4,1,0,50,0,0
7638,-140.174458121763,4,1,0,50,0,0
7732,-139.816318981871,4,1,0,50,0,0
7826,-139.438245782552,4,1,0,50,0,0
7920,-139.040803269561,4,1,0,50,0,0
8013,-138.629102812828,4,1,0,50,0,0
8107,-138.194891966591,4,1,0,50,0,0
8295,-137.274438790658,4,1,0,50,0,0
8388,-136.794735482155,4,1,0,50,0,0
8482,-136.294359636973,4,1,0,50,0,0
8576,-135.779062747303,4,1,0,50,0,0
8670,-135.249532396984,4,1,0,50,0,0
8857,-134.156534045322,4,1,0,50,0,0
9045,-133.009259363872,4,1,0,50,0,0
9232,-131.825488131305,4,1,0,50,0,0
9326,-131.216139624962,4,1,0,50,0,0
9420,-130.598153817919,4,1,0,50,0,0
9607,-129.345801773273,4,1,0,50,0,0
9795,-128.060457969819,4,1,0,50,0,0
9982,-126.761035064079,4,1,0,50,0,0
10076,-126.101570457891,4,1,0,50,0,0
10170,-125.438736512294,4,1,0,50,0,0
10263,-124.780235123121,4,1,0,50,0,0
10357,-124.112494414768,4,1,0,50,0,0
10545,-122.772801862133,4,1,0,50,0,0
10638,-122.109102054942,4,1,0,50,0,0
10732,-121.438318328584,4,1,0,50,0,0
10826,-120.768103636793,4,1,0,52,0,0
10920,-120.098959698352,4,1,0,54,0,0
11107,-118.77287694454,4,1,0,57,0,0
11295,-117.449555679103,4,1,0,61,0,0
11482,-116.146455419749,4,1,0,65,0,0
11576,-115.497378196865,4,1,0,67,0,0
11670,-114.852784889577,4,1,0,69,0,0
11857,-113.585176485088,4,1,0,72,0,0
12045,-112.332715207308,4,1,0,76,0,0
12232,-111.111111111111,4,1,0,80,0,0
24046,-58.8235294117647,4,1,0,90,0,0
24232,-58.8235294117647,4,1,0,90,0,0
24420,-59.5618120793093,4,1,0,90,0,0
24513,-59.9304447790798,4,1,0,90,0,0
24607,-60.3053597494229,4,1,0,90,0,0
24701,-60.6826201259366,4,1,0,90,0,0
24795,-61.0622405810946,4,1,0,90,0,0
24888,-61.4401595498706,4,1,0,90,0,0
24982,-61.8245190466244,4,1,0,90,0,0
25076,-62.211283032947,4,1,0,90,0,0
25170,-62.6004665509283,4,1,0,90,0,0
25263,-62.9879057201872,4,1,0,90,0,0
25357,-63.3819476615095,4,1,0,90,0,0
25451,-63.7784546641757,4,1,0,90,0,0
25545,-64.1774421492026,4,1,0,90,0,0
25638,-64.5746413434166,4,1,0,90,0,0
25732,-64.9786096408892,4,1,0,90,0,0
25826,-65.3851050973514,4,1,0,90,0,0
25920,-65.7941435222925,4,1,0,90,0,0
26013,-66.2013486073798,4,1,0,90,0,0
26107,-66.6154933169895,4,1,0,90,0,0
26201,-67.0322288475433,4,1,0,90,0,0
26295,-67.4515714067893,4,1,0,90,0,0
26388,-67.869034442305,4,1,0,90,0,0
26482,-68.2936119192276,4,1,0,90,0,0
26576,-68.7208454827646,4,1,0,90,0,0
26670,-69.1507517489554,4,1,0,90,0,0
26763,-69.578731144116,4,1,0,90,0,0
26857,-70.0140042014005,4,1,0,90,0,0
26951,-70.4520002550846,4,1,0,90,0,0
27045,-70.8927363397844,4,1,0,90,0,0
27138,-71.331497013423,4,1,0,90,0,0
27232,-71.7777350846721,4,1,0,90,0,0
27326,-72.2267647476383,4,1,0,90,0,0
27420,-72.6786034660587,4,1,0,90,0,0
27513,-73.1284170106091,4,1,0,90,0,0
27607,-73.5858963167588,4,1,0,90,0,0
27701,-74.0462375379356,4,1,0,90,0,0
27795,-74.5094585778075,4,1,0,90,0,0
27888,-74.9706034274202,4,1,0,90,0,0
27982,-75.4396071477198,4,1,0,90,0,0
28029,-75.6752081170823,4,1,0,90,0,0
28076,-75.9115448778793,4,1,0,90,0,0
28123,-76.1486197280175,4,1,0,90,0,0
28170,-76.38643497258,4,1,0,90,0,0
28263,-76.8591965754722,4,1,0,90,0,0
28357,-77.3400150227725,4,1,0,90,0,0
28451,-77.8238413909146,4,1,0,90,0,0
28545,-78.3106944969547,4,1,0,90,0,0
28638,-78.795365492103,4,1,0,90,0,0
28732,-79.2882962925592,4,1,0,90,0,0
28826,-79.7843107867393,4,1,0,90,0,0
28920,-80.2834282657221,4,1,0,90,0,0
29013,-80.7803086640051,4,1,0,90,0,0
29107,-81.2856569413075,4,1,0,90,0,0
29201,-81.7941665940193,4,1,0,90,0,0
29295,-82.3058573991832,4,1,0,90,0,0
29388,-82.8152547690883,4,1,0,90,0,0
29482,-58.8235294117647,4,1,0,90,0,0
30232,-58.8235294117647,4,1,0,90,0,0
30420,-59.2867293078646,4,1,0,90,0,0
30513,-59.5172120765422,4,1,0,90,0,0
30607,-59.7510836945947,4,1,0,90,0,0
30701,-59.9858743061924,4,1,0,90,0,0
30795,-60.2215875225009,4,1,0,90,0,0
30888,-60.455704640925,4,1,0,90,0,0
30982,-60.6932640455337,4,1,0,90,0,0
31076,-60.9317569347665,4,1,0,90,0,0
31170,-61.1711869767313,4,1,0,90,0,0
31263,-61.4089957528653,4,1,0,90,0,0
31357,-61.6503010946079,4,1,0,90,0,0
31451,-61.8925546405548,4,1,0,90,0,0
31545,-62.1357601166543,4,1,0,90,0,0
31591,-62.255123593711,4,1,0,90,0,0
31638,-62.3773187621179,4,1,0,90,0,0
31685,-62.4997537767947,4,1,0,90,0,0
31732,-62.622429108515,4,1,0,90,0,0
31826,-62.8685026108011,4,1,0,90,0,0
31873,-62.9919017275413,4,1,0,90,0,0
31920,-63.1155430536769,4,1,0,90,0,0
31966,-63.2367887045078,4,1,0,90,0,0
32013,-63.3609106979952,4,1,0,90,0,0
32107,-63.6098860479689,4,1,0,90,0,0
32201,-63.8598397412809,4,1,0,90,0,0
32295,-64.1107756223107,4,1,0,90,0,0
32388,-64.360012327388,4,1,0,90,0,0
32482,-64.6129136259489,4,1,0,90,0,0
32576,-64.8668086947796,4,1,0,90,0,0
32670,-65.1217014388791,4,1,0,90,0,0
32763,-65.3748682137014,4,1,0,90,0,0
32857,-65.6317573668667,4,1,0,90,0,0
32951,-65.8896559604916,4,1,0,90,0,0
33045,-66.1485679611508,4,1,0,90,0,0
33091,-66.2756400861131,4,1,0,90,0,0
33138,-66.4057267767194,4,1,0,90,0,0
33185,-66.5360688031785,4,1,0,90,0,0
33232,-66.6666666666667,4,1,0,90,0,0
33326,-66.6114588949147,4,1,0,90,0,0
33420,-66.4995890667175,4,1,0,90,0,0
33513,-66.3495531005902,4,1,0,90,0,0
33607,-66.1648740967153,4,1,0,90,0,0
33701,-65.9512708038198,4,1,0,90,0,0
33795,-65.7118850138849,4,1,0,90,0,0
33888,-65.4521135142844,4,1,0,90,0,0
33982,-65.16842471912,4,1,0,90,0,0
34076,-64.8652800990711,4,1,0,90,0,0
34170,-64.5442587041389,4,1,0,90,0,0
34263,-64.2104521152328,4,1,0,90,0,0
34357,-63.8579637233721,4,1,0,90,0,0
34451,-63.491488180674,4,1,0,90,0,0
34545,-63.1121291595911,4,1,0,90,0,0
34591,-62.9221042315737,4,1,0,90,0,0
34638,-62.7251366622097,4,1,0,90,0,0
34685,-62.5254449616646,4,1,0,90,0,0
34732,-62.3231441508949,4,1,0,90,0,0
34826,-61.911158359318,4,1,0,90,0,0
34920,-61.4900340011822,4,1,0,90,0,0
35013,-61.0651881067064,4,1,0,90,0,0
35107,-60.6282411677496,4,1,0,90,0,0
35201,-60.184441829502,4,1,0,90,0,0
35295,-59.7344755500262,4,1,0,90,0,0
35341,-59.5122297671006,4,1,0,90,0,0
35388,-59.283864605409,4,1,0,90,0,0
35482,-58.8235294117647,4,1,0,90,0,0
36232,-58.8235294117647,4,1,0,90,0,0
36420,-74.0740740740741,4,1,0,70,0,0
36607,-90.9090909090909,4,1,0,50,0,0
36983,-125,4,1,0,30,0,0
37232,-118.421052631579,4,1,0,36,0,0
37357,-115.384615384615,4,1,0,38,0,0
37482,-112.5,4,1,0,41,0,0
37732,-107.142857142857,4,1,0,47,0,0
38107,-100,4,1,0,55,0,0
38232,-97.8260869565217,4,1,0,58,0,0
38357,-95.7446808510638,4,1,0,61,0,0
38482,-93.75,4,1,0,63,0,0
38732,-90,4,1,0,69,0,0
38857,-88.2352941176471,4,1,0,72,0,0
38982,-86.5384615384615,4,1,0,74,0,0
39107,-84.9056603773585,4,1,0,77,0,0
39232,-83.3333333333333,4,1,0,80,0,0
39327,-83.3333333333333,4,1,0,73,0,0
39421,-83.3333333333333,4,1,0,66,0,0
39514,-83.3333333333333,4,1,0,59,0,0
39608,-83.3333333333333,4,1,0,51,0,0
39702,-83.3333333333333,4,1,0,44,0,0
39796,-83.3333333333333,4,1,0,37,0,0
39889,-83.3333333333333,4,1,0,30,0,0
39983,-100,4,1,0,50,0,0
40232,-98.9010989010989,4,1,0,53,0,0
40357,-98.3606557377049,4,1,0,55,0,0
40482,-97.8260869565217,4,1,0,57,0,0
40607,-97.2972972972973,4,1,0,58,0,0
40732,-96.7741935483871,4,1,0,60,0,0
40857,-96.2566844919786,4,1,0,62,0,0
40982,-95.7446808510638,4,1,0,63,0,0
41107,-95.2380952380952,4,1,0,65,0,0
41232,-94.7368421052632,4,1,0,67,0,0
41357,-94.2408376963351,4,1,0,68,0,0
41482,-93.75,4,1,0,70,0,0
41607,-93.2642487046632,4,1,0,72,0,0
41732,-92.7835051546392,4,1,0,73,0,0
41857,-92.3076923076923,4,1,0,75,0,0
41982,-91.8367346938776,4,1,0,77,0,0
42045,-91.6011887798722,4,1,0,77,0,0
42107,-91.3705583756345,4,1,0,78,0,0
42170,-91.1373946856773,4,1,0,79,0,0
42232,-90.9090909090909,4,1,0,80,0,0
42420,-90.2237549121822,4,1,0,80,0,0
42513,-89.8885382126164,4,1,0,80,0,0
42701,-89.2184464094532,4,1,0,80,0,0
42795,-88.8871330936673,4,1,0,80,0,0
42982,-88.2352941176471,4,1,0,80,0,0
43107,-87.8048780487805,4,1,0,80,0,0
43170,-87.5895359701028,4,1,0,80,0,0
43232,-87.378640776699,4,1,0,80,0,0
43357,-86.9565217391304,4,1,0,80,0,0
43420,-86.7453157529493,4,1,0,80,0,0
43482,-86.5384615384615,4,1,0,80,0,0
43607,-86.1244019138756,4,1,0,80,0,0
43732,-85.7142857142857,4,1,0,80,0,0
43920,-85.1047734321809,4,1,0,80,0,0
44013,-84.8064528287664,4,1,0,80,0,0
44201,-84.2097383884127,4,1,0,80,0,0
44295,-83.9145190765673,4,1,0,80,0,0
44482,-83.3333333333333,4,1,0,80,0,0
44607,-82.9493087557604,4,1,0,80,0,0
44669,-82.7601427152683,4,1,0,80,0,0
44732,-82.5688073394495,4,1,0,80,0,0
44857,-82.1917808219178,4,1,0,80,0,0
44920,-82.0030614476274,4,1,0,80,0,0
44982,-81.8181818181818,4,1,0,80,0,0
45107,-81.447963800905,4,1,0,80,0,0
45232,-81.0810810810811,4,1,0,80,0,0
45421,-80.5354714009593,4,1,0,30,0,0
45513,-80.2682744104741,4,1,0,34,0,0
45607,-80,4,1,0,37,0,0
45701,-79.733512881392,4,1,0,41,0,0
45795,-79.468795253064,4,1,0,44,0,0
45888,-79.2086178976272,4,1,0,48,0,0
45982,-78.9473684210526,4,1,0,51,0,0
46107,-78.6026200873362,4,1,0,56,0,0
46232,-78.2608695652174,4,1,0,61,0,0
46357,-77.9220779220779,4,1,0,66,0,0
46482,-77.5862068965517,4,1,0,70,0,0
46607,-77.2532188841202,4,1,0,75,0,0
46732,-76.9230769230769,4,1,0,80,0,0
47107,-90.9090909090909,4,1,0,50,0,0
47232,-89.1089108910891,4,1,0,50,0,0
47357,-87.378640776699,4,1,0,50,0,0
47482,-85.7142857142857,4,1,0,50,0,0
47545,-84.8992528865746,4,1,0,50,0,0
47607,-84.1121495327103,4,1,0,50,0,0
47670,-83.3271609510407,4,1,0,50,0,0
47732,-82.5688073394495,4,1,0,50,0,0
47795,-81.8122318376845,4,1,0,50,0,0
47857,-81.0810810810811,4,1,0,50,0,0
47982,-79.646017699115,4,1,0,50,0,0
48045,-78.941828643604,4,1,0,50,0,0
48107,-78.2608695652174,4,1,0,50,0,0
48170,-77.5808564926557,4,1,0,50,0,0
48232,-76.9230769230769,4,1,0,80,0,0
48983,-76.9230769230769,4,1,0,90,0,0
57233,-76.9230769230769,4,1,0,80,0,0
57983,-76.9230769230769,4,1,0,90,0,0
58733,-76.9230769230769,4,1,0,80,0,0
60983,-76.9230769230769,4,1,0,90,0,0
63233,-76.9230769230769,4,1,0,80,0,0
63983,-76.9230769230769,4,1,0,90,0,0
66233,-76.9230769230769,4,1,0,80,0,0
66983,-76.9230769230769,4,1,0,90,0,0
69233,-76.9230769230769,4,1,0,80,0,0
69983,-76.9230769230769,4,1,0,90,0,0
70921,-76.9230769230769,4,1,0,50,0,0
72240,333.333333333333,4,1,0,90,1,0
72240,-65.7894736842105,4,1,0,90,0,0
72399,-66.7800328578298,4,1,0,30,0,0
72899,-69.932545843649,4,1,0,30,0,0
73565,-74.6249860069406,4,1,0,30,0,0
74232,-80.0010800820862,4,1,0,30,0,0
74899,-86.2119135068025,4,1,0,30,0,0
76232,-102.044330827988,4,1,0,30,0,0
76899,-52.6315789473684,4,1,0,50,0,0
77565,-125,4,1,0,50,0,0
77566,-125,4,1,0,30,0,0
77732,-123.484226381192,4,1,0,30,0,0
77899,-122.018905109398,4,1,0,30,0,0
78065,-120.623632122051,4,1,0,30,0,0
78232,-119.291606401629,4,1,0,30,0,0
78399,-118.040217596992,4,1,0,30,0,0
78565,-116.883752678424,4,1,0,30,0,0
78732,-115.814751648228,4,1,0,30,0,0
78899,-114.845965922341,4,1,0,30,0,0
79065,-113.986868193817,4,1,0,30,0,0
79232,-113.230913174118,4,1,0,30,0,0
79399,-112.586713827307,4,1,0,30,0,0
79565,-112.059593788144,4,1,0,30,0,0
79732,-111.645134341478,4,1,0,30,0,0
79899,-111.348303470414,4,1,0,30,0,0
80065,-111.170813923077,4,1,0,30,0,0
80232,-111.111111111111,4,1,0,30,0,0
80399,-111.14095449929,4,1,0,50,0,0
80400,-111.14095449929,4,1,0,30,0,0
80565,-111.229580840247,4,1,0,32,0,0
80732,-111.377482607743,4,1,0,34,0,0
80899,-111.583336908679,4,1,0,36,0,0
81065,-111.844045628468,4,1,0,38,0,0
81232,-112.160997164813,4,1,0,40,0,0
81399,-112.530619921149,4,1,0,42,0,0
81565,-112.947671724138,4,1,0,44,0,0
81732,-113.414183665254,4,1,0,46,0,0
81899,-113.924352637387,4,1,0,48,0,0
82065,-114.470902760559,4,1,0,50,0,0
82232,-115.05613368281,4,1,0,52,0,0
82399,-115.672131026584,4,1,0,54,0,0
82565,-116.30982867897,4,1,0,56,0,0
82732,-116.971375003226,4,1,0,58,0,0
82899,-66.6666666666667,4,1,0,60,0,0
83233,-83.3333333333333,4,1,0,30,0,0
83399,-84.0680959487109,4,1,0,31,0,0
83565,-84.8093599083614,4,1,0,31,0,0
83732,-85.564198263662,4,1,0,32,0,0
83899,-86.3261773164157,4,1,0,33,0,0
84065,-87.0885615110057,4,1,0,34,0,0
84232,-87.8582837983864,4,1,0,34,0,0
84399,-88.6283720820642,4,1,0,35,0,0
84565,-89.3917228857441,4,1,0,36,0,0
84732,-90.154912279995,4,1,0,37,0,0
84899,-90.9105898962284,4,1,0,37,0,0
85065,-91.6514880700007,4,1,0,38,0,0
85232,-92.3836217348521,4,1,0,39,0,0
85399,-93.0994981563645,4,1,0,40,0,0
85482,-93.4483030005827,4,1,0,40,0,0
85565,-93.7919621852799,4,1,0,40,0,0
85732,-94.4662926927683,4,1,0,41,0,0
85899,-95.1151682604915,4,1,0,42,0,0
86065,-95.7318904477702,4,1,0,43,0,0
86232,-96.320870143129,4,1,0,43,0,0
86399,-96.8753363585596,4,1,0,44,0,0
86565,-97.3894379234118,4,1,0,45,0,0
86732,-97.8666350558548,4,1,0,46,0,0
86815,-98.0880711693589,4,1,0,46,0,0
86899,-98.3011216003287,4,1,0,46,0,0
87065,-98.6882923229322,4,1,0,47,0,0
87232,-99.0306192996058,4,1,0,48,0,0
87399,-99.3236639421656,4,1,0,49,0,0
87482,-99.4504353111733,4,1,0,49,0,0
87565,-99.5644220400705,4,1,0,49,0,0
87732,-99.7543716304679,4,1,0,50,0,0
87899,-99.8907761511416,4,1,0,51,0,0
87982,-99.938384662567,4,1,0,51,0,0
88065,-99.9724885442941,4,1,0,51,0,0
88149,-99.9932016769621,4,1,0,52,0,0
88232,-100,4,1,0,52,0,0
88399,-99.8075052507136,4,1,0,53,0,0
88565,-99.246210005167,4,1,0,54,0,0
88732,-98.3430234349927,4,1,0,54,0,0
88899,-97.1524473546905,4,1,0,55,0,0
89065,-95.7487429784342,4,1,0,56,0,0
89232,-94.1869639101755,4,1,0,57,0,0
89315,-93.3777701299502,4,1,0,57,0,0
89399,-92.548663645331,4,1,0,57,0,0
89482,-91.7279741114353,4,1,0,58,0,0
89565,-90.9139587314372,4,1,0,58,0,0
89732,-89.3265995847276,4,1,0,59,0,0
89899,-87.8516964262441,4,1,0,60,0,0
90065,-86.5424785761818,4,1,0,60,0,0
90149,-85.9514233878137,4,1,0,61,0,0
90232,-85.4197205688095,4,1,0,61,0,0
90399,-84.5200618273777,4,1,0,62,0,0
90565,-83.8673056816056,4,1,0,63,0,0
90649,-83.6333609016098,4,1,0,63,0,0
90732,-83.4674836685376,4,1,0,63,0,0
90899,-83.3333333333333,4,1,0,64,0,0
91061,-83.3333333333333,4,1,0,65,0,0
91228,-83.3333333333333,4,1,0,65,0,0
91395,-83.3333333333333,4,1,0,66,0,0
91450,-83.3333333333333,4,1,0,66,0,0
91506,-83.3333333333333,4,1,0,67,0,0
91561,-83.3333333333333,4,1,0,67,0,0
91645,-83.3333333333333,4,1,0,67,0,0
91728,-83.3333333333333,4,1,0,68,0,0
91895,-83.3333333333333,4,1,0,69,0,0
91978,-83.3333333333333,4,1,0,69,0,0
92061,-83.3333333333333,4,1,0,69,0,0
92103,-83.3333333333333,4,1,0,69,0,0
92145,-83.3333333333333,4,1,0,70,0,0
92233,-83.3333333333333,4,1,0,30,0,0
92399,-89.5656068069861,4,1,0,33,0,0
92565,-96.7585873246251,4,1,0,37,0,0
92732,-105.263157894737,4,1,0,40,0,0
92815,-110.071546505228,4,1,0,42,0,0
92899,-115.406809001731,4,1,0,43,0,0
92982,-121.212121212121,4,1,0,45,0,0
93065,-127.632418634333,4,1,0,47,0,0
93121,-132.362673726009,4,1,0,48,0,0
93176,-137.362637362637,4,1,0,49,0,0
93232,-142.857142857143,4,1,0,50,0,0
93400,-58.8235294117647,4,1,0,100,0,0
93573,-66.6666666666667,4,1,0,90,0,1
102906,-66.6666666666667,4,1,0,90,0,0
103065,-69.3630573850436,4,1,0,85,0,0
103232,-72.1877479472387,4,1,0,80,0,0
103399,-75.0023144112244,4,1,0,75,0,0
103482,-76.3514245257156,4,1,0,73,0,0
103565,-77.640174125882,4,1,0,70,0,0
103649,-78.8609439332649,4,1,0,68,0,0
103732,-79.9626625865602,4,1,0,65,0,0
103899,-81.7793665167279,4,1,0,60,0,0
103982,-82.4453750805076,4,1,0,58,0,0
104065,-82.9331595831789,4,1,0,55,0,0
104149,-83.2338845258527,4,1,0,53,0,0
104239,-83.3333333333333,4,1,0,100,0,1
104566,-86.9565217391304,4,1,0,100,0,1
104733,-83.3333333333333,4,1,0,100,0,1
104900,-86.9565217391304,4,1,0,100,0,1
105066,-83.3333333333333,4,1,0,100,0,1
105233,-86.9565217391304,4,1,0,100,0,1
105400,-83.3333333333333,4,1,0,100,0,1
105566,-86.9565217391304,4,1,0,100,0,1
105733,-83.3333333333333,4,1,0,100,0,1
105900,-86.9565217391304,4,1,0,100,0,1
106066,-83.3333333333333,4,1,0,100,0,1
106233,-86.9565217391304,4,1,0,100,0,1
106483,-83.3333333333333,4,1,0,100,0,1
106566,-86.9565217391304,4,1,0,100,0,1
106816,-83.3333333333333,4,1,0,100,0,1
106900,-86.9565217391304,4,1,0,100,0,1
107066,-83.3333333333333,4,1,0,100,0,1
107233,-86.9565217391304,4,1,0,100,0,1
107400,-83.3333333333333,4,1,0,100,0,1
107566,-86.9565217391304,4,1,0,100,0,1
107733,-83.3333333333333,4,1,0,100,0,1
107900,-86.9565217391304,4,1,0,100,0,1
108066,-83.3333333333333,4,1,0,100,0,1
108233,-86.9565217391304,4,1,0,100,0,1
108400,-83.3333333333333,4,1,0,100,0,1
108566,-86.9565217391304,4,1,0,100,0,1
108733,-83.3333333333333,4,1,0,100,0,1
108900,-86.9565217391304,4,1,0,100,0,1
109066,-83.3333333333333,4,1,0,100,0,1
109233,-86.9565217391304,4,1,0,100,0,1
109400,-83.3333333333333,4,1,0,100,0,1
109566,-86.9565217391304,4,1,0,100,0,1
109816,-83.3333333333333,4,1,0,100,0,1
109900,-86.9565217391304,4,1,0,100,0,1
110066,-83.3333333333333,4,1,0,100,0,1
110233,-86.9565217391304,4,1,0,100,0,1
110316,-83.3333333333333,4,1,0,100,0,1
110566,-86.9565217391304,4,1,0,100,0,1
110733,-83.3333333333333,4,1,0,100,0,1
110900,-86.9565217391304,4,1,0,100,0,1
111066,-83.3333333333333,4,1,0,100,0,1
111233,-86.9565217391304,4,1,0,100,0,1
111316,-83.3333333333333,4,1,0,100,0,1
111400,-86.9565217391304,4,1,0,100,0,1
111650,-83.3333333333333,4,1,0,100,0,1
111900,-86.9565217391304,4,1,0,100,0,1
112066,-83.3333333333333,4,1,0,100,0,1
112233,-86.9565217391304,4,1,0,100,0,1
112400,-83.3333333333333,4,1,0,100,0,1
112566,-86.9565217391304,4,1,0,100,0,1
112733,-83.3333333333333,4,1,0,100,0,1
112900,-86.9565217391304,4,1,0,100,0,1
113233,-83.3333333333333,4,1,0,100,0,1
113573,-86.9565217391304,4,1,0,80,0,0
114066,-100,4,1,0,80,0,0
114906,-100,4,1,0,90,0,1
124239,-100,4,1,0,80,0,0
124399,-99.0260424155915,4,1,0,80,0,0
124565,-96.3249825885245,4,1,0,80,0,0
124732,-92.3784131771532,4,1,0,80,0,0
124815,-90.1576435009468,4,1,0,80,0,0
124899,-87.8416716621904,4,1,0,80,0,0
124982,-85.556017230925,4,1,0,80,0,0
125065,-83.3333333333333,4,1,0,80,0,0
125400,-66.6666666666667,4,1,0,100,0,0
125573,-83.3333333333333,4,1,0,90,0,1
131065,-83.3333333333333,4,1,0,90,0,1
131149,-83.2205901301379,4,1,0,90,0,1
131232,-83.1094883466568,4,1,0,90,0,1
131315,-82.9986828155621,4,1,0,90,0,1
131399,-82.8868426962687,4,1,0,90,0,1
131482,-82.7766296598901,4,1,0,90,0,1
131565,-82.6667093306028,4,1,0,90,0,1
131649,-82.5557614878252,4,1,0,90,0,1
131732,-82.4464265768856,4,1,0,90,0,1
131815,-82.3373808840871,4,1,0,90,0,1
131899,-82.2273146821987,4,1,0,90,0,1
131982,-82.1188474436198,4,1,0,90,0,1
132065,-82.010665989461,4,1,0,90,0,1
132149,-81.9014709611971,4,1,0,90,0,1
132232,-81.7938611071536,4,1,0,90,0,1
132315,-81.6865336579505,4,1,0,90,0,1
132399,-81.5781995010894,4,1,0,90,0,1
132482,-81.4714369057568,4,1,0,90,0,1
132565,-81.3649533887629,4,1,0,90,0,1
132649,-81.2574699628861,4,1,0,90,0,1
132732,-81.151544659264,4,1,0,90,0,1
132815,-81.0458951595194,4,1,0,90,0,1
132899,-80.9392524828472,4,1,0,90,0,1
132982,-80.834154659658,4,1,0,90,0,1
133065,-80.7293294169114,4,1,0,90,0,1
133149,-80.6235176632131,4,1,0,90,0,1
133232,-80.5192376618722,4,1,0,90,0,1
133315,-80.4152270675756,4,1,0,90,0,1
133399,-80.3102365631509,4,1,0,90,0,1
133482,-80.2067648748079,4,1,0,90,0,1
133565,-80.1035594691802,4,1,0,90,0,1
133649,-79.9993806899114,4,1,0,90,0,1
133732,-79.8967079525599,4,1,0,90,0,1
133815,-79.7942984217191,4,1,0,90,0,1
133899,-79.6909219901909,4,1,0,90,0,1
133982,-79.5890389858443,4,1,0,90,0,1
134065,-79.4874161590056,4,1,0,90,0,1
134149,-79.3848328416912,4,1,0,90,0,1
134232,-79.2837304936245,4,1,0,90,0,1
134315,-79.1828853403623,4,1,0,90,0,1
134399,-79.0810860448743,4,1,0,90,0,1
134482,-78.9807554149279,4,1,0,90,0,1
134565,-78.8806790425012,4,1,0,90,0,1
134649,-78.7796548149052,4,1,0,90,0,1
134732,-78.6800871008512,4,1,0,90,0,1
134815,-78.5807707515893,4,1,0,90,0,1
134899,-78.4805127737781,4,1,0,90,0,1
135065,-78.2831343554936,4,1,0,80,0,1
135149,-78.183633942622,4,1,0,80,0,1
135232,-78.0855661845824,4,1,0,80,0,1
135315,-77.9877441362031,4,1,0,80,0,1
135399,-77.8889927341795,4,1,0,80,0,1
135482,-77.7916622754852,4,1,0,80,0,1
135565,-77.6945747624203,4,1,0,90,0,1
135732,-77.4999625024373,4,1,0,90,0,1
136065,-77.1147991164706,4,1,0,90,0,1
136239,-76.9230769230769,4,1,0,90,0,0
136733,-100,4,1,0,80,0,0
137065,-101.091982886925,4,1,0,80,0,0
137149,-101.369672687561,4,1,0,80,0,0
137315,-101.919675087836,4,1,0,80,0,0
137399,-102.198189418209,4,1,0,80,0,0
137482,-102.473234612037,4,1,0,80,0,0
137565,-102.747910105592,4,1,0,80,0,0
138065,-104.382149471646,4,1,0,80,0,0
138149,-104.651083527667,4,1,0,80,0,0
138315,-105.175676260183,4,1,0,80,0,0
138399,-105.437170208453,4,1,0,80,0,0
138482,-105.692614938842,4,1,0,80,0,0
138649,-106.196766721483,4,1,0,80,0,0
138732,-106.441973656642,4,1,0,80,0,0
138815,-106.683303060497,4,1,0,80,0,0
138899,-106.923349572262,4,1,0,80,0,0
139010,-107.233674331868,4,1,0,80,0,0
139121,-107.535653018142,4,1,0,80,0,0
139232,-107.828732923573,4,1,0,80,0,0
139288,-107.973043065286,4,1,0,80,0,0
139343,-108.11236994537,4,1,0,80,0,0
139399,-108.251712807662,4,1,0,80,0,0
139482,-108.453423798868,4,1,0,80,0,0
139565,-108.649192069039,4,1,0,80,0,0
139732,-109.02422669818,4,1,0,80,0,0
139815,-109.200835979164,4,1,0,80,0,0
139899,-109.372688263146,4,1,0,80,0,0
139982,-109.535499985089,4,1,0,80,0,0
140065,-109.691174638955,4,1,0,80,0,0
140149,-109.84127769938,4,1,0,80,0,0
140232,-109.982064056198,4,1,0,80,0,0
140399,-110.2420026516,4,1,0,80,0,0
140565,-110.468503720827,4,1,0,80,0,0
140732,-110.663219865605,4,1,0,80,0,0
140815,-110.747331855753,4,1,0,80,0,0
140982,-110.890582149666,4,1,0,80,0,0
141065,-110.948690971803,4,1,0,80,0,0
141149,-110.998553222821,4,1,0,80,0,0
141315,-111.070394367571,4,1,0,80,0,0
141399,-111.093150059292,4,1,0,80,0,0
141482,-111.106619486629,4,1,0,80,0,0
141565,-111.111111111111,4,1,0,80,0,0
145565,-111.111111111111,4,1,0,80,0,0
145676,-111.216513989052,4,1,0,80,0,0
145788,-111.535909822484,4,1,0,80,0,0
145899,-112.061717387795,4,1,0,80,0,0
146065,-113.229341167478,4,1,0,80,0,0
146232,-114.848712107298,4,1,0,80,0,0
146399,-116.886260683507,4,1,0,80,0,0
146482,-118.042479738002,4,1,0,80,0,0
146565,-119.285802917713,4,1,0,80,0,0
146732,-122.019981725527,4,1,0,80,0,0
146899,-125,4,1,0,80,0,0
157400,-166.666666666667,4,1,0,50,0,0
157573,300,4,1,0,100,1,0
157573,-50,4,1,0,100,0,0
157715,-51.8518518518518,4,1,0,98,0,0
158315,-60.8695652173913,4,1,0,91,0,0
158765,-70,4,1,0,85,0,0
158915,-73.6842105263158,4,1,0,83,0,0
159515,-93.3333333333333,4,1,0,76,0,0
159765,-111.111111111111,4,1,0,73,0,0
159815,-109.243697478992,4,1,0,72,0,0
159865,-107.438016528926,4,1,0,71,0,0
159965,-104,4,1,0,70,0,0
160115,-99.236641221374,4,1,0,30,0,0
160191,-99.236641221374,4,1,0,32,0,0
160266,-99.236641221374,4,1,0,35,0,0
160341,-99.236641221374,4,1,0,37,0,0
160416,-99.236641221374,4,1,0,39,0,0
160491,-99.236641221374,4,1,0,42,0,0
160566,-99.236641221374,4,1,0,44,0,0
160641,-99.236641221374,4,1,0,46,0,0
160716,-99.236641221374,4,1,0,49,0,0
160791,-99.236641221374,4,1,0,51,0,0
160866,-99.236641221374,4,1,0,53,0,0
160941,-99.236641221374,4,1,0,56,0,0
161016,-99.236641221374,4,1,0,58,0,0
161091,-99.236641221374,4,1,0,60,0,0
161165,-75.1445086705202,4,1,0,63,0,0
161241,-75.1445086705202,4,1,0,65,0,0
161316,-75.1445086705202,4,1,0,67,0,0
161391,-75.1445086705202,4,1,0,70,0,0
161466,-75.1445086705202,4,1,0,72,0,0
161541,-75.1445086705202,4,1,0,74,0,0
161616,-75.1445086705202,4,1,0,77,0,0
161691,-75.1445086705202,4,1,0,79,0,0
161766,-75.1445086705202,4,1,0,81,0,0
161841,-75.1445086705202,4,1,0,84,0,0
161916,-75.1445086705202,4,1,0,86,0,0
161991,-75.1445086705202,4,1,0,88,0,0
162066,-75.1445086705202,4,1,0,91,0,0
162141,-75.1445086705202,4,1,0,93,0,0
162216,-75.1445086705202,4,1,0,95,0,0
162291,-75.1445086705202,4,1,0,98,0,0
162365,-50,4,1,0,100,0,0
162515,-51.8518518518518,4,1,0,98,0,0
162815,-56,4,1,0,94,0,0
163265,-63.6363636363636,4,1,0,89,0,0
163565,-70,4,1,0,85,0,0
164165,-87.5,4,1,0,78,0,0
164565,-111.111111111111,4,1,0,73,0,0
164615,-109.243697478992,4,1,0,72,0,0
164665,-107.438016528926,4,1,0,71,0,0
164765,-104,4,1,0,70,0,0
164916,-99.236641221374,4,1,0,30,0,0
164991,-99.236641221374,4,1,0,32,0,0
165066,-99.236641221374,4,1,0,35,0,0
165141,-99.236641221374,4,1,0,37,0,0
165216,-99.236641221374,4,1,0,39,0,0
165291,-99.236641221374,4,1,0,42,0,0
165366,-99.236641221374,4,1,0,44,0,0
165441,-99.236641221374,4,1,0,46,0,0
165516,-99.236641221374,4,1,0,49,0,0
165591,-99.236641221374,4,1,0,51,0,0
165666,-99.236641221374,4,1,0,53,0,0
165741,-99.236641221374,4,1,0,56,0,0
165816,-99.236641221374,4,1,0,58,0,0
165891,-99.236641221374,4,1,0,60,0,0
165966,-90.9090909090909,4,1,0,63,0,0
166041,-90.9090909090909,4,1,0,65,0,0
166116,-90.9090909090909,4,1,0,67,0,0
166191,-90.9090909090909,4,1,0,70,0,0
166266,-90.9090909090909,4,1,0,72,0,0
166341,-90.9090909090909,4,1,0,74,0,0
166416,-90.9090909090909,4,1,0,77,0,0
166491,-90.9090909090909,4,1,0,79,0,0
166566,-90.9090909090909,4,1,0,81,0,0
166641,-90.9090909090909,4,1,0,84,0,0
166716,-90.9090909090909,4,1,0,86,0,0
166791,-90.9090909090909,4,1,0,88,0,0
166866,-90.9090909090909,4,1,0,91,0,0
166941,-90.9090909090909,4,1,0,93,0,0
167016,-90.9090909090909,4,1,0,95,0,0
167091,-90.9090909090909,4,1,0,98,0,0
167165,-83.3333333333333,4,1,0,100,0,0
167465,-111.111111111111,4,1,0,70,0,0
167466,-111.111111111111,4,1,0,30,0,0
167765,-108.205388849829,4,1,0,33,0,0
167915,-106.781149028803,4,1,0,35,0,0
168065,-105.375655585285,4,1,0,37,0,0
168140,-104.679861519336,4,1,0,37,0,0
168215,-103.988661772439,4,1,0,38,0,0
168365,-102.619924091203,4,1,0,40,0,0
168440,-101.942326084014,4,1,0,41,0,0
168515,-101.269202247542,4,1,0,42,0,0
168590,-100.600523038896,4,1,0,42,0,0
168665,-99.9362591102577,4,1,0,43,0,0
168815,-98.6208606693653,4,1,0,45,0,0
168965,-97.3227759950047,4,1,0,47,0,0
169040,-96.6801549869269,4,1,0,47,0,0
169115,-96.0417771969017,4,1,0,48,0,0
169265,-94.777639384359,4,1,0,50,0,0
169340,-94.1518238797998,4,1,0,51,0,0
169415,-93.5301406267748,4,1,0,52,0,0
169565,-92.2990619146812,4,1,0,53,0,0
169640,-91.6896124245096,4,1,0,54,0,0
169715,-91.0841871212946,4,1,0,55,0,0
169790,-90.4827594333829,4,1,0,56,0,0
169865,-89.8853029645731,4,1,0,57,0,0
169940,-89.2917914929579,4,1,0,57,0,0
170015,-88.7021989697728,4,1,0,58,0,0
170090,-88.1164995182529,4,1,0,59,0,0
170165,-87.5346674324972,4,1,0,60,0,0
170240,-86.9566771763406,4,1,0,61,0,0
170315,-86.3825033822328,4,1,0,62,0,0
170390,-85.8121208501253,4,1,0,62,0,0
170465,-85.2455045463648,4,1,0,63,0,0
170540,-84.6826296025952,4,1,0,64,0,0
170615,-84.1234713146659,4,1,0,65,0,0
170690,-83.5680051415472,4,1,0,66,0,0
170765,-83.0162067042537,4,1,0,67,0,0
170840,-82.4680517847741,4,1,0,67,0,0
170915,-81.9235163250081,4,1,0,68,0,0
170990,-81.382576425711,4,1,0,69,0,0
171065,-80.8452083454443,4,1,0,70,0,0
171140,-80.3113884995341,4,1,0,71,0,0
171215,-79.7810934590356,4,1,0,72,0,0
171290,-79.2542999497052,4,1,0,72,0,0
171365,-78.7309848509785,4,1,0,73,0,0
171440,-78.2111251949563,4,1,0,74,0,0
171515,-77.6946981653958,4,1,0,75,0,0
171590,-77.1816810967098,4,1,0,76,0,0
171665,-76.6720514729714,4,1,0,77,0,0
171740,-76.1657869269264,4,1,0,77,0,0
171815,-75.662865239011,4,1,0,78,0,0
171890,-75.1632643363771,4,1,0,79,0,0
171965,-74.6669622919231,4,1,0,80,0,0
172115,-73.6841677921149,4,1,0,81,0,0
172265,-72.7143092012978,4,1,0,81,0,0
172415,-71.7572162521968,4,1,0,82,0,0
172565,-70.8127209186585,4,1,0,82,0,0
172715,-69.8806573861523,4,1,0,83,0,0
172865,-68.960862022661,4,1,0,84,0,0
173015,-68.0531733499529,4,1,0,84,0,0
173165,-67.1574320152332,4,1,0,85,0,0
173240,-66.7139923761527,4,1,0,85,0,0
173315,-66.2734807631685,4,1,0,85,0,0
173390,-65.835877842563,4,1,0,86,0,0
173465,-65.4011644082787,4,1,0,86,0,0
173540,-64.9693213810754,4,1,0,86,0,0
173615,-64.5403298076931,4,1,0,86,0,0
173690,-64.1141708600196,4,1,0,87,0,0
173765,-63.6908258342648,4,1,0,87,0,0
173815,-63.4101499265404,4,1,0,87,0,0
173865,-63.1307109154044,4,1,0,87,0,0
173915,-62.852503350039,4,1,0,88,0,0
173990,-62.4374890982354,4,1,0,88,0,0
174065,-62.0252151800704,4,1,0,88,0,0
174165,-61.4797481067075,4,1,0,89,0,0
174265,-60.939078023202,4,1,0,89,0,0
174365,-60.4031627434848,4,1,0,89,0,0
174440,-60.0043214554466,4,1,0,90,0,0
174515,-59.6081137111802,4,1,0,5,0,0
175416,-90.9090909090909,4,1,0,50,0,0
175565,-93.3333333333333,4,1,0,54,0,0
175640,-94.5945945945946,4,1,0,56,0,0
175790,-97.2222222222222,4,1,0,61,0,0
175865,-98.5915492957747,4,1,0,63,0,0
176015,-101.449275362319,4,1,0,67,0,0
176090,-102.941176470588,4,1,0,69,0,0
176240,-106.060606060606,4,1,0,74,0,0
176315,-107.692307692308,4,1,0,76,0,0
176390,-109.375,4,1,0,78,0,0
176465,-111.111111111111,4,1,0,80,0,0
176616,-125,4,1,0,30,0,0
176765,-58.8235294117647,4,1,0,100,0,0
176915,-71.4285714285714,4,1,0,100,0,0
177065,-72.2342052464589,4,1,0,100,0,0
177215,-73.0489257062257,4,1,0,100,0,0
177290,-73.4597254090258,4,1,0,100,0,0
177365,-73.8728352949557,4,1,0,100,0,0
177440,-74.2882683556172,4,1,0,100,0,0
177515,-74.7060376556716,4,1,0,100,0,0
177665,-75.5486376003726,4,1,0,100,0,0
177740,-75.9734947433509,4,1,0,100,0,0
177815,-76.4007411232192,4,1,0,100,0,0
177965,-77.2624554138667,4,1,0,100,0,0
178040,-77.6969504240912,4,1,0,100,0,0
178115,-78.1338888709488,4,1,0,100,0,0
178265,-79.0151511157137,4,1,0,100,0,0
178415,-79.9063530058141,4,1,0,100,0,0
178490,-80.3557163023893,4,1,0,100,0,0
178565,-80.8076066492516,4,1,0,100,0,0
178640,-81.2620382575821,4,1,0,100,0,0
178715,-81.7190254184802,4,1,0,100,0,0
178865,-82.6407239646673,4,1,0,100,0,0
178940,-83.1054643358043,4,1,0,100,0,0
179015,-83.5728182321163,4,1,0,100,0,0
179090,-84.0428003510866,4,1,0,100,0,0
179165,-84.5154254728517,4,1,0,100,0,0
179240,-84.9907084606658,4,1,0,100,0,0
179315,-85.4686642613688,4,1,0,100,0,0
179465,-86.4326545095496,4,1,0,100,0,0
179615,-87.4075174817471,4,1,0,100,0,0
179690,-87.8990645080291,4,1,0,100,0,0
179765,-88.3933758100395,4,1,0,100,0,0
179840,-88.8904669330259,4,1,0,100,0,0
179915,-89.3903535096568,4,1,0,100,0,0
180065,-90.3985759945809,4,1,0,100,0,0
180140,-90.9069436097526,4,1,0,100,0,0
180215,-91.4181700933224,4,1,0,100,0,0
180365,-92.4492640648744,4,1,0,100,0,0
180440,-92.9691639790041,4,1,0,100,0,0
180515,-93.491987614847,4,1,0,100,0,0
180665,-94.5464719117836,4,1,0,100,0,0
180815,-95.6128496036607,4,1,0,100,0,0
180890,-96.1505403338298,4,1,0,100,0,0
180965,-96.6912548345749,4,1,0,100,0,0
181040,-97.2350101104451,4,1,0,100,0,0
181115,-97.7818232616168,4,1,0,100,0,0
181190,-98.3317114844316,4,1,0,100,0,0
181265,-98.8846920719364,4,1,0,50,0,0
181415,-100,4,1,0,50,0,0
181565,-58.8235294117647,4,1,0,100,0,0
181715,-72.2342052464589,4,1,0,100,0,0
181865,-73.0489257062257,4,1,0,100,0,0
182015,-73.8728352949557,4,1,0,100,0,0
182090,-74.2882683556172,4,1,0,100,0,0
182165,-74.7060376556716,4,1,0,100,0,0
182240,-75.1261563332514,4,1,0,100,0,0
182315,-75.5486376003726,4,1,0,100,0,0
182465,-76.4007411232192,4,1,0,100,0,0
182540,-76.8303901761477,4,1,0,100,0,0
182615,-77.2624554138667,4,1,0,100,0,0
182765,-78.1338888709488,4,1,0,100,0,0
182840,-78.5732844954085,4,1,0,100,0,0
182915,-79.0151511157137,4,1,0,100,0,0
183065,-79.9063530058141,4,1,0,100,0,0
183215,-71.4285714285714,4,1,0,100,0,0
183253,-71.9377565049719,4,1,0,100,0,0
183290,-72.4370295049559,4,1,0,100,0,0
183328,-72.9534034665937,4,1,0,100,0,0
183365,-73.4597254090258,4,1,0,100,0,0
183440,-74.4968601563138,4,1,0,100,0,0
183515,-75.5486376003726,4,1,0,100,0,0
183665,-77.6969504240912,4,1,0,100,0,0
183740,-78.7939080644098,4,1,0,100,0,0
183815,-79.9063530058141,4,1,0,100,0,0
183890,-81.034503904418,4,1,0,100,0,0
183965,-82.178582503413,4,1,0,100,0,0
184115,-84.5154254728517,4,1,0,100,0,0
184190,-85.7086491604119,4,1,0,100,0,0
184265,-86.9187192728774,4,1,0,100,0,0
184415,-89.3903535096568,4,1,0,100,0,0
184565,-91.9322715224918,4,1,0,100,0,0
184640,-93.2302093062529,4,1,0,100,0,0
184715,-94.5464719117836,4,1,0,100,0,0
184865,-97.2350101104451,4,1,0,100,0,0
185015,-100,4,1,0,100,0,0
185166,-74.0740740740741,4,1,0,100,0,0
185240,-73.394495412844,4,1,0,100,0,0
185315,-72.7272727272727,4,1,0,100,0,0
185390,-72.0720720720721,4,1,0,100,0,0
185465,-71.4285714285714,4,1,0,100,0,0
185515,-73.1707317073171,4,1,0,100,0,0
185565,-75,4,1,0,100,0,0
185615,-76.9230769230769,4,1,0,100,0,0
185665,-78.9473684210526,4,1,0,100,0,0
185715,-81.0810810810811,4,1,0,100,0,0
185765,-83.3333333333333,4,1,0,100,0,0
185915,-83.3333333333333,4,1,0,100,0,0
185965,-85.7142857142857,4,1,0,100,0,0
186015,-88.2352941176471,4,1,0,100,0,0
186065,-90.9090909090909,4,1,0,100,0,0
186216,-58.8235294117647,4,1,0,50,0,0
186366,-58.8235294117647,4,1,0,100,0,0
186515,-71.4285714285714,4,1,0,100,0,0
186665,-72.2080757750461,4,1,0,100,0,0
186815,-72.9960868998872,4,1,0,100,0,0
186890,-73.3933114756837,4,1,0,100,0,0
186965,-73.7926976380847,4,1,0,100,0,0
187040,-74.1942571498482,4,1,0,100,0,0
187115,-74.5980018377424,4,1,0,100,0,0
187265,-75.4120943711342,4,1,0,100,0,0
187340,-75.8224661933606,4,1,0,100,0,0
187415,-76.235071145881,4,1,0,100,0,0
187565,-77.0670291162493,4,1,0,100,0,0
187640,-77.4864066370003,4,1,0,100,0,0
187715,-77.9080662945734,4,1,0,100,0,0
187865,-78.7582817628022,4,1,0,100,0,0
188015,-71.4285714285714,4,1,0,100,0,0
188053,-72.291916897756,4,1,0,100,0,0
188090,-73.1474405630456,4,1,0,100,0,0
188165,-74.9055968835684,4,1,0,100,0,0
188240,-76.6562073058364,4,1,0,100,0,0
188315,-78.346036114385,4,1,0,100,0,0
188365,-79.4103411493161,4,1,0,100,0,0
188415,-80.4041664526877,4,1,0,100,0,0
188465,-81.3098214698101,4,1,0,100,0,0
188540,-82.4659749041094,4,1,0,100,0,0
188615,-83.3338323208261,4,1,0,100,0,0
188690,-83.8722726557194,4,1,0,100,0,0
188765,-84.0548037320333,4,1,0,100,0,0
188840,-84.5154254728517,4,1,0,100,0,0
188915,-84.975335112635,4,1,0,100,0,0
189065,-85.9026761155231,4,1,0,100,0,0
189215,-86.8401372472051,4,1,0,100,0,0
189290,-87.3126973274111,4,1,0,100,0,0
189365,-87.7878289492622,4,1,0,100,0,0
189440,-88.2655461063791,4,1,0,100,0,0
189515,-88.7458628685316,4,1,0,100,0,0
189665,-89.7143518702589,4,1,0,100,0,0
189740,-90.2025526338615,4,1,0,100,0,0
189815,-90.6934100513953,4,1,0,100,0,0
189965,-91.6831527540387,4,1,0,100,0,0
190040,-92.182067189142,4,1,0,100,0,0
190115,-92.6836965790225,4,1,0,100,0,0
190265,-93.6951593996522,4,1,0,100,0,0
190415,-94.7176603755915,4,1,0,100,0,0
190490,-95.2330877643875,4,1,0,100,0,0
190565,-95.7513199669011,4,1,0,100,0,0
190640,-96.2723722461551,4,1,0,100,0,0
190715,-96.7962599482295,4,1,0,100,0,0
190790,-97.3229985027134,4,1,0,100,0,0
190865,-97.8526034231594,4,1,0,50,0,0
191015,-98.9204748387104,4,1,0,50,0,0
191165,-58.8235294117647,4,1,0,100,0,0
191315,-71.4285714285714,4,1,0,100,0,0
191465,-72.2342052464589,4,1,0,100,0,0
191615,-73.0489257062257,4,1,0,100,0,0
191690,-73.4597254090258,4,1,0,100,0,0
191765,-73.8728352949557,4,1,0,100,0,0
191840,-74.2882683556172,4,1,0,100,0,0
191915,-74.7060376556716,4,1,0,100,0,0
192065,-75.5486376003726,4,1,0,100,0,0
192140,-75.9734947433509,4,1,0,100,0,0
192215,-76.4007411232192,4,1,0,100,0,0
192365,-77.2624554138667,4,1,0,100,0,0
192440,-77.6969504240912,4,1,0,100,0,0
192515,-78.1338888709488,4,1,0,100,0,0
192590,-78.5732844954085,4,1,0,100,0,0
192665,-79.0151511157137,4,1,0,100,0,0
192815,-71.4285714285714,4,1,0,100,0,0
192865,-71.8716286191733,4,1,0,100,0,0
192915,-72.3174340052133,4,1,0,100,0,0
192965,-72.7660046331997,4,1,0,100,0,0
193040,-73.4440829534377,4,1,0,100,0,0
193115,-74.1284800239038,4,1,0,100,0,0
193165,-74.5882842093455,4,1,0,100,0,0
193215,-75.0509404684961,4,1,0,100,0,0
193265,-75.5164664922001,4,1,0,100,0,0
193340,-76.2201753052298,4,1,0,100,0,0
193415,-76.9304417091603,4,1,0,100,0,0
193490,-77.647326811651,4,1,0,100,0,0
193565,-78.3708922898,4,1,0,100,0,0
193715,-79.8383139605462,4,1,0,100,0,0
193790,-80.582296402538,4,1,0,100,0,0
193865,-81.3332117298394,4,1,0,100,0,0
194015,-82.8561000619311,4,1,0,100,0,0
194165,-84.4075030539347,4,1,0,100,0,0
194315,-85.9879546161921,4,1,0,100,0,0
194465,-87.5979986560168,4,1,0,100,0,0
194540,-88.4142906055926,4,1,0,100,0,0
194615,-89.2381892648784,4,1,0,100,0,0
194690,-90.0697655178667,4,1,0,100,0,0
194765,-90.9090909090909,4,1,0,100,0,0
195065,-111.111111111111,4,1,0,50,0,0
195666,-111.111111111111,4,1,0,100,0,0
195815,-125,4,1,0,30,0,0
195966,-58.8235294117647,4,1,0,100,0,0
196415,-71.4285714285714,4,1,0,100,0,0
196490,-71.8590371168227,4,1,0,100,0,0
196565,-72.2920970149966,4,1,0,100,0,0
196640,-72.7277667571502,4,1,0,100,0,0
196715,-73.1660620715595,4,1,0,100,0,0
196865,-74.0505928047542,4,1,0,100,0,0
196940,-74.4968601563138,4,1,0,100,0,0
197015,-74.9458169468302,4,1,0,100,0,0
197165,-75.851863774238,4,1,0,100,0,0
197203,-76.0831293652247,4,1,0,100,0,0
197315,-76.7688641262973,4,1,0,100,0,0
197353,-77.002925569855,4,1,0,100,0,0
197465,-77.6969504240912,4,1,0,100,0,0
197615,-78.636256689589,4,1,0,100,0,0
197690,-79.1101596345924,4,1,0,100,0,0
197765,-79.5869185649992,4,1,0,100,0,0
197840,-80.0665506924615,4,1,0,100,0,0
197915,-80.5490733323578,4,1,0,100,0,0
198065,-81.5228599333524,4,1,0,100,0,0
198140,-82.0141590494843,4,1,0,100,0,0
198215,-82.5084189893865,4,1,0,100,0,0
198290,-83.0056575965215,4,1,0,100,0,0
198365,-83.505892821886,4,1,0,100,0,0
198403,-83.7604948671542,4,1,0,100,0,0
198515,-84.5154254728517,4,1,0,100,0,0
198553,-84.7731054934461,4,1,0,100,0,0
198665,-85.5371627256595,4,1,0,100,0,0
198815,-86.571252126113,4,1,0,100,0,0
198890,-87.0929754769224,4,1,0,100,0,0
198965,-87.6178430037497,4,1,0,100,0,0
199015,-87.9695108053175,4,1,0,100,0,0
199065,-88.3225900801471,4,1,0,100,0,0
199115,-88.6770864934054,4,1,0,100,0,0
199265,-89.7491355570391,4,1,0,100,0,0
199340,-90.2900104847443,4,1,0,100,0,0
199415,-90.8341450058217,4,1,0,100,0,0
199565,-91.9322715224918,4,1,0,100,0,0
199603,-92.2125648474875,4,1,0,100,0,0
199715,-93.0436736839819,4,1,0,100,0,0
199753,-93.3273555753872,4,1,0,100,0,0
199865,-94.1685119843174,4,1,0,100,0,0
200015,-95.3069488577941,4,1,0,100,0,0
200090,-95.8813180564868,4,1,0,100,0,0
200165,-96.4591487024336,4,1,0,100,0,0
200240,-97.0404616561141,4,1,0,100,0,0
200315,-97.6252779037244,4,1,0,100,0,0
200390,-98.213618557934,4,1,0,100,0,0
200465,-98.8055048586486,4,1,0,50,0,0
200615,-100,4,1,0,50,0,0
200765,-58.8235294117647,4,1,0,100,0,0
200915,-72.1835879798912,4,1,0,100,0,0
201065,-72.9465852311097,4,1,0,100,0,0
201215,-73.7176475400742,4,1,0,100,0,0
201290,-74.1062296966006,4,1,0,100,0,0
201365,-74.4968601563138,4,1,0,100,0,0
201440,-74.8895497162764,4,1,0,100,0,0
201515,-75.284309230465,4,1,0,100,0,0
201665,-76.0800818237965,4,1,0,100,0,0
201740,-76.481116898169,4,1,0,100,0,0
201815,-76.8842659178347,4,1,0,100,0,0
201890,-77.2895400258706,4,1,0,100,0,0
201965,-77.6969504240912,4,1,0,100,0,0
202040,-78.1065083733585,4,1,0,100,0,0
202115,-78.5182251938929,4,1,0,100,0,0
202265,-79.3481810283159,4,1,0,100,0,0
202415,-71.4285714285714,4,1,0,100,0,0
202453,-71.7190913697286,4,1,0,100,0,0
202490,-72.0031014005473,4,1,0,100,0,0
202528,-72.2959581154956,4,1,0,100,0,0
202565,-72.5822525581649,4,1,0,100,0,0
202640,-73.1660620715595,4,1,0,100,0,0
202715,-73.7545674098413,4,1,0,100,0,0
202865,-74.9458169468302,4,1,0,100,0,0
202940,-75.5486376003726,4,1,0,100,0,0
203015,-76.1563069933796,4,1,0,100,0,0
203090,-76.7688641262973,4,1,0,100,0,0
203165,-77.3863483132687,4,1,0,100,0,0
203240,-78.008799184657,4,1,0,100,0,0
203315,-78.636256689589,4,1,0,100,0,0
203390,-79.2687610985192,4,1,0,100,0,0
203465,-79.9063530058141,4,1,0,100,0,0
203615,-81.1969633281783,4,1,0,100,0,0
203765,-82.5084189893865,4,1,0,100,0,0
203840,-83.1720688244829,4,1,0,100,0,0
203915,-83.8410566736755,4,1,0,100,0,0
204065,-85.1952185032499,4,1,0,100,0,0
204115,-85.6514488495949,4,1,0,100,0,0
204165,-86.1101223627347,4,1,0,100,0,0
204215,-86.571252126113,4,1,0,100,0,0
204290,-87.267581032924,4,1,0,100,0,0
204365,-87.9695108053175,4,1,0,100,0,0
204515,-89.3903535096568,4,1,0,100,0,0
204590,-90.1093576318122,4,1,0,100,0,0
204665,-90.8341450058217,4,1,0,100,0,0
204815,-92.3012559520454,4,1,0,100,0,0
204965,-93.7920629932605,4,1,0,100,0,0
205040,-94.5464719117836,4,1,0,100,0,0
205115,-95.3069488577941,4,1,0,100,0,0
205265,-96.8463024556232,4,1,0,100,0,0
205415,-98.4105189782186,4,1,0,80,0,0
205490,-99.2020760761682,4,1,0,80,0,0
205565,-100,4,1,0,80,0,0
205866,-58.8235294117647,4,1,0,100,0,0
206015,-71.4285714285714,4,1,0,100,0,0
206090,-71.8590371168227,4,1,0,100,0,0
206165,-72.2920970149966,4,1,0,100,0,0
206240,-72.7277667571502,4,1,0,100,0,0
206315,-73.1660620715595,4,1,0,100,0,0
206465,-74.0505928047542,4,1,0,100,0,0
206540,-74.4968601563138,4,1,0,100,0,0
206615,-74.9458169468302,4,1,0,100,0,0
206765,-75.851863774238,4,1,0,100,0,0
206803,-76.0831293652247,4,1,0,100,0,0
206915,-76.7688641262973,4,1,0,100,0,0
206953,-77.002925569855,4,1,0,100,0,0
207065,-77.6969504240912,4,1,0,100,0,0
207215,-71.4285714285714,4,1,0,100,0,0
207253,-72.2595230102041,4,1,0,100,0,0
207290,-73.0822119923123,4,1,0,100,0,0
207365,-74.7706005092785,4,1,0,100,0,0
207440,-76.4486878922719,4,1,0,100,0,0
207515,-78.0656282591728,4,1,0,100,0,0
207565,-79.0825755542418,4,1,0,100,0,0
207615,-80.0311690773497,4,1,0,100,0,0
207665,-80.8947569326053,4,1,0,100,0,0
207740,-81.9960341258173,4,1,0,100,0,0
207815,-82.8218356529053,4,1,0,100,0,0
207890,-83.33381173681,4,1,0,100,0,0
207965,-83.5073068893528,4,1,0,100,0,0
208003,-83.7604948671542,4,1,0,100,0,0
208116,-84.5221964807923,4,1,0,100,0,0
208153,-84.7731054934461,4,1,0,100,0,0
208265,-85.5371627256595,4,1,0,100,0,0
208415,-86.571252126113,4,1,0,100,0,0
208490,-87.0929754769224,4,1,0,100,0,0
208565,-87.6178430037497,4,1,0,100,0,0
208615,-87.9695108053175,4,1,0,100,0,0
208665,-88.3225900801471,4,1,0,100,0,0
208715,-88.6770864934054,4,1,0,100,0,0
208790,-89.2115006963784,4,1,0,100,0,0
208865,-89.7491355570391,4,1,0,100,0,0
208940,-90.2900104847443,4,1,0,100,0,0
209015,-90.8341450058217,4,1,0,100,0,0
209165,-91.9322715224918,4,1,0,100,0,0
209203,-92.2125648474875,4,1,0,100,0,0
209315,-93.0436736839819,4,1,0,100,0,0
209353,-93.3273555753872,4,1,0,100,0,0
209465,-94.1685119843174,4,1,0,100,0,0
209615,-95.3069488577941,4,1,0,100,0,0
209690,-95.8813180564868,4,1,0,100,0,0
209765,-96.4591487024336,4,1,0,100,0,0
209840,-97.0404616561141,4,1,0,100,0,0
209915,-97.6252779037244,4,1,0,100,0,0
209990,-98.213618557934,4,1,0,100,0,0
210065,-98.8055048586486,4,1,0,50,0,0
210215,-100,4,1,0,50,0,0
210365,-71.4285714285714,4,1,0,100,0,0
210515,-71.2166172106825,4,1,0,100,0,0
210590,-71.1111111111111,4,1,0,100,0,0
210665,-71.0059171597633,4,1,0,100,0,0
210815,-70.7964601769912,4,1,0,100,0,0
210965,-70.5882352941177,4,1,0,100,0,0
211040,-70.4845814977974,4,1,0,100,0,0
211115,-70.3812316715543,4,1,0,100,0,0
211265,-70.1754385964912,4,1,0,100,0,0
211415,-69.9708454810496,4,1,0,100,0,0
211490,-69.8689956331878,4,1,0,100,0,0
211565,-69.7674418604651,4,1,0,100,0,0
211715,-69.5652173913043,4,1,0,100,0,0
211865,-69.364161849711,4,1,0,100,0,0
211940,-69.2640692640693,4,1,0,100,0,0
212015,-69.164265129683,4,1,0,100,0,0
212065,-69.0978886756238,4,1,0,100,0,0
212115,-69.0316395014382,4,1,0,100,0,0
212165,-68.9655172413793,4,1,0,100,0,0
212240,-68.8665710186514,4,1,0,100,0,0
212315,-68.7679083094556,4,1,0,100,0,0
212365,-68.7022900763359,4,1,0,100,0,0
212415,-68.6367969494757,4,1,0,100,0,0
212465,-68.5714285714286,4,1,0,100,0,0
212540,-68.4736091298145,4,1,0,100,0,0
212615,-68.3760683760684,4,1,0,100,0,0
212690,-68.2788051209104,4,1,0,100,0,0
212765,-68.1818181818182,4,1,0,100,0,0
212915,-67.9886685552408,4,1,0,100,0,0
212990,-67.8925035360679,4,1,0,100,0,0
213065,-67.7966101694915,4,1,0,100,0,0
213215,-67.6056338028169,4,1,0,100,0,0
213365,-67.4157303370786,4,1,0,100,0,0
213440,-67.3211781206171,4,1,0,100,0,0
213515,-67.2268907563025,4,1,0,100,0,0
213590,-67.1328671328671,4,1,0,100,0,0
213665,-67.0391061452514,4,1,0,100,0,0
213740,-66.9456066945607,4,1,0,100,0,0
213815,-66.8523676880223,4,1,0,100,0,0
213890,-66.759388038943,4,1,0,100,0,0
213965,-66.6666666666667,4,1,0,100,0,0
214265,-90.9090909090909,4,1,0,50,0,0
214415,-95.2380952380952,4,1,0,50,0,0
214490,-97.5609756097561,4,1,0,50,0,0
214565,-100,4,1,0,50,0,0
214715,-105.263157894737,4,1,0,50,0,0
214790,-108.108108108108,4,1,0,50,0,0
214865,-111.111111111111,4,1,0,50,0,0
215165,-125,4,1,0,70,0,0
217416,-125,4,1,0,100,0,0
217716,-125,4,1,0,70,0,0
219516,-125,4,1,0,100,0,0
220116,-125,4,1,0,70,0,0
222216,-125,4,1,0,100,0,0
222516,-125,4,1,0,70,0,0
224166,-125,4,1,0,100,0,0
224916,-125,4,1,0,70,0,0
226266,-100,4,1,0,100,0,0
226365,-103.597917931789,4,1,0,100,0,0
226465,-107.342671154655,4,1,0,100,0,0
226565,-111.111111111111,4,1,0,70,0,0
226715,-116.471566962991,4,1,0,70,0,0
226790,-118.859519338526,4,1,0,70,0,0
226865,-120.948977397617,4,1,0,70,0,0
227015,-123.944176152828,4,1,0,100,0,0
227165,-125,4,1,0,100,0,0
227316,-125,4,1,0,70,0,0
229116,-125,4,1,0,100,0,0
229716,-125,4,1,0,70,0,0
231965,-125,4,1,0,70,0,0
232115,-124.849703638022,4,1,0,71,0,0
232190,-124.662678684873,4,1,0,72,0,0
232265,-124.402410640595,4,1,0,72,0,0
232340,-124.070441091224,4,1,0,73,0,0
232415,-123.668716645207,4,1,0,74,0,0
232465,-123.363281654386,4,1,0,74,0,0
232515,-123.028648202786,4,1,0,75,0,0
232565,-122.665658188471,4,1,0,75,0,0
232715,-121.415842701434,4,1,0,76,0,0
232790,-120.706721729315,4,1,0,77,0,0
232865,-119.946348832108,4,1,0,77,0,0
232915,-119.412871308065,4,1,0,78,0,0
232965,-118.859519338526,4,1,0,78,0,0
233015,-118.287493849558,4,1,0,79,0,0
233090,-117.397103136477,4,1,0,79,0,0
233165,-116.471566962991,4,1,0,80,0,0
233315,-114.531617835898,4,1,0,81,0,0
233465,-112.500371524536,4,1,0,82,0,0
233615,-110.409318490302,4,1,0,84,0,0
233690,-109.350688792684,4,1,0,84,0,0
233765,-108.288005094723,4,1,0,85,0,0
233840,-107.224574217645,4,1,0,86,0,0
233915,-106.163529159661,4,1,0,86,0,0
233990,-105.107823576365,4,1,0,87,0,0
234065,-104.060228705443,4,1,0,87,0,0
234115,-103.367623595864,4,1,0,88,0,0
234165,-102.680498907531,4,1,0,88,0,0
234215,-101.999540658046,4,1,0,89,0,0
234265,-101.325399641409,4,1,0,89,0,0
234315,-100.658692016162,4,1,0,90,0,0
234365,-100,4,1,0,90,0,0
234665,-100.62893081761,4,1,0,70,0,0
234666,-100.62893081761,4,1,0,30,0,0
234965,-101.26582278481,4,1,0,33,0,0
235265,-101.910828025478,4,1,0,36,0,0
235565,-102.564102564103,4,1,0,40,0,0
235865,-103.225806451613,4,1,0,43,0,0
236165,-103.896103896104,4,1,0,46,0,0
236465,-104.575163398693,4,1,0,49,0,0
236765,-105.263157894737,4,1,0,52,0,0
237065,-105.960264900662,4,1,0,56,0,0
237365,-106.666666666667,4,1,0,59,0,0
237665,-107.382550335571,4,1,0,62,0,0
237965,-108.108108108108,4,1,0,65,0,0
238115,-108.474576271186,4,1,0,67,0,0
238415,-109.215017064846,4,1,0,70,0,0
238640,-109.777015437393,4,1,0,70,0,0
238641,-109.777015437393,4,1,0,30,0,0
238715,-109.965635738832,4,1,0,36,0,0
238790,-110.154905335628,4,1,0,41,0,0
238865,-110.344827586207,4,1,0,47,0,0
238940,-110.535405872193,4,1,0,53,0,0
239015,-110.726643598616,4,1,0,58,0,0
239090,-110.918544194107,4,1,0,64,0,0
239165,-111.111111111111,4,1,0,70,0,0
239315,-109.131172061695,4,1,0,71,0,0
239465,-107.186514440034,4,1,0,72,0,0
239615,-105.276509550439,4,1,0,74,0,0
239765,-103.400539900233,4,1,0,75,0,0
239915,-101.557999000121,4,1,0,76,0,0
240065,-99.7482911681134,4,1,0,77,0,0
240215,-97.9708313369473,4,1,0,79,0,0
240290,-97.0940144440067,4,1,0,79,0,0
240365,-96.2250448649376,4,1,0,80,0,0
240440,-95.3638523680468,4,1,0,81,0,0
240515,-94.5103673501988,4,1,0,81,0,0
240590,-93.6645208311909,4,1,0,82,0,0
240665,-92.8262444481773,4,1,0,82,0,0
240740,-91.9954704501446,4,1,0,83,0,0
240815,-91.1721316924354,4,1,0,84,0,0
240890,-90.3561616313221,4,1,0,84,0,0
240965,-89.5474943186285,4,1,0,85,0,0
241003,-89.1405360576168,4,1,0,85,0,0
241040,-88.7460643963996,4,1,0,86,0,0
241115,-87.9518070916195,4,1,0,86,0,0
241190,-87.1646582109761,4,1,0,87,0,0
241265,-86.3845541356731,4,1,0,87,0,0
241340,-85.6114318162882,4,1,0,88,0,0
241415,-84.8452287676769,4,1,0,89,0,0
241490,-84.0858830639231,4,1,0,89,0,0
241565,-58.8235294117647,4,1,0,100,0,0
242615,-71.4285714285714,4,1,0,70,0,0
242765,-73.0449282740546,4,1,0,70,0,0
242915,-74.7361318914828,4,1,0,70,0,0
242990,-75.6114448811971,4,1,0,70,0,0
243065,-76.5075042650444,4,1,0,70,0,0
243215,-78.3648841881833,4,1,0,70,0,0
243365,-80.314691557607,4,1,0,70,0,0
243440,-81.3264386626795,4,1,0,70,0,0
243515,-82.3640015104508,4,1,0,70,0,0
243665,-84.5206302087402,4,1,0,70,0,0
243815,-86.7932344633711,4,1,0,70,0,0
243890,-87.9759907345616,4,1,0,70,0,0
243973,294.117647058824,4,1,0,70,1,0
243973,-90.9752563234538,4,1,0,70,0,0
244112,-91.6075032564537,4,1,0,70,0,0
244259,-92.247528260618,4,1,0,70,0,0
244406,-92.8965593846359,4,1,0,70,0,0
244561,288.461538461538,4,1,0,70,1,8
244561,-95.3891985220715,4,1,0,70,0,0
244697,-96.0559231272953,4,1,0,70,0,0
244745,-96.2802406476268,4,1,0,70,0,0
244793,-96.5056083089762,4,1,0,70,0,0
244841,-96.732033502988,4,1,0,70,0,0
244986,-97.4225250118169,4,1,0,70,0,0
245137,283.018867924528,4,1,0,70,1,0
245137,-100,4,1,0,70,0,0
245413,-94.1688336010851,4,1,0,30,0,0
245554,-91.4918856803614,4,1,0,37,0,0
245703,277.777777777778,4,1,0,44,1,8
245703,-90.6591188891525,4,1,0,44,0,0
245764,-89.4573511491627,4,1,0,47,0,0
245834,-88.2702914586381,4,1,0,50,0,0
245880,-87.5072287229072,4,1,0,52,0,0
245926,-86.7572456862156,4,1,0,54,0,0
245973,-86.0041211467058,4,1,0,57,0,0
246112,-83.8513974568802,4,1,0,63,0,0
246258,272.727272727273,4,1,0,100,1,0
246258,-76.9230769230769,4,1,0,100,0,0
247205,-76.9230769230769,4,1,0,90,0,0
247273,-77.2937730322215,4,1,0,90,0,0
247341,-77.6680592480061,4,1,0,90,0,0
247477,-78.4276126558006,4,1,0,90,0,0
247545,-78.8129877637537,4,1,0,90,0,0
247614,-79.2079207920792,4,1,0,90,0,0
247682,-79.6010217735069,4,1,0,90,0,0
247750,-79.9980440576025,4,1,0,90,0,0
247818,-80.3990466127724,4,1,0,90,0,0
247886,-80.8040895957326,4,1,0,90,0,0
248023,-81.6326530612245,4,1,0,90,0,0
248159,-82.4721480062509,4,1,0,90,0,0
248295,-83.3290887790964,4,1,0,90,0,0
248432,-84.2105263157895,4,1,0,90,0,0
248568,-85.1041693760241,4,1,0,90,0,0
248636,-85.558141359203,4,1,0,90,0,0
248705,-86.0237669576191,4,1,0,90,0,0
248841,-86.9565217391304,4,1,0,90,0,0
248977,-87.9097259537883,4,1,0,90,0,0
249045,-88.3942079100929,4,1,0,90,0,0
249114,-88.8913037572333,4,1,0,90,0,0
249250,-89.8876404494382,4,1,0,90,0,0
249295,-90.2222467324767,4,1,0,90,0,0
249341,-90.5668733392383,4,1,0,90,0,0
249386,-90.9065651654488,4,1,0,90,0,0
249432,-91.2564495886208,4,1,0,90,0,0
249477,-91.6013437849944,4,1,0,90,0,0
249523,-91.9566072733405,4,1,0,90,0,0
249659,-93.0232558139535,4,1,0,90,0,0
249795,-94.1149398837945,4,1,0,90,0,0
249932,-95.240867413768,4,1,0,90,0,0
250068,-96.3855421686747,4,1,0,90,0,0
250205,-97.5667938931298,4,1,0,90,0,0
250341,-98.7684134267085,4,1,0,90,0,0
250409,-99.3803912039849,4,1,0,90,0,0
250477,-100,4,1,0,90,0,0
250614,-76.9230769230769,4,1,0,100,0,0
251705,-76.9230769230769,4,1,0,90,0,0
251773,-77.3016792125072,4,1,0,90,0,0
251841,-77.6840267675298,4,1,0,90,0,0
251909,-78.0701754385965,4,1,0,90,0,0
251977,-78.4601821921834,4,1,0,90,0,0
252045,-78.8541051388068,4,1,0,90,0,0
252114,-79.2578849721707,4,1,0,90,0,0
252159,-79.5234549516009,4,1,0,90,0,0
252205,-79.7967722653915,4,1,0,90,0,0
252250,-80.0659719619162,4,1,0,90,0,0
252318,-80.4762263582247,4,1,0,90,0,0
252386,-80.8907066575778,4,1,0,90,0,0
252523,-81.7388642277667,4,1,0,90,0,0
252591,-82.1664871518695,4,1,0,90,0,0
252659,-82.5986078886311,4,1,0,90,0,0
252727,-83.0352977763956,4,1,0,90,0,0
252795,-83.4766296701579,4,1,0,90,0,0
252932,-84.3801848779331,4,1,0,90,0,0
253000,-84.8359679084915,4,1,0,90,0,0
253068,-85.2967015414104,4,1,0,90,0,0
253114,-85.6112224448898,4,1,0,90,0,0
253159,-85.9211584875302,4,1,0,90,0,0
253205,-86.2403100775194,4,1,0,90,0,0
253273,-86.71646638519,4,1,0,90,0,0
253341,-87.1979098628347,4,1,0,90,0,0
253409,-87.6847290640394,4,1,0,90,0,0
253477,-88.1770145310436,4,1,0,90,0,0
253545,-88.6748588508801,4,1,0,90,0,0
253614,-89.1858037578288,4,1,0,90,0,0
253750,-90.2103218177211,4,1,0,90,0,0
253784,-90.4701397712834,4,1,0,90,0,0
253818,-90.7314586696118,4,1,0,90,0,0
253886,-91.2586516277878,4,1,0,90,0,0
254023,-92.3396161162027,4,1,0,90,0,0
254159,-93.4383202099738,4,1,0,90,0,0
254295,-94.5634850363025,4,1,0,90,0,0
254364,-95.1447661469933,4,1,0,90,0,0
254432,-95.7246571659048,4,1,0,90,0,0
254500,-96.3116602038056,4,1,0,90,0,0
254568,-96.9059069049996,4,1,0,90,0,0
254602,-97.2057886593247,4,1,0,90,0,0
254636,-97.5075321829636,4,1,0,90,0,0
254705,-98.1256890848953,4,1,0,90,0,0
254773,-98.7426035502959,4,1,0,90,0,0
254841,-99.3673241533308,4,1,0,90,0,0
254909,-100,4,1,0,90,0,0
254978,-76.9230769230769,4,1,0,100,0,0
256068,-76.9230769230769,4,1,0,90,0,0
256205,-77.7817006599495,4,1,0,90,0,0
256273,-78.2150367315728,4,1,0,90,0,0
256341,-78.6532282426606,4,1,0,90,0,0
256409,-79.0963572592449,4,1,0,90,0,0
256477,-79.5445077072629,4,1,0,90,0,0
256545,-79.9977654255468,4,1,0,90,0,0
256614,-80.4629993819183,4,1,0,90,0,0
256750,-81.3960097766157,4,1,0,90,0,0
256818,-81.870676347836,4,1,0,90,0,0
256886,-82.3509114957732,4,1,0,90,0,0
256955,-82.8440021983744,4,1,0,90,0,0
257023,-83.3357581400762,4,1,0,90,0,0
257091,-83.833386997629,4,1,0,90,0,0
257159,-84.3369946111487,4,1,0,90,0,0
257227,-84.8466893793512,4,1,0,90,0,0
257295,-85.3625823373372,4,1,0,90,0,0
257432,-86.4212432106216,4,1,0,90,0,0
257568,-87.4984724428694,4,1,0,90,0,0
257636,-88.047220855878,4,1,0,90,0,0
257705,-88.6111197054547,4,1,0,90,0,0
257773,-89.1739577170969,4,1,0,90,0,0
257841,-89.7439914768276,4,1,0,90,0,0
257977,-90.9062053642279,4,1,0,90,0,0
258045,-91.4986741637647,4,1,0,90,0,0
258114,-92.1078021483244,4,1,0,90,0,0
258159,-92.5094479795859,4,1,0,90,0,0
258205,-92.923655948866,4,1,0,90,0,0
258250,-93.3324643159747,4,1,0,90,0,0
258318,-93.9570894298274,4,1,0,90,0,0
258386,-94.5901314485765,4,1,0,90,0,0
258455,-95.2412623457816,4,1,0,90,0,0
258523,-95.8917869220209,4,1,0,90,0,0
258591,-96.5512591443886,4,1,0,90,0,0
258659,-97.2198648969755,4,1,0,90,0,0
258727,-97.8977952486755,4,1,0,90,0,0
258795,-98.5852466352277,4,1,0,90,0,0
258932,-100,4,1,0,90,0,0
259069,-76.9230769230769,4,1,0,90,0,0
259342,-76.9230769230769,4,1,0,100,0,0
260432,-76.9230769230769,4,1,0,90,0,0
260500,-77.2936592277719,4,1,0,90,0,0
260568,-77.6678294297715,4,1,0,90,0,0
260636,-78.045639888404,4,1,0,90,0,0
260705,-78.4327821710999,4,1,0,90,0,0
260773,-78.8180898714059,4,1,0,90,0,0
260841,-79.207201974735,4,1,0,90,0,0
260886,-79.4668220555029,4,1,0,90,0,0
260932,-79.733976467149,4,1,0,90,0,0
260977,-79.9970670186244,4,1,0,90,0,0
261045,-80.3979366249079,4,1,0,90,0,0
261114,-80.8088289756314,4,1,0,90,0,0
261182,-81.2178962257128,4,1,0,90,0,0
261250,-81.6311260755705,4,1,0,90,0,0
261318,-82.0485823870046,4,1,0,90,0,0
261386,-82.4703303348704,4,1,0,90,0,0
261455,-82.90273556231,4,1,0,90,0,0
261523,-83.3333333333333,4,1,0,90,0,0
261705,-84.5081332300542,4,1,0,90,0,0
261795,-85.1014040561622,4,1,0,90,0,0
261841,-85.4078597150462,4,1,0,90,0,0
261886,-85.7097965276141,4,1,0,90,0,0
261977,-86.326950466846,4,1,0,90,0,0
262068,-86.9530565075317,4,1,0,90,0,0
262114,-87.2730181585473,4,1,0,90,0,0
262159,-87.5883108542068,4,1,0,90,0,0
262250,-88.2329154872624,4,1,0,90,0,0
262341,-88.8870783770572,4,1,0,90,0,0
262432,-89.5510137076254,4,1,0,90,0,0
262477,-89.8830120283407,4,1,0,90,0,0
262523,-90.2249421104863,4,1,0,90,0,0
262568,-90.5619656345978,4,1,0,90,0,0
262614,-90.9090909090909,4,1,0,90,0,0
262750,-91.9511167298778,4,1,0,90,0,0
262886,-93.0173075283485,4,1,0,90,0,0
263023,-94.1166321601104,4,1,0,90,0,0
263091,-94.6719888927456,4,1,0,90,0,0
263159,-95.233938547486,4,1,0,90,0,0
263295,-96.3780918727915,4,1,0,90,0,0
263432,-97.5587945989448,4,1,0,90,0,0
263500,-98.1556455240666,4,1,0,90,0,0
263568,-98.7598443016203,4,1,0,90,0,0
263705,-100,4,1,0,100,0,0
263841,-101.009888052332,4,1,0,70,0,0
263977,-102.039225176089,4,1,0,70,0,0
264114,-103.09517289341,4,1,0,70,0,0
264250,-104.161624235953,4,1,0,70,0,0
264386,-105.245452904067,4,1,0,70,0,0
264523,-106.353961166989,4,1,0,70,0,0
264659,-107.47002654524,4,1,0,70,0,0
264795,-108.600655833541,4,1,0,70,0,0
264932,-109.75318903938,4,1,0,70,0,0
265068,-110.909575884446,4,1,0,70,0,0
265205,-112.085481627523,4,1,0,70,0,0
265341,-113.262306840665,4,1,0,70,0,0
265477,-114.447064706861,4,1,0,70,0,0
265614,-115.646891003697,4,1,0,70,0,0
265750,-116.842507084804,4,1,0,70,0,0
265886,-118.040785513938,4,1,0,70,0,0
266023,-119.248563579293,4,1,0,70,0,0
266159,-120.446109134365,4,1,0,70,0,0
266295,-121.640040734177,4,1,0,70,0,0
266432,-122.836761874242,4,1,0,70,0,0
266568,-124.016379986163,4,1,0,70,0,0
266705,-125.193696485324,4,1,0,70,0,0
266841,-126.348910371599,4,1,0,70,0,0
266977,-127.487975629403,4,1,0,70,0,0
267114,-128.616293538687,4,1,0,70,0,0
267250,-129.714551117923,4,1,0,70,0,0
267386,-130.788179268302,4,1,0,70,0,0
267523,-131.84184137598,4,1,0,70,0,0
267659,-132.857191338765,4,1,0,70,0,0
267795,-133.839067355333,4,1,0,70,0,0
267932,-134.791326339674,4,1,0,70,0,0
268068,-135.697118593141,4,1,0,70,0,0
268205,-136.566829325302,4,1,0,70,0,0
268341,-137.384916013892,4,1,0,70,0,0
268477,-138.155137301707,4,1,0,70,0,0
268614,-138.879942907359,4,1,0,70,0,0
268750,-139.546207578778,4,1,0,70,0,0
268886,-140.157022213618,4,1,0,70,0,0
269023,-140.714005405746,4,1,0,70,0,0
269159,-141.206961710999,4,1,0,70,0,0
269295,-141.638315334813,4,1,0,70,0,0
269432,-142.00889007877,4,1,0,70,0,0
269568,-142.311849042102,4,1,0,70,0,0
269705,-142.550449805854,4,1,0,70,0,0
269841,-142.720275032451,4,1,0,70,0,0
269977,-142.822640416486,4,1,0,70,0,0
270114,-142.857142857143,4,1,0,70,0,0
270182,-142.813829076767,4,1,0,70,0,0
270250,-142.684136944594,4,1,0,70,0,0
270386,-142.169080350547,4,1,0,70,0,0
270523,-141.316252690016,4,1,0,70,0,0
270659,-140.157037215124,4,1,0,70,0,0
270795,-138.711421288942,4,1,0,70,0,0
270932,-136.996026291939,4,1,0,70,0,0
271068,-135.069767346751,4,1,0,70,0,0
271205,-132.940833416131,4,1,0,70,0,0
271341,-130.67741125472,4,1,0,70,0,0
271477,-128.301218963135,4,1,0,70,0,0
271614,-125.829353180877,4,1,0,70,0,0
271750,-123.331360047157,4,1,0,70,0,0
271886,-120.820029848328,4,1,0,70,0,0
272023,-118.30468393309,4,1,0,70,0,0
272159,-115.846542686394,4,1,0,70,0,0
272295,-113.448270542688,4,1,0,70,0,0
272433,-111.111111111111,4,1,0,30,0,0
272705,-109.587435536803,4,1,0,32,0,0
273114,-107.381339108464,4,1,0,36,0,0
273250,-106.667318567773,4,1,0,37,0,0
273523,-105.26231142848,4,1,0,40,0,0
273659,-104.576103281884,4,1,0,41,0,0
273795,-103.898784011176,4,1,0,42,0,0
274205,-101.90894369706,4,1,0,46,0,0
274341,-101.265626934027,4,1,0,47,0,0
274409,-100.947004750447,4,1,0,48,0,0
274477,-100.630381303813,4,1,0,49,0,0
274545,-100.315737845626,4,1,0,49,0,0
274614,-99.9984721394631,4,1,0,50,0,0
274886,-98.7671088173601,4,1,0,52,0,0
275023,-98.1583130867753,4,1,0,54,0,0
275091,-97.8589157022816,4,1,0,54,0,0
275295,-96.9715826591993,4,1,0,56,0,0
275432,-96.3846550327664,4,1,0,57,0,0
275705,-95.2360165298877,4,1,0,60,0,0
275977,-94.1184929536957,4,1,0,62,0,0
276114,-93.565495847093,4,1,0,64,0,0
276318,-92.75399288579,4,1,0,66,0,0
276386,-92.4866109909986,4,1,0,66,0,0
276523,-91.9525696142066,4,1,0,67,0,0
276659,-91.4284916045037,4,1,0,69,0,0
276795,-90.9103536405812,4,1,0,70,0,0
276932,-90.3943097852358,4,1,0,71,0,0
277000,-90.1403407291107,4,1,0,72,0,0
277068,-89.8877947619244,4,1,0,72,0,0
277477,-88.3981631550513,4,1,0,76,0,0
277614,-87.9101691045117,4,1,0,77,0,0
277886,-86.9570993928282,4,1,0,80,0,0
277955,-86.718605082545,4,1,0,81,0,0
278023,-86.4848436798013,4,1,0,81,0,0
278091,-86.2523391581666,4,1,0,82,0,0
278159,-86.0210814078806,4,1,0,82,0,0
278227,-85.7910604273168,4,1,0,83,0,0
278295,-85.5622663215416,4,1,0,84,0,0
278364,-85.3313516121041,4,1,0,84,0,0
278432,-85.1049996749236,4,1,0,85,0,0
278568,-84.6558793475871,4,1,0,86,0,0
278636,-84.4330920959273,4,1,0,87,0,0
278705,-84.2082239720035,4,1,0,87,0,0
278750,-84.0622150297332,4,1,0,88,0,0
278795,-83.9167115419135,4,1,0,88,0,0
278841,-83.7684943429069,4,1,0,89,0,0
278886,-83.6240050084966,4,1,0,89,0,0
278932,-83.4768190804158,4,1,0,90,0,0
278977,-83.3333333333333,4,1,0,90,0,0
279251,-90.9090909090909,4,1,0,30,0,0
279386,-92.7788279773157,4,1,0,30,0,0
279455,-93.7571635974631,4,1,0,30,0,0
279523,-94.7417187861941,4,1,0,30,0,0
279591,-95.747171283652,4,1,0,30,0,0
279659,-96.7741935483871,4,1,0,30,0,0
279795,-98.8957846377045,4,1,0,30,0,0
279864,-100.008150623523,4,1,0,30,0,0
279932,-101.129151899777,4,1,0,30,0,0
280068,-103.448275862069,4,1,0,30,0,0
280205,-105.8945369811,4,1,0,30,0,0
280273,-107.152213780456,4,1,0,30,0,0
280341,-108.440123729563,4,1,0,30,0,0
280477,-111.111111111111,4,1,0,30,0,0
281030,-90.9090909090909,4,1,0,100,0,1
296295,-90.9090909090909,4,1,0,100,0,1
296432,-90.4234578491773,4,1,0,100,0,1
296568,-89.9464742843845,4,1,0,100,0,1
296704,-89.4744964889266,4,1,0,100,0,1
296772,-89.2403601939506,4,1,0,100,0,1
296840,-89.0074460735396,4,1,0,100,0,1
296909,-88.7723462083222,4,1,0,100,0,1
296977,-88.5418655263258,4,1,0,100,0,1
297045,-88.312578544499,4,1,0,100,0,1
297113,-88.0844760132184,4,1,0,100,0,1
297181,-87.8575487781777,4,1,0,100,0,1
297250,-87.6284764207981,4,1,0,100,0,1
297386,-87.1804511278195,4,1,0,100,0,1
297454,-86.9581520923954,4,1,0,100,0,1
297522,-86.7369838420108,4,1,0,100,0,1
297523,-86.7337397613794,4,1,0,100,0,1
297659,-86.2947940311837,4,1,0,100,0,1
297727,-86.0769830370068,4,1,0,100,0,1
297795,-85.8602687992891,4,1,0,100,0,1
297931,-85.4300976238718,4,1,0,100,0,1
298000,-85.2134930550452,4,1,0,100,0,1
298068,-85.0010996261271,4,1,0,100,0,1
298113,-84.8611263585465,4,1,0,100,0,1
298159,-84.7185182479085,4,1,0,100,0,1
298204,-84.5794733386826,4,1,0,100,0,1
298272,-84.3702248417376,4,1,0,100,0,1
298340,-84.1620091456776,4,1,0,100,0,1
298409,-83.9517793143395,4,1,0,100,0,1
298477,-83.7456213210068,4,1,0,100,0,1
298545,-83.5404733599914,4,1,0,100,0,1
298614,-83.3333333333333,4,1,0,100,0,1
316076,-83.3333333333333,4,1,0,100,0,0
316136,-83.3333333333333,4,1,0,30,0,0
317159,-84.9354589884171,4,1,0,30,0,0
318250,-87.5775596128605,4,1,0,30,0,0
318523,-88.3471677739385,4,1,0,50,0,0
318524,-88.3471677739385,4,1,0,50,0,0
318591,-88.5453005437012,4,1,0,50,0,0
318659,-88.7459886360669,4,1,0,50,0,0
318727,-88.949229098895,4,1,0,49,0,0
318795,-89.1550203741103,4,1,0,49,0,0
318932,-89.5773760722394,4,1,0,49,0,0
319000,-89.7908608593953,4,1,0,49,0,0
319068,-90.0069028146264,4,1,0,48,0,0
319205,-90.4499486791062,4,1,0,48,0,0
319273,-90.6737307257669,4,1,0,48,0,0
319341,-90.9000938428473,4,1,0,48,0,0
319477,-91.3605976478721,4,1,0,47,0,0
319614,-91.8350392883196,4,1,0,47,0,0
319682,-92.0744895895768,4,1,0,47,0,0
319750,-92.316584304359,4,1,0,46,0,0
319818,-92.5613368391363,4,1,0,46,0,0
319886,-92.808761371523,4,1,0,46,0,0
319955,-93.0625710711495,4,1,0,46,0,0
320023,-93.315425012956,4,1,0,46,0,0
320091,-93.5709982271613,4,1,0,45,0,0
320159,-93.8293078623288,4,1,0,45,0,0
320227,-94.0903717830864,4,1,0,45,0,0
320295,-94.3542085630991,4,1,0,45,0,0
320364,-94.6247794241916,4,1,0,45,0,0
320432,-94.8942619584653,4,1,0,45,0,0
320705,-96.0048934550597,4,1,0,44,0,0
320773,-96.2888051974307,4,1,0,44,0,0
320841,-96.5756641313506,4,1,0,43,0,0
320977,-97.1583235626895,4,1,0,43,0,0
321045,-97.4541757851776,4,1,0,43,0,0
321114,-97.7574971840747,4,1,0,43,0,0
321182,-98.0595237865143,4,1,0,42,0,0
321250,-98.3646573776183,4,1,0,42,0,0
321318,-98.6729269906132,4,1,0,42,0,0
321386,-98.9843623747771,4,1,0,42,0,0
321523,-99.6215517094242,4,1,0,41,0,0
321591,-99.9427183344685,4,1,0,41,0,0
321659,-100.267177507976,4,1,0,41,0,0
321727,-100.594962675643,4,1,0,41,0,0
321795,-100.926108045277,4,1,0,41,0,0
321932,-101.603616040043,4,1,0,40,0,0
322000,-101.945106300032,4,1,0,40,0,0
322068,-102.290101969789,4,1,0,40,0,0
322205,-102.995968299194,4,1,0,39,0,0
322273,-103.351766207857,4,1,0,39,0,0
322341,-103.711227892671,4,1,0,39,0,0
322409,-104.074394943453,4,1,0,39,0,0
322477,-104.441309833193,4,1,0,39,0,0
322614,-105.192094335907,4,1,0,38,0,0
322886,-106.729768129455,4,1,0,37,0,0
323023,-107.528736536387,4,1,0,37,0,0
323091,-107.931570473786,4,1,0,37,0,0
323159,-108.338630742775,4,1,0,37,0,0
323227,-108.749970698968,4,1,0,36,0,0
323295,-109.165644805077,4,1,0,36,0,0
323432,-110.016495255871,4,1,0,36,0,0
323500,-110.445576688865,4,1,0,36,0,0
323568,-110.879222544765,4,1,0,35,0,0
323705,-111.766999648286,4,1,0,35,0,0
323841,-112.667367733287,4,1,0,35,0,0
323909,-113.124839195754,4,1,0,35,0,0
323977,-113.587257779681,4,1,0,34,0,0
324114,-114.534198392379,4,1,0,34,0,0
324386,-116.476890130111,4,1,0,33,0,0
324523,-117.488145097669,4,1,0,33,0,0
324591,-117.998511589457,4,1,0,33,0,0
324659,-118.514580567366,4,1,0,32,0,0
324795,-119.564165783985,4,1,0,32,0,0
325068,-121.743775632352,4,1,0,31,0,0
325341,-124.025544018077,4,1,0,30,0,0
325477,-125.202395775557,4,1,0,30,0,0
325545,-125.80120896996,4,1,0,30,0,0
325614,-126.416059651537,4,1,0,30,0,0
325682,-127.029242558884,4,1,0,29,0,0
325750,-127.649734018201,4,1,0,29,0,0
325886,-128.913127266391,4,1,0,29,0,0
326023,-130.216869021004,4,1,0,28,0,0
326091,-130.875885176564,4,1,0,28,0,0
326159,-131.542978285677,4,1,0,28,0,0
326227,-132.218286887771,4,1,0,28,0,0
326295,-132.901952837992,4,1,0,28,0,0
326432,-134.305312853316,4,1,0,27,0,0
326568,-135.733783878631,4,1,0,27,0,0
326636,-136.461622791066,4,1,0,27,0,0
326705,-137.209658157238,4,1,0,26,0,0
326773,-137.956377948222,4,1,0,26,0,0
326841,-138.712726881212,4,1,0,26,0,0
326977,-140.255023285589,4,1,0,26,0,0
328068,-154.241927435785,4,1,0,23,0,0
328614,-162.524423959522,4,1,0,21,0,0
329159,-171.857587622456,4,1,0,19,0,0
330250,-194.655134085507,4,1,0,16,0,0
331341,-225.234952612635,4,1,0,13,0,0
332432,-268.302381033774,4,1,0,10,0,0
332568,-274.931382909792,4,1,0,30,0,0
333523,-333.333333333333,4,1,0,30,0,0

[HitObjects]
256,192,240,5,0,0:0:0:0:
256,192,990,1,8,0:0:0:0:
256,192,1740,1,0,0:0:0:0:
256,192,2490,1,8,0:0:0:0:
256,192,3052,1,0,0:0:0:0:
256,192,3146,1,0,0:0:0:0:
256,192,3240,1,0,0:0:0:0:
256,192,3990,1,8,0:0:0:0:
256,192,4740,1,0,0:0:0:0:
256,192,5490,1,8,0:0:0:0:
256,192,6240,1,0,0:0:0:0:
256,192,6333,1,0,0:0:0:0:
256,192,6427,1,8,0:0:0:0:
256,192,6615,1,0,0:0:0:0:
256,192,6802,1,0,0:0:0:0:
256,192,6990,1,8,0:0:0:0:
256,192,7083,1,0,0:0:0:0:
256,192,7177,1,0,0:0:0:0:
256,192,7271,1,0,0:0:0:0:
256,192,7365,1,8,0:0:0:0:
256,192,7552,1,0,0:0:0:0:
256,192,7646,1,0,0:0:0:0:
256,192,7740,1,8,0:0:0:0:
256,192,7833,1,8,0:0:0:0:
256,192,7927,1,0,0:0:0:0:
256,192,8021,1,8,0:0:0:0:
256,192,8115,1,0,0:0:0:0:
256,192,8302,1,0,0:0:0:0:
256,192,8396,1,0,0:0:0:0:
256,192,8490,1,8,0:0:0:0:
256,192,8583,1,0,0:0:0:0:
256,192,8677,1,8,0:0:0:0:
256,192,8865,1,8,0:0:0:0:
256,192,9052,1,0,0:0:0:0:
256,192,9240,1,0,0:0:0:0:
256,192,9333,1,0,0:0:0:0:
256,192,9427,1,8,0:0:0:0:
256,192,9615,1,0,0:0:0:0:
256,192,9802,1,0,0:0:0:0:
256,192,9990,1,8,0:0:0:0:
256,192,10083,1,0,0:0:0:0:
256,192,10177,1,0,0:0:0:0:
256,192,10271,1,0,0:0:0:0:
256,192,10365,1,8,0:0:0:0:
256,192,10552,1,0,0:0:0:0:
256,192,10646,1,8,0:0:0:0:
256,192,10740,1,0,0:0:0:0:
256,192,10833,1,0,0:0:0:0:
256,192,10927,1,0,0:0:0:0:
256,192,11115,1,8,0:0:0:0:
256,192,11302,1,0,0:0:0:0:
256,192,11490,1,8,0:0:0:0:
256,192,11583,1,0,0:0:0:0:
256,192,11677,1,8,0:0:0:0:
256,192,11865,1,8,0:0:0:0:
256,192,12052,1,0,0:0:0:0:
256,96,12240,1,4,0:0:0:0:
256,192,12427,1,8,0:0:0:0:
256,192,12615,1,8,0:0:0:0:
256,192,12802,1,0,0:0:0:0:
256,192,12896,1,0,0:0:0:0:
256,192,12990,1,8,0:0:0:0:
256,192,13177,1,0,0:0:0:0:
256,192,13365,1,8,0:0:0:0:
256,192,13458,1,0,0:0:0:0:
256,192,13552,1,8,0:0:0:0:
256,192,13646,1,8,0:0:0:0:
256,192,13740,1,0,0:0:0:0:
256,192,13927,1,8,0:0:0:0:
256,192,14115,1,0,0:0:0:0:
256,192,14208,1,8,0:0:0:0:
256,192,14302,1,0,0:0:0:0:
256,192,14396,1,0,0:0:0:0:
256,192,14490,1,8,0:0:0:0:
256,192,14677,1,0,0:0:0:0:
256,192,14771,1,0,0:0:0:0:
256,192,14865,1,8,0:0:0:0:
256,192,14958,1,0,0:0:0:0:
256,192,15052,1,8,0:0:0:0:
256,192,15115,1,8,0:0:0:0:
256,192,15177,1,8,0:0:0:0:
256,192,15240,1,0,0:0:0:0:
256,192,15427,1,8,0:0:0:0:
256,192,15615,1,8,0:0:0:0:
256,192,15802,1,0,0:0:0:0:
256,192,15896,1,0,0:0:0:0:
256,192,15990,1,8,0:0:0:0:
256,192,16177,1,0,0:0:0:0:
256,192,16365,1,8,0:0:0:0:
256,192,16458,1,0,0:0:0:0:
256,192,16552,1,8,0:0:0:0:
256,192,16646,1,8,0:0:0:0:
256,192,16740,1,0,0:0:0:0:
256,192,16927,1,8,0:0:0:0:
256,192,17115,1,0,0:0:0:0:
256,192,17208,1,8,0:0:0:0:
256,192,17302,1,0,0:0:0:0:
256,192,17396,1,0,0:0:0:0:
256,192,17490,1,8,0:0:0:0:
256,192,17615,1,0,0:0:0:0:
256,192,17740,1,8,0:0:0:0:
256,192,17906,1,0,0:0:0:0:
256,192,17948,1,0,0:0:0:0:
256,192,17990,1,8,0:0:0:0:
256,192,18146,1,8,0:0:0:0:
256,192,18240,1,0,0:0:0:0:
256,192,18427,1,8,0:0:0:0:
256,192,18521,1,8,0:0:0:0:
256,192,18615,1,8,0:0:0:0:
256,192,18802,1,0,0:0:0:0:
256,192,18990,1,8,0:0:0:0:
256,192,19177,1,0,0:0:0:0:
256,192,19271,1,0,0:0:0:0:
256,192,19365,1,8,0:0:0:0:
256,192,19458,1,0,0:0:0:0:
256,192,19552,1,8,0:0:0:0:
256,192,19740,1,0,0:0:0:0:
256,192,19833,1,0,0:0:0:0:
256,192,19927,1,8,0:0:0:0:
256,192,20021,1,8,0:0:0:0:
256,192,20115,1,0,0:0:0:0:
256,192,20302,1,0,0:0:0:0:
256,192,20396,1,0,0:0:0:0:
256,192,20443,1,0,0:0:0:0:
256,192,20490,1,8,0:0:0:0:
256,192,20677,1,0,0:0:0:0:
256,192,20771,1,0,0:0:0:0:
256,192,20865,1,8,0:0:0:0:
256,192,20958,1,0,0:0:0:0:
256,192,21052,1,8,0:0:0:0:
256,192,21146,1,8,0:0:0:0:
256,192,21240,1,0,0:0:0:0:
256,192,21427,1,8,0:0:0:0:
256,192,21521,1,8,0:0:0:0:
256,192,21615,1,8,0:0:0:0:
256,192,21708,1,8,0:0:0:0:
256,192,21802,1,0,0:0:0:0:
256,192,21990,1,8,0:0:0:0:
256,192,22177,1,0,0:0:0:0:
256,192,22271,1,0,0:0:0:0:
256,192,22365,1,8,0:0:0:0:
256,192,22552,1,8,0:0:0:0:
256,192,22646,1,8,0:0:0:0:
256,192,22740,1,0,0:0:0:0:
256,192,22927,1,0,0:0:0:0:
256,192,23021,1,8,0:0:0:0:
256,192,23115,1,0,0:0:0:0:
256,192,23302,1,8,0:0:0:0:
256,192,23349,1,8,0:0:0:0:
256,192,23396,1,0,0:0:0:0:
256,192,23443,1,0,0:0:0:0:
256,192,23490,1,8,0:0:0:0:
256,96,24052,1,12,0:0:0:0:
256,96,24240,1,4,0:0:0:0:
256,192,24427,1,8,0:0:0:0:
256,192,24521,1,0,0:0:0:0:
256,192,24615,1,8,0:0:0:0:
256,192,24708,1,0,0:0:0:0:
256,192,24802,1,0,0:0:0:0:
256,192,24896,1,8,0:0:0:0:
256,192,24990,1,0,0:0:0:0:
256,192,25083,1,8,0:0:0:0:
256,192,25177,1,8,0:0:0:0:
256,192,25271,1,0,0:0:0:0:
256,192,25365,1,8,0:0:0:0:
256,192,25458,1,0,0:0:0:0:
256,192,25552,1,0,0:0:0:0:
256,192,25646,1,8,0:0:0:0:
256,192,25740,1,0,0:0:0:0:
256,192,25833,1,8,0:0:0:0:
256,192,25927,1,0,0:0:0:0:
256,192,26021,1,0,0:0:0:0:
256,192,26115,1,8,0:0:0:0:
256,192,26208,1,8,0:0:0:0:
256,192,26302,1,0,0:0:0:0:
256,192,26396,1,8,0:0:0:0:
256,192,26490,1,0,0:0:0:0:
256,192,26583,1,8,0:0:0:0:
256,192,26677,1,0,0:0:0:0:
256,192,26771,1,0,0:0:0:0:
256,192,26865,1,8,0:0:0:0:
256,192,26958,1,8,0:0:0:0:
256,192,27052,1,0,0:0:0:0:
256,192,27146,1,8,0:0:0:0:
256,192,27240,1,0,0:0:0:0:
256,192,27333,1,0,0:0:0:0:
256,192,27427,1,8,0:0:0:0:
256,192,27521,1,0,0:0:0:0:
256,192,27615,1,8,0:0:0:0:
256,192,27708,1,0,0:0:0:0:
256,192,27802,1,0,0:0:0:0:
256,192,27896,1,8,0:0:0:0:
256,192,27990,1,0,0:0:0:0:
256,192,28036,1,0,0:0:0:0:
256,192,28083,1,8,0:0:0:0:
256,192,28130,1,8,0:0:0:0:
256,192,28177,1,0,0:0:0:0:
256,192,28271,1,0,0:0:0:0:
256,192,28365,1,8,0:0:0:0:
256,192,28458,1,8,0:0:0:0:
256,192,28552,1,0,0:0:0:0:
256,192,28646,1,8,0:0:0:0:
256,192,28740,1,0,0:0:0:0:
256,192,28833,1,0,0:0:0:0:
256,192,28927,1,8,0:0:0:0:
256,192,29021,1,0,0:0:0:0:
256,192,29115,1,8,0:0:0:0:
256,192,29208,1,8,0:0:0:0:
256,192,29302,1,0,0:0:0:0:
256,192,29396,1,0,0:0:0:0:
256,96,29490,1,12,0:0:0:0:
256,96,29740,1,4,0:0:0:0:
256,96,29990,1,12,0:0:0:0:
256,96,30115,1,4,0:0:0:0:
256,96,30240,1,4,0:0:0:0:
256,192,30427,1,8,0:0:0:0:
256,192,30521,1,0,0:0:0:0:
256,192,30615,1,0,0:0:0:0:
256,192,30708,1,8,0:0:0:0:
256,192,30802,1,0,0:0:0:0:
256,192,30896,1,8,0:0:0:0:
256,192,30990,1,0,0:0:0:0:
256,192,31083,1,0,0:0:0:0:
256,192,31177,1,8,0:0:0:0:
256,192,31271,1,0,0:0:0:0:
256,192,31365,1,8,0:0:0:0:
256,192,31458,1,8,0:0:0:0:
256,192,31552,1,0,0:0:0:0:
256,192,31599,1,0,0:0:0:0:
256,192,31646,1,8,0:0:0:0:
256,192,31693,1,8,0:0:0:0:
256,192,31740,1,0,0:0:0:0:
256,192,31833,1,8,0:0:0:0:
256,192,31880,1,8,0:0:0:0:
256,192,31927,1,8,0:0:0:0:
256,192,31974,1,8,0:0:0:0:
256,192,32021,1,0,0:0:0:0:
256,192,32115,1,8,0:0:0:0:
256,192,32208,1,8,0:0:0:0:
256,192,32302,1,0,0:0:0:0:
256,192,32396,1,8,0:0:0:0:
256,192,32490,1,0,0:0:0:0:
256,192,32583,1,8,0:0:0:0:
256,192,32677,1,8,0:0:0:0:
256,192,32771,1,0,0:0:0:0:
256,192,32865,1,8,0:0:0:0:
256,192,32958,1,0,0:0:0:0:
256,192,33052,1,8,0:0:0:0:
256,192,33099,1,8,0:0:0:0:
256,192,33146,1,8,0:0:0:0:
256,192,33193,1,8,0:0:0:0:
256,192,33240,1,0,0:0:0:0:
256,192,33333,1,0,0:0:0:0:
256,192,33427,1,8,0:0:0:0:
256,192,33521,1,0,0:0:0:0:
256,192,33615,1,8,0:0:0:0:
256,192,33708,1,8,0:0:0:0:
256,192,33802,1,0,0:0:0:0:
256,192,33896,1,8,0:0:0:0:
256,192,33990,1,0,0:0:0:0:
256,192,34083,1,8,0:0:0:0:
256,192,34177,1,8,0:0:0:0:
256,192,34271,1,0,0:0:0:0:
256,192,34365,1,8,0:0:0:0:
256,192,34458,1,8,0:0:0:0:
256,192,34552,1,0,0:0:0:0:
256,192,34599,1,0,0:0:0:0:
256,192,34646,1,8,0:0:0:0:
256,192,34693,1,8,0:0:0:0:
256,192,34740,1,0,0:0:0:0:
256,192,34833,1,0,0:0:0:0:
256,192,34927,1,0,0:0:0:0:
256,192,35021,1,0,0:0:0:0:
256,192,35115,1,8,0:0:0:0:
256,192,35208,1,8,0:0:0:0:
256,192,35302,1,0,0:0:0:0:
256,192,35349,1,0,0:0:0:0:
256,192,35396,1,0,0:0:0:0:
256,96,35490,1,12,0:0:0:0:
256,192,35677,1,8,0:0:0:0:
256,192,35771,1,8,0:0:0:0:
256,192,35865,1,8,0:0:0:0:
256,192,35958,1,8,0:0:0:0:
256,192,36052,1,8,0:0:0:0:
256,192,36146,1,8,0:0:0:0:
256,96,36240,1,4,0:0:0:0:
256,192,36427,1,8,0:0:0:0:
256,192,36615,1,0,0:0:0:0:
256,96,36990,1,4,0:0:0:0:
256,192,37240,1,8,0:0:0:0:
256,192,37365,1,0,0:0:0:0:
256,192,37490,1,8,0:0:0:0:
256,192,37740,1,0,0:0:0:0:
256,192,38115,1,0,0:0:0:0:
256,192,38240,1,0,0:0:0:0:
256,192,38365,1,8,0:0:0:0:
256,192,38490,1,0,0:0:0:0:
256,192,38740,1,8,0:0:0:0:
256,192,38865,1,0,0:0:0:0:
256,192,38990,1,8,0:0:0:0:
256,192,39115,1,8,0:0:0:0:
256,96,39240,1,4,0:0:0:0:
256,192,39427,8,0,39896,0:0:0:0:
256,96,39990,5,4,0:0:0:0:
256,192,40240,1,8,0:0:0:0:
256,192,40365,1,0,0:0:0:0:
256,192,40490,1,8,0:0:0:0:
256,192,40615,1,8,0:0:0:0:
256,192,40740,1,0,0:0:0:0:
256,192,40865,1,0,0:0:0:0:
256,192,40990,1,0,0:0:0:0:
256,192,41115,1,0,0:0:0:0:
256,192,41240,1,8,0:0:0:0:
256,192,41365,1,8,0:0:0:0:
256,192,41490,1,0,0:0:0:0:
256,192,41615,1,8,0:0:0:0:
256,192,41740,1,0,0:0:0:0:
256,192,41865,1,8,0:0:0:0:
256,192,41990,1,0,0:0:0:0:
256,192,42052,1,0,0:0:0:0:
256,192,42115,1,8,0:0:0:0:
256,192,42177,1,8,0:0:0:0:
256,192,42240,1,0,0:0:0:0:
256,192,42427,1,8,0:0:0:0:
256,192,42521,1,0,0:0:0:0:
256,192,42708,1,8,0:0:0:0:
256,192,42802,1,0,0:0:0:0:
256,192,42990,1,0,0:0:0:0:
256,192,43115,1,8,0:0:0:0:
256,192,43177,1,8,0:0:0:0:
256,192,43240,1,0,0:0:0:0:
256,192,43365,1,8,0:0:0:0:
256,192,43427,1,8,0:0:0:0:
256,192,43490,1,0,0:0:0:0:
256,192,43615,1,0,0:0:0:0:
256,96,43740,1,12,0:0:0:0:
256,192,43927,1,8,0:0:0:0:
256,192,44021,1,0,0:0:0:0:
256,192,44208,1,8,0:0:0:0:
256,192,44302,1,0,0:0:0:0:
256,192,44490,1,0,0:0:0:0:
256,192,44615,1,8,0:0:0:0:
256,192,44677,1,8,0:0:0:0:
256,192,44740,1,0,0:0:0:0:
256,192,44865,1,8,0:0:0:0:
256,192,44927,1,8,0:0:0:0:
256,192,44990,1,0,0:0:0:0:
256,192,45115,1,0,0:0:0:0:
256,96,45240,1,12,0:0:0:0:
256,192,45427,1,0,0:0:0:0:
256,192,45521,1,0,0:0:0:0:
256,192,45615,1,0,0:0:0:0:
256,192,45708,1,0,0:0:0:0:
256,192,45802,1,8,0:0:0:0:
256,192,45896,1,8,0:0:0:0:
256,192,45990,1,0,0:0:0:0:
256,192,46115,1,0,0:0:0:0:
256,192,46240,1,8,0:0:0:0:
256,192,46365,1,0,0:0:0:0:
256,192,46490,1,8,0:0:0:0:
256,192,46615,1,8,0:0:0:0:
256,192,46740,1,0,0:0:0:0:
256,192,47115,1,8,0:0:0:0:
256,192,47240,1,8,0:0:0:0:
256,192,47365,1,8,0:0:0:0:
256,192,47490,1,8,0:0:0:0:
256,192,47552,1,8,0:0:0:0:
256,192,47615,1,0,0:0:0:0:
256,192,47677,1,0,0:0:0:0:
256,192,47740,1,0,0:0:0:0:
256,192,47802,1,0,0:0:0:0:
256,192,47865,1,8,0:0:0:0:
256,192,47990,1,0,0:0:0:0:
256,192,48052,1,0,0:0:0:0:
256,192,48115,1,8,0:0:0:0:
256,192,48177,1,8,0:0:0:0:
256,192,48240,1,0,0:0:0:0:
256,192,48490,1,0,0:0:0:0:
256,192,48531,1,0,0:0:0:0:
256,192,48615,1,8,0:0:0:0:
256,192,48656,1,8,0:0:0:0:
256,192,48740,1,8,0:0:0:0:
256,192,48781,1,8,0:0:0:0:
256,192,48865,1,0,0:0:0:0:
256,192,48906,1,0,0:0:0:0:
256,192,48990,1,8,0:0:0:0:
256,192,49115,1,8,0:0:0:0:
256,192,49156,1,8,0:0:0:0:
256,192,49198,1,0,0:0:0:0:
256,192,49365,1,8,0:0:0:0:
256,192,49406,1,8,0:0:0:0:
256,192,49448,1,0,0:0:0:0:
256,192,49615,1,8,0:0:0:0:
256,192,49740,1,0,0:0:0:0:
256,192,49865,1,8,0:0:0:0:
256,192,49906,1,8,0:0:0:0:
256,192,49948,1,0,0:0:0:0:
256,192,50115,1,8,0:0:0:0:
256,192,50156,1,8,0:0:0:0:
256,192,50198,1,0,0:0:0:0:
256,192,50365,1,0,0:0:0:0:
256,192,50490,1,8,0:0:0:0:
256,192,50677,1,8,0:0:0:0:
256,192,50802,1,8,0:0:0:0:
256,192,50927,1,8,0:0:0:0:
256,192,51052,1,8,0:0:0:0:
256,192,51177,1,8,0:0:0:0:
256,192,51240,1,0,0:0:0:0:
256,192,51427,1,0,0:0:0:0:
256,192,51521,1,8,0:0:0:0:
256,192,51583,1,8,0:0:0:0:
256,192,51646,1,8,0:0:0:0:
256,192,51708,1,0,0:0:0:0:
256,192,51802,1,8,0:0:0:0:
256,192,51896,1,0,0:0:0:0:
256,192,51990,1,8,0:0:0:0:
256,192,52115,1,8,0:0:0:0:
256,192,52156,1,8,0:0:0:0:
256,192,52198,1,0,0:0:0:0:
256,192,52365,1,0,0:0:0:0:
256,192,52406,1,0,0:0:0:0:
256,192,52448,1,8,0:0:0:0:
256,192,52615,1,8,0:0:0:0:
256,192,52740,1,0,0:0:0:0:
256,192,52865,1,8,0:0:0:0:
256,192,52906,1,8,0:0:0:0:
256,192,52948,1,0,0:0:0:0:
256,192,53115,1,8,0:0:0:0:
256,192,53240,1,8,0:0:0:0:
256,192,53302,1,0,0:0:0:0:
256,192,53396,1,0,0:0:0:0:
256,192,53490,1,8,0:0:0:0:
256,192,53615,1,8,0:0:0:0:
256,192,53740,1,0,0:0:0:0:
256,192,53865,1,8,0:0:0:0:
256,192,54052,1,0,0:0:0:0:
256,192,54146,1,8,0:0:0:0:
256,192,54240,1,0,0:0:0:0:
256,192,54286,1,0,0:0:0:0:
256,192,54521,1,0,0:0:0:0:
256,192,54568,1,0,0:0:0:0:
256,192,54802,1,0,0:0:0:0:
256,192,54896,1,0,0:0:0:0:
256,192,54990,1,8,0:0:0:0:
256,192,55115,1,8,0:0:0:0:
256,192,55156,1,8,0:0:0:0:
256,192,55240,1,8,0:0:0:0:
256,192,55281,1,8,0:0:0:0:
256,192,55490,1,8,0:0:0:0:
256,192,55531,1,8,0:0:0:0:
256,192,55615,1,8,0:0:0:0:
256,192,55656,1,8,0:0:0:0:
256,192,55740,1,0,0:0:0:0:
256,192,55865,1,8,0:0:0:0:
256,192,55906,1,8,0:0:0:0:
256,192,55990,1,8,0:0:0:0:
256,192,56031,1,8,0:0:0:0:
256,192,56115,1,0,0:0:0:0:
256,192,56177,1,8,0:0:0:0:
256,192,56240,1,0,0:0:0:0:
256,192,56396,1,0,0:0:0:0:
256,192,56490,1,8,0:0:0:0:
256,192,56677,1,0,0:0:0:0:
256,192,56740,1,8,0:0:0:0:
256,192,56865,1,0,0:0:0:0:
256,192,56990,1,0,0:0:0:0:
256,192,57052,1,0,0:0:0:0:
256,192,57115,1,8,0:0:0:0:
256,192,57177,1,8,0:0:0:0:
256,192,57240,1,0,0:0:0:0:
256,192,57427,1,0,0:0:0:0:
256,192,57615,1,8,0:0:0:0:
256,192,57896,1,0,0:0:0:0:
256,192,57990,1,8,0:0:0:0:
256,192,58115,1,8,0:0:0:0:
256,192,58156,1,8,0:0:0:0:
256,192,58198,1,0,0:0:0:0:
256,192,58365,1,8,0:0:0:0:
256,192,58406,1,8,0:0:0:0:
256,192,58490,1,8,0:0:0:0:
256,192,58531,1,8,0:0:0:0:
256,192,58615,1,8,0:0:0:0:
256,192,58656,1,8,0:0:0:0:
256,192,58740,1,0,0:0:0:0:
256,192,58927,1,8,0:0:0:0:
256,192,59021,1,0,0:0:0:0:
256,192,59115,1,8,0:0:0:0:
256,192,59302,1,0,0:0:0:0:
256,192,59396,1,8,0:0:0:0:
256,192,59490,1,0,0:0:0:0:
256,192,59677,1,0,0:0:0:0:
256,192,59771,1,0,0:0:0:0:
256,192,59865,1,8,0:0:0:0:
256,192,60052,1,8,0:0:0:0:
256,192,60146,1,8,0:0:0:0:
256,192,60240,1,0,0:0:0:0:
256,192,60427,1,8,0:0:0:0:
256,192,60521,1,0,0:0:0:0:
256,192,60615,1,8,0:0:0:0:
256,192,60802,1,0,0:0:0:0:
256,192,60896,1,0,0:0:0:0:
256,192,60990,1,8,0:0:0:0:
256,192,61115,1,8,0:0:0:0:
256,192,61240,1,8,0:0:0:0:
256,192,61365,1,0,0:0:0:0:
256,192,61490,1,8,0:0:0:0:
256,192,61615,1,8,0:0:0:0:
256,192,61740,1,8,0:0:0:0:
256,192,61865,1,0,0:0:0:0:
256,192,61990,1,8,0:0:0:0:
256,192,62115,1,8,0:0:0:0:
256,192,62240,1,8,0:0:0:0:
256,192,62365,1,8,0:0:0:0:
256,192,62490,1,0,0:0:0:0:
256,192,62543,1,0,0:0:0:0:
256,192,62597,1,8,0:0:0:0:
256,192,62650,1,8,0:0:0:0:
256,192,62704,1,0,0:0:0:0:
256,192,62757,1,8,0:0:0:0:
256,192,62811,1,0,0:0:0:0:
256,192,62865,1,8,0:0:0:0:
256,192,62990,1,8,0:0:0:0:
256,192,63115,1,8,0:0:0:0:
256,192,63240,1,0,0:0:0:0:
256,192,63333,1,0,0:0:0:0:
256,192,63427,1,0,0:0:0:0:
256,192,63521,1,8,0:0:0:0:
256,192,63568,1,8,0:0:0:0:
256,192,63615,1,8,0:0:0:0:
256,192,63661,1,8,0:0:0:0:
256,192,63708,1,0,0:0:0:0:
256,192,63802,1,8,0:0:0:0:
256,192,63896,1,0,0:0:0:0:
256,192,63990,1,8,0:0:0:0:
256,192,64115,1,8,0:0:0:0:
256,192,64240,1,8,0:0:0:0:
256,192,64365,1,0,0:0:0:0:
256,192,64440,1,0,0:0:0:0:
256,192,64515,1,8,0:0:0:0:
256,192,64590,1,8,0:0:0:0:
256,192,64665,1,0,0:0:0:0:
256,192,64740,1,8,0:0:0:0:
256,192,64990,1,8,0:0:0:0:
256,192,65115,1,8,0:0:0:0:
256,192,65240,1,8,0:0:0:0:
256,192,65365,1,8,0:0:0:0:
256,192,65490,1,8,0:0:0:0:
256,192,65771,1,0,0:0:0:0:
256,192,65865,1,8,0:0:0:0:
256,192,65958,1,0,0:0:0:0:
256,192,66052,1,8,0:0:0:0:
256,192,66146,1,8,0:0:0:0:
256,192,66240,1,0,0:0:0:0:
256,192,66427,1,8,0:0:0:0:
256,192,66521,1,8,0:0:0:0:
256,192,66615,1,8,0:0:0:0:
256,192,66708,1,8,0:0:0:0:
256,192,66802,1,8,0:0:0:0:
256,192,66896,1,0,0:0:0:0:
256,192,66990,1,8,0:0:0:0:
256,192,67240,1,8,0:0:0:0:
256,192,67365,1,8,0:0:0:0:
256,192,67490,1,8,0:0:0:0:
256,192,67615,1,0,0:0:0:0:
256,192,67740,1,8,0:0:0:0:
256,192,67990,1,0,0:0:0:0:
256,192,68052,1,0,0:0:0:0:
256,192,68115,1,8,0:0:0:0:
256,192,68208,1,8,0:0:0:0:
256,192,68396,1,0,0:0:0:0:
256,192,68490,1,8,0:0:0:0:
256,192,68615,1,8,0:0:0:0:
256,192,68740,1,0,0:0:0:0:
256,192,68865,1,8,0:0:0:0:
256,192,69052,1,0,0:0:0:0:
256,192,69146,1,8,0:0:0:0:
256,192,69240,1,0,0:0:0:0:
256,192,69427,1,8,0:0:0:0:
256,192,69615,1,0,0:0:0:0:
256,192,69708,1,0,0:0:0:0:
256,192,69802,1,8,0:0:0:0:
256,192,69849,1,8,0:0:0:0:
256,192,69896,1,0,0:0:0:0:
256,192,69943,1,0,0:0:0:0:
256,192,69990,1,8,0:0:0:0:
256,192,70065,1,0,0:0:0:0:
256,192,70140,1,8,0:0:0:0:
256,192,70215,1,8,0:0:0:0:
256,192,70290,1,8,0:0:0:0:
256,192,70365,1,0,0:0:0:0:
256,192,70552,1,8,0:0:0:0:
256,96,70740,1,4,0:0:0:0:
256,192,70927,8,0,71771,0:0:0:0:
256,192,71865,5,8,0:0:0:0:
256,192,71990,1,8,0:0:0:0:
256,192,72115,1,8,0:0:0:0:
256,96,72240,1,4,0:0:0:0:
0,384,72406,2,0,L|256:384,1,209.643513897876
0,384,72906,2,0,L|320:384,1,300.289356580628
0,384,73573,2,0,L|320:384,1,281.407092716
0,384,74240,2,0,L|288:384,1,262.496445227125
0,384,74906,2,0,L|352:384,2,324.78109672523
0,384,76906,2,4,L|416:384,1,398.999989345551
256,192,77573,1,0,0:0:0:0:
256,192,77740,1,0,0:0:0:0:
256,192,77906,1,8,0:0:0:0:
256,192,78073,1,0,0:0:0:0:
256,192,78240,1,8,0:0:0:0:
256,192,78406,1,8,0:0:0:0:
256,192,78573,1,0,0:0:0:0:
256,192,78740,1,8,0:0:0:0:
256,192,78906,1,0,0:0:0:0:
256,192,79073,1,8,0:0:0:0:
256,192,79240,1,0,0:0:0:0:
256,192,79406,1,0,0:0:0:0:
256,192,79573,1,8,0:0:0:0:
256,192,79739,1,0,0:0:0:0:
256,192,79906,1,8,0:0:0:0:
256,192,80073,1,8,0:0:0:0:
256,192,80239,1,0,0:0:0:0:
256,192,80406,1,0,0:0:0:0:
256,192,80573,1,8,0:0:0:0:
256,192,80739,1,0,0:0:0:0:
256,192,80906,1,8,0:0:0:0:
256,192,81073,1,8,0:0:0:0:
256,192,81239,1,0,0:0:0:0:
256,192,81406,1,0,0:0:0:0:
256,192,81573,1,8,0:0:0:0:
256,192,81739,1,0,0:0:0:0:
256,192,81906,1,0,0:0:0:0:
256,192,82073,1,0,0:0:0:0:
256,192,82239,1,8,0:0:0:0:
256,192,82406,1,0,0:0:0:0:
256,192,82573,1,8,0:0:0:0:
256,192,82739,1,8,0:0:0:0:
256,96,82906,1,4,0:0:0:0:
256,192,83239,1,8,0:0:0:0:
256,192,83406,1,0,0:0:0:0:
256,192,83573,1,8,0:0:0:0:
256,192,83739,1,8,0:0:0:0:
256,192,83906,1,0,0:0:0:0:
256,192,84073,1,8,0:0:0:0:
256,192,84239,1,0,0:0:0:0:
256,192,84406,1,0,0:0:0:0:
256,192,84573,1,8,0:0:0:0:
256,192,84739,1,0,0:0:0:0:
256,192,84906,1,8,0:0:0:0:
256,192,85073,1,8,0:0:0:0:
256,192,85239,1,0,0:0:0:0:
256,192,85406,1,8,0:0:0:0:
256,192,85489,1,8,0:0:0:0:
256,192,85573,1,0,0:0:0:0:
256,192,85739,1,0,0:0:0:0:
256,192,85906,1,8,0:0:0:0:
256,192,86073,1,0,0:0:0:0:
256,192,86239,1,8,0:0:0:0:
256,192,86406,1,8,0:0:0:0:
256,192,86573,1,0,0:0:0:0:
256,192,86739,1,8,0:0:0:0:
256,192,86823,1,8,0:0:0:0:
256,192,86906,1,0,0:0:0:0:
256,192,87073,1,0,0:0:0:0:
256,192,87239,1,8,0:0:0:0:
256,192,87406,1,0,0:0:0:0:
256,192,87489,1,0,0:0:0:0:
256,192,87573,1,8,0:0:0:0:
256,192,87739,1,8,0:0:0:0:
256,192,87906,1,8,0:0:0:0:
256,192,87989,1,0,0:0:0:0:
256,192,88073,1,8,0:0:0:0:
256,192,88156,1,8,0:0:0:0:
256,192,88239,1,0,0:0:0:0:
256,192,88406,1,0,0:0:0:0:
256,192,88573,1,8,0:0:0:0:
256,192,88739,1,0,0:0:0:0:
256,192,88906,1,8,0:0:0:0:
256,192,89073,1,8,0:0:0:0:
256,192,89239,1,0,0:0:0:0:
256,192,89323,1,0,0:0:0:0:
256,192,89406,1,8,0:0:0:0:
256,192,89489,1,8,0:0:0:0:
256,192,89573,1,0,0:0:0:0:
256,192,89739,1,0,0:0:0:0:
256,192,89906,1,8,0:0:0:0:
256,192,90073,1,0,0:0:0:0:
256,192,90156,1,0,0:0:0:0:
256,192,90239,1,8,0:0:0:0:
256,192,90406,1,8,0:0:0:0:
256,192,90573,1,0,0:0:0:0:
256,192,90656,1,8,0:0:0:0:
256,192,90739,1,8,0:0:0:0:
256,192,90906,1,0,0:0:0:0:
256,192,91073,1,8,0:0:0:0:
256,192,91239,1,8,0:0:0:0:
256,192,91406,1,8,0:0:0:0:
256,192,91462,1,0,0:0:0:0:
256,192,91517,1,0,0:0:0:0:
256,192,91573,1,8,0:0:0:0:
256,192,91656,1,0,0:0:0:0:
256,192,91739,1,8,0:0:0:0:
256,192,91906,1,0,0:0:0:0:
256,192,91989,1,0,0:0:0:0:
256,192,92073,1,8,0:0:0:0:
256,192,92114,1,8,0:0:0:0:
256,192,92156,1,8,0:0:0:0:
256,192,92239,1,0,0:0:0:0:
256,192,92406,1,0,0:0:0:0:
256,192,92573,1,8,0:0:0:0:
256,192,92739,1,0,0:0:0:0:
256,192,92823,1,8,0:0:0:0:
256,192,92906,1,0,0:0:0:0:
256,192,92989,1,8,0:0:0:0:
256,192,93073,1,0,0:0:0:0:
256,192,93128,1,0,0:0:0:0:
256,192,93184,1,0,0:0:0:0:
256,192,93239,1,8,0:0:0:0:
256,96,93406,1,12,0:0:0:0:
256,192,93573,1,0,0:0:0:0:
256,192,93656,1,8,0:0:0:0:
256,192,93739,1,8,0:0:0:0:
256,192,93823,1,0,0:0:0:0:
256,192,93906,1,8,0:0:0:0:
256,192,93989,1,8,0:0:0:0:
256,192,94073,1,0,0:0:0:0:
256,192,94156,1,8,0:0:0:0:
256,192,94239,1,0,0:0:0:0:
256,192,94323,1,8,0:0:0:0:
256,192,94406,1,8,0:0:0:0:
256,192,94489,1,0,0:0:0:0:
256,192,94573,1,8,0:0:0:0:
256,192,94656,1,0,0:0:0:0:
256,192,94739,1,8,0:0:0:0:
256,192,94823,1,8,0:0:0:0:
256,192,94906,1,0,0:0:0:0:
256,192,94989,1,0,0:0:0:0:
256,192,95073,1,8,0:0:0:0:
256,192,95156,1,0,0:0:0:0:
256,192,95239,1,8,0:0:0:0:
256,192,95323,1,8,0:0:0:0:
256,192,95406,1,0,0:0:0:0:
256,192,95489,1,0,0:0:0:0:
256,192,95573,1,8,0:0:0:0:
256,192,95656,1,0,0:0:0:0:
256,192,95739,1,8,0:0:0:0:
256,192,95823,1,0,0:0:0:0:
256,192,95906,1,8,0:0:0:0:
256,192,95989,1,8,0:0:0:0:
256,192,96073,1,0,0:0:0:0:
256,192,96156,1,8,0:0:0:0:
256,192,96239,1,0,0:0:0:0:
256,192,96323,1,8,0:0:0:0:
256,192,96406,1,8,0:0:0:0:
256,192,96489,1,0,0:0:0:0:
256,192,96573,1,8,0:0:0:0:
256,192,96656,1,8,0:0:0:0:
256,192,96739,1,0,0:0:0:0:
256,192,96823,1,8,0:0:0:0:
256,192,96906,1,0,0:0:0:0:
256,192,96989,1,8,0:0:0:0:
256,192,97073,1,8,0:0:0:0:
256,192,97156,1,0,0:0:0:0:
256,192,97239,1,8,0:0:0:0:
256,192,97323,1,0,0:0:0:0:
256,192,97406,1,8,0:0:0:0:
256,192,97489,1,8,0:0:0:0:
256,192,97573,1,0,0:0:0:0:
256,192,97656,1,0,0:0:0:0:
256,192,97739,1,8,0:0:0:0:
256,192,97823,1,0,0:0:0:0:
256,192,97906,1,8,0:0:0:0:
256,192,97989,1,8,0:0:0:0:
256,192,98073,1,0,0:0:0:0:
256,192,98156,1,8,0:0:0:0:
256,192,98239,1,0,0:0:0:0:
256,192,98323,1,0,0:0:0:0:
256,192,98406,1,8,0:0:0:0:
256,192,98489,1,0,0:0:0:0:
256,192,98573,1,8,0:0:0:0:
256,192,98656,1,0,0:0:0:0:
256,192,98739,1,8,0:0:0:0:
256,192,98781,1,8,0:0:0:0:
256,192,98823,1,8,0:0:0:0:
256,192,98906,1,0,0:0:0:0:
256,192,98989,1,8,0:0:0:0:
256,192,99073,1,8,0:0:0:0:
256,192,99156,1,0,0:0:0:0:
256,192,99239,1,8,0:0:0:0:
256,192,99323,1,8,0:0:0:0:
256,192,99406,1,0,0:0:0:0:
256,192,99489,1,8,0:0:0:0:
256,192,99573,1,0,0:0:0:0:
256,192,99656,1,8,0:0:0:0:
256,192,99739,1,8,0:0:0:0:
256,192,99823,1,0,0:0:0:0:
256,192,99906,1,8,0:0:0:0:
256,192,99989,1,0,0:0:0:0:
256,192,100073,1,8,0:0:0:0:
256,192,100156,1,8,0:0:0:0:
256,192,100239,1,0,0:0:0:0:
256,192,100323,1,0,0:0:0:0:
256,192,100406,1,8,0:0:0:0:
256,192,100489,1,0,0:0:0:0:
256,192,100573,1,8,0:0:0:0:
256,192,100656,1,8,0:0:0:0:
256,192,100739,1,0,0:0:0:0:
256,192,100823,1,0,0:0:0:0:
256,192,100906,1,8,0:0:0:0:
256,192,100989,1,0,0:0:0:0:
256,192,101073,1,8,0:0:0:0:
256,192,101156,1,0,0:0:0:0:
256,192,101239,1,8,0:0:0:0:
256,192,101323,1,8,0:0:0:0:
256,192,101406,1,0,0:0:0:0:
256,192,101489,1,8,0:0:0:0:
256,192,101573,1,0,0:0:0:0:
256,192,101656,1,8,0:0:0:0:
256,192,101739,1,8,0:0:0:0:
256,192,101823,1,0,0:0:0:0:
256,192,101906,1,8,0:0:0:0:
256,192,101989,1,8,0:0:0:0:
256,192,102073,1,0,0:0:0:0:
256,192,102156,1,8,0:0:0:0:
256,192,102239,1,0,0:0:0:0:
256,192,102364,1,0,0:0:0:0:
256,192,102489,1,0,0:0:0:0:
256,192,102573,1,8,0:0:0:0:
256,192,102656,1,0,0:0:0:0:
256,192,102739,1,8,0:0:0:0:
256,192,102795,1,8,0:0:0:0:
256,192,102851,1,8,0:0:0:0:
256,192,102906,1,0,0:0:0:0:
256,192,103073,1,0,0:0:0:0:
256,192,103239,1,8,0:0:0:0:
256,192,103406,1,0,0:0:0:0:
256,192,103489,1,8,0:0:0:0:
256,192,103573,1,0,0:0:0:0:
256,192,103656,1,0,0:0:0:0:
256,192,103739,1,8,0:0:0:0:
256,192,103906,1,8,0:0:0:0:
256,192,103989,1,8,0:0:0:0:
256,192,104073,1,0,0:0:0:0:
256,192,104156,1,8,0:0:0:0:
256,192,104239,1,0,0:0:0:0:
256,192,104406,1,8,0:0:0:0:
256,192,104489,1,8,0:0:0:0:
256,192,104573,1,0,0:0:0:0:
256,192,104739,1,8,0:0:0:0:
256,192,104906,1,0,0:0:0:0:
256,192,104989,1,0,0:0:0:0:
256,192,105073,1,8,0:0:0:0:
256,192,105156,1,8,0:0:0:0:
256,192,105239,1,0,0:0:0:0:
256,192,105406,1,8,0:0:0:0:
256,192,105489,1,8,0:0:0:0:
256,192,105573,1,0,0:0:0:0:
256,192,105739,1,8,0:0:0:0:
256,192,105823,1,8,0:0:0:0:
256,192,105906,1,0,0:0:0:0:
256,192,105989,1,0,0:0:0:0:
256,192,106073,1,8,0:0:0:0:
256,192,106239,1,0,0:0:0:0:
256,192,106406,1,0,0:0:0:0:
256,192,106489,1,8,0:0:0:0:
256,192,106573,1,0,0:0:0:0:
256,192,106656,1,0,0:0:0:0:
256,192,106739,1,0,0:0:0:0:
256,192,106823,1,8,0:0:0:0:
256,192,106906,1,0,0:0:0:0:
256,192,107073,1,8,0:0:0:0:
256,192,107156,1,8,0:0:0:0:
256,192,107239,1,0,0:0:0:0:
256,192,107406,1,8,0:0:0:0:
256,192,107573,1,0,0:0:0:0:
256,192,107656,1,0,0:0:0:0:
256,192,107739,1,8,0:0:0:0:
256,192,107823,1,8,0:0:0:0:
256,192,107906,1,0,0:0:0:0:
256,192,108073,1,8,0:0:0:0:
256,192,108156,1,8,0:0:0:0:
256,192,108239,1,0,0:0:0:0:
256,192,108406,1,8,0:0:0:0:
256,192,108448,1,8,0:0:0:0:
256,192,108489,1,8,0:0:0:0:
256,192,108573,1,0,0:0:0:0:
256,192,108656,1,0,0:0:0:0:
256,192,108739,1,8,0:0:0:0:
256,192,108823,1,8,0:0:0:0:
256,192,108906,1,0,0:0:0:0:
256,192,109073,1,8,0:0:0:0:
256,192,109128,1,8,0:0:0:0:
256,192,109184,1,8,0:0:0:0:
256,192,109239,1,0,0:0:0:0:
256,192,109406,1,8,0:0:0:0:
256,192,109489,1,8,0:0:0:0:
256,192,109573,1,0,0:0:0:0:
256,192,109656,1,0,0:0:0:0:
256,192,109823,1,8,0:0:0:0:
256,192,109906,1,0,0:0:0:0:
256,192,110073,1,8,0:0:0:0:
256,192,110156,1,8,0:0:0:0:
256,192,110239,1,0,0:0:0:0:
256,192,110323,1,8,0:0:0:0:
256,192,110489,1,8,0:0:0:0:
256,192,110573,1,0,0:0:0:0:
256,192,110739,1,8,0:0:0:0:
256,192,110906,1,0,0:0:0:0:
256,192,110989,1,0,0:0:0:0:
256,192,111073,1,8,0:0:0:0:
256,192,111156,1,8,0:0:0:0:
256,192,111239,1,0,0:0:0:0:
256,192,111323,1,8,0:0:0:0:
256,192,111406,1,0,0:0:0:0:
256,192,111573,1,0,0:0:0:0:
256,192,111656,1,8,0:0:0:0:
256,192,111823,1,8,0:0:0:0:
256,192,111906,1,0,0:0:0:0:
256,192,112073,1,8,0:0:0:0:
256,192,112114,1,8,0:0:0:0:
256,192,112156,1,8,0:0:0:0:
256,192,112239,1,0,0:0:0:0:
256,192,112406,1,8,0:0:0:0:
256,192,112489,1,8,0:0:0:0:
256,192,112573,1,0,0:0:0:0:
256,192,112739,1,8,0:0:0:0:
256,192,112906,1,0,0:0:0:0:
256,192,113017,1,0,0:0:0:0:
256,192,113128,1,0,0:0:0:0:
256,192,113239,1,8,0:0:0:0:
256,192,113351,1,8,0:0:0:0:
256,192,113462,1,8,0:0:0:0:
256,96,113573,1,4,0:0:0:0:
256,192,114073,1,0,0:0:0:0:
256,96,114239,1,12,0:0:0:0:
256,192,114406,1,8,0:0:0:0:
256,192,114573,1,0,0:0:0:0:
256,192,114656,1,0,0:0:0:0:
256,192,114739,1,8,0:0:0:0:
256,192,114823,1,8,0:0:0:0:
256,96,114906,1,4,0:0:0:0:
256,192,115073,1,0,0:0:0:0:
256,192,115156,1,0,0:0:0:0:
256,192,115239,1,8,0:0:0:0:
256,192,115323,1,8,0:0:0:0:
256,192,115406,1,0,0:0:0:0:
256,192,115489,1,0,0:0:0:0:
256,192,115573,1,8,0:0:0:0:
256,192,115656,1,0,0:0:0:0:
256,192,115739,1,8,0:0:0:0:
256,192,115823,1,8,0:0:0:0:
256,192,115906,1,0,0:0:0:0:
256,192,115989,1,0,0:0:0:0:
256,192,116073,1,8,0:0:0:0:
256,192,116156,1,8,0:0:0:0:
256,192,116239,1,0,0:0:0:0:
256,192,116323,1,0,0:0:0:0:
256,192,116406,1,8,0:0:0:0:
256,192,116489,1,0,0:0:0:0:
256,192,116573,1,8,0:0:0:0:
256,192,116656,1,8,0:0:0:0:
256,192,116739,1,0,0:0:0:0:
256,192,116823,1,0,0:0:0:0:
256,192,116906,1,8,0:0:0:0:
256,192,116989,1,8,0:0:0:0:
256,192,117073,1,8,0:0:0:0:
256,192,117156,1,0,0:0:0:0:
256,192,117239,1,8,0:0:0:0:
256,192,117323,1,0,0:0:0:0:
256,192,117406,1,8,0:0:0:0:
256,192,117489,1,8,0:0:0:0:
256,192,117573,1,0,0:0:0:0:
256,192,117656,1,8,0:0:0:0:
256,192,117739,1,0,0:0:0:0:
256,192,117823,1,0,0:0:0:0:
256,192,117906,1,8,0:0:0:0:
256,192,117989,1,8,0:0:0:0:
256,192,118073,1,0,0:0:0:0:
256,192,118156,1,0,0:0:0:0:
256,192,118239,1,8,0:0:0:0:
256,192,118323,1,0,0:0:0:0:
256,192,118406,1,8,0:0:0:0:
256,192,118489,1,8,0:0:0:0:
256,192,118573,1,0,0:0:0:0:
256,192,118656,1,0,0:0:0:0:
256,192,118739,1,8,0:0:0:0:
256,192,118823,1,8,0:0:0:0:
256,192,118906,1,0,0:0:0:0:
256,192,118989,1,0,0:0:0:0:
256,192,119073,1,8,0:0:0:0:
256,192,119156,1,0,0:0:0:0:
256,192,119239,1,8,0:0:0:0:
256,192,119323,1,8,0:0:0:0:
256,192,119406,1,0,0:0:0:0:
256,192,119489,1,8,0:0:0:0:
256,192,119573,1,0,0:0:0:0:
256,192,119656,1,8,0:0:0:0:
256,192,119739,1,0,0:0:0:0:
256,192,119823,1,0,0:0:0:0:
256,192,119906,1,8,0:0:0:0:
256,192,119989,1,8,0:0:0:0:
256,192,120073,1,0,0:0:0:0:
256,192,120156,1,8,0:0:0:0:
256,96,120239,1,4,0:0:0:0:
256,192,120406,1,0,0:0:0:0:
256,192,120489,1,0,0:0:0:0:
256,192,120573,1,8,0:0:0:0:
256,192,120656,1,8,0:0:0:0:
256,192,120739,1,0,0:0:0:0:
256,192,120823,1,0,0:0:0:0:
256,192,120906,1,8,0:0:0:0:
256,192,120989,1,0,0:0:0:0:
256,192,121073,1,8,0:0:0:0:
256,192,121156,1,8,0:0:0:0:
256,192,121239,1,0,0:0:0:0:
256,192,121323,1,0,0:0:0:0:
256,192,121406,1,8,0:0:0:0:
256,192,121489,1,8,0:0:0:0:
256,192,121573,1,0,0:0:0:0:
256,192,121656,1,0,0:0:0:0:
256,192,121739,1,8,0:0:0:0:
256,192,121823,1,0,0:0:0:0:
256,192,121906,1,8,0:0:0:0:
256,192,121989,1,8,0:0:0:0:
256,192,122073,1,0,0:0:0:0:
256,192,122156,1,0,0:0:0:0:
256,192,122239,1,8,0:0:0:0:
256,192,122323,1,8,0:0:0:0:
256,192,122406,1,8,0:0:0:0:
256,192,122489,1,0,0:0:0:0:
256,192,122573,1,8,0:0:0:0:
256,192,122656,1,0,0:0:0:0:
256,192,122739,1,8,0:0:0:0:
256,192,122823,1,8,0:0:0:0:
256,192,122906,1,0,0:0:0:0:
256,192,122989,1,8,0:0:0:0:
256,192,123073,1,0,0:0:0:0:
256,192,123156,1,0,0:0:0:0:
256,192,123239,1,8,0:0:0:0:
256,192,123323,1,8,0:0:0:0:
256,192,123406,1,0,0:0:0:0:
256,192,123489,1,0,0:0:0:0:
256,192,123573,1,8,0:0:0:0:
256,192,123656,1,0,0:0:0:0:
256,192,123739,1,8,0:0:0:0:
256,192,123823,1,8,0:0:0:0:
256,192,123906,1,0,0:0:0:0:
256,192,123989,1,0,0:0:0:0:
256,192,124073,1,8,0:0:0:0:
256,192,124156,1,8,0:0:0:0:
256,192,124239,1,0,0:0:0:0:
256,192,124406,1,0,0:0:0:0:
256,192,124573,1,8,0:0:0:0:
256,192,124739,1,0,0:0:0:0:
256,192,124823,1,8,0:0:0:0:
256,192,124906,1,0,0:0:0:0:
256,192,124989,1,0,0:0:0:0:
256,192,125073,1,8,0:0:0:0:
256,96,125406,1,12,0:0:0:0:
256,96,125573,1,4,0:0:0:0:
256,192,125739,1,8,0:0:0:0:
256,192,125823,1,0,0:0:0:0:
256,192,125906,1,8,0:0:0:0:
256,192,125989,1,8,0:0:0:0:
256,192,126073,1,0,0:0:0:0:
256,192,126156,1,0,0:0:0:0:
256,192,126239,1,8,0:0:0:0:
256,192,126323,1,8,0:0:0:0:
256,192,126406,1,0,0:0:0:0:
256,192,126489,1,0,0:0:0:0:
256,192,126573,1,8,0:0:0:0:
256,192,126656,1,0,0:0:0:0:
256,192,126739,1,8,0:0:0:0:
256,192,126823,1,8,0:0:0:0:
256,192,126906,1,0,0:0:0:0:
256,192,126989,1,0,0:0:0:0:
256,192,127073,1,8,0:0:0:0:
256,192,127156,1,0,0:0:0:0:
256,192,127239,1,8,0:0:0:0:
256,192,127323,1,8,0:0:0:0:
256,192,127406,1,0,0:0:0:0:
256,192,127489,1,0,0:0:0:0:
256,192,127573,1,8,0:0:0:0:
256,192,127656,1,8,0:0:0:0:
256,192,127739,1,8,0:0:0:0:
256,192,127823,1,8,0:0:0:0:
256,192,127906,1,0,0:0:0:0:
256,192,127989,1,8,0:0:0:0:
256,192,128073,1,0,0:0:0:0:
256,192,128156,1,8,0:0:0:0:
256,192,128239,1,0,0:0:0:0:
256,192,128323,1,0,0:0:0:0:
256,192,128406,1,8,0:0:0:0:
256,192,128489,1,0,0:0:0:0:
256,192,128573,1,8,0:0:0:0:
256,192,128656,1,8,0:0:0:0:
256,192,128739,1,0,0:0:0:0:
256,192,128823,1,0,0:0:0:0:
256,192,128906,1,8,0:0:0:0:
256,192,128989,1,0,0:0:0:0:
256,192,129073,1,8,0:0:0:0:
256,192,129156,1,8,0:0:0:0:
256,192,129239,1,0,0:0:0:0:
256,192,129323,1,0,0:0:0:0:
256,192,129406,1,8,0:0:0:0:
256,192,129489,1,8,0:0:0:0:
256,192,129573,1,0,0:0:0:0:
256,192,129656,1,8,0:0:0:0:
256,192,129739,1,0,0:0:0:0:
256,192,129823,1,0,0:0:0:0:
256,192,129906,1,8,0:0:0:0:
256,192,129989,1,8,0:0:0:0:
256,192,130073,1,0,0:0:0:0:
256,192,130156,1,8,0:0:0:0:
256,192,130239,1,0,0:0:0:0:
256,192,130323,1,8,0:0:0:0:
256,192,130406,1,0,0:0:0:0:
256,192,130489,1,8,0:0:0:0:
256,192,130573,1,8,0:0:0:0:
256,192,130656,1,8,0:0:0:0:
256,192,130739,1,0,0:0:0:0:
256,192,130823,1,8,0:0:0:0:
256,96,130906,1,4,0:0:0:0:
256,192,131073,1,8,0:0:0:0:
256,192,131156,1,0,0:0:0:0:
256,192,131239,1,8,0:0:0:0:
256,192,131323,1,8,0:0:0:0:
256,192,131406,1,0,0:0:0:0:
256,192,131489,1,0,0:0:0:0:
256,192,131573,1,8,0:0:0:0:
256,192,131656,1,8,0:0:0:0:
256,192,131739,1,8,0:0:0:0:
256,192,131823,1,0,0:0:0:0:
256,192,131906,1,8,0:0:0:0:
256,192,131989,1,0,0:0:0:0:
256,192,132073,1,8,0:0:0:0:
256,192,132156,1,8,0:0:0:0:
256,192,132239,1,0,0:0:0:0:
256,192,132323,1,8,0:0:0:0:
256,192,132406,1,8,0:0:0:0:
256,192,132489,1,0,0:0:0:0:
256,192,132573,1,8,0:0:0:0:
256,192,132656,1,8,0:0:0:0:
256,192,132739,1,0,0:0:0:0:
256,192,132823,1,0,0:0:0:0:
256,192,132906,1,8,0:0:0:0:
256,192,132989,1,8,0:0:0:0:
256,192,133073,1,0,0:0:0:0:
256,192,133156,1,0,0:0:0:0:
256,192,133239,1,8,0:0:0:0:
256,192,133323,1,8,0:0:0:0:
256,192,133406,1,0,0:0:0:0:
256,192,133489,1,0,0:0:0:0:
256,192,133573,1,0,0:0:0:0:
256,192,133656,1,8,0:0:0:0:
256,192,133739,1,0,0:0:0:0:
256,192,133823,1,0,0:0:0:0:
256,192,133906,1,8,0:0:0:0:
256,192,133989,1,8,0:0:0:0:
256,192,134073,1,0,0:0:0:0:
256,192,134156,1,0,0:0:0:0:
256,192,134239,1,8,0:0:0:0:
256,192,134323,1,8,0:0:0:0:
256,192,134406,1,0,0:0:0:0:
256,192,134489,1,0,0:0:0:0:
256,192,134573,1,8,0:0:0:0:
256,192,134656,1,8,0:0:0:0:
256,192,134739,1,8,0:0:0:0:
256,192,134823,1,8,0:0:0:0:
256,192,134906,1,0,0:0:0:0:
256,192,135073,1,8,0:0:0:0:
256,192,135156,1,0,0:0:0:0:
256,192,135239,1,8,0:0:0:0:
256,192,135323,1,8,0:0:0:0:
256,192,135406,1,0,0:0:0:0:
256,192,135489,1,0,0:0:0:0:
256,96,135573,1,12,0:0:0:0:
256,96,135739,1,4,0:0:0:0:
256,96,136073,1,12,0:0:0:0:
256,96,136239,1,4,0:0:0:0:
256,192,136739,1,0,0:0:0:0:
256,192,137073,1,0,0:0:0:0:
256,192,137156,1,0,0:0:0:0:
256,192,137323,1,8,0:0:0:0:
256,192,137406,1,8,0:0:0:0:
256,192,137489,1,8,0:0:0:0:
256,192,137573,1,0,0:0:0:0:
256,192,138073,1,0,0:0:0:0:
256,192,138156,1,8,0:0:0:0:
256,192,138323,1,8,0:0:0:0:
256,192,138406,1,0,0:0:0:0:
256,192,138489,1,0,0:0:0:0:
256,192,138656,1,8,0:0:0:0:
256,192,138739,1,8,0:0:0:0:
256,192,138823,1,8,0:0:0:0:
256,192,138906,1,0,0:0:0:0:
256,192,139017,1,8,0:0:0:0:
256,192,139128,1,8,0:0:0:0:
256,192,139239,1,0,0:0:0:0:
256,192,139295,1,8,0:0:0:0:
256,192,139351,1,8,0:0:0:0:
256,192,139406,1,0,0:0:0:0:
256,192,139489,1,0,0:0:0:0:
256,192,139573,1,8,0:0:0:0:
256,192,139739,1,8,0:0:0:0:
256,192,139823,1,0,0:0:0:0:
256,192,139906,1,0,0:0:0:0:
256,192,139989,1,8,0:0:0:0:
256,192,140073,1,8,0:0:0:0:
256,192,140156,1,8,0:0:0:0:
256,192,140239,1,0,0:0:0:0:
256,192,140406,1,8,0:0:0:0:
256,192,140573,1,0,0:0:0:0:
256,192,140739,1,0,0:0:0:0:
256,192,140823,1,0,0:0:0:0:
256,192,140989,1,8,0:0:0:0:
256,192,141073,1,0,0:0:0:0:
256,192,141156,1,8,0:0:0:0:
256,192,141323,1,0,0:0:0:0:
256,192,141406,1,8,0:0:0:0:
256,192,141489,1,0,0:0:0:0:
256,192,141573,1,8,0:0:0:0:
256,192,141684,1,8,0:0:0:0:
256,192,141795,1,8,0:0:0:0:
256,192,141906,1,0,0:0:0:0:
256,192,141962,1,0,0:0:0:0:
256,192,142017,1,0,0:0:0:0:
256,192,142073,1,8,0:0:0:0:
256,192,142239,1,8,0:0:0:0:
256,192,142406,1,0,0:0:0:0:
256,192,142489,1,0,0:0:0:0:
256,192,142656,1,8,0:0:0:0:
256,192,142739,1,8,0:0:0:0:
256,192,142823,1,8,0:0:0:0:
256,192,142906,1,0,0:0:0:0:
256,192,143017,1,8,0:0:0:0:
256,192,143054,1,8,0:0:0:0:
256,192,143128,1,8,0:0:0:0:
256,192,143165,1,8,0:0:0:0:
256,192,143406,1,0,0:0:0:0:
256,192,143462,1,0,0:0:0:0:
256,192,143517,1,0,0:0:0:0:
256,192,143573,1,8,0:0:0:0:
256,192,143739,1,0,0:0:0:0:
256,192,143823,1,0,0:0:0:0:
256,192,143906,1,8,0:0:0:0:
256,192,143989,1,8,0:0:0:0:
256,192,144073,1,8,0:0:0:0:
256,192,144156,1,8,0:0:0:0:
256,192,144239,1,0,0:0:0:0:
256,192,144656,1,8,0:0:0:0:
256,192,144739,1,0,0:0:0:0:
256,192,144795,1,0,0:0:0:0:
256,192,144851,1,0,0:0:0:0:
256,192,144906,1,8,0:0:0:0:
256,192,145073,1,8,0:0:0:0:
256,192,145239,1,0,0:0:0:0:
256,192,145323,1,8,0:0:0:0:
256,192,145406,1,8,0:0:0:0:
256,192,145489,1,8,0:0:0:0:
256,192,145573,1,0,0:0:0:0:
256,192,145684,1,0,0:0:0:0:
256,192,145795,1,0,0:0:0:0:
256,192,145906,1,8,0:0:0:0:
256,192,146073,1,0,0:0:0:0:
256,192,146239,1,8,0:0:0:0:
256,192,146406,1,0,0:0:0:0:
256,192,146489,1,0,0:0:0:0:
256,192,146573,1,8,0:0:0:0:
256,192,146739,1,8,0:0:0:0:
256,96,146906,1,4,0:0:0:0:
256,192,147073,1,8,0:0:0:0:
256,192,147156,1,0,0:0:0:0:
256,192,147239,1,8,0:0:0:0:
256,192,147323,1,8,0:0:0:0:
256,192,147406,1,0,0:0:0:0:
256,192,147489,1,0,0:0:0:0:
256,192,147573,1,8,0:0:0:0:
256,192,147656,1,0,0:0:0:0:
256,192,147739,1,8,0:0:0:0:
256,192,147823,1,0,0:0:0:0:
256,192,147906,1,0,0:0:0:0:
256,192,147989,1,8,0:0:0:0:
256,192,148073,1,8,0:0:0:0:
256,192,148156,1,8,0:0:0:0:
256,192,148239,1,0,0:0:0:0:
256,192,148323,1,0,0:0:0:0:
256,192,148406,1,8,0:0:0:0:
256,192,148489,1,0,0:0:0:0:
256,192,148573,1,8,0:0:0:0:
256,192,148656,1,8,0:0:0:0:
256,192,148739,1,0,0:0:0:0:
256,192,148823,1,0,0:0:0:0:
256,192,148906,1,8,0:0:0:0:
256,192,148989,1,0,0:0:0:0:
256,192,149073,1,8,0:0:0:0:
256,192,149156,1,0,0:0:0:0:
256,192,149239,1,8,0:0:0:0:
256,192,149323,1,8,0:0:0:0:
256,192,149406,1,8,0:0:0:0:
256,192,149489,1,8,0:0:0:0:
256,192,149573,1,0,0:0:0:0:
256,192,149656,1,0,0:0:0:0:
256,192,149739,1,8,0:0:0:0:
256,192,149823,1,8,0:0:0:0:
256,192,149906,1,8,0:0:0:0:
256,192,149989,1,0,0:0:0:0:
256,192,150073,1,0,0:0:0:0:
256,192,150156,1,0,0:0:0:0:
256,192,150239,1,8,0:0:0:0:
256,192,150323,1,0,0:0:0:0:
256,192,150406,1,8,0:0:0:0:
256,192,150489,1,0,0:0:0:0:
256,192,150573,1,8,0:0:0:0:
256,192,150656,1,8,0:0:0:0:
256,192,150739,1,8,0:0:0:0:
256,192,150823,1,8,0:0:0:0:
256,192,150906,1,0,0:0:0:0:
256,192,150989,1,8,0:0:0:0:
256,192,151073,1,8,0:0:0:0:
256,192,151156,1,0,0:0:0:0:
256,192,151239,1,8,0:0:0:0:
256,192,151323,1,8,0:0:0:0:
256,192,151406,1,0,0:0:0:0:
256,192,151489,1,0,0:0:0:0:
256,192,151573,1,8,0:0:0:0:
256,192,151656,1,0,0:0:0:0:
256,192,151739,1,8,0:0:0:0:
256,192,151823,1,0,0:0:0:0:
256,192,151906,1,8,0:0:0:0:
256,192,151989,1,8,0:0:0:0:
256,192,152073,1,0,0:0:0:0:
256,192,152156,1,0,0:0:0:0:
256,96,152239,1,12,0:0:0:0:
256,192,152406,1,8,0:0:0:0:
256,192,152489,1,0,0:0:0:0:
256,192,152573,1,8,0:0:0:0:
256,192,152656,1,8,0:0:0:0:
256,192,152739,1,0,0:0:0:0:
256,192,152823,1,0,0:0:0:0:
256,192,152906,1,8,0:0:0:0:
256,192,152989,1,0,0:0:0:0:
256,192,153073,1,8,0:0:0:0:
256,192,153156,1,0,0:0:0:0:
256,192,153239,1,8,0:0:0:0:
256,192,153323,1,8,0:0:0:0:
256,192,153406,1,0,0:0:0:0:
256,192,153489,1,8,0:0:0:0:
256,192,153573,1,0,0:0:0:0:
256,192,153656,1,0,0:0:0:0:
256,192,153739,1,8,0:0:0:0:
256,192,153823,1,0,0:0:0:0:
256,192,153906,1,8,0:0:0:0:
256,192,153989,1,8,0:0:0:0:
256,192,154073,1,0,0:0:0:0:
256,192,154156,1,0,0:0:0:0:
256,192,154239,1,8,0:0:0:0:
256,192,154323,1,0,0:0:0:0:
256,192,154406,1,8,0:0:0:0:
256,192,154489,1,0,0:0:0:0:
256,192,154573,1,0,0:0:0:0:
256,192,154656,1,8,0:0:0:0:
256,192,154739,1,8,0:0:0:0:
256,192,154823,1,0,0:0:0:0:
256,96,154906,1,12,0:0:0:0:
256,192,155073,1,8,0:0:0:0:
256,192,155156,1,0,0:0:0:0:
256,192,155239,1,8,0:0:0:0:
256,192,155323,1,8,0:0:0:0:
256,192,155406,1,0,0:0:0:0:
256,192,155489,1,0,0:0:0:0:
256,192,155573,1,8,0:0:0:0:
256,192,155656,1,0,0:0:0:0:
256,192,155739,1,8,0:0:0:0:
256,192,155823,1,0,0:0:0:0:
256,192,155906,1,8,0:0:0:0:
256,192,155989,1,0,0:0:0:0:
256,192,156031,1,0,0:0:0:0:
256,192,156073,1,8,0:0:0:0:
256,192,156156,1,8,0:0:0:0:
256,192,156239,1,0,0:0:0:0:
256,192,157406,1,8,0:0:0:0:
256,96,157573,1,4,0:0:0:0:
256,192,157723,8,0,158023,0:0:0:0:
256,192,158323,8,0,158623,0:0:0:0:
256,192,158923,8,0,159223,0:0:0:0:
256,192,159523,8,0,159673,0:0:0:0:
256,192,159773,5,0,0:0:0:0:
256,192,159823,1,0,0:0:0:0:
256,192,159873,1,0,0:0:0:0:
256,96,159973,1,12,0:0:0:0:
0,384,160123,2,0,L|512:384,2,493.769232218139
256,96,162373,1,4,0:0:0:0:
256,192,162523,8,0,162673,0:0:0:0:
256,192,162823,8,0,163123,0:0:0:0:
256,192,163273,8,0,164023,0:0:0:0:
256,192,164173,8,0,164473,0:0:0:0:
256,192,164573,5,0,0:0:0:0:
256,192,164623,1,0,0:0:0:0:
256,192,164673,1,0,0:0:0:0:
256,96,164773,1,12,0:0:0:0:
0,384,164923,2,0,L|512:384,2,493.769232218139
256,96,167173,1,12,0:0:0:0:
256,192,167473,1,0,0:0:0:0:
256,192,167773,1,0,0:0:0:0:
256,192,167923,1,0,0:0:0:0:
256,192,168073,1,0,0:0:0:0:
256,192,168148,1,0,0:0:0:0:
256,192,168223,1,0,0:0:0:0:
256,192,168373,1,0,0:0:0:0:
256,192,168448,1,0,0:0:0:0:
256,192,168523,1,8,0:0:0:0:
256,192,168598,1,8,0:0:0:0:
256,192,168673,1,0,0:0:0:0:
256,192,168823,1,0,0:0:0:0:
256,192,168973,1,0,0:0:0:0:
256,192,169048,1,0,0:0:0:0:
256,192,169123,1,8,0:0:0:0:
256,192,169273,1,8,0:0:0:0:
256,192,169348,1,0,0:0:0:0:
256,192,169423,1,8,0:0:0:0:
256,192,169573,1,0,0:0:0:0:
256,192,169648,1,0,0:0:0:0:
256,192,169723,1,8,0:0:0:0:
256,192,169798,1,8,0:0:0:0:
256,192,169873,1,0,0:0:0:0:
256,192,169948,1,8,0:0:0:0:
256,192,170023,1,8,0:0:0:0:
256,192,170098,1,8,0:0:0:0:
256,192,170173,1,0,0:0:0:0:
256,192,170248,1,0,0:0:0:0:
256,192,170323,1,8,0:0:0:0:
256,192,170398,1,8,0:0:0:0:
256,192,170473,1,0,0:0:0:0:
256,192,170548,1,8,0:0:0:0:
256,192,170623,1,8,0:0:0:0:
256,192,170698,1,8,0:0:0:0:
256,192,170773,1,0,0:0:0:0:
256,192,170848,1,0,0:0:0:0:
256,192,170923,1,8,0:0:0:0:
256,192,170998,1,0,0:0:0:0:
256,192,171073,1,8,0:0:0:0:
256,192,171148,1,0,0:0:0:0:
256,192,171223,1,8,0:0:0:0:
256,192,171298,1,8,0:0:0:0:
256,192,171373,1,0,0:0:0:0:
256,192,171448,1,8,0:0:0:0:
256,192,171523,1,8,0:0:0:0:
256,192,171598,1,0,0:0:0:0:
256,192,171673,1,8,0:0:0:0:
256,192,171748,1,8,0:0:0:0:
256,192,171823,1,0,0:0:0:0:
256,192,171898,1,0,0:0:0:0:
256,96,171973,1,12,0:0:0:0:
256,192,172123,1,0,0:0:0:0:
256,192,172273,1,0,0:0:0:0:
256,192,172423,1,0,0:0:0:0:
256,192,172573,1,0,0:0:0:0:
256,192,172723,1,0,0:0:0:0:
256,192,172873,1,0,0:0:0:0:
256,192,173023,1,0,0:0:0:0:
256,192,173173,1,8,0:0:0:0:
256,192,173248,1,0,0:0:0:0:
256,192,173323,1,0,0:0:0:0:
256,192,173398,1,0,0:0:0:0:
256,192,173473,1,8,0:0:0:0:
256,192,173548,1,0,0:0:0:0:
256,192,173623,1,0,0:0:0:0:
256,192,173698,1,0,0:0:0:0:
256,192,173773,1,8,0:0:0:0:
256,192,173823,1,8,0:0:0:0:
256,192,173873,1,8,0:0:0:0:
256,192,173923,1,0,0:0:0:0:
256,192,173998,1,0,0:0:0:0:
256,192,174073,1,8,0:0:0:0:
256,192,174173,1,8,0:0:0:0:
256,192,174273,1,8,0:0:0:0:
256,192,174373,1,0,0:0:0:0:
256,192,174448,1,0,0:0:0:0:
0,384,174523,2,0,L|256:384,1,234.867360356444
256,192,175423,1,0,0:0:0:0:
256,192,175573,1,8,0:0:0:0:
256,192,175648,1,0,0:0:0:0:
256,192,175798,1,0,0:0:0:0:
256,192,175873,1,0,0:0:0:0:
256,192,176023,1,8,0:0:0:0:
256,192,176098,1,0,0:0:0:0:
256,192,176248,1,0,0:0:0:0:
256,192,176323,1,0,0:0:0:0:
256,192,176398,1,8,0:0:0:0:
256,192,176473,1,0,0:0:0:0:
256,192,176623,1,8,0:0:0:0:
256,192,176660,1,8,0:0:0:0:
256,96,176773,1,4,0:0:0:0:
256,192,176923,1,0,0:0:0:0:
256,192,177073,1,8,0:0:0:0:
256,192,177223,1,8,0:0:0:0:
256,192,177298,1,8,0:0:0:0:
256,192,177373,1,0,0:0:0:0:
256,192,177448,1,8,0:0:0:0:
256,192,177523,1,0,0:0:0:0:
256,192,177673,1,8,0:0:0:0:
256,192,177748,1,0,0:0:0:0:
256,192,177823,1,8,0:0:0:0:
256,192,177973,1,0,0:0:0:0:
256,192,178048,1,0,0:0:0:0:
256,192,178123,1,8,0:0:0:0:
256,192,178273,1,8,0:0:0:0:
256,192,178423,1,8,0:0:0:0:
256,192,178498,1,0,0:0:0:0:
256,192,178573,1,0,0:0:0:0:
256,192,178648,1,8,0:0:0:0:
256,192,178723,1,0,0:0:0:0:
256,192,178873,1,8,0:0:0:0:
256,192,178948,1,0,0:0:0:0:
256,192,179023,1,8,0:0:0:0:
256,192,179098,1,8,0:0:0:0:
256,192,179173,1,0,0:0:0:0:
256,192,179248,1,8,0:0:0:0:
256,192,179323,1,0,0:0:0:0:
256,192,179473,1,8,0:0:0:0:
256,192,179623,1,8,0:0:0:0:
256,192,179698,1,8,0:0:0:0:
256,192,179773,1,0,0:0:0:0:
256,192,179848,1,8,0:0:0:0:
256,192,179923,1,0,0:0:0:0:
256,192,180073,1,8,0:0:0:0:
256,192,180148,1,8,0:0:0:0:
256,192,180223,1,8,0:0:0:0:
256,192,180373,1,0,0:0:0:0:
256,192,180448,1,0,0:0:0:0:
256,192,180523,1,0,0:0:0:0:
256,192,180673,1,8,0:0:0:0:
256,192,180823,1,0,0:0:0:0:
256,192,180898,1,8,0:0:0:0:
256,192,180973,1,0,0:0:0:0:
256,192,181048,1,8,0:0:0:0:
256,192,181123,1,0,0:0:0:0:
256,192,181198,1,0,0:0:0:0:
256,96,181273,1,12,0:0:0:0:
256,96,181423,1,12,0:0:0:0:
256,96,181573,1,4,0:0:0:0:
256,192,181723,1,0,0:0:0:0:
256,192,181873,1,8,0:0:0:0:
256,192,182023,1,8,0:0:0:0:
256,192,182098,1,8,0:0:0:0:
256,192,182173,1,0,0:0:0:0:
256,192,182248,1,8,0:0:0:0:
256,192,182323,1,0,0:0:0:0:
256,192,182473,1,8,0:0:0:0:
256,192,182548,1,0,0:0:0:0:
256,192,182623,1,8,0:0:0:0:
256,192,182773,1,0,0:0:0:0:
256,192,182848,1,0,0:0:0:0:
256,192,182923,1,8,0:0:0:0:
256,192,183073,1,8,0:0:0:0:
256,192,183223,1,0,0:0:0:0:
256,192,183260,1,0,0:0:0:0:
256,192,183298,1,8,0:0:0:0:
256,192,183335,1,8,0:0:0:0:
256,192,183373,1,0,0:0:0:0:
256,192,183448,1,8,0:0:0:0:
256,192,183523,1,0,0:0:0:0:
256,192,183673,1,8,0:0:0:0:
256,192,183748,1,0,0:0:0:0:
256,192,183823,1,0,0:0:0:0:
256,192,183898,1,8,0:0:0:0:
256,96,183973,1,4,0:0:0:0:
256,192,184123,1,8,0:0:0:0:
256,192,184198,1,8,0:0:0:0:
256,192,184273,1,8,0:0:0:0:
256,96,184423,1,4,0:0:0:0:
256,192,184573,1,8,0:0:0:0:
256,192,184648,1,8,0:0:0:0:
256,192,184723,1,8,0:0:0:0:
256,96,184873,1,4,0:0:0:0:
256,192,185023,1,0,0:0:0:0:
256,192,185173,1,8,0:0:0:0:
256,192,185248,1,8,0:0:0:0:
256,192,185323,1,0,0:0:0:0:
256,192,185398,1,0,0:0:0:0:
256,192,185473,1,8,0:0:0:0:
256,192,185523,1,8,0:0:0:0:
256,192,185573,1,8,0:0:0:0:
256,192,185623,1,8,0:0:0:0:
256,192,185673,1,8,0:0:0:0:
256,192,185723,1,8,0:0:0:0:
256,192,185773,1,0,0:0:0:0:
256,192,185848,1,0,0:0:0:0:
256,192,185923,1,8,0:0:0:0:
256,192,185973,1,8,0:0:0:0:
256,192,186023,1,8,0:0:0:0:
256,192,186073,1,0,0:0:0:0:
256,192,186223,1,8,0:0:0:0:
256,192,186298,1,8,0:0:0:0:
256,96,186373,1,4,0:0:0:0:
256,192,186523,1,0,0:0:0:0:
256,192,186673,1,8,0:0:0:0:
256,192,186823,1,8,0:0:0:0:
256,192,186898,1,8,0:0:0:0:
256,192,186973,1,0,0:0:0:0:
256,192,187048,1,8,0:0:0:0:
256,192,187123,1,0,0:0:0:0:
256,192,187273,1,8,0:0:0:0:
256,192,187348,1,0,0:0:0:0:
256,192,187423,1,8,0:0:0:0:
256,192,187573,1,0,0:0:0:0:
256,192,187648,1,0,0:0:0:0:
256,192,187723,1,8,0:0:0:0:
256,192,187873,1,8,0:0:0:0:
256,192,188023,1,8,0:0:0:0:
256,192,188060,1,8,0:0:0:0:
256,192,188098,1,8,0:0:0:0:
256,192,188173,1,0,0:0:0:0:
256,192,188248,1,8,0:0:0:0:
256,192,188323,1,0,0:0:0:0:
256,192,188373,1,0,0:0:0:0:
256,192,188423,1,0,0:0:0:0:
256,192,188473,1,8,0:0:0:0:
256,192,188548,1,0,0:0:0:0:
256,192,188623,1,0,0:0:0:0:
256,192,188698,1,8,0:0:0:0:
256,192,188773,1,0,0:0:0:0:
256,192,188848,1,8,0:0:0:0:
256,192,188923,1,0,0:0:0:0:
256,192,189073,1,8,0:0:0:0:
256,192,189223,1,8,0:0:0:0:
256,192,189298,1,8,0:0:0:0:
256,192,189373,1,0,0:0:0:0:
256,192,189448,1,8,0:0:0:0:
256,192,189523,1,0,0:0:0:0:
256,192,189673,1,8,0:0:0:0:
256,192,189748,1,8,0:0:0:0:
256,192,189823,1,8,0:0:0:0:
256,192,189973,1,0,0:0:0:0:
256,192,190048,1,0,0:0:0:0:
256,192,190123,1,0,0:0:0:0:
256,192,190273,1,8,0:0:0:0:
256,192,190423,1,0,0:0:0:0:
256,192,190498,1,8,0:0:0:0:
256,192,190573,1,0,0:0:0:0:
256,192,190648,1,8,0:0:0:0:
256,192,190723,1,0,0:0:0:0:
256,192,190798,1,0,0:0:0:0:
256,96,190873,1,12,0:0:0:0:
256,96,191023,1,4,0:0:0:0:
256,96,191173,1,4,0:0:0:0:
256,192,191323,1,0,0:0:0:0:
256,192,191473,1,8,0:0:0:0:
256,192,191623,1,8,0:0:0:0:
256,192,191698,1,8,0:0:0:0:
256,192,191773,1,0,0:0:0:0:
256,192,191848,1,8,0:0:0:0:
256,192,191923,1,0,0:0:0:0:
256,192,192073,1,8,0:0:0:0:
256,192,192148,1,0,0:0:0:0:
256,192,192223,1,8,0:0:0:0:
256,192,192373,1,0,0:0:0:0:
256,192,192448,1,0,0:0:0:0:
256,192,192523,1,8,0:0:0:0:
256,192,192598,1,0,0:0:0:0:
256,192,192673,1,8,0:0:0:0:
256,192,192823,1,8,0:0:0:0:
256,192,192873,1,8,0:0:0:0:
256,192,192923,1,8,0:0:0:0:
256,192,192973,1,0,0:0:0:0:
256,192,193048,1,8,0:0:0:0:
256,192,193123,1,0,0:0:0:0:
256,192,193173,1,0,0:0:0:0:
256,192,193223,1,0,0:0:0:0:
256,192,193273,1,8,0:0:0:0:
256,192,193348,1,0,0:0:0:0:
256,192,193423,1,0,0:0:0:0:
256,192,193498,1,8,0:0:0:0:
256,96,193573,1,4,0:0:0:0:
256,192,193723,1,8,0:0:0:0:
256,192,193798,1,0,0:0:0:0:
256,192,193873,1,8,0:0:0:0:
256,96,194023,1,4,0:0:0:0:
256,96,194173,1,4,0:0:0:0:
256,96,194323,1,4,0:0:0:0:
256,192,194473,1,8,0:0:0:0:
256,192,194548,1,8,0:0:0:0:
256,192,194623,1,8,0:0:0:0:
256,192,194698,1,8,0:0:0:0:
256,192,194773,1,0,0:0:0:0:
256,192,195073,1,8,0:0:0:0:
256,192,195223,1,0,0:0:0:0:
256,192,195260,1,0,0:0:0:0:
256,192,195298,1,8,0:0:0:0:
256,192,195335,1,8,0:0:0:0:
256,192,195373,1,0,0:0:0:0:
256,192,195523,1,8,0:0:0:0:
256,96,195673,1,4,0:0:0:0:
256,192,195823,1,8,0:0:0:0:
256,192,195860,1,8,0:0:0:0:
256,96,195973,1,4,0:0:0:0:
256,96,196123,1,4,0:0:0:0:
256,96,196273,1,4,0:0:0:0:
256,192,196423,1,8,0:0:0:0:
256,192,196498,1,8,0:0:0:0:
256,192,196573,1,0,0:0:0:0:
256,192,196648,1,8,0:0:0:0:
256,192,196723,1,0,0:0:0:0:
256,192,196873,1,8,0:0:0:0:
256,192,196948,1,0,0:0:0:0:
256,192,197023,1,8,0:0:0:0:
256,192,197173,1,0,0:0:0:0:
256,192,197210,1,0,0:0:0:0:
256,192,197323,1,0,0:0:0:0:
256,192,197360,1,0,0:0:0:0:
256,192,197473,1,8,0:0:0:0:
256,192,197623,1,8,0:0:0:0:
256,192,197698,1,0,0:0:0:0:
256,192,197773,1,0,0:0:0:0:
256,192,197848,1,8,0:0:0:0:
256,192,197923,1,0,0:0:0:0:
256,192,198073,1,8,0:0:0:0:
256,192,198148,1,0,0:0:0:0:
256,192,198223,1,8,0:0:0:0:
256,192,198298,1,8,0:0:0:0:
256,192,198373,1,0,0:0:0:0:
256,192,198410,1,0,0:0:0:0:
256,192,198523,1,0,0:0:0:0:
256,192,198560,1,0,0:0:0:0:
256,192,198673,1,8,0:0:0:0:
256,192,198823,1,0,0:0:0:0:
256,192,198898,1,0,0:0:0:0:
256,192,198973,1,8,0:0:0:0:
256,192,199023,1,8,0:0:0:0:
256,192,199073,1,8,0:0:0:0:
256,192,199123,1,0,0:0:0:0:
256,192,199273,1,8,0:0:0:0:
256,192,199348,1,8,0:0:0:0:
256,192,199423,1,8,0:0:0:0:
256,192,199573,1,0,0:0:0:0:
256,192,199610,1,0,0:0:0:0:
256,192,199723,1,0,0:0:0:0:
256,192,199760,1,0,0:0:0:0:
256,192,199873,1,8,0:0:0:0:
256,192,200023,1,0,0:0:0:0:
256,192,200098,1,8,0:0:0:0:
256,192,200173,1,0,0:0:0:0:
256,192,200248,1,8,0:0:0:0:
256,192,200323,1,0,0:0:0:0:
256,192,200398,1,0,0:0:0:0:
256,96,200473,1,12,0:0:0:0:
256,96,200623,1,12,0:0:0:0:
256,96,200773,1,4,0:0:0:0:
256,192,200923,1,0,0:0:0:0:
256,192,201073,1,8,0:0:0:0:
256,192,201223,1,8,0:0:0:0:
256,192,201298,1,8,0:0:0:0:
256,192,201373,1,0,0:0:0:0:
256,192,201448,1,8,0:0:0:0:
256,192,201523,1,0,0:0:0:0:
256,192,201673,1,8,0:0:0:0:
256,192,201748,1,0,0:0:0:0:
256,192,201823,1,8,0:0:0:0:
256,192,201898,1,8,0:0:0:0:
256,192,201973,1,0,0:0:0:0:
256,192,202048,1,0,0:0:0:0:
256,192,202123,1,8,0:0:0:0:
256,192,202273,1,8,0:0:0:0:
256,192,202423,1,0,0:0:0:0:
256,192,202460,1,0,0:0:0:0:
256,192,202498,1,8,0:0:0:0:
256,192,202535,1,8,0:0:0:0:
256,192,202573,1,0,0:0:0:0:
256,192,202648,1,8,0:0:0:0:
256,192,202723,1,0,0:0:0:0:
256,192,202873,1,8,0:0:0:0:
256,192,202948,1,0,0:0:0:0:
256,192,203023,1,0,0:0:0:0:
256,192,203098,1,8,0:0:0:0:
256,192,203173,1,0,0:0:0:0:
256,192,203248,1,8,0:0:0:0:
256,192,203323,1,0,0:0:0:0:
256,192,203398,1,0,0:0:0:0:
256,192,203473,1,8,0:0:0:0:
256,192,203623,1,0,0:0:0:0:
256,192,203773,1,0,0:0:0:0:
256,192,203848,1,8,0:0:0:0:
256,192,203923,1,0,0:0:0:0:
256,192,204073,1,8,0:0:0:0:
256,192,204123,1,0,0:0:0:0:
256,192,204173,1,0,0:0:0:0:
256,192,204223,1,8,0:0:0:0:
256,192,204298,1,8,0:0:0:0:
256,96,204373,1,4,0:0:0:0:
256,192,204523,1,8,0:0:0:0:
256,192,204598,1,8,0:0:0:0:
256,192,204673,1,8,0:0:0:0:
256,96,204823,1,4,0:0:0:0:
256,192,204973,1,8,0:0:0:0:
256,192,205048,1,8,0:0:0:0:
256,192,205123,1,8,0:0:0:0:
256,192,205273,1,0,0:0:0:0:
256,192,205423,1,8,0:0:0:0:
256,192,205498,1,8,0:0:0:0:
256,96,205573,1,4,0:0:0:0:
256,96,205723,1,4,0:0:0:0:
256,96,205873,1,12,0:0:0:0:
256,192,206023,1,8,0:0:0:0:
256,192,206098,1,8,0:0:0:0:
256,192,206173,1,0,0:0:0:0:
256,192,206248,1,8,0:0:0:0:
256,192,206323,1,0,0:0:0:0:
256,192,206473,1,8,0:0:0:0:
256,192,206548,1,0,0:0:0:0:
256,192,206623,1,8,0:0:0:0:
256,192,206773,1,0,0:0:0:0:
256,192,206810,1,0,0:0:0:0:
256,192,206923,1,0,0:0:0:0:
256,192,206960,1,0,0:0:0:0:
256,192,207073,1,8,0:0:0:0:
256,192,207223,1,8,0:0:0:0:
256,192,207260,1,8,0:0:0:0:
256,192,207298,1,8,0:0:0:0:
256,192,207373,1,0,0:0:0:0:
256,192,207448,1,8,0:0:0:0:
256,192,207523,1,0,0:0:0:0:
256,192,207573,1,0,0:0:0:0:
256,192,207623,1,0,0:0:0:0:
256,192,207673,1,8,0:0:0:0:
256,192,207748,1,0,0:0:0:0:
256,192,207823,1,0,0:0:0:0:
256,192,207898,1,8,0:0:0:0:
256,192,207973,1,0,0:0:0:0:
256,192,208010,1,0,0:0:0:0:
256,192,208123,1,0,0:0:0:0:
256,192,208160,1,0,0:0:0:0:
256,192,208273,1,8,0:0:0:0:
256,192,208423,1,8,0:0:0:0:
256,192,208498,1,0,0:0:0:0:
256,192,208573,1,8,0:0:0:0:
256,192,208623,1,8,0:0:0:0:
256,192,208673,1,8,0:0:0:0:
256,192,208723,1,0,0:0:0:0:
256,192,208798,1,0,0:0:0:0:
256,192,208873,1,8,0:0:0:0:
256,192,208948,1,0,0:0:0:0:
256,192,209023,1,8,0:0:0:0:
256,192,209173,1,0,0:0:0:0:
256,192,209210,1,0,0:0:0:0:
256,192,209323,1,0,0:0:0:0:
256,192,209360,1,0,0:0:0:0:
256,192,209473,1,8,0:0:0:0:
256,192,209623,1,0,0:0:0:0:
256,192,209698,1,8,0:0:0:0:
256,192,209773,1,0,0:0:0:0:
256,192,209848,1,8,0:0:0:0:
256,192,209923,1,0,0:0:0:0:
256,192,209998,1,0,0:0:0:0:
256,96,210073,1,12,0:0:0:0:
256,96,210223,1,4,0:0:0:0:
256,96,210373,1,4,0:0:0:0:
256,192,210523,1,8,0:0:0:0:
256,192,210598,1,8,0:0:0:0:
256,192,210673,1,8,0:0:0:0:
256,96,210823,1,4,0:0:0:0:
256,192,210973,1,8,0:0:0:0:
256,192,211048,1,8,0:0:0:0:
256,192,211123,1,8,0:0:0:0:
256,96,211273,1,4,0:0:0:0:
256,192,211423,1,8,0:0:0:0:
256,192,211498,1,8,0:0:0:0:
256,192,211573,1,8,0:0:0:0:
256,96,211723,1,4,0:0:0:0:
256,192,211873,1,8,0:0:0:0:
256,192,211948,1,0,0:0:0:0:
256,192,212023,1,8,0:0:0:0:
256,192,212073,1,8,0:0:0:0:
256,192,212123,1,8,0:0:0:0:
256,192,212173,1,0,0:0:0:0:
256,192,212248,1,8,0:0:0:0:
256,192,212323,1,0,0:0:0:0:
256,192,212373,1,0,0:0:0:0:
256,192,212423,1,0,0:0:0:0:
256,192,212473,1,8,0:0:0:0:
256,192,212548,1,0,0:0:0:0:
256,192,212623,1,0,0:0:0:0:
256,192,212698,1,8,0:0:0:0:
256,192,212773,1,0,0:0:0:0:
256,192,212923,1,0,0:0:0:0:
256,192,212998,1,0,0:0:0:0:
256,192,213073,1,8,0:0:0:0:
256,192,213223,1,0,0:0:0:0:
256,192,213373,1,0,0:0:0:0:
256,192,213448,1,8,0:0:0:0:
256,192,213523,1,0,0:0:0:0:
256,192,213598,1,0,0:0:0:0:
256,192,213673,1,8,0:0:0:0:
256,192,213748,1,8,0:0:0:0:
256,192,213823,1,8,0:0:0:0:
256,192,213898,1,8,0:0:0:0:
256,192,213973,1,0,0:0:0:0:
256,192,214273,1,0,0:0:0:0:
256,192,214423,1,0,0:0:0:0:
256,192,214498,1,0,0:0:0:0:
256,192,214573,1,8,0:0:0:0:
256,192,214723,1,8,0:0:0:0:
256,192,214798,1,8,0:0:0:0:
256,192,214873,1,0,0:0:0:0:
256,96,215173,1,12,0:0:0:0:
256,192,215323,1,8,0:0:0:0:
256,192,215398,1,0,0:0:0:0:
256,192,215548,1,0,0:0:0:0:
256,192,215623,1,8,0:0:0:0:
256,192,215698,1,0,0:0:0:0:
256,192,215773,1,8,0:0:0:0:
256,192,215923,1,8,0:0:0:0:
256,192,215998,1,8,0:0:0:0:
256,192,216073,1,0,0:0:0:0:
256,192,216148,1,0,0:0:0:0:
256,192,216223,1,8,0:0:0:0:
256,192,216373,1,8,0:0:0:0:
256,192,216523,1,0,0:0:0:0:
256,192,216598,1,8,0:0:0:0:
256,192,216673,1,0,0:0:0:0:
256,192,216748,1,0,0:0:0:0:
256,192,216823,1,8,0:0:0:0:
256,192,216873,1,0,0:0:0:0:
256,192,216923,1,0,0:0:0:0:
256,192,216973,1,8,0:0:0:0:
256,192,217048,1,8,0:0:0:0:
256,192,217123,1,0,0:0:0:0:
256,192,217198,1,0,0:0:0:0:
256,192,217273,1,8,0:0:0:0:
256,96,217423,1,4,0:0:0:0:
256,96,217573,1,4,0:0:0:0:
256,192,217723,1,8,0:0:0:0:
256,192,217798,1,0,0:0:0:0:
256,192,217873,1,8,0:0:0:0:
256,192,217923,1,8,0:0:0:0:
256,192,217973,1,8,0:0:0:0:
256,192,218023,1,0,0:0:0:0:
256,192,218098,1,0,0:0:0:0:
256,192,218173,1,8,0:0:0:0:
256,192,218248,1,8,0:0:0:0:
256,192,218323,1,0,0:0:0:0:
256,192,218398,1,8,0:0:0:0:
256,192,218473,1,8,0:0:0:0:
256,192,218623,1,8,0:0:0:0:
256,192,218673,1,8,0:0:0:0:
256,192,218723,1,8,0:0:0:0:
256,192,218773,1,0,0:0:0:0:
256,192,218923,1,8,0:0:0:0:
256,192,218998,1,0,0:0:0:0:
256,192,219073,1,8,0:0:0:0:
256,192,219223,1,8,0:0:0:0:
256,192,219298,1,8,0:0:0:0:
256,192,219373,1,0,0:0:0:0:
256,96,219523,1,4,0:0:0:0:
256,96,219823,1,4,0:0:0:0:
256,96,219973,1,4,0:0:0:0:
256,192,220123,1,8,0:0:0:0:
256,192,220198,1,0,0:0:0:0:
256,192,220273,1,8,0:0:0:0:
256,192,220323,1,8,0:0:0:0:
256,192,220373,1,8,0:0:0:0:
256,192,220423,1,0,0:0:0:0:
256,192,220498,1,0,0:0:0:0:
256,192,220573,1,8,0:0:0:0:
256,192,220648,1,0,0:0:0:0:
256,192,220723,1,8,0:0:0:0:
256,192,220773,1,8,0:0:0:0:
256,192,220823,1,8,0:0:0:0:
256,192,220873,1,0,0:0:0:0:
256,192,220948,1,0,0:0:0:0:
256,192,221023,1,8,0:0:0:0:
256,192,221173,1,0,0:0:0:0:
256,192,221248,1,0,0:0:0:0:
256,192,221323,1,8,0:0:0:0:
256,192,221398,1,0,0:0:0:0:
256,192,221473,1,8,0:0:0:0:
256,192,221548,1,8,0:0:0:0:
256,192,221623,1,0,0:0:0:0:
256,192,221698,1,0,0:0:0:0:
256,192,221773,1,8,0:0:0:0:
256,192,221823,1,8,0:0:0:0:
256,192,221873,1,8,0:0:0:0:
256,192,221923,1,0,0:0:0:0:
256,192,221998,1,0,0:0:0:0:
256,192,222073,1,8,0:0:0:0:
256,96,222223,1,4,0:0:0:0:
256,96,222373,1,4,0:0:0:0:
256,192,222523,1,8,0:0:0:0:
256,192,222598,1,8,0:0:0:0:
256,192,222673,1,0,0:0:0:0:
256,192,222748,1,0,0:0:0:0:
256,192,222823,1,8,0:0:0:0:
256,192,222973,1,8,0:0:0:0:
256,192,223048,1,8,0:0:0:0:
256,192,223123,1,0,0:0:0:0:
256,192,223198,1,8,0:0:0:0:
256,192,223273,1,0,0:0:0:0:
256,192,223348,1,0,0:0:0:0:
256,192,223423,1,8,0:0:0:0:
256,192,223573,1,0,0:0:0:0:
256,192,223723,1,8,0:0:0:0:
256,192,223798,1,0,0:0:0:0:
256,192,223873,1,8,0:0:0:0:
256,192,223948,1,0,0:0:0:0:
256,192,224023,1,8,0:0:0:0:
256,96,224173,1,4,0:0:0:0:
256,96,224398,1,4,0:0:0:0:
256,96,224623,1,4,0:0:0:0:
256,96,224773,1,4,0:0:0:0:
256,192,224923,1,8,0:0:0:0:
256,192,224998,1,0,0:0:0:0:
256,192,225073,1,8,0:0:0:0:
256,192,225148,1,8,0:0:0:0:
256,192,225223,1,0,0:0:0:0:
256,192,225273,1,0,0:0:0:0:
256,192,225323,1,0,0:0:0:0:
256,192,225373,1,8,0:0:0:0:
256,192,225448,1,8,0:0:0:0:
256,192,225523,1,0,0:0:0:0:
256,192,225598,1,0,0:0:0:0:
256,192,225673,1,8,0:0:0:0:
256,192,225748,1,0,0:0:0:0:
256,192,225823,1,8,0:0:0:0:
256,192,225873,1,8,0:0:0:0:
256,192,225923,1,8,0:0:0:0:
256,192,225973,1,0,0:0:0:0:
256,192,226048,1,0,0:0:0:0:
256,192,226123,1,0,0:0:0:0:
256,192,226198,1,0,0:0:0:0:
256,96,226273,1,12,0:0:0:0:
256,96,226373,1,12,0:0:0:0:
256,96,226473,1,12,0:0:0:0:
256,192,226573,1,8,0:0:0:0:
256,192,226723,1,0,0:0:0:0:
256,192,226798,1,0,0:0:0:0:
256,192,226873,1,8,0:0:0:0:
256,96,227023,1,4,0:0:0:0:
256,96,227173,1,4,0:0:0:0:
256,192,227323,1,8,0:0:0:0:
256,192,227398,1,8,0:0:0:0:
256,192,227473,1,0,0:0:0:0:
256,192,227548,1,0,0:0:0:0:
256,192,227623,1,8,0:0:0:0:
256,192,227698,1,0,0:0:0:0:
256,192,227773,1,8,0:0:0:0:
256,192,227848,1,8,0:0:0:0:
256,192,227923,1,0,0:0:0:0:
256,192,227998,1,0,0:0:0:0:
256,192,228073,1,8,0:0:0:0:
256,192,228123,1,0,0:0:0:0:
256,192,228173,1,0,0:0:0:0:
256,192,228223,1,8,0:0:0:0:
256,192,228373,1,0,0:0:0:0:
256,192,228523,1,8,0:0:0:0:
256,192,228598,1,8,0:0:0:0:
256,192,228673,1,0,0:0:0:0:
256,192,228723,1,0,0:0:0:0:
256,192,228773,1,0,0:0:0:0:
256,192,228823,1,8,0:0:0:0:
256,192,228898,1,8,0:0:0:0:
256,192,228973,1,0,0:0:0:0:
256,96,229123,1,4,0:0:0:0:
256,96,229423,1,4,0:0:0:0:
256,96,229573,1,4,0:0:0:0:
256,192,229723,1,0,0:0:0:0:
256,192,229798,1,0,0:0:0:0:
256,192,229873,1,8,0:0:0:0:
256,192,229948,1,8,0:0:0:0:
256,192,230023,1,8,0:0:0:0:
256,192,230098,1,8,0:0:0:0:
256,192,230173,1,0,0:0:0:0:
256,192,230323,1,0,0:0:0:0:
256,192,230398,1,0,0:0:0:0:
256,192,230473,1,8,0:0:0:0:
256,192,230623,1,8,0:0:0:0:
256,192,230698,1,8,0:0:0:0:
256,192,230773,1,0,0:0:0:0:
256,192,230923,1,8,0:0:0:0:
256,192,230973,1,8,0:0:0:0:
256,192,231023,1,8,0:0:0:0:
256,192,231073,1,0,0:0:0:0:
256,192,231223,1,8,0:0:0:0:
256,192,231273,1,0,0:0:0:0:
256,192,231323,1,0,0:0:0:0:
256,192,231373,1,8,0:0:0:0:
256,192,231448,1,0,0:0:0:0:
256,192,231523,1,8,0:0:0:0:
256,192,231598,1,0,0:0:0:0:
256,192,231673,1,8,0:0:0:0:
256,192,231823,1,8,0:0:0:0:
256,96,231973,1,4,0:0:0:0:
256,192,232123,1,8,0:0:0:0:
256,192,232198,1,0,0:0:0:0:
256,192,232273,1,8,0:0:0:0:
256,192,232348,1,8,0:0:0:0:
256,192,232423,1,0,0:0:0:0:
256,192,232473,1,0,0:0:0:0:
256,192,232523,1,0,0:0:0:0:
256,192,232573,1,8,0:0:0:0:
256,192,232723,1,0,0:0:0:0:
256,192,232798,1,0,0:0:0:0:
256,192,232873,1,8,0:0:0:0:
256,192,232923,1,8,0:0:0:0:
256,192,232973,1,8,0:0:0:0:
256,192,233023,1,0,0:0:0:0:
256,192,233098,1,8,0:0:0:0:
256,192,233173,1,0,0:0:0:0:
256,192,233323,1,0,0:0:0:0:
256,192,233473,1,8,0:0:0:0:
256,192,233623,1,0,0:0:0:0:
256,192,233698,1,0,0:0:0:0:
256,192,233773,1,8,0:0:0:0:
256,192,233848,1,8,0:0:0:0:
256,192,233923,1,0,0:0:0:0:
256,192,233998,1,0,0:0:0:0:
256,192,234073,1,8,0:0:0:0:
256,192,234123,1,0,0:0:0:0:
256,192,234173,1,0,0:0:0:0:
256,192,234223,1,8,0:0:0:0:
256,192,234273,1,8,0:0:0:0:
256,192,234323,1,8,0:0:0:0:
256,96,234373,1,4,0:0:0:0:
256,192,234673,1,0,0:0:0:0:
256,192,234973,1,0,0:0:0:0:
256,192,235273,1,0,0:0:0:0:
256,192,235573,1,0,0:0:0:0:
256,192,235873,1,0,0:0:0:0:
256,192,236173,1,0,0:0:0:0:
256,192,236473,1,0,0:0:0:0:
256,192,236773,1,0,0:0:0:0:
256,192,237073,1,0,0:0:0:0:
256,192,237373,1,0,0:0:0:0:
256,192,237673,1,0,0:0:0:0:
256,192,238123,1,0,0:0:0:0:
256,192,238423,1,0,0:0:0:0:
256,192,238648,1,0,0:0:0:0:
256,192,238723,1,0,0:0:0:0:
256,192,238798,1,0,0:0:0:0:
256,192,238873,1,0,0:0:0:0:
256,192,238948,1,0,0:0:0:0:
256,192,239023,1,0,0:0:0:0:
256,192,239098,1,0,0:0:0:0:
256,96,239173,1,12,0:0:0:0:
256,192,239323,1,0,0:0:0:0:
256,192,239473,1,0,0:0:0:0:
256,192,239623,1,0,0:0:0:0:
256,192,239773,1,0,0:0:0:0:
256,192,239923,1,0,0:0:0:0:
256,192,240073,1,0,0:0:0:0:
256,192,240223,1,0,0:0:0:0:
256,192,240298,1,0,0:0:0:0:
256,192,240373,1,8,0:0:0:0:
256,192,240448,1,0,0:0:0:0:
256,192,240523,1,0,0:0:0:0:
256,192,240598,1,0,0:0:0:0:
256,192,240673,1,8,0:0:0:0:
256,192,240748,1,8,0:0:0:0:
256,192,240823,1,0,0:0:0:0:
256,192,240898,1,0,0:0:0:0:
256,192,240973,1,8,0:0:0:0:
256,192,241010,1,8,0:0:0:0:
256,192,241048,1,8,0:0:0:0:
256,192,241123,1,0,0:0:0:0:
256,192,241198,1,0,0:0:0:0:
256,192,241273,1,8,0:0:0:0:
256,192,241348,1,0,0:0:0:0:
256,192,241423,1,8,0:0:0:0:
256,192,241498,1,8,0:0:0:0:
256,96,241573,1,4,0:0:0:0:
256,96,242023,1,4,0:0:0:0:
256,96,242473,1,4,0:0:0:0:
256,192,242623,1,0,0:0:0:0:
256,192,242773,1,8,0:0:0:0:
256,192,242923,1,0,0:0:0:0:
256,192,242998,1,0,0:0:0:0:
256,192,243073,1,8,0:0:0:0:
256,192,243223,1,0,0:0:0:0:
256,192,243373,1,8,0:0:0:0:
256,192,243448,1,0,0:0:0:0:
256,192,243523,1,8,0:0:0:0:
256,192,243673,1,0,0:0:0:0:
256,192,243823,1,0,0:0:0:0:
256,192,243898,1,8,0:0:0:0:
256,96,243973,1,4,0:0:0:0:
256,192,244120,1,8,0:0:0:0:
256,192,244267,1,0,0:0:0:0:
256,192,244414,1,8,0:0:0:0:
256,192,244561,1,0,0:0:0:0:
256,192,244705,1,8,0:0:0:0:
256,192,244753,1,8,0:0:0:0:
256,192,244801,1,8,0:0:0:0:
256,192,244849,1,0,0:0:0:0:
256,192,244993,1,8,0:0:0:0:
256,96,245137,1,4,0:0:0:0:
256,192,245420,1,8,0:0:0:0:
256,192,245561,1,0,0:0:0:0:
256,192,245772,1,0,0:0:0:0:
256,192,245841,1,8,0:0:0:0:
256,192,245888,1,8,0:0:0:0:
256,192,245934,1,8,0:0:0:0:
256,192,245980,1,0,0:0:0:0:
256,192,246119,1,8,0:0:0:0:
256,96,246258,1,4,0:0:0:0:
256,192,246394,1,8,0:0:0:0:
256,192,246530,1,8,0:0:0:0:
256,96,246667,1,4,0:0:0:0:
256,192,246939,1,8,0:0:0:0:
256,96,247076,1,4,0:0:0:0:
256,192,247212,1,8,0:0:0:0:
256,192,247280,1,8,0:0:0:0:
256,192,247348,1,0,0:0:0:0:
256,192,247485,1,0,0:0:0:0:
256,192,247553,1,0,0:0:0:0:
256,192,247621,1,8,0:0:0:0:
256,192,247689,1,8,0:0:0:0:
256,192,247758,1,0,0:0:0:0:
256,192,247826,1,8,0:0:0:0:
256,192,247894,1,0,0:0:0:0:
256,192,248030,1,8,0:0:0:0:
256,192,248167,1,0,0:0:0:0:
256,192,248303,1,8,0:0:0:0:
256,192,248439,1,0,0:0:0:0:
256,192,248576,1,0,0:0:0:0:
256,192,248644,1,0,0:0:0:0:
256,192,248712,1,8,0:0:0:0:
256,192,248848,1,0,0:0:0:0:
256,192,248985,1,0,0:0:0:0:
256,192,249053,1,0,0:0:0:0:
256,192,249121,1,8,0:0:0:0:
256,192,249258,1,0,0:0:0:0:
256,192,249303,1,0,0:0:0:0:
256,192,249348,1,0,0:0:0:0:
256,192,249394,1,8,0:0:0:0:
256,192,249439,1,8,0:0:0:0:
256,192,249485,1,8,0:0:0:0:
256,192,249530,1,0,0:0:0:0:
256,192,249667,1,0,0:0:0:0:
256,192,249803,1,8,0:0:0:0:
256,192,249939,1,0,0:0:0:0:
256,192,250076,1,0,0:0:0:0:
256,192,250212,1,8,0:0:0:0:
256,192,250348,1,0,0:0:0:0:
256,192,250417,1,0,0:0:0:0:
256,192,250485,1,8,0:0:0:0:
256,96,250621,1,4,0:0:0:0:
256,192,250758,1,8,0:0:0:0:
256,192,250894,1,8,0:0:0:0:
256,96,251030,1,4,0:0:0:0:
256,192,251167,1,0,0:0:0:0:
256,96,251439,1,4,0:0:0:0:
256,192,251576,1,8,0:0:0:0:
256,192,251712,1,0,0:0:0:0:
256,192,251780,1,0,0:0:0:0:
256,192,251848,1,8,0:0:0:0:
256,192,251917,1,8,0:0:0:0:
256,192,251985,1,0,0:0:0:0:
256,192,252053,1,8,0:0:0:0:
256,192,252121,1,0,0:0:0:0:
256,192,252167,1,0,0:0:0:0:
256,192,252212,1,0,0:0:0:0:
256,192,252258,1,8,0:0:0:0:
256,192,252326,1,8,0:0:0:0:
256,192,252394,1,0,0:0:0:0:
256,192,252530,1,8,0:0:0:0:
256,192,252598,1,8,0:0:0:0:
256,192,252667,1,8,0:0:0:0:
256,192,252735,1,8,0:0:0:0:
256,192,252803,1,0,0:0:0:0:
256,192,252939,1,8,0:0:0:0:
256,192,253008,1,0,0:0:0:0:
256,192,253076,1,8,0:0:0:0:
256,192,253121,1,8,0:0:0:0:
256,192,253167,1,8,0:0:0:0:
256,192,253212,1,0,0:0:0:0:
256,192,253280,1,0,0:0:0:0:
256,192,253348,1,8,0:0:0:0:
256,192,253417,1,8,0:0:0:0:
256,192,253485,1,0,0:0:0:0:
256,192,253553,1,8,0:0:0:0:
256,192,253621,1,0,0:0:0:0:
256,192,253758,1,8,0:0:0:0:
256,192,253792,1,8,0:0:0:0:
256,192,253826,1,8,0:0:0:0:
256,192,253894,1,0,0:0:0:0:
256,192,254030,1,0,0:0:0:0:
256,192,254167,1,8,0:0:0:0:
256,192,254303,1,0,0:0:0:0:
256,192,254371,1,8,0:0:0:0:
256,192,254439,1,0,0:0:0:0:
256,192,254508,1,0,0:0:0:0:
256,192,254576,1,8,0:0:0:0:
256,192,254610,1,8,0:0:0:0:
256,192,254644,1,8,0:0:0:0:
256,192,254712,1,0,0:0:0:0:
256,192,254780,1,8,0:0:0:0:
256,192,254848,1,8,0:0:0:0:
256,192,254917,1,8,0:0:0:0:
256,96,254985,1,4,0:0:0:0:
256,192,255121,1,8,0:0:0:0:
256,192,255258,1,8,0:0:0:0:
256,96,255394,1,4,0:0:0:0:
256,192,255667,1,8,0:0:0:0:
256,96,255803,1,4,0:0:0:0:
256,192,255939,1,8,0:0:0:0:
256,192,256076,1,0,0:0:0:0:
256,192,256212,1,0,0:0:0:0:
256,192,256280,1,0,0:0:0:0:
256,192,256348,1,8,0:0:0:0:
256,192,256417,1,8,0:0:0:0:
256,192,256485,1,0,0:0:0:0:
256,192,256553,1,0,0:0:0:0:
256,192,256621,1,8,0:0:0:0:
256,192,256758,1,0,0:0:0:0:
256,192,256826,1,0,0:0:0:0:
256,192,256894,1,8,0:0:0:0:
256,192,256962,1,0,0:0:0:0:
256,192,257030,1,8,0:0:0:0:
256,192,257098,1,8,0:0:0:0:
256,192,257167,1,0,0:0:0:0:
256,192,257235,1,8,0:0:0:0:
256,192,257303,1,0,0:0:0:0:
256,192,257439,1,8,0:0:0:0:
256,192,257576,1,0,0:0:0:0:
256,192,257644,1,0,0:0:0:0:
256,192,257712,1,8,0:0:0:0:
256,192,257780,1,0,0:0:0:0:
256,192,257848,1,8,0:0:0:0:
256,192,257985,1,0,0:0:0:0:
256,192,258053,1,0,0:0:0:0:
256,192,258121,1,8,0:0:0:0:
256,192,258167,1,8,0:0:0:0:
256,192,258212,1,8,0:0:0:0:
256,192,258258,1,0,0:0:0:0:
256,192,258326,1,8,0:0:0:0:
256,192,258394,1,0,0:0:0:0:
256,192,258462,1,0,0:0:0:0:
256,192,258530,1,8,0:0:0:0:
256,192,258598,1,0,0:0:0:0:
256,192,258667,1,8,0:0:0:0:
256,192,258735,1,8,0:0:0:0:
256,192,258803,1,0,0:0:0:0:
256,192,258939,1,8,0:0:0:0:
256,96,259076,1,12,0:0:0:0:
256,192,259212,1,8,0:0:0:0:
256,96,259348,1,4,0:0:0:0:
256,192,259485,1,8,0:0:0:0:
256,192,259621,1,8,0:0:0:0:
256,96,259758,1,4,0:0:0:0:
256,192,260030,1,8,0:0:0:0:
256,96,260167,1,4,0:0:0:0:
256,192,260303,1,8,0:0:0:0:
256,192,260439,1,0,0:0:0:0:
256,192,260508,1,8,0:0:0:0:
256,192,260576,1,0,0:0:0:0:
256,192,260644,1,0,0:0:0:0:
256,192,260712,1,8,0:0:0:0:
256,192,260780,1,0,0:0:0:0:
256,192,260848,1,8,0:0:0:0:
256,192,260894,1,8,0:0:0:0:
256,192,260939,1,8,0:0:0:0:
256,192,260985,1,0,0:0:0:0:
256,192,261053,1,0,0:0:0:0:
256,192,261121,1,8,0:0:0:0:
256,192,261189,1,0,0:0:0:0:
256,192,261258,1,8,0:0:0:0:
256,192,261326,1,0,0:0:0:0:
256,192,261394,1,8,0:0:0:0:
256,192,261462,1,8,0:0:0:0:
256,192,261530,1,0,0:0:0:0:
256,192,261712,1,0,0:0:0:0:
256,192,261803,1,8,0:0:0:0:
256,192,261894,1,0,0:0:0:0:
256,192,261985,1,8,0:0:0:0:
256,192,262076,1,0,0:0:0:0:
256,192,262121,1,8,0:0:0:0:
256,192,262167,1,0,0:0:0:0:
256,192,262258,1,8,0:0:0:0:
256,192,262348,1,0,0:0:0:0:
256,192,262439,1,8,0:0:0:0:
256,192,262485,1,8,0:0:0:0:
256,192,262530,1,8,0:0:0:0:
256,192,262576,1,8,0:0:0:0:
256,192,262621,1,0,0:0:0:0:
256,192,262758,1,0,0:0:0:0:
256,192,262894,1,8,0:0:0:0:
256,192,263030,1,0,0:0:0:0:
256,192,263098,1,8,0:0:0:0:
256,192,263167,1,0,0:0:0:0:
256,192,263303,1,8,0:0:0:0:
256,192,263439,1,0,0:0:0:0:
256,192,263508,1,0,0:0:0:0:
256,192,263576,1,8,0:0:0:0:
256,96,263712,1,12,0:0:0:0:
256,192,263848,1,8,0:0:0:0:
256,192,263985,1,0,0:0:0:0:
256,192,264121,1,0,0:0:0:0:
256,192,264258,1,8,0:0:0:0:
256,192,264394,1,0,0:0:0:0:
256,192,264530,1,8,0:0:0:0:
256,192,264667,1,0,0:0:0:0:
256,192,264803,1,8,0:0:0:0:
256,192,264939,1,8,0:0:0:0:
256,192,265076,1,0,0:0:0:0:
256,192,265212,1,0,0:0:0:0:
256,192,265348,1,8,0:0:0:0:
256,192,265485,1,0,0:0:0:0:
256,192,265621,1,8,0:0:0:0:
256,192,265758,1,0,0:0:0:0:
256,192,265894,1,8,0:0:0:0:
256,192,266030,1,8,0:0:0:0:
256,192,266167,1,0,0:0:0:0:
256,192,266303,1,0,0:0:0:0:
256,192,266439,1,8,0:0:0:0:
256,192,266576,1,0,0:0:0:0:
256,192,266712,1,8,0:0:0:0:
256,192,266848,1,0,0:0:0:0:
256,192,266985,1,8,0:0:0:0:
256,192,267121,1,8,0:0:0:0:
256,192,267258,1,0,0:0:0:0:
256,192,267394,1,0,0:0:0:0:
256,192,267530,1,8,0:0:0:0:
256,192,267667,1,0,0:0:0:0:
256,192,267803,1,8,0:0:0:0:
256,192,267939,1,8,0:0:0:0:
256,192,268076,1,0,0:0:0:0:
256,192,268212,1,8,0:0:0:0:
256,192,268348,1,0,0:0:0:0:
256,192,268485,1,0,0:0:0:0:
256,192,268621,1,8,0:0:0:0:
256,192,268758,1,0,0:0:0:0:
256,192,268894,1,8,0:0:0:0:
256,192,269030,1,0,0:0:0:0:
256,192,269167,1,8,0:0:0:0:
256,192,269303,1,8,0:0:0:0:
256,192,269439,1,0,0:0:0:0:
256,192,269576,1,0,0:0:0:0:
256,192,269712,1,8,0:0:0:0:
256,192,269848,1,0,0:0:0:0:
256,192,269985,1,8,0:0:0:0:
256,192,270121,1,0,0:0:0:0:
256,192,270189,1,8,0:0:0:0:
256,192,270258,1,8,0:0:0:0:
256,192,270394,1,8,0:0:0:0:
256,192,270530,1,8,0:0:0:0:
256,192,270667,1,0,0:0:0:0:
256,192,270803,1,8,0:0:0:0:
256,192,270939,1,0,0:0:0:0:
256,192,271076,1,8,0:0:0:0:
256,192,271212,1,0,0:0:0:0:
256,192,271348,1,8,0:0:0:0:
256,192,271485,1,8,0:0:0:0:
256,192,271621,1,8,0:0:0:0:
256,192,271758,1,0,0:0:0:0:
256,192,271894,1,8,0:0:0:0:
256,192,272030,1,0,0:0:0:0:
256,192,272167,1,8,0:0:0:0:
256,192,272303,1,0,0:0:0:0:
256,192,272439,1,0,0:0:0:0:
256,192,272712,1,8,0:0:0:0:
256,192,273121,1,0,0:0:0:0:
256,192,273258,1,8,0:0:0:0:
256,192,273530,1,0,0:0:0:0:
256,192,273667,1,0,0:0:0:0:
256,192,273803,1,8,0:0:0:0:
256,192,274212,1,8,0:0:0:0:
256,192,274348,1,0,0:0:0:0:
256,192,274417,1,0,0:0:0:0:
256,192,274485,1,8,0:0:0:0:
256,192,274553,1,8,0:0:0:0:
256,192,274621,1,0,0:0:0:0:
256,192,274894,1,8,0:0:0:0:
256,192,275030,1,0,0:0:0:0:
256,192,275098,1,8,0:0:0:0:
256,192,275303,1,0,0:0:0:0:
256,192,275439,1,8,0:0:0:0:
256,192,275712,1,0,0:0:0:0:
256,192,275985,1,8,0:0:0:0:
256,192,276121,1,8,0:0:0:0:
256,192,276326,1,8,0:0:0:0:
256,192,276394,1,0,0:0:0:0:
256,192,276530,1,8,0:0:0:0:
256,192,276667,1,8,0:0:0:0:
256,192,276803,1,0,0:0:0:0:
256,192,276939,1,0,0:0:0:0:
256,192,277008,1,0,0:0:0:0:
256,192,277076,1,8,0:0:0:0:
256,192,277485,1,0,0:0:0:0:
256,192,277621,1,8,0:0:0:0:
256,192,277894,1,0,0:0:0:0:
256,192,277962,1,8,0:0:0:0:
256,192,278030,1,0,0:0:0:0:
256,192,278098,1,8,0:0:0:0:
256,192,278167,1,0,0:0:0:0:
256,192,278235,1,8,0:0:0:0:
256,192,278303,1,0,0:0:0:0:
256,192,278371,1,0,0:0:0:0:
256,192,278439,1,8,0:0:0:0:
256,192,278576,1,0,0:0:0:0:
256,192,278644,1,0,0:0:0:0:
256,192,278712,1,8,0:0:0:0:
256,192,278758,1,8,0:0:0:0:
256,192,278803,1,8,0:0:0:0:
256,192,278848,1,8,0:0:0:0:
256,192,278894,1,8,0:0:0:0:
256,192,278939,1,8,0:0:0:0:
256,192,278985,1,0,0:0:0:0:
256,192,279258,1,8,0:0:0:0:
256,192,279394,1,0,0:0:0:0:
256,192,279462,1,0,0:0:0:0:
256,192,279530,1,8,0:0:0:0:
256,192,279598,1,0,0:0:0:0:
256,192,279667,1,8,0:0:0:0:
256,192,279803,1,0,0:0:0:0:
256,192,279871,1,0,0:0:0:0:
256,192,279939,1,8,0:0:0:0:
256,192,280076,1,8,0:0:0:0:
256,192,280212,1,0,0:0:0:0:
256,192,280280,1,0,0:0:0:0:
256,192,280348,1,0,0:0:0:0:
256,192,280485,1,0,0:0:0:0:
256,192,281030,1,12,0:0:0:0:
256,192,281167,1,0,0:0:0:0:
256,192,281235,1,8,0:0:0:0:
256,192,281303,1,0,0:0:0:0:
256,192,281439,1,8,0:0:0:0:
256,192,281576,1,0,0:0:0:0:
256,192,281644,1,0,0:0:0:0:
256,192,281712,1,8,0:0:0:0:
256,192,281780,1,8,0:0:0:0:
256,192,281848,1,0,0:0:0:0:
256,192,281985,1,8,0:0:0:0:
256,192,282121,1,0,0:0:0:0:
256,192,282189,1,8,0:0:0:0:
256,192,282258,1,0,0:0:0:0:
256,192,282326,1,0,0:0:0:0:
256,192,282394,1,8,0:0:0:0:
256,192,282462,1,0,0:0:0:0:
256,192,282530,1,8,0:0:0:0:
256,192,282667,1,0,0:0:0:0:
256,192,282735,1,0,0:0:0:0:
256,192,282803,1,8,0:0:0:0:
256,192,282939,1,0,0:0:0:0:
256,192,283076,1,8,0:0:0:0:
256,192,283212,1,4,0:0:0:0:
256,192,283485,1,0,0:0:0:0:
256,192,283553,1,0,0:0:0:0:
256,192,283621,1,8,0:0:0:0:
256,192,283689,1,0,0:0:0:0:
256,192,283758,1,8,0:0:0:0:
256,192,283826,1,8,0:0:0:0:
256,192,283894,1,0,0:0:0:0:
256,192,283928,1,0,0:0:0:0:
256,192,283962,1,0,0:0:0:0:
256,192,284030,1,8,0:0:0:0:
256,192,284098,1,8,0:0:0:0:
256,192,284167,1,0,0:0:0:0:
256,192,284303,1,8,0:0:0:0:
256,192,284439,1,0,0:0:0:0:
256,192,284508,1,0,0:0:0:0:
256,192,284576,1,8,0:0:0:0:
256,192,284644,1,8,0:0:0:0:
256,192,284712,1,0,0:0:0:0:
256,192,284848,1,8,0:0:0:0:
256,192,284917,1,0,0:0:0:0:
256,192,284985,1,8,0:0:0:0:
256,192,285053,1,0,0:0:0:0:
256,192,285121,1,8,0:0:0:0:
256,192,285189,1,8,0:0:0:0:
256,192,285258,1,0,0:0:0:0:
256,192,285326,1,0,0:0:0:0:
256,192,285394,1,12,0:0:0:0:
256,192,285667,1,0,0:0:0:0:
256,192,285803,1,8,0:0:0:0:
256,192,285939,1,0,0:0:0:0:
256,192,286008,1,8,0:0:0:0:
256,192,286076,1,8,0:0:0:0:
256,192,286144,1,8,0:0:0:0:
256,192,286212,1,0,0:0:0:0:
256,192,286280,1,0,0:0:0:0:
256,192,286348,1,8,0:0:0:0:
256,192,286383,1,8,0:0:0:0:
256,192,286485,1,0,0:0:0:0:
256,192,286519,1,0,0:0:0:0:
256,192,286621,1,8,0:0:0:0:
256,192,286689,1,8,0:0:0:0:
256,192,286758,1,0,0:0:0:0:
256,192,286826,1,0,0:0:0:0:
256,192,286894,1,8,0:0:0:0:
256,192,286985,1,8,0:0:0:0:
256,192,287076,1,8,0:0:0:0:
256,192,287167,1,0,0:0:0:0:
256,192,287235,1,8,0:0:0:0:
256,192,287303,1,0,0:0:0:0:
256,192,287371,1,0,0:0:0:0:
256,192,287439,1,8,0:0:0:0:
256,192,287576,1,4,0:0:0:0:
256,192,287848,1,0,0:0:0:0:
256,192,287917,1,0,0:0:0:0:
256,192,287985,1,8,0:0:0:0:
256,192,288121,1,0,0:0:0:0:
256,192,288167,1,0,0:0:0:0:
256,192,288212,1,0,0:0:0:0:
256,192,288258,1,8,0:0:0:0:
256,192,288303,1,8,0:0:0:0:
256,192,288348,1,8,0:0:0:0:
256,192,288394,1,0,0:0:0:0:
256,192,288462,1,0,0:0:0:0:
256,192,288530,1,8,0:0:0:0:
256,192,288667,1,0,0:0:0:0:
256,192,288712,1,0,0:0:0:0:
256,192,288758,1,0,0:0:0:0:
256,192,288803,1,8,0:0:0:0:
256,192,288871,1,8,0:0:0:0:
256,192,288939,1,0,0:0:0:0:
256,192,288973,1,0,0:0:0:0:
256,192,289008,1,0,0:0:0:0:
256,192,289076,1,8,0:0:0:0:
256,192,289144,1,8,0:0:0:0:
256,192,289212,1,8,0:0:0:0:
256,192,289280,1,0,0:0:0:0:
256,192,289348,1,8,0:0:0:0:
256,192,289417,1,8,0:0:0:0:
256,192,289485,1,0,0:0:0:0:
256,192,289553,1,8,0:0:0:0:
256,192,289621,1,0,0:0:0:0:
256,192,289689,1,0,0:0:0:0:
256,192,289758,1,12,0:0:0:0:
256,192,290030,1,0,0:0:0:0:
256,192,290098,1,0,0:0:0:0:
256,192,290167,1,8,0:0:0:0:
256,192,290303,1,8,0:0:0:0:
256,192,290439,1,0,0:0:0:0:
256,192,290508,1,0,0:0:0:0:
256,192,290576,1,8,0:0:0:0:
256,192,290644,1,8,0:0:0:0:
256,192,290712,1,0,0:0:0:0:
256,192,290848,1,8,0:0:0:0:
256,192,290883,1,8,0:0:0:0:
256,192,290917,1,8,0:0:0:0:
256,192,290985,1,0,0:0:0:0:
256,192,291076,1,0,0:0:0:0:
256,192,291167,1,0,0:0:0:0:
256,192,291258,1,8,0:0:0:0:
256,192,291394,1,0,0:0:0:0:
256,192,291462,1,8,0:0:0:0:
256,192,291530,1,8,0:0:0:0:
256,192,291598,1,8,0:0:0:0:
256,192,291667,1,0,0:0:0:0:
256,192,291735,1,0,0:0:0:0:
256,192,291803,1,8,0:0:0:0:
256,192,291939,1,4,0:0:0:0:
256,192,292212,1,8,0:0:0:0:
256,192,292258,1,8,0:0:0:0:
256,192,292303,1,8,0:0:0:0:
256,192,292348,1,8,0:0:0:0:
256,192,292417,1,0,0:0:0:0:
256,192,292485,1,8,0:0:0:0:
256,192,292553,1,8,0:0:0:0:
256,192,292621,1,0,0:0:0:0:
256,192,292758,1,8,0:0:0:0:
256,192,292826,1,0,0:0:0:0:
256,192,292894,1,0,0:0:0:0:
256,192,292962,1,0,0:0:0:0:
256,192,293030,1,8,0:0:0:0:
256,192,293098,1,8,0:0:0:0:
256,192,293167,1,0,0:0:0:0:
256,192,293235,1,0,0:0:0:0:
256,192,293303,1,0,0:0:0:0:
256,192,293348,1,0,0:0:0:0:
256,192,293394,1,0,0:0:0:0:
256,192,293439,1,8,0:0:0:0:
256,192,293576,1,8,0:0:0:0:
256,192,293644,1,0,0:0:0:0:
256,192,293712,1,8,0:0:0:0:
256,192,293780,1,8,0:0:0:0:
256,192,293848,1,0,0:0:0:0:
256,192,293917,1,8,0:0:0:0:
256,192,293985,1,0,0:0:0:0:
256,192,294053,1,0,0:0:0:0:
256,192,294121,1,12,0:0:0:0:
256,192,294394,1,0,0:0:0:0:
256,192,294462,1,0,0:0:0:0:
256,192,294530,1,8,0:0:0:0:
256,192,294667,1,0,0:0:0:0:
256,192,294735,1,8,0:0:0:0:
256,192,294803,1,8,0:0:0:0:
256,192,294871,1,8,0:0:0:0:
256,192,294939,1,0,0:0:0:0:
256,192,295008,1,0,0:0:0:0:
256,192,295076,1,8,0:0:0:0:
256,192,295144,1,0,0:0:0:0:
256,192,295212,1,8,0:0:0:0:
256,192,295280,1,8,0:0:0:0:
256,192,295348,1,0,0:0:0:0:
256,192,295485,1,8,0:0:0:0:
256,192,295621,1,0,0:0:0:0:
256,192,295689,1,0,0:0:0:0:
256,192,295758,1,8,0:0:0:0:
256,192,295894,1,8,0:0:0:0:
256,192,295962,1,8,0:0:0:0:
256,192,296030,1,8,0:0:0:0:
256,192,296098,1,8,0:0:0:0:
256,192,296167,1,8,0:0:0:0:
256,192,296235,1,8,0:0:0:0:
256,192,296303,1,4,0:0:0:0:
256,192,296576,1,0,0:0:0:0:
256,192,296712,1,8,0:0:0:0:
256,192,296780,1,8,0:0:0:0:
256,192,296848,1,8,0:0:0:0:
256,192,296917,1,0,0:0:0:0:
256,192,296985,1,8,0:0:0:0:
256,192,297053,1,8,0:0:0:0:
256,192,297121,1,0,0:0:0:0:
256,192,297189,1,0,0:0:0:0:
256,192,297258,1,8,0:0:0:0:
256,192,297394,1,0,0:0:0:0:
256,192,297462,1,0,0:0:0:0:
256,192,297530,1,8,0:0:0:0:
256,192,297667,1,0,0:0:0:0:
256,192,297735,1,0,0:0:0:0:
256,192,297803,1,8,0:0:0:0:
256,192,297939,1,0,0:0:0:0:
256,192,298008,1,0,0:0:0:0:
256,192,298076,1,8,0:0:0:0:
256,192,298121,1,8,0:0:0:0:
256,192,298167,1,8,0:0:0:0:
256,192,298212,1,0,0:0:0:0:
256,192,298280,1,0,0:0:0:0:
256,192,298348,1,8,0:0:0:0:
256,192,298417,1,8,0:0:0:0:
256,192,298485,1,8,0:0:0:0:
256,192,298553,1,8,0:0:0:0:
256,192,298621,1,4,0:0:0:0:
256,192,298758,1,8,0:0:0:0:
256,192,298826,1,0,0:0:0:0:
256,192,298894,1,8,0:0:0:0:
256,192,299030,1,0,0:0:0:0:
256,192,299167,1,8,0:0:0:0:
256,192,299235,1,8,0:0:0:0:
256,192,299303,1,0,0:0:0:0:
256,192,299371,1,0,0:0:0:0:
256,192,299439,1,8,0:0:0:0:
256,192,299576,1,8,0:0:0:0:
256,192,299712,1,0,0:0:0:0:
256,192,299780,1,8,0:0:0:0:
256,192,299848,1,0,0:0:0:0:
256,192,299917,1,0,0:0:0:0:
256,192,299985,1,8,0:0:0:0:
256,192,300053,1,0,0:0:0:0:
256,192,300121,1,0,0:0:0:0:
256,192,300189,1,0,0:0:0:0:
256,192,300258,1,8,0:0:0:0:
256,192,300326,1,8,0:0:0:0:
256,192,300394,1,0,0:0:0:0:
256,192,300462,1,0,0:0:0:0:
256,192,300530,1,8,0:0:0:0:
256,192,300667,1,0,0:0:0:0:
256,192,300803,1,8,0:0:0:0:
256,192,300939,1,0,0:0:0:0:
256,192,301008,1,0,0:0:0:0:
256,192,301076,1,8,0:0:0:0:
256,192,301212,1,0,0:0:0:0:
256,192,301348,1,8,0:0:0:0:
256,192,301417,1,0,0:0:0:0:
256,192,301485,1,8,0:0:0:0:
256,192,301553,1,8,0:0:0:0:
256,192,301621,1,0,0:0:0:0:
256,192,301689,1,0,0:0:0:0:
256,192,301758,1,8,0:0:0:0:
256,192,301826,1,8,0:0:0:0:
256,192,301894,1,0,0:0:0:0:
256,192,302030,1,8,0:0:0:0:
256,192,302098,1,0,0:0:0:0:
256,192,302167,1,8,0:0:0:0:
256,192,302303,1,0,0:0:0:0:
256,192,302439,1,8,0:0:0:0:
256,192,302508,1,0,0:0:0:0:
256,192,302576,1,0,0:0:0:0:
256,192,302644,1,0,0:0:0:0:
256,192,302712,1,8,0:0:0:0:
256,192,302780,1,8,0:0:0:0:
256,192,302848,1,0,0:0:0:0:
256,192,302917,1,8,0:0:0:0:
256,192,302985,1,0,0:0:0:0:
256,192,303121,1,0,0:0:0:0:
256,192,303189,1,0,0:0:0:0:
256,192,303258,1,8,0:0:0:0:
256,192,303394,1,8,0:0:0:0:
256,192,303530,1,0,0:0:0:0:
256,192,303598,1,8,0:0:0:0:
256,192,303667,1,8,0:0:0:0:
256,192,303735,1,0,0:0:0:0:
256,192,303803,1,8,0:0:0:0:
256,192,303939,1,0,0:0:0:0:
256,192,304076,1,8,0:0:0:0:
256,192,304144,1,8,0:0:0:0:
256,192,304212,1,8,0:0:0:0:
256,192,304348,1,0,0:0:0:0:
256,192,304485,1,8,0:0:0:0:
256,192,304621,1,0,0:0:0:0:
256,192,304689,1,8,0:0:0:0:
256,192,304758,1,0,0:0:0:0:
256,192,304826,1,0,0:0:0:0:
256,192,304894,1,8,0:0:0:0:
256,192,305030,1,0,0:0:0:0:
256,192,305167,1,8,0:0:0:0:
256,192,305235,1,8,0:0:0:0:
256,192,305303,1,0,0:0:0:0:
256,192,305371,1,0,0:0:0:0:
256,192,305439,1,8,0:0:0:0:
256,192,305576,1,8,0:0:0:0:
256,192,305712,1,0,0:0:0:0:
256,192,305780,1,0,0:0:0:0:
256,192,305848,1,8,0:0:0:0:
256,192,305917,1,0,0:0:0:0:
256,192,305985,1,8,0:0:0:0:
256,192,306053,1,8,0:0:0:0:
256,192,306121,1,0,0:0:0:0:
256,192,306189,1,0,0:0:0:0:
256,192,306258,1,8,0:0:0:0:
256,192,306394,1,0,0:0:0:0:
256,192,306462,1,8,0:0:0:0:
256,192,306530,1,8,0:0:0:0:
256,192,306598,1,8,0:0:0:0:
256,192,306667,1,0,0:0:0:0:
256,192,306735,1,0,0:0:0:0:
256,192,306803,1,8,0:0:0:0:
256,192,306871,1,0,0:0:0:0:
256,192,306939,1,8,0:0:0:0:
256,192,306985,1,8,0:0:0:0:
256,192,307030,1,8,0:0:0:0:
256,192,307076,1,0,0:0:0:0:
256,192,307212,1,0,0:0:0:0:
256,192,307348,1,12,0:0:0:0:
256,192,307485,1,0,0:0:0:0:
256,192,307553,1,0,0:0:0:0:
256,192,307621,1,8,0:0:0:0:
256,192,307758,1,8,0:0:0:0:
256,192,307894,1,0,0:0:0:0:
256,192,307962,1,8,0:0:0:0:
256,192,308030,1,0,0:0:0:0:
256,192,308098,1,0,0:0:0:0:
256,192,308167,1,8,0:0:0:0:
256,192,308303,1,8,0:0:0:0:
256,192,308439,1,0,0:0:0:0:
256,192,308508,1,0,0:0:0:0:
256,192,308576,1,8,0:0:0:0:
256,192,308644,1,0,0:0:0:0:
256,192,308712,1,8,0:0:0:0:
256,192,308848,1,0,0:0:0:0:
256,192,308985,1,8,0:0:0:0:
256,192,309053,1,8,0:0:0:0:
256,192,309121,1,0,0:0:0:0:
256,192,309189,1,0,0:0:0:0:
256,192,309258,1,8,0:0:0:0:
256,192,309326,1,0,0:0:0:0:
256,192,309394,1,0,0:0:0:0:
256,192,309462,1,0,0:0:0:0:
256,192,309530,1,8,0:0:0:0:
256,192,309667,1,0,0:0:0:0:
256,192,309735,1,0,0:0:0:0:
256,192,309803,1,8,0:0:0:0:
256,192,309939,1,0,0:0:0:0:
256,192,310076,1,8,0:0:0:0:
256,192,310144,1,8,0:0:0:0:
256,192,310212,1,0,0:0:0:0:
256,192,310280,1,0,0:0:0:0:
256,192,310348,1,8,0:0:0:0:
256,192,310417,1,8,0:0:0:0:
256,192,310485,1,8,0:0:0:0:
256,192,310553,1,8,0:0:0:0:
256,192,310621,1,0,0:0:0:0:
256,192,310758,1,0,0:0:0:0:
256,192,310826,1,0,0:0:0:0:
256,192,310894,1,8,0:0:0:0:
256,192,311030,1,0,0:0:0:0:
256,192,311167,1,8,0:0:0:0:
256,192,311212,1,8,0:0:0:0:
256,192,311258,1,8,0:0:0:0:
256,192,311303,1,0,0:0:0:0:
256,192,311371,1,0,0:0:0:0:
256,192,311439,1,8,0:0:0:0:
256,192,311508,1,0,0:0:0:0:
256,192,311576,1,8,0:0:0:0:
256,192,311644,1,8,0:0:0:0:
256,192,311712,1,0,0:0:0:0:
256,192,311848,1,8,0:0:0:0:
256,192,311917,1,8,0:0:0:0:
256,192,311985,1,0,0:0:0:0:
256,192,312121,1,8,0:0:0:0:
256,192,312258,1,0,0:0:0:0:
256,192,312326,1,0,0:0:0:0:
256,192,312394,1,0,0:0:0:0:
256,192,312530,1,8,0:0:0:0:
256,192,312667,1,0,0:0:0:0:
256,192,312735,1,0,0:0:0:0:
256,192,312803,1,8,0:0:0:0:
256,192,312939,1,0,0:0:0:0:
256,192,313076,1,8,0:0:0:0:
256,192,313144,1,8,0:0:0:0:
256,192,313212,1,8,0:0:0:0:
256,192,313280,1,0,0:0:0:0:
256,192,313348,1,8,0:0:0:0:
256,192,313417,1,8,0:0:0:0:
256,192,313485,1,0,0:0:0:0:
256,192,313553,1,0,0:0:0:0:
256,192,313621,1,8,0:0:0:0:
256,192,313689,1,0,0:0:0:0:
256,192,313758,1,8,0:0:0:0:
256,192,313826,1,8,0:0:0:0:
256,192,313894,1,0,0:0:0:0:
256,192,314030,1,0,0:0:0:0:
256,192,314098,1,0,0:0:0:0:
256,192,314167,1,8,0:0:0:0:
256,192,314303,1,0,0:0:0:0:
256,192,314439,1,8,0:0:0:0:
256,192,314508,1,8,0:0:0:0:
256,192,314576,1,0,0:0:0:0:
256,192,314644,1,0,0:0:0:0:
256,192,314712,1,8,0:0:0:0:
256,192,314848,1,0,0:0:0:0:
256,192,314985,1,8,0:0:0:0:
256,192,315053,1,0,0:0:0:0:
256,192,315121,1,8,0:0:0:0:
256,192,315189,1,8,0:0:0:0:
256,192,315258,1,0,0:0:0:0:
256,192,315326,1,8,0:0:0:0:
256,192,315394,1,0,0:0:0:0:
256,192,315462,1,0,0:0:0:0:
256,192,315530,1,8,0:0:0:0:
256,192,315598,1,8,0:0:0:0:
256,192,315667,1,0,0:0:0:0:
256,192,315735,1,0,0:0:0:0:
256,192,315803,1,8,0:0:0:0:
256,192,315848,1,8,0:0:0:0:
256,192,315894,1,8,0:0:0:0:
256,192,315939,1,0,0:0:0:0:
256,192,315985,1,0,0:0:0:0:
256,192,316030,1,0,0:0:0:0:
256,192,316076,1,8,0:0:0:0:
256,192,316144,12,0,318258,0:0:0:0:
256,192,318530,5,8,0:0:0:0:
256,192,318598,1,0,0:0:0:0:
256,192,318667,1,0,0:0:0:0:
256,192,318735,1,8,0:0:0:0:
256,192,318803,1,0,0:0:0:0:
256,192,318939,1,8,0:0:0:0:
256,192,319008,1,0,0:0:0:0:
256,192,319076,1,8,0:0:0:0:
256,192,319212,1,8,0:0:0:0:
256,192,319280,1,8,0:0:0:0:
256,192,319348,1,0,0:0:0:0:
256,192,319485,1,0,0:0:0:0:
256,192,319621,1,8,0:0:0:0:
256,192,319689,1,8,0:0:0:0:
256,192,319758,1,8,0:0:0:0:
256,192,319826,1,8,0:0:0:0:
256,192,319894,1,0,0:0:0:0:
256,192,319962,1,0,0:0:0:0:
256,192,320030,1,8,0:0:0:0:
256,192,320098,1,0,0:0:0:0:
256,192,320167,1,8,0:0:0:0:
256,192,320235,1,8,0:0:0:0:
256,192,320303,1,8,0:0:0:0:
256,192,320371,1,8,0:0:0:0:
256,192,320439,1,0,0:0:0:0:
256,192,320712,1,8,0:0:0:0:
256,192,320780,1,8,0:0:0:0:
256,192,320848,1,0,0:0:0:0:
256,192,320985,1,8,0:0:0:0:
256,192,321053,1,0,0:0:0:0:
256,192,321121,1,8,0:0:0:0:
256,192,321189,1,8,0:0:0:0:
256,192,321258,1,0,0:0:0:0:
256,192,321326,1,0,0:0:0:0:
256,192,321394,1,8,0:0:0:0:
256,192,321530,1,0,0:0:0:0:
256,192,321598,1,0,0:0:0:0:
256,192,321667,1,8,0:0:0:0:
256,192,321735,1,8,0:0:0:0:
256,192,321803,1,0,0:0:0:0:
256,192,321939,1,8,0:0:0:0:
256,192,322008,1,0,0:0:0:0:
256,192,322076,1,8,0:0:0:0:
256,192,322212,1,0,0:0:0:0:
256,192,322280,1,0,0:0:0:0:
256,192,322348,1,8,0:0:0:0:
256,192,322417,1,8,0:0:0:0:
256,192,322485,1,0,0:0:0:0:
256,192,322621,1,0,0:0:0:0:
256,192,322894,1,8,0:0:0:0:
256,192,323030,1,0,0:0:0:0:
256,192,323098,1,0,0:0:0:0:
256,192,323167,1,8,0:0:0:0:
256,192,323235,1,8,0:0:0:0:
256,192,323303,1,0,0:0:0:0:
256,192,323439,1,8,0:0:0:0:
256,192,323508,1,0,0:0:0:0:
256,192,323576,1,8,0:0:0:0:
256,192,323712,1,8,0:0:0:0:
256,192,323848,1,0,0:0:0:0:
256,192,323917,1,0,0:0:0:0:
256,192,323985,1,0,0:0:0:0:
256,192,324121,1,0,0:0:0:0:
256,192,324394,1,8,0:0:0:0:
256,192,324530,1,0,0:0:0:0:
256,192,324598,1,0,0:0:0:0:
256,192,324667,1,8,0:0:0:0:
256,96,324803,1,12,0:0:0:0:
256,192,325076,1,0,0:0:0:0:
256,192,325348,1,0,0:0:0:0:
256,192,325485,1,8,0:0:0:0:
256,192,325553,1,8,0:0:0:0:
256,192,325621,1,0,0:0:0:0:
256,192,325689,1,0,0:0:0:0:
256,192,325758,1,0,0:0:0:0:
256,192,325894,1,0,0:0:0:0:
256,192,326030,1,8,0:0:0:0:
256,192,326098,1,0,0:0:0:0:
256,192,326167,1,0,0:0:0:0:
256,192,326235,1,8,0:0:0:0:
256,192,326303,1,0,0:0:0:0:
256,192,326439,1,0,0:0:0:0:
256,192,326576,1,8,0:0:0:0:
256,192,326644,1,0,0:0:0:0:
256,192,326712,1,8,0:0:0:0:
256,192,326780,1,0,0:0:0:0:
256,192,326848,1,0,0:0:0:0:
256,192,326985,1,0,0:0:0:0:
256,192,328076,1,8,0:0:0:0:
256,192,328621,1,0,0:0:0:0:
256,192,329167,1,0,0:0:0:0:
256,192,330258,1,0,0:0:0:0:
256,192,331348,1,0,0:0:0:0:
256,192,332439,1,8,0:0:0:0:
256,192,332576,12,0,333530,0:0:0:0:
