osu file format v14

[General]
AudioFilename: audio.mp3
AudioLeadIn: 0
PreviewTime: 92239
Countdown: 0
SampleSet: Normal
StackLeniency: 0.7
Mode: 3
LetterboxInBreaks: 0
SpecialStyle: 0
WidescreenStoryboard: 0

[Editor]
Bookmarks: 183973,204523,210373,241573,294394
DistanceSpacing: 0.4
BeatDivisor: 8
GridSize: 32
TimelineZoom: 2.059998

[Metadata]
Title:escape (the looking-glass, and what alice found there)
TitleUnicode:escape (the looking-glass, and what alice found there)
Artist:Kurokotei feat. Sennzai
ArtistUnicode:黒皇帝 feat. Sennzai
Creator:ByeForNow
Version:Gospel
Source:osu! World Cup 2022
Tags:owc2022sftb semifinals tiebreaker original fa featured artist footwork footcore riddim artcore hardtek breakcore amenpunk electronic conlang japanese instrumental
BeatmapID:4018338
BeatmapSetID:1942597

[Difficulty]
HPDrainRate:8
CircleSize:4
OverallDifficulty:8
ApproachRate:5
SliderMultiplier:1.4
SliderTickRate:1

[Events]
//Background and Video events
0,0,"bg.jpg",0,0
//Break Periods
//Storyboard Layer 0 (Background)
//Storyboard Layer 1 (Fail)
//Storyboard Layer 2 (Pass)
//Storyboard Layer 3 (Foreground)
//Storyboard Layer 4 (Overlay)
//Storyboard Sound Samples
Sample,48896,0,"kick_0.wav",100
Sample,53865,0,"clap_1.wav",100
Sample,59865,0,"clap_1.wav",100
Sample,65865,0,"clap_1.wav",100
Sample,282530,0,"snare_1.wav",70
Sample,283076,0,"snare_1.wav",70
Sample,286826,0,"kick_0.wav",100
Sample,306598,0,"snare_4.wav",100
Sample,316076,0,"cymbal_0.wav",100

[TimingPoints]
240,375,4,1,1,50,1,0
240,-72.463768115942,4,1,1,50,0,0
72240,333.333333333333,4,1,1,50,1,0
72240,-81.9672131147541,4,1,1,50,0,0
157573,300,4,1,1,50,1,0
157573,-90.9090909090909,4,1,1,50,0,0
243973,294.117647058824,4,1,1,50,1,0
243973,-92.5925925925926,4,1,1,50,0,0
244561,288.461538461538,4,1,1,50,1,0
244561,-94.3396226415094,4,1,1,50,0,0
245137,283.018867924528,4,1,1,50,1,0
245137,-96.1538461538461,4,1,1,50,0,0
245703,277.777777777778,4,1,1,50,1,0
245703,-98.0392156862745,4,1,1,50,0,0
246258,272.727272727273,4,1,1,50,1,0
281030,-100,4,1,1,50,0,1
297530,-100,4,1,1,50,0,0
298621,-100,4,1,1,50,0,1
316076,-100,4,1,1,50,0,0

[HitObjects]
64,192,12240,5,0,0:0:0:100:kick_0.wav
448,192,12240,1,0,0:0:0:100:cymbal_0.wav
192,192,12427,1,0,0:0:0:0:
320,192,12521,1,0,0:0:0:0:
448,192,12615,1,0,0:0:0:0:
64,192,12708,1,0,0:0:0:0:
320,192,12802,1,0,0:0:0:0:
448,192,12896,1,0,0:0:0:0:
320,192,12990,1,0,0:0:0:50:snare_0.wav
448,192,12990,1,0,0:0:0:50:snare_0.wav
320,192,13177,1,0,0:0:0:0:
192,192,13271,1,0,0:0:0:0:
320,192,13365,1,0,0:0:0:0:
192,192,13458,1,0,0:0:0:0:
448,192,13552,1,0,0:0:0:0:
320,192,13646,1,0,0:0:0:0:
64,192,13740,1,0,0:0:0:100:kick_0.wav
64,192,13927,128,0,14115:0:0:0:0:
320,192,14021,128,0,14115:0:0:0:0:
192,192,14115,1,0,0:0:0:0:
64,192,14302,1,0,0:0:0:100:kick_0.wav
448,192,14396,1,0,0:0:0:0:
192,192,14490,1,0,0:0:0:50:snare_1.wav
320,192,14490,1,0,0:0:0:50:snare_1.wav
192,192,14677,1,0,0:0:0:0:
320,192,14771,1,0,0:0:0:0:
448,192,14865,1,0,0:0:0:50:clap_0.wav
64,192,14865,1,0,0:0:0:50:clap_0.wav
192,192,14958,1,0,0:0:0:0:
64,192,15031,1,0,0:0:0:0:
448,192,15073,1,0,0:0:0:0:
320,192,15115,1,0,0:0:0:0:
192,192,15156,1,0,0:0:0:0:
64,192,15198,1,0,0:0:0:0:
448,192,15240,1,0,0:0:0:100:kick_0.wav
192,192,15427,1,0,0:0:0:0:
320,192,15521,1,0,0:0:0:0:
448,192,15615,1,0,0:0:0:0:
64,192,15708,1,0,0:0:0:0:
320,192,15802,1,0,0:0:0:0:
448,192,15896,1,0,0:0:0:0:
320,192,15990,1,0,0:0:0:50:snare_0.wav
448,192,15990,1,0,0:0:0:50:snare_0.wav
320,192,16177,1,0,0:0:0:0:
192,192,16271,1,0,0:0:0:0:
320,192,16365,1,0,0:0:0:0:
192,192,16458,1,0,0:0:0:0:
448,192,16552,1,0,0:0:0:0:
320,192,16646,1,0,0:0:0:0:
64,192,16740,1,0,0:0:0:100:kick_0.wav
64,192,16927,128,0,17115:0:0:0:0:
320,192,17021,128,0,17115:0:0:0:0:
192,192,17115,1,0,0:0:0:0:
448,192,17115,1,0,0:0:0:0:
64,192,17302,1,0,0:0:0:100:kick_0.wav
448,192,17396,1,0,0:0:0:100:kick_0.wav
192,192,17490,1,0,0:0:0:50:snare_1.wav
320,192,17490,128,0,17583:0:0:0:50:snare_1.wav
192,192,17607,1,0,0:0:0:0:
192,192,17724,1,0,0:0:0:0:
320,192,17747,128,0,17841:0:0:0:0:
192,192,17841,1,0,0:0:0:0:
448,192,17911,1,0,0:0:0:0:
64,192,17940,1,0,0:0:0:0:
320,192,17982,128,0,18075:0:0:0:0:
320,192,18146,1,0,0:0:0:0:
64,192,18240,1,0,0:0:0:100:cymbal_0.wav
448,192,18240,1,0,0:0:0:100:kick_0.wav
320,192,18333,1,0,0:0:0:0:
192,192,18427,1,0,0:0:0:0:
320,192,18521,1,0,0:0:0:0:
448,192,18615,1,0,0:0:0:0:
64,192,18708,1,0,0:0:0:0:
320,192,18802,1,0,0:0:0:0:
448,192,18896,1,0,0:0:0:0:
320,192,18990,1,0,0:0:0:50:snare_0.wav
448,192,18990,1,0,0:0:0:50:snare_0.wav
192,192,19083,1,0,0:0:0:0:
64,192,19177,1,0,0:0:0:0:
448,192,19271,1,0,0:0:0:0:
320,192,19365,1,0,0:0:0:0:
192,192,19458,1,0,0:0:0:0:
448,192,19552,1,0,0:0:0:0:
320,192,19646,1,0,0:0:0:0:
192,192,19693,1,0,0:0:0:0:
64,192,19740,1,0,0:0:0:100:kick_0.wav
320,192,19833,1,0,0:0:0:0:
64,192,19927,128,0,20115:0:0:0:0:
320,192,20021,128,0,20115:0:0:0:0:
448,192,20115,1,0,0:0:0:0:
192,192,20115,1,0,0:0:0:0:
320,192,20208,1,0,0:0:0:0:
192,192,20302,1,0,0:0:0:100:kick_0.wav
448,192,20396,1,0,0:0:0:0:
192,192,20443,1,0,0:0:0:0:
320,192,20490,1,0,0:0:0:50:snare_1.wav
64,192,20490,1,0,0:0:0:50:snare_1.wav
448,192,20536,1,0,0:0:0:0:
192,192,20583,1,0,0:0:0:0:
320,192,20677,1,0,0:0:0:0:
192,192,20771,1,0,0:0:0:0:
64,192,20865,1,0,0:0:0:50:clap_0.wav
448,192,20865,1,0,0:0:0:50:clap_0.wav
320,192,20958,1,0,0:0:0:0:
192,192,21052,1,0,0:0:0:0:
192,192,21146,1,0,0:0:0:0:
64,192,21240,1,0,0:0:0:100:kick_0.wav
320,192,21333,1,0,0:0:0:0:
192,192,21427,1,0,0:0:0:0:
320,192,21521,1,0,0:0:0:0:
448,192,21615,1,0,0:0:0:0:
64,192,21708,1,0,0:0:0:0:
320,192,21802,1,0,0:0:0:0:
448,192,21896,1,0,0:0:0:0:
320,192,21990,1,0,0:0:0:50:snare_0.wav
448,192,21990,1,0,0:0:0:50:snare_0.wav
192,192,22083,1,0,0:0:0:0:
64,192,22177,1,0,0:0:0:0:
448,192,22271,1,0,0:0:0:0:
320,192,22365,1,0,0:0:0:0:
448,192,22458,1,0,0:0:0:0:
192,192,22552,128,0,22615:0:0:0:0:
448,192,22646,128,0,22708:0:0:0:0:
192,192,22693,1,0,0:0:0:0:
64,192,22740,1,0,0:0:0:100:kick_0.wav
448,192,22833,1,0,0:0:0:0:
64,192,22927,128,0,23115:0:0:0:0:
320,192,23021,128,0,23115:0:0:0:0:
192,192,23115,1,0,0:0:0:0:
320,192,23208,1,0,0:0:0:0:
448,192,23302,1,0,0:0:0:100:kick_0.wav
320,192,23349,1,0,0:0:0:100:kick_0.wav
192,192,23396,1,0,0:0:0:100:kick_0.wav
64,192,23443,1,0,0:0:0:100:kick_0.wav
192,192,23490,128,0,24005:0:0:0:50:snare_1.wav
448,192,23490,128,0,24005:0:0:0:50:snare_1.wav
320,192,24052,1,0,0:0:0:50:snare_0.wav
192,192,24052,1,0,0:0:0:50:snare_0.wav
64,192,24240,1,0,0:0:0:100:kick_0.wav
320,192,24240,1,0,0:0:0:50:cymbal_0.wav
448,192,24240,1,0,0:0:0:50:cymbal_0.wav
192,192,24333,1,0,0:0:0:0:
320,192,24427,1,0,0:0:0:0:
64,192,24521,1,0,0:0:0:50:kick_0.wav
448,192,24521,1,0,0:0:0:50:kick_0.wav
192,192,24615,1,0,0:0:0:0:
320,192,24708,1,0,0:0:0:0:
448,192,24802,1,0,0:0:0:50:kick_0.wav
64,192,24802,1,0,0:0:0:50:kick_0.wav
192,192,24896,1,0,0:0:0:0:
64,192,24990,1,0,0:0:0:50:kick_0.wav
320,192,24990,1,0,0:0:0:50:kick_0.wav
448,192,25083,1,0,0:0:0:0:
192,192,25177,1,0,0:0:0:0:
64,192,25271,1,0,0:0:0:50:kick_0.wav
320,192,25271,1,0,0:0:0:50:kick_0.wav
448,192,25365,1,0,0:0:0:0:
192,192,25458,1,0,0:0:0:0:
64,192,25552,1,0,0:0:0:50:kick_0.wav
320,192,25552,1,0,0:0:0:50:kick_0.wav
448,192,25646,1,0,0:0:0:0:
448,192,25740,1,0,0:0:0:50:kick_0.wav
64,192,25740,1,0,0:0:0:50:kick_0.wav
192,192,25833,1,0,0:0:0:0:
320,192,25927,1,0,0:0:0:0:
448,192,26021,1,0,0:0:0:50:kick_0.wav
64,192,26021,1,0,0:0:0:50:kick_0.wav
64,192,26115,1,0,0:0:0:0:
320,192,26208,1,0,0:0:0:0:
192,192,26302,1,0,0:0:0:100:kick_0.wav
448,192,26396,1,0,0:0:0:0:
320,192,26490,1,0,0:0:0:50:kick_0.wav
448,192,26490,1,0,0:0:0:50:kick_0.wav
64,192,26583,1,0,0:0:0:0:
192,192,26677,1,0,0:0:0:0:
320,192,26771,1,0,0:0:0:50:kick_0.wav
448,192,26771,1,0,0:0:0:50:kick_0.wav
192,192,26865,1,0,0:0:0:100:clap_1.wav
320,192,26958,1,0,0:0:0:0:
64,192,27052,1,0,0:0:0:50:kick_0.wav
448,192,27052,1,0,0:0:0:50:kick_0.wav
320,192,27146,1,0,0:0:0:0:
64,192,27240,1,0,0:0:0:50:kick_0.wav
192,192,27240,1,0,0:0:0:50:kick_0.wav
320,192,27333,1,0,0:0:0:0:
448,192,27427,1,0,0:0:0:0:
192,192,27521,1,0,0:0:0:50:kick_0.wav
64,192,27521,1,0,0:0:0:50:kick_0.wav
448,192,27615,1,0,0:0:0:0:
64,192,27708,1,0,0:0:0:0:
448,192,27802,1,0,0:0:0:50:kick_0.wav
192,192,27802,1,0,0:0:0:50:kick_0.wav
320,192,27896,1,0,0:0:0:0:
192,192,27990,1,0,0:0:0:50:kick_0.wav
64,192,27990,1,0,0:0:0:50:kick_0.wav
448,192,28036,1,0,0:0:0:0:
320,192,28083,1,0,0:0:0:0:
192,192,28130,1,0,0:0:0:0:
64,192,28177,1,0,0:0:0:0:
320,192,28271,1,0,0:0:0:50:kick_0.wav
64,192,28271,1,0,0:0:0:50:kick_0.wav
448,192,28302,1,0,0:0:0:0:
192,192,28365,1,0,0:0:0:0:
192,192,28458,1,0,0:0:0:0:
448,192,28552,1,0,0:0:0:50:kick_0.wav
192,192,28552,1,0,0:0:0:50:kick_0.wav
320,192,28646,1,0,0:0:0:0:
320,192,28740,1,0,0:0:0:50:kick_0.wav
448,192,28740,1,0,0:0:0:50:kick_0.wav
192,192,28833,1,0,0:0:0:0:
64,192,28927,1,0,0:0:0:0:
448,192,29021,1,0,0:0:0:50:kick_0.wav
192,192,29021,1,0,0:0:0:50:kick_0.wav
320,192,29115,1,0,0:0:0:0:
448,192,29115,1,0,0:0:0:0:
192,192,29302,1,0,0:0:0:50:kick_0.wav
64,192,29302,1,0,0:0:0:50:kick_0.wav
320,192,29396,1,0,0:0:0:0:
192,192,29490,1,0,0:0:0:100:cymbal_1.wav
320,192,29490,1,0,0:0:0:50:kick_0.wav
448,192,29490,1,0,0:0:0:50:kick_0.wav
320,192,29740,1,0,0:0:0:100:cymbal_1.wav
448,192,29740,1,0,0:0:0:50:kick_0.wav
192,192,29740,1,0,0:0:0:50:kick_0.wav
320,192,29990,1,0,0:0:0:100:cymbal_1.wav
448,192,29990,1,0,0:0:0:50:kick_0.wav
192,192,29990,1,0,0:0:0:50:kick_0.wav
64,192,30115,1,0,0:0:0:100:kick_0.wav
448,192,30240,1,0,0:0:0:100:kick_0.wav
64,192,30240,1,0,0:0:0:50:cymbal_0.wav
320,192,30240,1,0,0:0:0:50:cymbal_0.wav
192,192,30333,1,0,0:0:0:0:
320,192,30427,1,0,0:0:0:0:
448,192,30521,1,0,0:0:0:50:kick_0.wav
64,192,30521,1,0,0:0:0:50:kick_0.wav
192,192,30615,1,0,0:0:0:0:
320,192,30708,1,0,0:0:0:0:
448,192,30802,1,0,0:0:0:50:kick_0.wav
64,192,30802,1,0,0:0:0:50:kick_0.wav
192,192,30896,1,0,0:0:0:0:
64,192,30990,1,0,0:0:0:100:kick_0.wav
320,192,30990,1,0,0:0:0:100:clap_1.wav
192,192,31083,1,0,0:0:0:0:
448,192,31177,1,0,0:0:0:0:
64,192,31271,1,0,0:0:0:50:kick_0.wav
320,192,31271,1,0,0:0:0:50:kick_0.wav
192,192,31365,1,0,0:0:0:0:
192,192,31458,1,0,0:0:0:0:
64,192,31552,1,0,0:0:0:50:kick_0.wav
320,192,31552,1,0,0:0:0:50:kick_0.wav
448,192,31599,1,0,0:0:0:0:
192,192,31646,1,0,0:0:0:0:
64,192,31693,1,0,0:0:0:0:
320,192,31740,1,0,0:0:0:50:kick_0.wav
448,192,31740,1,0,0:0:0:50:kick_0.wav
448,192,31833,1,0,0:0:0:0:
320,192,31880,1,0,0:0:0:0:
192,192,31927,1,0,0:0:0:0:
320,192,31974,1,0,0:0:0:0:
192,192,32021,1,0,0:0:0:100:kick_0.wav
64,192,32068,1,0,0:0:0:0:
448,192,32115,1,0,0:0:0:0:
320,192,32208,1,0,0:0:0:0:
192,192,32302,1,0,0:0:0:50:kick_0.wav
64,192,32302,1,0,0:0:0:50:kick_0.wav
320,192,32396,1,0,0:0:0:0:
192,192,32490,1,0,0:0:0:50:kick_0.wav
448,192,32490,1,0,0:0:0:50:kick_0.wav
64,192,32583,1,0,0:0:0:0:
320,192,32677,1,0,0:0:0:0:
192,192,32771,1,0,0:0:0:50:kick_0.wav
448,192,32771,1,0,0:0:0:50:kick_0.wav
64,192,32865,1,0,0:0:0:100:clap_1.wav
320,192,32958,1,0,0:0:0:0:
192,192,33052,1,0,0:0:0:50:kick_0.wav
448,192,33052,1,0,0:0:0:50:kick_0.wav
64,192,33099,1,0,0:0:0:0:
320,192,33146,1,0,0:0:0:0:
448,192,33193,1,0,0:0:0:0:
64,192,33240,1,0,0:0:0:50:kick_0.wav
192,192,33240,1,0,0:0:0:50:kick_0.wav
448,192,33333,1,0,0:0:0:0:
320,192,33427,1,0,0:0:0:0:
192,192,33521,1,0,0:0:0:50:kick_0.wav
64,192,33521,1,0,0:0:0:50:kick_0.wav
320,192,33615,1,0,0:0:0:0:
448,192,33708,1,0,0:0:0:0:
448,192,33802,1,0,0:0:0:50:kick_0.wav
64,192,33802,1,0,0:0:0:50:kick_0.wav
320,192,33896,1,0,0:0:0:0:
64,192,33990,1,0,0:0:0:50:kick_0.wav
192,192,33990,1,0,0:0:0:50:kick_0.wav
64,192,34083,1,0,0:0:0:0:
192,192,34177,1,0,0:0:0:0:
192,192,34271,1,0,0:0:0:50:kick_0.wav
320,192,34271,1,0,0:0:0:50:kick_0.wav
320,192,34365,1,0,0:0:0:0:
448,192,34458,1,0,0:0:0:0:
320,192,34552,1,0,0:0:0:50:kick_0.wav
448,192,34552,1,0,0:0:0:50:kick_0.wav
192,192,34599,1,0,0:0:0:0:
320,192,34646,1,0,0:0:0:0:
448,192,34693,1,0,0:0:0:0:
64,192,34740,1,0,0:0:0:50:kick_0.wav
192,192,34740,1,0,0:0:0:50:kick_0.wav
320,192,34833,1,0,0:0:0:0:
192,192,34927,1,0,0:0:0:0:
192,192,35021,1,0,0:0:0:0:
320,192,35115,1,0,0:0:0:0:
320,192,35232,1,0,0:0:0:0:
448,192,35302,1,0,0:0:0:100:kick_0.wav
192,192,35325,1,0,0:0:0:0:
192,192,35419,1,0,0:0:0:0:
64,192,35490,1,0,0:0:0:50:snare_0.wav
448,192,35490,1,0,0:0:0:50:snare_0.wav
320,192,35513,1,0,0:0:0:0:
192,192,35630,1,0,0:0:0:0:
320,192,35724,1,0,0:0:0:0:
320,192,35818,1,0,0:0:0:0:
192,192,35911,1,0,0:0:0:0:
192,192,36029,1,0,0:0:0:0:
320,192,36122,1,0,0:0:0:0:
64,192,36240,1,0,0:0:0:100:cymbal_0.wav
192,192,36240,128,0,36615:0:0:0:50:kick_0.wav
448,192,36240,1,0,0:0:0:50:kick_0.wav
320,192,36333,128,0,36615:0:0:0:0:
448,192,36380,128,0,36615:0:0:0:0:
64,192,36615,128,0,36943:0:0:0:0:
64,192,36990,1,0,0:0:0:100:cymbal_0.wav
448,192,36990,1,0,0:0:0:100:kick_0.wav
192,192,37115,1,0,0:0:0:0:
320,192,37240,1,0,0:0:0:0:
64,192,37365,1,0,0:0:0:100:kick_0.wav
448,192,37365,1,0,0:0:0:100:snare_1.wav
192,192,37490,1,0,0:0:0:50:kick_0.wav
448,192,37490,1,0,0:0:0:50:kick_0.wav
320,192,37615,1,0,0:0:0:0:
64,192,37740,1,0,0:0:0:50:kick_0.wav
448,192,37740,1,0,0:0:0:50:kick_0.wav
320,192,37990,1,0,0:0:0:0:
64,192,38115,1,0,0:0:0:100:kick_0.wav
448,192,38115,1,0,0:0:0:100:snare_1.wav
64,192,38240,1,0,0:0:0:50:kick_0.wav
320,192,38240,1,0,0:0:0:50:kick_0.wav
320,192,38365,1,0,0:0:0:0:
64,192,38490,1,0,0:0:0:50:kick_0.wav
320,192,38490,1,0,0:0:0:50:kick_0.wav
192,192,38615,1,0,0:0:0:0:
320,192,38740,1,0,0:0:0:0:
448,192,38865,1,0,0:0:0:100:kick_0.wav
64,192,38865,1,0,0:0:0:100:snare_1.wav
192,192,38990,1,0,0:0:0:0:
320,192,38990,1,0,0:0:0:0:
320,192,39115,1,0,0:0:0:0:
448,192,39115,1,0,0:0:0:0:
192,192,39240,1,0,0:0:0:100:cymbal_1.wav
320,192,39240,128,0,39521:0:0:0:50:kick_0.wav
448,192,39240,128,0,39708:0:0:0:50:kick_0.wav
320,192,39615,128,0,39755:0:0:0:0:
192,192,39661,128,0,39943:0:0:0:0:
64,192,39708,128,0,39943:0:0:0:0:
192,192,39990,1,0,0:0:0:100:cymbal_0.wav
64,192,39990,1,0,0:0:0:50:kick_0.wav
448,192,39990,1,0,0:0:0:50:kick_0.wav
192,192,40115,1,0,0:0:0:0:
320,192,40240,1,0,0:0:0:0:
192,192,40365,1,0,0:0:0:100:snare_1.wav
64,192,40365,1,0,0:0:0:50:kick_0.wav
448,192,40365,1,0,0:0:0:50:kick_0.wav
192,192,40490,1,0,0:0:0:0:
320,192,40615,1,0,0:0:0:0:
192,192,40740,1,0,0:0:0:33:kick_0.wav
64,192,40740,1,0,0:0:0:33:kick_0.wav
448,192,40740,1,0,0:0:0:33:kick_0.wav
320,192,40865,1,0,0:0:0:50:kick_0.wav
64,192,40865,1,0,0:0:0:50:kick_0.wav
448,192,40990,1,0,0:0:0:50:kick_0.wav
320,192,40990,1,0,0:0:0:50:kick_0.wav
448,192,41115,1,0,0:0:0:100:snare_1.wav
192,192,41115,1,0,0:0:0:50:kick_0.wav
64,192,41115,1,0,0:0:0:50:kick_0.wav
320,192,41240,1,0,0:0:0:0:
192,192,41240,1,0,0:0:0:0:
320,192,41365,1,0,0:0:0:0:
64,192,41490,1,0,0:0:0:33:kick_0.wav
320,192,41490,1,0,0:0:0:33:kick_0.wav
448,192,41490,1,0,0:0:0:33:kick_0.wav
192,192,41615,1,0,0:0:0:0:
448,192,41740,1,0,0:0:0:50:kick_0.wav
320,192,41740,1,0,0:0:0:50:kick_0.wav
320,192,41865,1,0,0:0:0:50:snare_1.wav
192,192,41865,1,0,0:0:0:50:snare_1.wav
320,192,41990,1,0,0:0:0:50:kick_0.wav
64,192,41990,1,0,0:0:0:50:kick_0.wav
448,192,42052,1,0,0:0:0:100:kick_0.wav
64,192,42115,1,0,0:0:0:100:kick_0.wav
448,192,42177,1,0,0:0:0:100:kick_0.wav
320,192,42240,1,0,0:0:0:100:cymbal_0.wav
64,192,42240,1,0,0:0:0:50:kick_0.wav
192,192,42240,1,0,0:0:0:50:kick_0.wav
192,192,42333,1,0,0:0:0:0:
64,192,42427,1,0,0:0:0:0:
320,192,42521,1,0,0:0:0:50:kick_0.wav
192,192,42521,1,0,0:0:0:50:kick_0.wav
448,192,42615,1,0,0:0:0:0:
192,192,42708,1,0,0:0:0:0:
320,192,42802,1,0,0:0:0:50:kick_0.wav
448,192,42802,1,0,0:0:0:50:kick_0.wav
320,192,42896,1,0,0:0:0:0:
192,192,42990,1,0,0:0:0:100:cymbal_1.wav
64,192,42990,1,0,0:0:0:50:kick_0.wav
448,192,42990,1,0,0:0:0:50:kick_0.wav
320,192,43083,1,0,0:0:0:0:
64,192,43177,1,0,0:0:0:0:
192,192,43240,1,0,0:0:0:50:kick_0.wav
320,192,43240,1,0,0:0:0:50:kick_0.wav
448,192,43271,1,0,0:0:0:0:
192,192,43365,1,0,0:0:0:100:clap_1.wav
64,192,43458,1,0,0:0:0:0:
320,192,43490,1,0,0:0:0:50:kick_0.wav
448,192,43490,1,0,0:0:0:50:kick_0.wav
192,192,43552,1,0,0:0:0:0:
448,192,43646,1,0,0:0:0:0:
64,192,43740,1,0,0:0:0:100:cymbal_0.wav
192,192,43740,1,0,0:0:0:50:kick_0.wav
320,192,43740,1,0,0:0:0:50:kick_0.wav
192,192,43833,1,0,0:0:0:0:
64,192,43927,1,0,0:0:0:0:
320,192,44021,1,0,0:0:0:50:kick_0.wav
64,192,44021,1,0,0:0:0:50:kick_0.wav
320,192,44115,1,0,0:0:0:0:
192,192,44208,1,0,0:0:0:0:
448,192,44302,1,0,0:0:0:50:kick_0.wav
192,192,44302,1,0,0:0:0:50:kick_0.wav
448,192,44396,1,0,0:0:0:0:
448,192,44490,1,0,0:0:0:100:cymbal_1.wav
64,192,44490,1,0,0:0:0:50:kick_0.wav
320,192,44490,1,0,0:0:0:50:kick_0.wav
192,192,44583,1,0,0:0:0:0:
448,192,44677,1,0,0:0:0:0:
320,192,44740,1,0,0:0:0:50:kick_0.wav
192,192,44740,1,0,0:0:0:50:kick_0.wav
64,192,44771,1,0,0:0:0:0:
448,192,44865,1,0,0:0:0:100:clap_1.wav
64,192,44958,1,0,0:0:0:0:
320,192,44990,1,0,0:0:0:50:kick_0.wav
448,192,44990,1,0,0:0:0:50:kick_0.wav
192,192,45052,1,0,0:0:0:0:
320,192,45115,1,0,0:0:0:0:
192,192,45177,1,0,0:0:0:0:
64,192,45240,1,0,0:0:0:100:cymbal_0.wav
320,192,45240,1,0,0:0:0:50:kick_0.wav
448,192,45240,1,0,0:0:0:50:kick_0.wav
192,192,45333,1,0,0:0:0:70:kick_0.wav
192,192,45427,1,0,0:0:0:70:kick_0.wav
320,192,45521,1,0,0:0:0:75:kick_0.wav
320,192,45615,1,0,0:0:0:75:kick_0.wav
448,192,45708,1,0,0:0:0:80:kick_0.wav
448,192,45802,1,0,0:0:0:80:kick_0.wav
448,192,45896,1,0,0:0:0:80:kick_0.wav
64,192,45990,1,0,0:0:0:85:kick_0.wav
64,192,46115,1,0,0:0:0:85:kick_0.wav
64,192,46240,1,0,0:0:0:43:kick_0.wav
192,192,46240,1,0,0:0:0:43:kick_0.wav
320,192,46365,1,0,0:0:0:48:kick_0.wav
192,192,46365,1,0,0:0:0:48:kick_0.wav
320,192,46490,1,0,0:0:0:48:kick_0.wav
448,192,46490,1,0,0:0:0:48:kick_0.wav
320,192,46615,1,0,0:0:0:48:kick_0.wav
448,192,46615,1,0,0:0:0:48:kick_0.wav
64,192,46740,1,0,0:0:0:50:kick_0.wav
448,192,46740,1,0,0:0:0:50:kick_0.wav
192,192,47115,1,0,0:0:0:60:snare_3.wav
320,192,47240,1,0,0:0:0:80:snare_3.wav
448,192,47365,1,0,0:0:0:100:snare_3.wav
448,192,47490,1,0,0:0:0:100:snare_1.wav
64,192,47552,1,0,0:0:0:90:snare_2.wav
320,192,47615,1,0,0:0:0:80:snare_2.wav
64,192,47677,1,0,0:0:0:70:snare_2.wav
192,192,47740,1,0,0:0:0:60:snare_2.wav
64,192,47802,1,0,0:0:0:50:snare_2.wav
192,192,47865,1,0,0:0:0:33:snare_0.wav
320,192,47865,1,0,0:0:0:33:snare_0.wav
448,192,47865,1,0,0:0:0:33:snare_0.wav
448,192,48052,1,0,0:0:0:75:snare_2.wav
320,192,48115,1,0,0:0:0:75:snare_2.wav
192,192,48177,1,0,0:0:0:75:snare_2.wav
64,192,48240,1,0,0:0:0:50:kick_0.wav
448,192,48240,1,0,0:0:0:50:kick_0.wav
64,192,48365,1,0,0:0:0:0:
192,192,48490,1,0,0:0:0:0:
320,192,48615,1,0,0:0:0:0:
448,192,48638,1,0,0:0:0:0:
320,192,48740,1,0,0:0:0:0:
192,192,48755,1,0,0:0:0:0:
64,192,48865,1,0,0:0:0:0:
192,192,48872,1,0,0:0:0:0:
64,192,48990,1,0,0:0:0:33:snare_0.wav
448,192,48990,1,0,0:0:0:33:snare_0.wav
320,192,48990,1,0,0:0:0:33:snare_0.wav
320,192,49115,128,0,49281:0:0:0:0:
192,192,49240,1,0,0:0:0:0:
320,192,49365,128,0,49531:0:0:0:0:
192,192,49490,1,0,0:0:0:0:
320,192,49615,128,0,49781:0:0:0:0:
64,192,49740,1,0,0:0:0:100:kick_0.wav
192,192,49865,128,0,50031:0:0:0:0:
320,192,49990,1,0,0:0:0:0:
192,192,50115,128,0,50281:0:0:0:0:
320,192,50240,1,0,0:0:0:0:
192,192,50365,128,0,50490:0:0:0:0:
448,192,50396,1,0,0:0:0:100:kick_0.wav
448,192,50490,1,0,0:0:0:33:snare_0.wav
64,192,50490,1,0,0:0:0:33:snare_0.wav
320,192,50490,1,0,0:0:0:33:snare_0.wav
192,192,50615,1,0,0:0:0:0:
320,192,50740,128,0,50802:0:0:0:0:
192,192,50802,1,0,0:0:0:0:
320,192,50865,128,0,50927:0:0:0:100:clap_1.wav
192,192,50927,1,0,0:0:0:0:
320,192,50990,128,0,51052:0:0:0:0:
192,192,51052,1,0,0:0:0:0:
320,192,51115,128,0,51177:0:0:0:0:
192,192,51177,1,0,0:0:0:0:
64,192,51240,1,0,0:0:0:100:kick_0.wav
64,192,51427,1,0,0:0:0:100:kick_0.wav
320,192,51521,1,0,0:0:0:100:snare_2.wav
192,192,51568,1,0,0:0:0:100:snare_2.wav
320,192,51615,1,0,0:0:0:100:snare_2.wav
192,192,51661,1,0,0:0:0:100:snare_2.wav
64,192,51708,1,0,0:0:0:100:kick_0.wav
320,192,51802,1,0,0:0:0:100:snare_2.wav
64,192,51896,1,0,0:0:0:100:kick_0.wav
320,192,51990,1,0,0:0:0:33:snare_0.wav
448,192,51990,1,0,0:0:0:33:snare_0.wav
64,192,51990,1,0,0:0:0:33:snare_0.wav
320,192,52115,128,0,52281:0:0:0:0:
192,192,52240,1,0,0:0:0:0:
448,192,52365,128,0,52552:0:0:0:0:
192,192,52490,1,0,0:0:0:0:
320,192,52615,128,0,52781:0:0:0:0:
64,192,52740,1,0,0:0:0:100:kick_0.wav
192,192,52865,128,0,53031:0:0:0:0:
320,192,52990,1,0,0:0:0:0:
192,192,53115,128,0,53177:0:0:0:0:
320,192,53240,1,0,0:0:0:0:
192,192,53240,128,0,53302:0:0:0:0:
64,192,53302,1,0,0:0:0:100:kick_0.wav
192,192,53365,128,0,53490:0:0:0:0:
448,192,53396,1,0,0:0:0:100:kick_0.wav
64,192,53490,1,0,0:0:0:33:snare_0.wav
320,192,53490,1,0,0:0:0:33:snare_0.wav
448,192,53490,1,0,0:0:0:33:snare_0.wav
448,192,53630,128,0,53700:0:0:0:0:
192,192,53740,1,0,0:0:0:0:
320,192,53771,128,0,53888:0:0:0:0:
448,192,53888,128,0,54052:0:0:0:0:
192,192,53990,1,0,0:0:0:0:
320,192,54115,128,0,54177:0:0:0:0:
448,192,54146,1,0,0:0:0:50:snare_0.wav
64,192,54146,1,0,0:0:0:50:snare_0.wav
192,192,54240,128,0,54310:0:0:0:100:kick_0.wav
320,192,54263,1,0,0:0:0:0:
192,192,54521,128,0,54591:0:0:0:0:
320,192,54544,1,0,0:0:0:0:
192,192,54802,128,0,54872:0:0:0:0:
320,192,54825,1,0,0:0:0:0:
64,192,54896,1,0,0:0:0:100:kick_0.wav
448,192,54990,1,0,0:0:0:33:snare_0.wav
320,192,54990,1,0,0:0:0:33:snare_0.wav
64,192,54990,1,0,0:0:0:33:snare_0.wav
320,192,55177,128,0,55240:0:0:0:0:
192,192,55240,1,0,0:0:0:0:
448,192,55302,128,0,55427:0:0:0:0:
320,192,55490,128,0,55552:0:0:0:0:
192,192,55490,1,0,0:0:0:0:
448,192,55615,128,0,55740:0:0:0:0:
64,192,55740,1,0,0:0:0:100:kick_0.wav
192,192,55896,1,0,0:0:0:0:
320,192,55990,1,0,0:0:0:0:
192,192,55990,128,0,56115:0:0:0:0:
64,192,56115,128,0,56177:0:0:0:0:
192,192,56177,128,0,56240:0:0:0:0:
320,192,56240,1,0,0:0:0:0:
64,192,56333,128,0,56490:0:0:0:0:
448,192,56396,1,0,0:0:0:100:kick_0.wav
448,192,56490,1,0,0:0:0:33:snare_0.wav
192,192,56490,1,0,0:0:0:33:snare_0.wav
320,192,56490,1,0,0:0:0:33:snare_0.wav
448,192,56700,128,0,56771:0:0:0:0:
192,192,56740,1,0,0:0:0:0:
320,192,56865,128,0,56927:0:0:0:100:clap_1.wav
192,192,56990,1,0,0:0:0:0:
320,192,56990,128,0,57052:0:0:0:0:
320,192,57115,1,0,0:0:0:0:
448,192,57146,128,0,57216:0:0:0:0:
64,192,57240,1,0,0:0:0:100:kick_0.wav
192,192,57427,1,0,0:0:0:0:
64,192,57427,1,0,0:0:0:0:
320,192,57615,1,0,0:0:0:0:
192,192,57661,128,0,57755:0:0:0:0:
64,192,57708,128,0,57802:0:0:0:0:
448,192,57802,128,0,57865:0:0:0:0:
192,192,57849,1,0,0:0:0:0:
320,192,57896,1,0,0:0:0:100:kick_0.wav
448,192,57990,1,0,0:0:0:33:snare_0.wav
320,192,57990,1,0,0:0:0:33:snare_0.wav
64,192,57990,1,0,0:0:0:33:snare_0.wav
320,192,58115,128,0,58281:0:0:0:0:
192,192,58240,1,0,0:0:0:0:
320,192,58365,128,0,58427:0:0:0:0:
320,192,58490,128,0,58552:0:0:0:0:
192,192,58490,1,0,0:0:0:0:
192,192,58615,1,0,0:0:0:0:
320,192,58615,128,0,58677:0:0:0:0:
320,192,58740,1,0,0:0:0:100:cymbal_1.wav
64,192,58740,1,0,0:0:0:50:kick_0.wav
448,192,58740,128,0,58833:0:0:0:50:kick_0.wav
320,192,58927,1,0,0:0:0:0:
448,192,59021,1,0,0:0:0:0:
192,192,59115,1,0,0:0:0:100:snare_2.wav
320,192,59302,128,0,59396:0:0:0:50:snare_2.wav
192,192,59302,1,0,0:0:0:50:snare_2.wav
64,192,59396,1,0,0:0:0:100:snare_2.wav
448,192,59396,1,0,0:0:0:100:snare_1.wav
320,192,59490,1,0,0:0:0:100:cymbal_1.wav
192,192,59490,128,0,59615:0:0:0:50:kick_0.wav
448,192,59490,128,0,59583:0:0:0:50:kick_0.wav
64,192,59677,128,0,59740:0:0:0:0:
320,192,59771,1,0,0:0:0:100:cymbal_1.wav
448,192,59771,128,0,59865:0:0:0:50:kick_0.wav
192,192,59771,128,0,59896:0:0:0:50:kick_0.wav
64,192,59958,128,0,60021:0:0:0:0:
320,192,60052,1,0,0:0:0:100:cymbal_1.wav
448,192,60052,128,0,60146:0:0:0:50:kick_0.wav
192,192,60052,128,0,60177:0:0:0:50:kick_0.wav
64,192,60240,1,0,0:0:0:50:kick_0.wav
192,192,60240,1,0,0:0:0:50:kick_0.wav
320,192,60427,128,0,60615:0:0:0:0:
192,192,60615,128,0,60740:0:0:0:0:
64,192,60638,1,0,0:0:0:0:
448,192,60677,128,0,60802:0:0:0:0:
320,192,60802,1,0,0:0:0:0:
64,192,60896,1,0,0:0:0:100:kick_0.wav
320,192,60990,1,0,0:0:0:33:snare_0.wav
448,192,60990,128,0,61052:0:0:0:33:snare_0.wav
64,192,60990,1,0,0:0:0:33:snare_0.wav
448,192,61115,128,0,61177:0:0:0:0:
448,192,61240,128,0,61427:0:0:0:0:
192,192,61240,1,0,0:0:0:0:
64,192,61365,1,0,0:0:0:100:kick_0.wav
448,192,61490,128,0,61552:0:0:0:0:
192,192,61490,1,0,0:0:0:0:
448,192,61615,128,0,61677:0:0:0:0:
448,192,61740,1,0,0:0:0:50:kick_0.wav
64,192,61740,128,0,61927:0:0:0:50:kick_0.wav
64,192,61990,128,0,62052:0:0:0:0:
320,192,61990,1,0,0:0:0:0:
448,192,62021,1,0,0:0:0:100:kick_0.wav
64,192,62115,128,0,62177:0:0:0:0:
448,192,62208,1,0,0:0:0:100:kick_0.wav
64,192,62240,128,0,62302:0:0:0:0:
320,192,62240,1,0,0:0:0:0:
64,192,62365,128,0,62427:0:0:0:0:
320,192,62490,1,0,0:0:0:33:snare_0.wav
448,192,62490,1,0,0:0:0:33:snare_0.wav
64,192,62490,1,0,0:0:0:33:snare_0.wav
192,192,62536,1,0,0:0:0:0:
64,192,62583,1,0,0:0:0:0:
320,192,62630,1,0,0:0:0:0:
192,192,62677,1,0,0:0:0:0:
320,192,62724,1,0,0:0:0:0:
448,192,62771,1,0,0:0:0:100:kick_0.wav
192,192,62818,1,0,0:0:0:0:
448,192,62865,128,0,62927:0:0:0:50:clap_1.wav
320,192,62865,1,0,0:0:0:50:clap_1.wav
448,192,62990,128,0,63052:0:0:0:0:
192,192,62990,1,0,0:0:0:0:
64,192,63052,1,0,0:0:0:100:kick_0.wav
448,192,63115,128,0,63177:0:0:0:0:
448,192,63240,1,0,0:0:0:100:kick_0.wav
64,192,63240,1,0,0:0:0:100:snare_3.wav
320,192,63281,1,0,0:0:0:100:snare_3.wav
192,192,63333,1,0,0:0:0:100:snare_3.wav
64,192,63400,1,0,0:0:0:100:snare_3.wav
448,192,63521,1,0,0:0:0:100:snare_2.wav
320,192,63568,1,0,0:0:0:100:snare_2.wav
448,192,63615,1,0,0:0:0:100:snare_2.wav
192,192,63708,1,0,0:0:0:100:snare_3.wav
448,192,63802,1,0,0:0:0:100:snare_2.wav
64,192,63896,1,0,0:0:0:100:kick_0.wav
64,192,63990,1,0,0:0:0:33:snare_0.wav
320,192,63990,1,0,0:0:0:33:snare_0.wav
448,192,63990,128,0,64052:0:0:0:33:snare_0.wav
448,192,64115,128,0,64177:0:0:0:0:
448,192,64240,128,0,64302:0:0:0:0:
192,192,64240,1,0,0:0:0:0:
448,192,64365,128,0,64440:0:0:0:50:kick_0.wav
64,192,64365,1,0,0:0:0:50:kick_0.wav
320,192,64440,128,0,64515:0:0:0:0:
192,192,64490,1,0,0:0:0:0:
448,192,64515,128,0,64590:0:0:0:0:
320,192,64590,128,0,64665:0:0:0:0:
448,192,64665,128,0,64740:0:0:0:0:
64,192,64740,128,0,64927:0:0:0:50:kick_0.wav
192,192,64740,1,0,0:0:0:50:kick_0.wav
64,192,64990,128,0,65052:0:0:0:0:
320,192,64990,1,0,0:0:0:0:
448,192,65021,1,0,0:0:0:100:kick_0.wav
64,192,65115,128,0,65177:0:0:0:0:
448,192,65208,1,0,0:0:0:100:kick_0.wav
64,192,65240,128,0,65302:0:0:0:0:
320,192,65240,1,0,0:0:0:0:
64,192,65365,128,0,65427:0:0:0:0:
448,192,65490,128,0,65677:0:0:0:33:snare_0.wav
64,192,65490,1,0,0:0:0:33:snare_0.wav
192,192,65490,1,0,0:0:0:33:snare_0.wav
192,192,65740,1,0,0:0:0:0:
320,192,65771,128,0,65958:0:0:0:50:kick_0.wav
64,192,65771,1,0,0:0:0:50:kick_0.wav
64,192,65958,1,0,0:0:0:100:kick_0.wav
448,192,66052,128,0,66240:0:0:0:50:kick_0.wav
320,192,66052,1,0,0:0:0:50:kick_0.wav
320,192,66146,1,0,0:0:0:50:snare_0.wav
192,192,66146,1,0,0:0:0:50:snare_0.wav
64,192,66240,1,0,0:0:0:100:kick_0.wav
192,192,66263,1,0,0:0:0:0:
320,192,66333,1,0,0:0:0:0:
448,192,66357,1,0,0:0:0:0:
64,192,66427,1,0,0:0:0:0:
192,192,66450,1,0,0:0:0:0:
320,192,66521,1,0,0:0:0:0:
448,192,66544,1,0,0:0:0:0:
64,192,66615,1,0,0:0:0:0:
192,192,66638,1,0,0:0:0:0:
320,192,66708,1,0,0:0:0:0:
448,192,66732,1,0,0:0:0:0:
64,192,66802,1,0,0:0:0:0:
192,192,66825,1,0,0:0:0:0:
320,192,66896,1,0,0:0:0:100:kick_0.wav
448,192,66919,1,0,0:0:0:0:
64,192,66990,1,0,0:0:0:33:snare_0.wav
192,192,66990,1,0,0:0:0:33:snare_0.wav
448,192,66990,128,0,67177:0:0:0:33:snare_0.wav
448,192,67240,128,0,67302:0:0:0:0:
192,192,67240,1,0,0:0:0:0:
64,192,67365,1,0,0:0:0:50:kick_0.wav
448,192,67365,128,0,67427:0:0:0:50:kick_0.wav
448,192,67490,128,0,67677:0:0:0:0:
192,192,67490,1,0,0:0:0:0:
64,192,67740,128,0,67927:0:0:0:50:kick_0.wav
448,192,67740,1,0,0:0:0:50:kick_0.wav
64,192,67990,128,0,68052:0:0:0:0:
320,192,67990,1,0,0:0:0:0:
448,192,68021,1,0,0:0:0:100:kick_0.wav
192,192,68052,128,0,68115:0:0:0:0:
320,192,68115,128,0,68177:0:0:0:0:
448,192,68208,1,0,0:0:0:50:kick_0.wav
64,192,68208,128,0,68302:0:0:0:50:kick_0.wav
320,192,68240,1,0,0:0:0:0:
64,192,68396,128,0,68458:0:0:0:0:
448,192,68490,1,0,0:0:0:33:snare_0.wav
320,192,68490,128,0,68615:0:0:0:33:snare_0.wav
192,192,68490,1,0,0:0:0:33:snare_0.wav
448,192,68615,128,0,68740:0:0:0:0:
192,192,68740,128,0,68865:0:0:0:0:
320,192,68740,1,0,0:0:0:0:
64,192,68771,1,0,0:0:0:100:kick_0.wav
320,192,68865,128,0,68990:0:0:0:0:
448,192,68865,1,0,0:0:0:0:
192,192,68990,1,0,0:0:0:0:
64,192,69052,1,0,0:0:0:100:kick_0.wav
448,192,69115,128,0,69240:0:0:0:0:
64,192,69240,1,0,0:0:0:100:kick_0.wav
320,192,69427,1,0,0:0:0:0:
192,192,69458,128,0,69552:0:0:0:0:
192,192,69615,1,0,0:0:0:0:
320,192,69638,1,0,0:0:0:0:
192,192,69708,1,0,0:0:0:0:
320,192,69732,1,0,0:0:0:0:
448,192,69802,1,0,0:0:0:0:
320,192,69849,1,0,0:0:0:0:
192,192,69896,1,0,0:0:0:100:kick_0.wav
64,192,69943,1,0,0:0:0:0:
448,192,69990,1,0,0:0:0:50:snare_0.wav
320,192,69990,128,0,70083:0:0:0:50:snare_0.wav
192,192,70083,128,0,70154:0:0:0:0:
320,192,70154,128,0,70240:0:0:0:0:
192,192,70240,128,0,70318:0:0:0:0:
320,192,70318,128,0,70388:0:0:0:0:
448,192,70365,1,0,0:0:0:50:kick_0.wav
64,192,70365,128,0,70552:0:0:0:50:kick_0.wav
320,192,70490,1,0,0:0:0:0:
448,192,70552,128,0,70740:0:0:0:0:
192,192,70615,1,0,0:0:0:0:
320,192,70740,1,0,0:0:0:100:cymbal_1.wav
64,192,70740,1,0,0:0:0:50:kick_0.wav
192,192,70740,128,0,71927:0:0:0:50:kick_0.wav
320,192,71115,128,0,71302:0:0:0:0:
320,192,71490,128,0,71630:0:0:0:0:
320,192,71865,128,0,71958:0:0:0:0:
192,192,71990,128,0,72052:0:0:0:0:
192,192,72115,128,0,72177:0:0:0:0:
64,192,72240,1,0,0:0:0:100:kick_0.wav
320,192,72240,1,0,0:0:0:50:cymbal_0.wav
448,192,72240,128,0,72990:0:0:0:50:cymbal_0.wav
192,192,73031,128,0,73656:0:0:0:0:
320,192,73698,128,0,74323:0:0:0:0:
64,192,74365,128,0,74990:0:0:0:0:
320,192,75031,128,0,76615:0:0:0:0:
448,192,76906,128,0,77573:0:0:0:0:
64,192,77573,128,0,78198:0:0:0:0:
192,192,77740,1,0,0:0:0:0:
320,192,77906,1,0,0:0:0:0:
448,192,78073,1,0,0:0:0:0:
192,192,78240,128,0,78531:0:0:0:0:
448,192,78406,1,0,0:0:0:0:
320,192,78573,128,0,78865:0:0:0:0:
64,192,78740,1,0,0:0:0:0:
192,192,78906,128,0,79573:0:0:0:0:
320,192,79073,1,0,0:0:0:0:
448,192,79240,1,0,0:0:0:0:
64,192,79406,1,0,0:0:0:0:
320,192,79573,1,0,0:0:0:0:
448,192,79614,128,0,80198:0:0:0:0:
64,192,79739,1,0,0:0:0:0:
192,192,79906,1,0,0:0:0:0:
320,192,80073,1,0,0:0:0:0:
64,192,80239,1,0,0:0:0:0:
320,192,80281,128,0,82385:0:0:0:0:
192,192,80406,1,0,0:0:0:0:
448,192,80573,1,0,0:0:0:0:
64,192,80739,1,0,0:0:0:0:
448,192,80906,1,0,0:0:0:0:
192,192,81073,1,0,0:0:0:0:
64,192,81239,1,0,0:0:0:0:
448,192,81406,1,0,0:0:0:0:
64,192,81573,1,0,0:0:0:0:
192,192,81739,1,0,0:0:0:0:
448,192,81906,1,0,0:0:0:0:
64,192,82073,1,0,0:0:0:0:
448,192,82239,1,0,0:0:0:0:
192,192,82406,1,0,0:0:0:0:
64,192,82573,1,0,0:0:0:0:
448,192,82739,1,0,0:0:0:0:
64,192,82906,5,0,0:0:0:55:kick_1.wav
448,192,82906,1,0,0:0:0:50:cymbal_0.wav
320,192,82906,1,0,0:0:0:50:cymbal_0.wav
192,192,83073,1,0,0:0:0:0:
448,192,83239,1,0,0:0:0:0:
64,192,83406,1,0,0:0:0:55:kick_1.wav
320,192,83573,1,0,0:0:0:28:clap_1.wav
448,192,83573,1,0,0:0:0:28:clap_1.wav
320,192,83739,1,0,0:0:0:0:
448,192,83823,1,0,0:0:0:0:
192,192,83906,1,0,0:0:0:55:kick_1.wav
320,192,84073,1,0,0:0:0:0:
192,192,84156,1,0,0:0:0:0:
64,192,84239,1,0,0:0:0:55:kick_1.wav
192,192,84406,1,0,0:0:0:0:
448,192,84573,1,0,0:0:0:0:
64,192,84739,1,0,0:0:0:55:kick_1.wav
320,192,84906,1,0,0:0:0:28:clap_1.wav
448,192,84906,1,0,0:0:0:28:clap_1.wav
192,192,85073,1,0,0:0:0:0:
320,192,85239,1,0,0:0:0:55:kick_1.wav
448,192,85323,1,0,0:0:0:0:
320,192,85406,1,0,0:0:0:0:
192,192,85489,1,0,0:0:0:0:
64,192,85573,1,0,0:0:0:55:kick_1.wav
192,192,85739,1,0,0:0:0:0:
448,192,85906,1,0,0:0:0:0:
64,192,86073,1,0,0:0:0:55:kick_1.wav
320,192,86239,1,0,0:0:0:28:clap_1.wav
448,192,86239,1,0,0:0:0:28:clap_1.wav
448,192,86406,1,0,0:0:0:0:
192,192,86573,1,0,0:0:0:55:kick_1.wav
320,192,86739,1,0,0:0:0:0:
192,192,86823,1,0,0:0:0:0:
64,192,86906,1,0,0:0:0:55:kick_1.wav
192,192,87073,1,0,0:0:0:0:
448,192,87239,1,0,0:0:0:0:
64,192,87406,1,0,0:0:0:55:kick_1.wav
320,192,87573,1,0,0:0:0:28:clap_1.wav
448,192,87573,1,0,0:0:0:28:clap_1.wav
192,192,87739,1,0,0:0:0:0:
320,192,87906,1,0,0:0:0:0:
192,192,87989,1,0,0:0:0:0:
320,192,88073,1,0,0:0:0:0:
448,192,88156,1,0,0:0:0:0:
64,192,88239,1,0,0:0:0:100:kick_1.wav
320,192,88406,1,0,0:0:0:0:
192,192,88573,1,0,0:0:0:0:
448,192,88573,1,0,0:0:0:0:
64,192,88739,1,0,0:0:0:100:kick_1.wav
320,192,88906,1,0,0:0:0:55:clap_1.wav
192,192,89073,1,0,0:0:0:0:
448,192,89073,1,0,0:0:0:0:
64,192,89239,1,0,0:0:0:100:kick_1.wav
320,192,89323,1,0,0:0:0:100:kick_1.wav
192,192,89406,1,0,0:0:0:0:
320,192,89489,1,0,0:0:0:0:
64,192,89573,1,0,0:0:0:100:kick_1.wav
320,192,89739,1,0,0:0:0:0:
192,192,89906,1,0,0:0:0:0:
448,192,89906,1,0,0:0:0:0:
64,192,90073,1,0,0:0:0:100:kick_1.wav
320,192,90156,1,0,0:0:0:0:
448,192,90198,1,0,0:0:0:0:
192,192,90239,1,0,0:0:0:100:clap_1.wav
320,192,90406,1,0,0:0:0:0:
448,192,90406,1,0,0:0:0:0:
192,192,90573,1,0,0:0:0:100:kick_1.wav
320,192,90656,1,0,0:0:0:0:
192,192,90739,1,0,0:0:0:0:
64,192,90823,1,0,0:0:0:0:
192,192,90906,1,0,0:0:0:100:kick_1.wav
320,192,91073,1,0,0:0:0:0:
192,192,91239,1,0,0:0:0:0:
448,192,91239,1,0,0:0:0:0:
64,192,91406,1,0,0:0:0:100:kick_1.wav
192,192,91448,1,0,0:0:0:100:kick_1.wav
320,192,91489,1,0,0:0:0:100:kick_1.wav
448,192,91531,1,0,0:0:0:100:kick_1.wav
192,192,91573,1,0,0:0:0:100:kick_1.wav
64,192,91656,1,0,0:0:0:0:
320,192,91739,1,0,0:0:0:0:
448,192,91739,1,0,0:0:0:0:
192,192,91906,1,0,0:0:0:100:kick_1.wav
320,192,91989,1,0,0:0:0:100:kick_1.wav
64,192,92073,1,0,0:0:0:0:
192,192,92114,1,0,0:0:0:0:
448,192,92156,1,0,0:0:0:0:
320,192,92198,1,0,0:0:0:0:
64,192,92239,1,0,0:0:0:100:kick_1.wav
64,192,92406,1,0,0:0:0:100:kick_1.wav
320,192,92573,1,0,0:0:0:50:snare_3.wav
192,192,92573,1,0,0:0:0:50:snare_3.wav
64,192,92739,1,0,0:0:0:0:
320,192,92823,1,0,0:0:0:100:kick_1.wav
192,192,92906,1,0,0:0:0:0:
320,192,92989,1,0,0:0:0:100:kick_1.wav
64,192,93073,1,0,0:0:0:100:kick_1.wav
192,192,93114,1,0,0:0:0:100:kick_1.wav
320,192,93156,1,0,0:0:0:100:kick_1.wav
448,192,93198,1,0,0:0:0:100:kick_1.wav
192,192,93239,1,0,0:0:0:50:snare_4.wav
320,192,93239,1,0,0:0:0:50:snare_4.wav
448,192,93406,1,0,0:0:0:50:snare_1.wav
320,192,93406,1,0,0:0:0:50:snare_1.wav
320,192,93573,1,0,0:0:0:100:cymbal_0.wav
192,192,93573,1,0,0:0:0:50:kick_0.wav
64,192,93573,1,0,0:0:0:50:kick_0.wav
448,192,93656,1,0,0:0:0:0:
64,192,93739,1,0,0:0:0:0:
320,192,93823,1,0,0:0:0:50:kick_0.wav
448,192,93823,1,0,0:0:0:50:kick_0.wav
64,192,93906,1,0,0:0:0:50:snare_1.wav
320,192,93906,1,0,0:0:0:50:snare_1.wav
448,192,93989,1,0,0:0:0:0:
192,192,94073,1,0,0:0:0:50:kick_0.wav
64,192,94073,1,0,0:0:0:50:kick_0.wav
64,192,94156,1,0,0:0:0:0:
320,192,94239,1,0,0:0:0:50:kick_0.wav
448,192,94239,1,0,0:0:0:50:kick_0.wav
64,192,94323,1,0,0:0:0:0:
448,192,94406,1,0,0:0:0:0:
192,192,94489,1,0,0:0:0:50:kick_0.wav
64,192,94489,1,0,0:0:0:50:kick_0.wav
192,192,94573,1,0,0:0:0:50:snare_1.wav
448,192,94573,1,0,0:0:0:50:snare_1.wav
64,192,94656,1,0,0:0:0:0:
448,192,94739,1,0,0:0:0:50:kick_0.wav
320,192,94739,128,0,94795:0:0:0:50:kick_0.wav
448,192,94823,1,0,0:0:0:0:
192,192,94906,1,0,0:0:0:50:kick_0.wav
64,192,94906,1,0,0:0:0:50:kick_0.wav
448,192,94989,1,0,0:0:0:0:
64,192,95073,1,0,0:0:0:0:
320,192,95156,1,0,0:0:0:50:kick_0.wav
448,192,95156,1,0,0:0:0:50:kick_0.wav
320,192,95239,1,0,0:0:0:50:snare_1.wav
64,192,95239,1,0,0:0:0:50:snare_1.wav
448,192,95323,1,0,0:0:0:0:
192,192,95406,1,0,0:0:0:50:kick_0.wav
64,192,95406,1,0,0:0:0:50:kick_0.wav
64,192,95489,1,0,0:0:0:0:
320,192,95573,1,0,0:0:0:50:kick_0.wav
448,192,95573,1,0,0:0:0:50:kick_0.wav
64,192,95656,1,0,0:0:0:0:
448,192,95739,1,0,0:0:0:0:
192,192,95823,1,0,0:0:0:50:kick_0.wav
64,192,95823,1,0,0:0:0:50:kick_0.wav
192,192,95906,1,0,0:0:0:50:snare_1.wav
448,192,95906,1,0,0:0:0:50:snare_1.wav
64,192,95989,1,0,0:0:0:0:
320,192,96073,1,0,0:0:0:50:kick_0.wav
448,192,96073,1,0,0:0:0:50:kick_0.wav
64,192,96156,1,0,0:0:0:50:kick_0.wav
448,192,96156,1,0,0:0:0:50:kick_0.wav
192,192,96239,1,0,0:0:0:50:kick_0.wav
64,192,96239,1,0,0:0:0:50:kick_0.wav
448,192,96323,1,0,0:0:0:0:
64,192,96406,1,0,0:0:0:0:
320,192,96489,1,0,0:0:0:50:kick_0.wav
448,192,96489,1,0,0:0:0:50:kick_0.wav
320,192,96573,1,0,0:0:0:50:snare_1.wav
64,192,96573,1,0,0:0:0:50:snare_1.wav
448,192,96656,1,0,0:0:0:0:
192,192,96739,1,0,0:0:0:50:kick_0.wav
64,192,96739,1,0,0:0:0:50:kick_0.wav
64,192,96823,1,0,0:0:0:0:
320,192,96906,1,0,0:0:0:50:kick_0.wav
448,192,96906,1,0,0:0:0:50:kick_0.wav
64,192,96989,1,0,0:0:0:0:
448,192,97073,1,0,0:0:0:0:
192,192,97156,1,0,0:0:0:50:kick_0.wav
64,192,97156,1,0,0:0:0:50:kick_0.wav
192,192,97239,1,0,0:0:0:50:snare_1.wav
448,192,97239,1,0,0:0:0:50:snare_1.wav
64,192,97323,1,0,0:0:0:0:
448,192,97406,1,0,0:0:0:50:kick_0.wav
320,192,97406,128,0,97462:0:0:0:50:kick_0.wav
448,192,97489,1,0,0:0:0:0:
64,192,97573,1,0,0:0:0:50:kick_0.wav
192,192,97573,128,0,97628:0:0:0:50:kick_0.wav
448,192,97656,1,0,0:0:0:0:
320,192,97739,1,0,0:0:0:0:
64,192,97823,1,0,0:0:0:50:kick_0.wav
192,192,97823,128,0,97878:0:0:0:50:kick_0.wav
448,192,97906,1,0,0:0:0:100:snare_1.wav
320,192,97989,1,0,0:0:0:0:
320,192,98073,1,0,0:0:0:50:kick_0.wav
192,192,98073,1,0,0:0:0:50:kick_0.wav
192,192,98156,1,0,0:0:0:0:
320,192,98239,1,0,0:0:0:50:kick_0.wav
448,192,98239,1,0,0:0:0:50:kick_0.wav
320,192,98323,1,0,0:0:0:50:kick_0.wav
448,192,98323,1,0,0:0:0:50:kick_0.wav
64,192,98406,1,0,0:0:0:0:
320,192,98489,1,0,0:0:0:50:kick_0.wav
448,192,98489,1,0,0:0:0:50:kick_0.wav
192,192,98573,1,0,0:0:0:100:snare_1.wav
320,192,98656,1,0,0:0:0:50:kick_0.wav
448,192,98656,1,0,0:0:0:50:kick_0.wav
64,192,98739,1,0,0:0:0:100:kick_0.wav
192,192,98781,1,0,0:0:0:100:kick_0.wav
320,192,98823,1,0,0:0:0:100:kick_0.wav
448,192,98864,1,0,0:0:0:100:kick_0.wav
192,192,98906,1,0,0:0:0:100:cymbal_1.wav
64,192,98906,1,0,0:0:0:50:kick_0.wav
320,192,98906,1,0,0:0:0:50:kick_0.wav
448,192,98989,1,0,0:0:0:0:
64,192,99073,1,0,0:0:0:0:
320,192,99156,1,0,0:0:0:50:kick_0.wav
448,192,99156,1,0,0:0:0:50:kick_0.wav
320,192,99239,1,0,0:0:0:50:snare_1.wav
64,192,99239,1,0,0:0:0:50:snare_1.wav
448,192,99323,1,0,0:0:0:0:
192,192,99406,1,0,0:0:0:50:kick_0.wav
64,192,99406,1,0,0:0:0:50:kick_0.wav
64,192,99489,1,0,0:0:0:0:
320,192,99573,1,0,0:0:0:50:kick_0.wav
448,192,99573,1,0,0:0:0:50:kick_0.wav
64,192,99656,1,0,0:0:0:0:
448,192,99739,1,0,0:0:0:0:
192,192,99823,1,0,0:0:0:50:kick_0.wav
64,192,99823,1,0,0:0:0:50:kick_0.wav
192,192,99906,1,0,0:0:0:50:snare_1.wav
448,192,99906,1,0,0:0:0:50:snare_1.wav
64,192,99989,1,0,0:0:0:0:
448,192,100073,1,0,0:0:0:50:kick_0.wav
320,192,100073,128,0,100128:0:0:0:50:kick_0.wav
448,192,100156,1,0,0:0:0:0:
192,192,100239,1,0,0:0:0:50:kick_0.wav
64,192,100239,1,0,0:0:0:50:kick_0.wav
448,192,100323,1,0,0:0:0:0:
64,192,100406,1,0,0:0:0:0:
320,192,100489,1,0,0:0:0:50:kick_0.wav
448,192,100489,1,0,0:0:0:50:kick_0.wav
320,192,100573,1,0,0:0:0:50:snare_1.wav
64,192,100573,1,0,0:0:0:50:snare_1.wav
448,192,100656,1,0,0:0:0:0:
192,192,100739,1,0,0:0:0:50:kick_0.wav
64,192,100739,1,0,0:0:0:50:kick_0.wav
64,192,100823,1,0,0:0:0:0:
320,192,100906,1,0,0:0:0:50:kick_0.wav
448,192,100906,1,0,0:0:0:50:kick_0.wav
64,192,100989,1,0,0:0:0:0:
448,192,101073,1,0,0:0:0:0:
192,192,101156,1,0,0:0:0:50:kick_0.wav
64,192,101156,1,0,0:0:0:50:kick_0.wav
192,192,101239,1,0,0:0:0:50:snare_1.wav
448,192,101239,1,0,0:0:0:50:snare_1.wav
64,192,101323,1,0,0:0:0:0:
320,192,101406,1,0,0:0:0:50:kick_0.wav
448,192,101406,1,0,0:0:0:50:kick_0.wav
64,192,101489,1,0,0:0:0:50:kick_0.wav
448,192,101489,1,0,0:0:0:50:kick_0.wav
192,192,101573,1,0,0:0:0:50:kick_0.wav
64,192,101573,1,0,0:0:0:50:kick_0.wav
448,192,101656,1,0,0:0:0:0:
64,192,101739,1,0,0:0:0:0:
320,192,101823,1,0,0:0:0:50:kick_0.wav
448,192,101823,1,0,0:0:0:50:kick_0.wav
320,192,101906,1,0,0:0:0:50:snare_1.wav
64,192,101906,1,0,0:0:0:50:snare_1.wav
448,192,101989,1,0,0:0:0:0:
192,192,102073,1,0,0:0:0:50:kick_0.wav
64,192,102073,1,0,0:0:0:50:kick_0.wav
64,192,102156,1,0,0:0:0:0:
192,192,102239,1,0,0:0:0:50:kick_0.wav
320,192,102239,1,0,0:0:0:50:kick_0.wav
320,192,102351,1,0,0:0:0:50:kick_0.wav
192,192,102351,1,0,0:0:0:50:kick_0.wav
448,192,102406,1,0,0:0:0:0:
320,192,102462,1,0,0:0:0:50:kick_0.wav
192,192,102462,1,0,0:0:0:50:kick_0.wav
64,192,102573,1,0,0:0:0:100:snare_1.wav
320,192,102656,1,0,0:0:0:0:
192,192,102739,1,0,0:0:0:100:kick_0.wav
320,192,102781,1,0,0:0:0:100:kick_0.wav
448,192,102823,1,0,0:0:0:100:kick_0.wav
192,192,102864,1,0,0:0:0:100:kick_0.wav
64,192,102906,1,0,0:0:0:50:kick_0.wav
320,192,102906,1,0,0:0:0:50:kick_0.wav
448,192,102989,1,0,0:0:0:0:
192,192,103073,1,0,0:0:0:0:
64,192,103156,1,0,0:0:0:0:
448,192,103239,1,0,0:0:0:50:snare_1.wav
320,192,103239,1,0,0:0:0:50:snare_1.wav
192,192,103406,1,0,0:0:0:0:
64,192,103489,1,0,0:0:0:0:
192,192,103573,1,0,0:0:0:0:
320,192,103656,1,0,0:0:0:0:
192,192,103739,1,0,0:0:0:50:snare_1.wav
448,192,103739,1,0,0:0:0:50:snare_1.wav
448,192,103906,128,0,103989:0:0:0:0:
320,192,103989,128,0,104045:0:0:0:0:
192,192,104073,1,0,0:0:0:0:
192,192,104239,1,0,0:0:0:100:cymbal_0.wav
64,192,104239,1,0,0:0:0:50:kick_0.wav
320,192,104239,1,0,0:0:0:50:kick_0.wav
320,192,104323,1,0,0:0:0:0:
192,192,104406,1,0,0:0:0:0:
64,192,104489,1,0,0:0:0:0:
320,192,104573,1,0,0:0:0:33:kick_0.wav
192,192,104573,1,0,0:0:0:33:kick_0.wav
448,192,104573,1,0,0:0:0:33:kick_0.wav
192,192,104656,1,0,0:0:0:0:
320,192,104739,1,0,0:0:0:0:
448,192,104823,1,0,0:0:0:0:
192,192,104906,1,0,0:0:0:33:kick_0.wav
320,192,104906,1,0,0:0:0:33:kick_0.wav
64,192,104906,1,0,0:0:0:33:kick_0.wav
320,192,104989,1,0,0:0:0:0:
192,192,105073,1,0,0:0:0:0:
64,192,105156,1,0,0:0:0:0:
320,192,105239,1,0,0:0:0:33:kick_0.wav
192,192,105239,1,0,0:0:0:33:kick_0.wav
448,192,105239,1,0,0:0:0:33:kick_0.wav
192,192,105323,1,0,0:0:0:0:
320,192,105406,1,0,0:0:0:0:
448,192,105489,1,0,0:0:0:0:
192,192,105573,1,0,0:0:0:33:kick_0.wav
64,192,105573,1,0,0:0:0:33:kick_0.wav
320,192,105573,1,0,0:0:0:33:kick_0.wav
320,192,105656,1,0,0:0:0:0:
192,192,105739,1,0,0:0:0:0:
64,192,105823,128,0,105906:0:0:0:0:
320,192,105906,1,0,0:0:0:33:kick_0.wav
192,192,105906,1,0,0:0:0:33:kick_0.wav
448,192,105906,1,0,0:0:0:33:kick_0.wav
192,192,105989,1,0,0:0:0:0:
320,192,106073,1,0,0:0:0:0:
448,192,106156,1,0,0:0:0:0:
192,192,106239,1,0,0:0:0:33:kick_0.wav
320,192,106239,1,0,0:0:0:33:kick_0.wav
64,192,106239,1,0,0:0:0:33:kick_0.wav
448,192,106323,1,0,0:0:0:0:
320,192,106406,1,0,0:0:0:0:
192,192,106489,1,0,0:0:0:0:
320,192,106573,1,0,0:0:0:33:kick_0.wav
192,192,106573,1,0,0:0:0:33:kick_0.wav
448,192,106573,1,0,0:0:0:33:kick_0.wav
64,192,106656,1,0,0:0:0:0:
448,192,106739,1,0,0:0:0:0:
192,192,106823,1,0,0:0:0:50:kick_0.wav
448,192,106823,1,0,0:0:0:50:kick_0.wav
192,192,106906,1,0,0:0:0:33:kick_0.wav
320,192,106906,1,0,0:0:0:33:kick_0.wav
64,192,106906,1,0,0:0:0:33:kick_0.wav
448,192,106989,1,0,0:0:0:0:
192,192,107073,1,0,0:0:0:0:
64,192,107156,1,0,0:0:0:0:
320,192,107239,1,0,0:0:0:33:kick_0.wav
192,192,107239,1,0,0:0:0:33:kick_0.wav
448,192,107239,1,0,0:0:0:33:kick_0.wav
192,192,107323,1,0,0:0:0:0:
320,192,107406,1,0,0:0:0:0:
448,192,107489,1,0,0:0:0:0:
192,192,107573,1,0,0:0:0:33:kick_0.wav
64,192,107573,1,0,0:0:0:33:kick_0.wav
320,192,107573,1,0,0:0:0:33:kick_0.wav
320,192,107656,1,0,0:0:0:0:
192,192,107739,1,0,0:0:0:0:
64,192,107823,1,0,0:0:0:0:
320,192,107906,1,0,0:0:0:33:kick_0.wav
192,192,107906,1,0,0:0:0:33:kick_0.wav
448,192,107906,1,0,0:0:0:33:kick_0.wav
192,192,107989,1,0,0:0:0:0:
320,192,108073,1,0,0:0:0:0:
448,192,108156,1,0,0:0:0:0:
192,192,108239,1,0,0:0:0:33:kick_0.wav
64,192,108239,1,0,0:0:0:33:kick_0.wav
320,192,108239,1,0,0:0:0:33:kick_0.wav
320,192,108323,1,0,0:0:0:0:
192,192,108406,1,0,0:0:0:100:kick_0.wav
64,192,108434,1,0,0:0:0:100:kick_0.wav
320,192,108462,1,0,0:0:0:100:kick_0.wav
448,192,108489,1,0,0:0:0:100:kick_0.wav
192,192,108517,1,0,0:0:0:100:kick_0.wav
64,192,108545,1,0,0:0:0:100:kick_0.wav
320,192,108573,1,0,0:0:0:50:kick_0.wav
448,192,108573,1,0,0:0:0:50:kick_0.wav
448,192,108656,1,0,0:0:0:50:kick_0.wav
320,192,108656,1,0,0:0:0:50:kick_0.wav
64,192,108739,1,0,0:0:0:50:kick_0.wav
192,192,108739,1,0,0:0:0:50:kick_0.wav
192,192,108823,1,0,0:0:0:50:kick_0.wav
64,192,108823,1,0,0:0:0:50:kick_0.wav
64,192,108906,1,0,0:0:0:50:kick_0.wav
192,192,108906,1,0,0:0:0:50:kick_0.wav
64,192,109073,1,0,0:0:0:100:kick_0.wav
192,192,109128,1,0,0:0:0:100:kick_0.wav
320,192,109184,1,0,0:0:0:100:kick_0.wav
448,192,109239,128,0,109351:0:0:0:50:snare_1.wav
64,192,109239,128,0,109434:0:0:0:50:snare_1.wav
448,192,109406,1,0,0:0:0:0:
64,192,109489,1,0,0:0:0:0:
192,192,109573,1,0,0:0:0:100:kick_0.wav
64,192,109573,1,0,0:0:0:50:cymbal_0.wav
320,192,109573,1,0,0:0:0:50:cymbal_0.wav
320,192,109656,1,0,0:0:0:0:
448,192,109739,128,0,109823:0:0:0:0:
64,192,109823,1,0,0:0:0:0:
320,192,109906,1,0,0:0:0:33:kick_0.wav
192,192,109906,1,0,0:0:0:33:kick_0.wav
448,192,109906,1,0,0:0:0:33:kick_0.wav
192,192,109989,1,0,0:0:0:0:
320,192,110073,1,0,0:0:0:0:
448,192,110156,1,0,0:0:0:0:
192,192,110239,1,0,0:0:0:33:kick_0.wav
320,192,110239,1,0,0:0:0:33:kick_0.wav
64,192,110239,1,0,0:0:0:33:kick_0.wav
320,192,110323,1,0,0:0:0:0:
192,192,110406,1,0,0:0:0:0:
64,192,110489,1,0,0:0:0:0:
320,192,110573,1,0,0:0:0:33:kick_0.wav
192,192,110573,1,0,0:0:0:33:kick_0.wav
448,192,110573,1,0,0:0:0:33:kick_0.wav
192,192,110656,1,0,0:0:0:0:
320,192,110739,1,0,0:0:0:0:
448,192,110823,1,0,0:0:0:0:
320,192,110906,1,0,0:0:0:33:kick_0.wav
192,192,110906,1,0,0:0:0:33:kick_0.wav
64,192,110906,1,0,0:0:0:33:kick_0.wav
320,192,110989,1,0,0:0:0:0:
448,192,111073,128,0,111128:0:0:0:0:
64,192,111156,128,0,111212:0:0:0:0:
320,192,111239,1,0,0:0:0:33:kick_0.wav
192,192,111239,1,0,0:0:0:33:kick_0.wav
448,192,111239,1,0,0:0:0:33:kick_0.wav
192,192,111323,1,0,0:0:0:0:
64,192,111406,128,0,111517:0:0:0:0:
448,192,111489,1,0,0:0:0:0:
192,192,111573,1,0,0:0:0:33:kick_0.wav
64,192,111573,1,0,0:0:0:33:kick_0.wav
320,192,111573,1,0,0:0:0:33:kick_0.wav
448,192,111656,1,0,0:0:0:50:kick_0.wav
320,192,111656,1,0,0:0:0:50:kick_0.wav
192,192,111823,1,0,0:0:0:50:kick_0.wav
448,192,111823,1,0,0:0:0:50:kick_0.wav
192,192,111906,1,0,0:0:0:33:kick_0.wav
64,192,111906,1,0,0:0:0:33:kick_0.wav
320,192,111906,1,0,0:0:0:33:kick_0.wav
64,192,112073,1,0,0:0:0:100:kick_0.wav
192,192,112114,1,0,0:0:0:100:kick_0.wav
320,192,112156,1,0,0:0:0:100:kick_0.wav
448,192,112198,1,0,0:0:0:100:kick_0.wav
192,192,112239,1,0,0:0:0:33:kick_0.wav
64,192,112239,1,0,0:0:0:33:kick_0.wav
320,192,112239,1,0,0:0:0:33:kick_0.wav
320,192,112323,1,0,0:0:0:0:
192,192,112406,1,0,0:0:0:0:
64,192,112489,1,0,0:0:0:0:
320,192,112573,1,0,0:0:0:33:kick_0.wav
192,192,112573,1,0,0:0:0:33:kick_0.wav
448,192,112573,1,0,0:0:0:33:kick_0.wav
192,192,112656,1,0,0:0:0:0:
320,192,112739,1,0,0:0:0:0:
448,192,112823,1,0,0:0:0:0:
320,192,112906,1,0,0:0:0:33:kick_0.wav
192,192,112906,1,0,0:0:0:33:kick_0.wav
64,192,112906,1,0,0:0:0:33:kick_0.wav
64,192,113017,1,0,0:0:0:50:kick_0.wav
320,192,113017,1,0,0:0:0:50:kick_0.wav
64,192,113128,1,0,0:0:0:50:kick_0.wav
320,192,113128,1,0,0:0:0:50:kick_0.wav
192,192,113239,1,0,0:0:0:33:kick_0.wav
64,192,113239,1,0,0:0:0:33:kick_0.wav
448,192,113239,1,0,0:0:0:33:kick_0.wav
192,192,113351,1,0,0:0:0:50:kick_0.wav
448,192,113351,1,0,0:0:0:50:kick_0.wav
192,192,113462,1,0,0:0:0:50:kick_0.wav
448,192,113462,1,0,0:0:0:50:kick_0.wav
64,192,113573,1,0,0:0:0:100:kick_0.wav
448,192,113573,1,0,0:0:0:100:cymbal_0.wav
320,192,113614,1,0,0:0:0:0:
192,192,113656,1,0,0:0:0:0:
64,192,113698,1,0,0:0:0:0:
320,192,113739,1,0,0:0:0:0:
192,192,113795,1,0,0:0:0:0:
64,192,113851,1,0,0:0:0:0:
320,192,113906,128,0,114073:0:0:0:0:
448,192,113989,1,0,0:0:0:0:
64,192,114073,128,0,114128:0:0:0:100:kick_0.wav
192,192,114128,1,0,0:0:0:0:
320,192,114156,1,0,0:0:0:0:
320,192,114239,1,0,0:0:0:50:snare_1.wav
448,192,114239,1,0,0:0:0:50:snare_1.wav
192,192,114351,128,0,114434:0:0:0:0:
448,192,114462,128,0,114545:0:0:0:0:
64,192,114573,128,0,114656:0:0:0:0:
320,192,114656,128,0,114739:0:0:0:0:
192,192,114739,128,0,114823:0:0:0:0:
320,192,114823,128,0,114906:0:0:0:0:
64,192,114906,1,0,0:0:0:100:kick_1.wav
448,192,114906,128,0,114989:0:0:0:100:cymbal_0.wav
320,192,114989,1,0,0:0:0:0:
192,192,115073,128,0,115156:0:0:0:0:
64,192,115156,1,0,0:0:0:0:
448,192,115239,128,0,115323:0:0:0:50:snare_1.wav
320,192,115239,1,0,0:0:0:50:snare_1.wav
192,192,115323,1,0,0:0:0:0:
64,192,115406,128,0,115489:0:0:0:0:
448,192,115489,1,0,0:0:0:0:
192,192,115573,128,0,115656:0:0:0:0:
320,192,115656,1,0,0:0:0:0:
448,192,115739,128,0,115823:0:0:0:50:kick_1.wav
64,192,115739,1,0,0:0:0:50:kick_1.wav
320,192,115823,1,0,0:0:0:0:
64,192,115906,128,0,115989:0:0:0:50:snare_1.wav
192,192,115906,1,0,0:0:0:50:snare_1.wav
448,192,115989,1,0,0:0:0:0:
320,192,116073,128,0,116156:0:0:0:0:
192,192,116156,1,0,0:0:0:0:
64,192,116239,128,0,116323:0:0:0:50:kick_1.wav
448,192,116239,1,0,0:0:0:50:kick_1.wav
320,192,116323,1,0,0:0:0:0:
192,192,116406,128,0,116489:0:0:0:0:
64,192,116489,1,0,0:0:0:0:
448,192,116573,128,0,116656:0:0:0:50:snare_1.wav
320,192,116573,1,0,0:0:0:50:snare_1.wav
64,192,116656,1,0,0:0:0:0:
192,192,116739,128,0,116823:0:0:0:0:
448,192,116823,1,0,0:0:0:0:
320,192,116906,128,0,116989:0:0:0:0:
192,192,116989,1,0,0:0:0:0:
64,192,117073,128,0,117156:0:0:0:50:kick_1.wav
448,192,117073,1,0,0:0:0:50:kick_1.wav
192,192,117156,1,0,0:0:0:0:
448,192,117239,128,0,117323:0:0:0:50:snare_1.wav
320,192,117239,1,0,0:0:0:50:snare_1.wav
64,192,117323,1,0,0:0:0:0:
192,192,117406,128,0,117489:0:0:0:0:
448,192,117489,1,0,0:0:0:0:
64,192,117573,128,0,117656:0:0:0:50:kick_1.wav
320,192,117573,1,0,0:0:0:50:kick_1.wav
448,192,117656,1,0,0:0:0:0:
192,192,117739,128,0,117823:0:0:0:0:
64,192,117823,1,0,0:0:0:0:
448,192,117906,128,0,117989:0:0:0:50:snare_1.wav
320,192,117906,1,0,0:0:0:50:snare_1.wav
192,192,117989,1,0,0:0:0:0:
320,192,118073,128,0,118156:0:0:0:0:
64,192,118156,1,0,0:0:0:0:
192,192,118239,128,0,118323:0:0:0:0:
448,192,118323,1,0,0:0:0:0:
320,192,118406,128,0,118489:0:0:0:50:kick_1.wav
64,192,118406,1,0,0:0:0:50:kick_1.wav
448,192,118489,1,0,0:0:0:0:
64,192,118573,128,0,118656:0:0:0:50:snare_1.wav
192,192,118573,1,0,0:0:0:50:snare_1.wav
448,192,118656,1,0,0:0:0:0:
320,192,118739,128,0,118823:0:0:0:0:
64,192,118823,1,0,0:0:0:0:
192,192,118906,128,0,118989:0:0:0:50:kick_1.wav
448,192,118906,1,0,0:0:0:50:kick_1.wav
320,192,118989,1,0,0:0:0:0:
64,192,119073,128,0,119156:0:0:0:0:
192,192,119156,1,0,0:0:0:0:
320,192,119239,128,0,119323:0:0:0:50:snare_1.wav
448,192,119239,1,0,0:0:0:50:snare_1.wav
192,192,119323,1,0,0:0:0:0:
64,192,119406,128,0,119489:0:0:0:0:
320,192,119489,1,0,0:0:0:50:snare_1.wav
448,192,119489,1,0,0:0:0:50:snare_1.wav
192,192,119573,128,0,119656:0:0:0:0:
320,192,119656,1,0,0:0:0:50:snare_1.wav
448,192,119656,1,0,0:0:0:50:snare_1.wav
64,192,119739,128,0,119823:0:0:0:100:kick_1.wav
320,192,119823,1,0,0:0:0:0:
64,192,119906,1,0,0:0:0:50:snare_1.wav
192,192,119906,1,0,0:0:0:50:snare_1.wav
448,192,119989,1,0,0:0:0:0:
320,192,120073,128,0,120156:0:0:0:0:
64,192,120156,1,0,0:0:0:50:snare_1.wav
192,192,120156,1,0,0:0:0:50:snare_1.wav
64,192,120239,1,0,0:0:0:100:cymbal_0.wav
448,192,120239,128,0,120323:0:0:0:100:kick_1.wav
320,192,120323,1,0,0:0:0:0:
192,192,120406,128,0,120489:0:0:0:0:
64,192,120489,1,0,0:0:0:0:
448,192,120573,128,0,120656:0:0:0:50:snare_1.wav
320,192,120573,1,0,0:0:0:50:snare_1.wav
192,192,120656,1,0,0:0:0:0:
64,192,120739,128,0,120823:0:0:0:0:
448,192,120823,1,0,0:0:0:0:
192,192,120906,128,0,120989:0:0:0:0:
320,192,120989,1,0,0:0:0:0:
448,192,121073,128,0,121156:0:0:0:50:kick_1.wav
64,192,121073,1,0,0:0:0:50:kick_1.wav
320,192,121156,1,0,0:0:0:0:
192,192,121239,1,0,0:0:0:50:snare_1.wav
64,192,121239,128,0,121323:0:0:0:50:snare_1.wav
448,192,121323,1,0,0:0:0:0:
320,192,121406,128,0,121489:0:0:0:0:
192,192,121489,1,0,0:0:0:0:
448,192,121573,1,0,0:0:0:50:kick_1.wav
64,192,121573,128,0,121656:0:0:0:50:kick_1.wav
320,192,121656,1,0,0:0:0:0:
192,192,121739,128,0,121823:0:0:0:0:
64,192,121823,1,0,0:0:0:0:
448,192,121906,128,0,121989:0:0:0:50:snare_1.wav
320,192,121906,1,0,0:0:0:50:snare_1.wav
64,192,121989,1,0,0:0:0:0:
192,192,122073,128,0,122156:0:0:0:0:
448,192,122156,1,0,0:0:0:0:
320,192,122239,128,0,122323:0:0:0:0:
192,192,122323,1,0,0:0:0:0:
64,192,122406,128,0,122489:0:0:0:50:kick_1.wav
448,192,122406,1,0,0:0:0:50:kick_1.wav
192,192,122489,1,0,0:0:0:0:
448,192,122573,128,0,122656:0:0:0:50:snare_1.wav
320,192,122573,1,0,0:0:0:50:snare_1.wav
64,192,122656,1,0,0:0:0:0:
192,192,122739,128,0,122823:0:0:0:0:
448,192,122823,1,0,0:0:0:0:
64,192,122906,128,0,122989:0:0:0:50:kick_1.wav
320,192,122906,1,0,0:0:0:50:kick_1.wav
448,192,122989,1,0,0:0:0:0:
192,192,123073,128,0,123156:0:0:0:0:
64,192,123156,1,0,0:0:0:0:
320,192,123239,1,0,0:0:0:50:snare_1.wav
448,192,123239,128,0,123323:0:0:0:50:snare_1.wav
192,192,123323,1,0,0:0:0:0:
320,192,123406,128,0,123489:0:0:0:0:
64,192,123489,1,0,0:0:0:0:
192,192,123573,128,0,123656:0:0:0:0:
448,192,123656,1,0,0:0:0:0:
64,192,123739,1,0,0:0:0:50:kick_1.wav
320,192,123739,128,0,123823:0:0:0:50:kick_1.wav
448,192,123823,1,0,0:0:0:0:
64,192,123906,128,0,123989:0:0:0:50:snare_1.wav
192,192,123906,1,0,0:0:0:50:snare_1.wav
448,192,123989,1,0,0:0:0:0:
320,192,124073,128,0,124156:0:0:0:0:
64,192,124156,1,0,0:0:0:0:
192,192,124239,1,0,0:0:0:50:kick_1.wav
64,192,124239,1,0,0:0:0:50:kick_1.wav
320,192,124406,5,0,0:0:0:50:snare_2.wav
192,192,124573,1,0,0:0:0:50:snare_1.wav
448,192,124573,1,0,0:0:0:50:snare_1.wav
192,192,124739,1,0,0:0:0:50:snare_2.wav
320,192,124823,1,0,0:0:0:50:snare_2.wav
192,192,124906,1,0,0:0:0:50:snare_2.wav
64,192,124989,1,0,0:0:0:50:snare_2.wav
192,192,125073,1,0,0:0:0:50:snare_1.wav
448,192,125073,1,0,0:0:0:50:snare_1.wav
320,192,125406,1,0,0:0:0:33:snare_1.wav
448,192,125406,1,0,0:0:0:33:snare_1.wav
192,192,125406,1,0,0:0:0:33:snare_1.wav
448,192,125573,128,0,125739:0:0:0:100:kick_1.wav
64,192,125573,1,0,0:0:0:100:cymbal_0.wav
320,192,125656,1,0,0:0:0:0:
192,192,125739,128,0,125906:0:0:0:0:
64,192,125823,1,0,0:0:0:0:
448,192,125906,128,0,126073:0:0:0:50:snare_1.wav
320,192,125906,1,0,0:0:0:50:snare_1.wav
192,192,125989,1,0,0:0:0:0:
64,192,126073,128,0,126239:0:0:0:0:
448,192,126156,1,0,0:0:0:0:
192,192,126239,128,0,126406:0:0:0:0:
320,192,126323,1,0,0:0:0:0:
448,192,126406,128,0,126573:0:0:0:50:kick_1.wav
64,192,126406,1,0,0:0:0:50:kick_1.wav
320,192,126489,1,0,0:0:0:0:
64,192,126573,128,0,126739:0:0:0:50:snare_1.wav
192,192,126573,1,0,0:0:0:50:snare_1.wav
448,192,126656,1,0,0:0:0:0:
320,192,126739,128,0,126906:0:0:0:0:
192,192,126823,1,0,0:0:0:0:
64,192,126906,128,0,127073:0:0:0:50:kick_1.wav
448,192,126906,1,0,0:0:0:50:kick_1.wav
320,192,126989,1,0,0:0:0:0:
192,192,127073,128,0,127239:0:0:0:0:
64,192,127156,1,0,0:0:0:0:
448,192,127239,128,0,127406:0:0:0:50:snare_1.wav
320,192,127239,1,0,0:0:0:50:snare_1.wav
64,192,127323,1,0,0:0:0:0:
192,192,127406,128,0,127573:0:0:0:0:
448,192,127489,1,0,0:0:0:0:
320,192,127573,128,0,127739:0:0:0:0:
192,192,127656,1,0,0:0:0:0:
64,192,127739,128,0,127906:0:0:0:50:kick_1.wav
448,192,127739,1,0,0:0:0:50:kick_1.wav
192,192,127823,1,0,0:0:0:0:
448,192,127906,128,0,128073:0:0:0:50:snare_1.wav
320,192,127906,1,0,0:0:0:50:snare_1.wav
64,192,127989,1,0,0:0:0:0:
192,192,128073,128,0,128239:0:0:0:0:
448,192,128156,1,0,0:0:0:0:
64,192,128239,128,0,128406:0:0:0:50:kick_1.wav
320,192,128239,1,0,0:0:0:50:kick_1.wav
448,192,128323,1,0,0:0:0:0:
192,192,128406,128,0,128573:0:0:0:0:
64,192,128489,1,0,0:0:0:0:
448,192,128573,128,0,128739:0:0:0:50:snare_1.wav
320,192,128573,1,0,0:0:0:50:snare_1.wav
192,192,128656,1,0,0:0:0:0:
320,192,128739,128,0,128906:0:0:0:0:
64,192,128823,1,0,0:0:0:0:
192,192,128906,128,0,129073:0:0:0:0:
448,192,128989,1,0,0:0:0:0:
320,192,129073,128,0,129239:0:0:0:50:kick_1.wav
64,192,129073,1,0,0:0:0:50:kick_1.wav
448,192,129156,1,0,0:0:0:0:
64,192,129239,128,0,129406:0:0:0:50:snare_1.wav
192,192,129239,1,0,0:0:0:50:snare_1.wav
448,192,129323,1,0,0:0:0:0:
320,192,129406,128,0,129573:0:0:0:0:
64,192,129489,1,0,0:0:0:0:
192,192,129573,128,0,129739:0:0:0:50:kick_1.wav
448,192,129573,1,0,0:0:0:50:kick_1.wav
320,192,129656,1,0,0:0:0:0:
64,192,129739,128,0,129906:0:0:0:0:
192,192,129823,1,0,0:0:0:0:
320,192,129906,128,0,130073:0:0:0:50:snare_1.wav
448,192,129906,1,0,0:0:0:50:snare_1.wav
192,192,129989,1,0,0:0:0:0:
64,192,130073,128,0,130239:0:0:0:0:
320,192,130156,1,0,0:0:0:50:snare_1.wav
448,192,130156,1,0,0:0:0:50:snare_1.wav
192,192,130239,128,0,130406:0:0:0:0:
320,192,130323,1,0,0:0:0:50:snare_1.wav
448,192,130323,1,0,0:0:0:50:snare_1.wav
64,192,130406,128,0,130573:0:0:0:100:kick_1.wav
192,192,130489,1,0,0:0:0:0:
320,192,130573,1,0,0:0:0:50:snare_1.wav
448,192,130573,1,0,0:0:0:50:snare_1.wav
64,192,130656,1,0,0:0:0:0:
320,192,130739,128,0,130906:0:0:0:0:
64,192,130823,1,0,0:0:0:50:snare_1.wav
192,192,130823,1,0,0:0:0:50:snare_1.wav
448,192,130906,128,0,131156:0:0:0:100:cymbal_0.wav
64,192,130906,1,0,0:0:0:100:kick_1.wav
320,192,130989,1,0,0:0:0:0:
192,192,131073,128,0,131267:0:0:0:0:
64,192,131156,1,0,0:0:0:0:
448,192,131239,128,0,131434:0:0:0:50:snare_1.wav
320,192,131239,1,0,0:0:0:50:snare_1.wav
192,192,131323,1,0,0:0:0:0:
64,192,131406,128,0,131656:0:0:0:0:
448,192,131489,1,0,0:0:0:0:
192,192,131573,128,0,131823:0:0:0:0:
320,192,131656,1,0,0:0:0:0:
448,192,131739,128,0,131934:0:0:0:50:kick_1.wav
64,192,131739,1,0,0:0:0:50:kick_1.wav
320,192,131823,1,0,0:0:0:0:
64,192,131906,128,0,132156:0:0:0:50:snare_1.wav
192,192,131906,1,0,0:0:0:50:snare_1.wav
448,192,131989,1,0,0:0:0:0:
320,192,132073,128,0,132267:0:0:0:0:
192,192,132156,1,0,0:0:0:0:
64,192,132239,128,0,132434:0:0:0:50:kick_1.wav
448,192,132239,1,0,0:0:0:50:kick_1.wav
320,192,132323,1,0,0:0:0:0:
192,192,132406,128,0,132656:0:0:0:0:
64,192,132489,1,0,0:0:0:0:
448,192,132573,128,0,132767:0:0:0:50:snare_1.wav
320,192,132573,1,0,0:0:0:50:snare_1.wav
64,192,132656,1,0,0:0:0:0:
192,192,132739,128,0,132934:0:0:0:0:
448,192,132823,1,0,0:0:0:0:
320,192,132906,128,0,133156:0:0:0:0:
192,192,132989,1,0,0:0:0:0:
64,192,133073,128,0,133267:0:0:0:50:kick_1.wav
448,192,133073,1,0,0:0:0:50:kick_1.wav
192,192,133156,1,0,0:0:0:0:
448,192,133239,128,0,133434:0:0:0:50:snare_1.wav
320,192,133239,1,0,0:0:0:50:snare_1.wav
64,192,133323,1,0,0:0:0:0:
192,192,133406,128,0,133517:0:0:0:50:kick_1.wav
320,192,133406,1,0,0:0:0:50:kick_1.wav
448,192,133489,1,0,0:0:0:100:kick_1.wav
192,192,133573,1,0,0:0:0:100:kick_1.wav
64,192,133573,1,0,0:0:0:100:cymbal_0.wav
448,192,133656,1,0,0:0:0:0:
64,192,133739,1,0,0:0:0:50:kick_1.wav
192,192,133739,1,0,0:0:0:50:kick_1.wav
320,192,133823,1,0,0:0:0:0:
64,192,133906,1,0,0:0:0:50:kick_1.wav
192,192,133906,1,0,0:0:0:50:kick_1.wav
448,192,133989,1,0,0:0:0:0:
192,192,134073,1,0,0:0:0:50:kick_1.wav
320,192,134073,1,0,0:0:0:50:kick_1.wav
64,192,134156,1,0,0:0:0:0:
320,192,134239,1,0,0:0:0:50:kick_1.wav
448,192,134239,1,0,0:0:0:50:kick_1.wav
64,192,134323,1,0,0:0:0:50:kick_1.wav
192,192,134323,1,0,0:0:0:50:kick_1.wav
448,192,134406,1,0,0:0:0:100:kick_1.wav
64,192,134489,1,0,0:0:0:100:kick_1.wav
448,192,134573,1,0,0:0:0:50:kick_1.wav
192,192,134573,1,0,0:0:0:50:kick_1.wav
320,192,134656,1,0,0:0:0:50:kick_1.wav
64,192,134656,1,0,0:0:0:50:kick_1.wav
192,192,134739,1,0,0:0:0:100:kick_1.wav
320,192,134823,1,0,0:0:0:100:kick_1.wav
448,192,134906,1,0,0:0:0:100:kick_1.wav
192,192,135073,1,0,0:0:0:0:
320,192,135156,1,0,0:0:0:0:
64,192,135239,128,0,135406:0:0:0:0:
320,192,135323,1,0,0:0:0:0:
192,192,135406,128,0,135489:0:0:0:100:kick_1.wav
320,192,135462,1,0,0:0:0:0:
448,192,135489,1,0,0:0:0:0:
448,192,135573,1,0,0:0:0:50:snare_1.wav
64,192,135573,1,0,0:0:0:50:snare_1.wav
192,192,135739,1,0,0:0:0:100:cymbal_1.wav
64,192,135739,128,0,135851:0:0:0:50:kick_0.wav
320,192,135739,128,0,135823:0:0:0:50:kick_0.wav
320,192,136073,1,0,0:0:0:100:cymbal_1.wav
448,192,136073,128,0,136156:0:0:0:50:kick_0.wav
192,192,136073,128,0,136184:0:0:0:50:kick_0.wav
64,192,136239,1,0,0:0:0:100:kick_0.wav
448,192,136239,1,0,0:0:0:100:cymbal_0.wav
192,192,136323,1,0,0:0:0:0:
192,192,136489,1,0,0:0:0:0:
64,192,136573,1,0,0:0:0:0:
64,192,136739,1,0,0:0:0:50:kick_0.wav
192,192,136739,1,0,0:0:0:50:kick_0.wav
320,192,136906,1,0,0:0:0:0:
192,192,136989,1,0,0:0:0:0:
448,192,137073,1,0,0:0:0:50:kick_0.wav
320,192,137073,128,0,137128:0:0:0:50:kick_0.wav
64,192,137156,1,0,0:0:0:0:
320,192,137239,128,0,137295:0:0:0:0:
448,192,137323,128,0,137406:0:0:0:0:
320,192,137406,128,0,137489:0:0:0:0:
448,192,137489,128,0,137573:0:0:0:0:
192,192,137573,1,0,0:0:0:50:kick_0.wav
64,192,137573,1,0,0:0:0:50:kick_0.wav
320,192,137656,1,0,0:0:0:0:
192,192,137739,1,0,0:0:0:0:
448,192,137823,1,0,0:0:0:0:
320,192,137906,1,0,0:0:0:0:
448,192,138073,1,0,0:0:0:50:kick_0.wav
320,192,138073,128,0,138184:0:0:0:50:kick_0.wav
192,192,138156,128,0,138239:0:0:0:0:
192,192,138323,1,0,0:0:0:0:
448,192,138406,1,0,0:0:0:50:kick_0.wav
320,192,138406,128,0,138462:0:0:0:50:kick_0.wav
64,192,138489,128,0,138573:0:0:0:0:
320,192,138573,1,0,0:0:0:0:
192,192,138656,128,0,138739:0:0:0:0:
64,192,138739,128,0,138823:0:0:0:0:
192,192,138823,128,0,138906:0:0:0:0:
320,192,138906,1,0,0:0:0:50:kick_0.wav
448,192,138906,1,0,0:0:0:50:kick_0.wav
448,192,138989,128,0,139073:0:0:0:0:
448,192,139128,128,0,139212:0:0:0:0:
320,192,139156,1,0,0:0:0:0:
192,192,139239,128,0,139489:0:0:0:0:
64,192,139406,128,0,139573:0:0:0:50:kick_0.wav
448,192,139406,1,0,0:0:0:50:kick_0.wav
320,192,139573,1,0,0:0:0:0:
192,192,139656,1,0,0:0:0:0:
448,192,139739,1,0,0:0:0:50:kick_0.wav
320,192,139739,128,0,139795:0:0:0:50:kick_0.wav
192,192,139823,1,0,0:0:0:0:
448,192,139906,128,0,139962:0:0:0:0:
320,192,139989,128,0,140073:0:0:0:0:
448,192,140073,128,0,140156:0:0:0:0:
320,192,140156,128,0,140239:0:0:0:0:
192,192,140239,1,0,0:0:0:50:kick_0.wav
64,192,140239,1,0,0:0:0:50:kick_0.wav
320,192,140323,1,0,0:0:0:0:
192,192,140406,1,0,0:0:0:0:
64,192,140489,1,0,0:0:0:0:
320,192,140573,1,0,0:0:0:0:
320,192,140739,1,0,0:0:0:50:kick_0.wav
448,192,140739,128,0,140906:0:0:0:50:kick_0.wav
192,192,140906,1,0,0:0:0:0:
64,192,140989,1,0,0:0:0:0:
320,192,141073,128,0,141128:0:0:0:50:kick_0.wav
448,192,141073,1,0,0:0:0:50:kick_0.wav
64,192,141156,128,0,141239:0:0:0:0:
320,192,141239,1,0,0:0:0:0:
192,192,141323,128,0,141406:0:0:0:0:
64,192,141406,128,0,141489:0:0:0:0:
192,192,141489,128,0,141573:0:0:0:0:
320,192,141573,1,0,0:0:0:50:kick_0.wav
448,192,141573,1,0,0:0:0:50:kick_0.wav
192,192,141656,1,0,0:0:0:0:
320,192,141795,1,0,0:0:0:0:
192,192,141823,1,0,0:0:0:0:
448,192,141906,128,0,142073:0:0:0:0:
192,192,142073,128,0,142156:0:0:0:50:kick_0.wav
64,192,142073,1,0,0:0:0:50:kick_0.wav
320,192,142128,1,0,0:0:0:0:
448,192,142156,1,0,0:0:0:0:
192,192,142239,1,0,0:0:0:50:clap_1.wav
448,192,142239,1,0,0:0:0:50:clap_1.wav
192,192,142406,1,0,0:0:0:50:kick_0.wav
64,192,142406,128,0,142462:0:0:0:50:kick_0.wav
320,192,142489,1,0,0:0:0:0:
192,192,142573,128,0,142628:0:0:0:0:
320,192,142656,128,0,142739:0:0:0:0:
448,192,142739,128,0,142823:0:0:0:0:
320,192,142823,128,0,142906:0:0:0:0:
64,192,142906,1,0,0:0:0:50:kick_0.wav
448,192,142906,1,0,0:0:0:50:kick_0.wav
192,192,142934,128,0,143017:0:0:0:0:
320,192,142989,128,0,143184:0:0:0:0:
192,192,143073,128,0,143128:0:0:0:0:
64,192,143101,128,0,143212:0:0:0:0:
192,192,143239,1,0,0:0:0:0:
192,192,143406,128,0,143489:0:0:0:50:kick_0.wav
64,192,143406,1,0,0:0:0:50:kick_0.wav
320,192,143462,1,0,0:0:0:0:
448,192,143489,1,0,0:0:0:0:
448,192,143573,1,0,0:0:0:50:clap_1.wav
192,192,143573,1,0,0:0:0:50:clap_1.wav
320,192,143739,128,0,143795:0:0:0:50:kick_0.wav
448,192,143739,1,0,0:0:0:50:kick_0.wav
192,192,143823,128,0,143906:0:0:0:0:
320,192,143906,1,0,0:0:0:0:
64,192,143989,128,0,144073:0:0:0:0:
192,192,144073,128,0,144156:0:0:0:0:
64,192,144156,128,0,144239:0:0:0:0:
320,192,144239,1,0,0:0:0:50:kick_0.wav
448,192,144239,1,0,0:0:0:50:kick_0.wav
192,192,144323,1,0,0:0:0:0:
320,192,144406,1,0,0:0:0:0:
448,192,144489,1,0,0:0:0:0:
64,192,144573,128,0,144739:0:0:0:0:
192,192,144739,128,0,144823:0:0:0:100:kick_0.wav
320,192,144795,1,0,0:0:0:0:
448,192,144823,1,0,0:0:0:0:
448,192,144906,1,0,0:0:0:50:clap_1.wav
192,192,144906,1,0,0:0:0:50:clap_1.wav
64,192,145073,128,0,145128:0:0:0:50:kick_0.wav
192,192,145073,1,0,0:0:0:50:kick_0.wav
320,192,145156,1,0,0:0:0:0:
192,192,145239,128,0,145295:0:0:0:0:
320,192,145323,128,0,145406:0:0:0:0:
448,192,145406,128,0,145489:0:0:0:0:
320,192,145489,128,0,145573:0:0:0:0:
192,192,145573,1,0,0:0:0:50:kick_0.wav
64,192,145573,1,0,0:0:0:50:kick_0.wav
448,192,145656,1,0,0:0:0:0:
320,192,145739,1,0,0:0:0:0:
192,192,145823,1,0,0:0:0:0:
448,192,145906,1,0,0:0:0:0:
320,192,146073,128,0,146156:0:0:0:50:kick_0.wav
448,192,146073,1,0,0:0:0:50:kick_0.wav
192,192,146128,1,0,0:0:0:0:
64,192,146156,1,0,0:0:0:0:
64,192,146239,1,0,0:0:0:50:clap_1.wav
320,192,146239,1,0,0:0:0:50:clap_1.wav
192,192,146406,1,0,0:0:0:50:kick_0.wav
64,192,146406,1,0,0:0:0:50:kick_0.wav
320,192,146489,1,0,0:0:0:50:kick_0.wav
448,192,146489,1,0,0:0:0:50:kick_0.wav
192,192,146573,1,0,0:0:0:100:snare_3.wav
320,192,146739,1,0,0:0:0:0:
448,192,146767,128,0,146823:0:0:0:0:
64,192,146906,1,0,0:0:0:100:cymbal_0.wav
448,192,146906,1,0,0:0:0:50:kick_0.wav
320,192,146906,1,0,0:0:0:50:kick_0.wav
192,192,146989,1,0,0:0:0:0:
64,192,147073,1,0,0:0:0:0:
320,192,147156,1,0,0:0:0:50:kick_0.wav
448,192,147156,1,0,0:0:0:50:kick_0.wav
192,192,147239,128,0,147323:0:0:0:0:
320,192,147323,128,0,147406:0:0:0:0:
192,192,147406,1,0,0:0:0:50:kick_0.wav
64,192,147406,128,0,147573:0:0:0:50:kick_0.wav
192,192,147573,1,0,0:0:0:0:
448,192,147573,1,0,0:0:0:0:
192,192,147656,1,0,0:0:0:50:kick_0.wav
64,192,147656,1,0,0:0:0:50:kick_0.wav
320,192,147739,128,0,147795:0:0:0:0:
64,192,147823,1,0,0:0:0:50:kick_0.wav
192,192,147823,1,0,0:0:0:50:kick_0.wav
320,192,147906,128,0,147962:0:0:0:0:
448,192,147989,128,0,148073:0:0:0:0:
320,192,148073,128,0,148156:0:0:0:50:kick_0.wav
64,192,148073,1,0,0:0:0:50:kick_0.wav
448,192,148156,128,0,148239:0:0:0:0:
64,192,148239,1,0,0:0:0:50:kick_0.wav
192,192,148239,1,0,0:0:0:50:kick_0.wav
448,192,148323,1,0,0:0:0:0:
320,192,148406,1,0,0:0:0:0:
192,192,148489,1,0,0:0:0:50:kick_0.wav
64,192,148489,1,0,0:0:0:50:kick_0.wav
320,192,148573,1,0,0:0:0:0:
320,192,148739,128,0,148823:0:0:0:50:kick_0.wav
448,192,148739,1,0,0:0:0:50:kick_0.wav
192,192,148795,1,0,0:0:0:0:
64,192,148823,1,0,0:0:0:0:
64,192,148906,1,0,0:0:0:0:
320,192,148906,1,0,0:0:0:0:
320,192,148989,1,0,0:0:0:50:kick_0.wav
448,192,148989,1,0,0:0:0:50:kick_0.wav
192,192,149073,128,0,149128:0:0:0:0:
448,192,149156,1,0,0:0:0:50:kick_0.wav
320,192,149156,1,0,0:0:0:50:kick_0.wav
192,192,149239,128,0,149295:0:0:0:0:
64,192,149323,128,0,149406:0:0:0:0:
192,192,149406,128,0,149489:0:0:0:50:kick_0.wav
448,192,149406,1,0,0:0:0:50:kick_0.wav
64,192,149489,128,0,149573:0:0:0:0:
320,192,149573,1,0,0:0:0:50:kick_0.wav
448,192,149573,1,0,0:0:0:50:kick_0.wav
192,192,149656,1,0,0:0:0:0:
320,192,149739,128,0,149795:0:0:0:0:
448,192,149823,128,0,149878:0:0:0:50:kick_0.wav
192,192,149823,1,0,0:0:0:50:kick_0.wav
64,192,149906,128,0,150073:0:0:0:0:
192,192,150073,128,0,150156:0:0:0:100:kick_0.wav
320,192,150128,1,0,0:0:0:0:
448,192,150156,1,0,0:0:0:0:
448,192,150239,1,0,0:0:0:0:
192,192,150239,1,0,0:0:0:0:
192,192,150323,1,0,0:0:0:50:kick_0.wav
64,192,150323,1,0,0:0:0:50:kick_0.wav
320,192,150406,1,0,0:0:0:0:
448,192,150489,1,0,0:0:0:50:kick_0.wav
320,192,150489,1,0,0:0:0:50:kick_0.wav
192,192,150573,1,0,0:0:0:0:
64,192,150656,1,0,0:0:0:0:
448,192,150739,1,0,0:0:0:50:kick_0.wav
192,192,150739,128,0,150795:0:0:0:50:kick_0.wav
320,192,150823,128,0,150878:0:0:0:0:
192,192,150906,1,0,0:0:0:50:kick_0.wav
64,192,150906,1,0,0:0:0:50:kick_0.wav
448,192,150989,128,0,151073:0:0:0:0:
320,192,151073,128,0,151156:0:0:0:0:
192,192,151156,1,0,0:0:0:50:kick_0.wav
64,192,151156,1,0,0:0:0:50:kick_0.wav
448,192,151239,1,0,0:0:0:0:
448,192,151323,1,0,0:0:0:0:
192,192,151406,128,0,151489:0:0:0:50:kick_0.wav
64,192,151406,1,0,0:0:0:50:kick_0.wav
320,192,151462,1,0,0:0:0:0:
448,192,151489,1,0,0:0:0:0:
192,192,151573,1,0,0:0:0:0:
448,192,151573,1,0,0:0:0:0:
192,192,151656,1,0,0:0:0:50:kick_0.wav
64,192,151656,1,0,0:0:0:50:kick_0.wav
448,192,151739,128,0,151795:0:0:0:0:
64,192,151823,1,0,0:0:0:50:kick_0.wav
192,192,151823,128,0,151878:0:0:0:50:kick_0.wav
320,192,151906,1,0,0:0:0:0:
448,192,152073,1,0,0:0:0:50:kick_0.wav
320,192,152073,1,0,0:0:0:50:kick_0.wav
192,192,152156,1,0,0:0:0:50:kick_0.wav
64,192,152156,1,0,0:0:0:50:kick_0.wav
64,192,152239,1,0,0:0:0:100:kick_0.wav
320,192,152239,1,0,0:0:0:50:cymbal_1.wav
448,192,152239,1,0,0:0:0:50:cymbal_1.wav
192,192,152323,1,0,0:0:0:0:
64,192,152406,1,0,0:0:0:0:
320,192,152489,1,0,0:0:0:50:kick_0.wav
448,192,152489,1,0,0:0:0:50:kick_0.wav
192,192,152573,1,0,0:0:0:0:
320,192,152656,1,0,0:0:0:0:
64,192,152739,128,0,152823:0:0:0:100:kick_0.wav
192,192,152795,1,0,0:0:0:0:
320,192,152823,1,0,0:0:0:0:
448,192,152906,1,0,0:0:0:0:
192,192,152906,1,0,0:0:0:0:
320,192,152989,1,0,0:0:0:50:kick_0.wav
448,192,152989,1,0,0:0:0:50:kick_0.wav
64,192,153073,1,0,0:0:0:0:
320,192,153156,1,0,0:0:0:50:kick_0.wav
448,192,153156,1,0,0:0:0:50:kick_0.wav
192,192,153239,1,0,0:0:0:0:
192,192,153323,1,0,0:0:0:0:
448,192,153406,1,0,0:0:0:50:kick_0.wav
320,192,153406,1,0,0:0:0:50:kick_0.wav
64,192,153448,1,0,0:0:0:0:
192,192,153489,1,0,0:0:0:0:
320,192,153531,1,0,0:0:0:0:
192,192,153573,1,0,0:0:0:50:kick_0.wav
64,192,153573,1,0,0:0:0:50:kick_0.wav
448,192,153656,1,0,0:0:0:0:
320,192,153739,1,0,0:0:0:0:
64,192,153823,1,0,0:0:0:50:kick_0.wav
192,192,153823,1,0,0:0:0:50:kick_0.wav
448,192,153906,1,0,0:0:0:0:
320,192,154073,128,0,154156:0:0:0:50:kick_0.wav
448,192,154073,1,0,0:0:0:50:kick_0.wav
192,192,154128,1,0,0:0:0:0:
64,192,154156,1,0,0:0:0:0:
448,192,154239,1,0,0:0:0:0:
192,192,154239,1,0,0:0:0:0:
64,192,154323,1,0,0:0:0:50:kick_0.wav
192,192,154323,1,0,0:0:0:50:kick_0.wav
320,192,154406,128,0,154462:0:0:0:0:
64,192,154489,1,0,0:0:0:50:kick_0.wav
192,192,154489,128,0,154545:0:0:0:50:kick_0.wav
320,192,154573,1,0,0:0:0:0:
192,192,154656,128,0,154712:0:0:0:0:
448,192,154739,1,0,0:0:0:50:kick_0.wav
320,192,154739,128,0,154823:0:0:0:50:kick_0.wav
192,192,154823,128,0,154906:0:0:0:0:
320,192,154906,1,0,0:0:0:100:cymbal_1.wav
448,192,154906,1,0,0:0:0:50:kick_0.wav
64,192,154906,1,0,0:0:0:50:kick_0.wav
192,192,154989,1,0,0:0:0:0:
64,192,155073,1,0,0:0:0:0:
320,192,155156,1,0,0:0:0:50:kick_0.wav
448,192,155156,1,0,0:0:0:50:kick_0.wav
64,192,155239,128,0,155406:0:0:0:0:
192,192,155406,128,0,155489:0:0:0:100:kick_0.wav
320,192,155462,1,0,0:0:0:0:
448,192,155489,1,0,0:0:0:0:
192,192,155573,1,0,0:0:0:0:
448,192,155573,1,0,0:0:0:0:
192,192,155656,1,0,0:0:0:50:kick_0.wav
64,192,155656,128,0,155712:0:0:0:50:kick_0.wav
320,192,155739,1,0,0:0:0:0:
192,192,155823,1,0,0:0:0:50:kick_0.wav
64,192,155823,1,0,0:0:0:50:kick_0.wav
448,192,155906,128,0,155962:0:0:0:0:
320,192,155989,128,0,156073:0:0:0:100:kick_0.wav
64,192,156031,1,0,0:0:0:100:kick_0.wav
192,192,156073,1,0,0:0:0:50:kick_0.wav
448,192,156073,128,0,156156:0:0:0:50:kick_0.wav
320,192,156156,128,0,156239:0:0:0:0:
192,192,156239,1,0,0:0:0:33:kick_0.wav
64,192,156239,1,0,0:0:0:33:kick_0.wav
448,192,156239,1,0,0:0:0:33:kick_0.wav
448,192,156406,1,0,0:0:0:0:
320,192,156573,1,0,0:0:0:0:
192,192,156739,1,0,0:0:0:0:
64,192,156906,1,0,0:0:0:0:
64,192,157073,1,0,0:0:0:0:
192,192,157239,1,0,0:0:0:0:
320,192,157406,1,0,0:0:0:0:
448,192,157425,1,0,0:0:0:0:
64,192,157573,128,0,157823:0:0:0:50:cymbal_0.wav
320,192,157573,1,0,0:0:0:50:kick_0.wav
448,192,157573,1,0,0:0:0:50:cymbal_0.wav
192,192,157573,128,0,157723:0:0:0:50:kick_0.wav
320,192,157823,128,0,158048:0:0:0:0:
448,192,157898,128,0,158073:0:0:0:0:
192,192,157973,128,0,158123:0:0:0:0:
64,192,158023,128,0,158173:0:0:0:0:
448,192,158323,128,0,158573:0:0:0:0:
320,192,158398,128,0,158598:0:0:0:0:
192,192,158473,128,0,158648:0:0:0:0:
64,192,158523,128,0,158698:0:0:0:0:
192,192,158848,128,0,159098:0:0:0:0:
64,192,158923,128,0,159123:0:0:0:0:
320,192,158998,128,0,159173:0:0:0:0:
448,192,159048,128,0,159223:0:0:0:0:
192,192,159373,128,0,159598:0:0:0:0:
448,192,159448,128,0,159623:0:0:0:0:
320,192,159523,128,0,159648:0:0:0:0:
64,192,159573,128,0,159698:0:0:0:0:
192,192,159673,128,0,159723:0:0:0:0:
320,192,159723,128,0,159773:0:0:0:0:
448,192,159773,128,0,159848:0:0:0:0:
64,192,159823,128,0,159898:0:0:0:0:
192,192,159873,128,0,159923:0:0:0:0:
320,192,159898,1,0,0:0:0:0:
192,192,159973,5,0,0:0:0:33:snare_1.wav
448,192,159973,128,0,160023:0:0:0:33:snare_1.wav
320,192,159973,128,0,160048:0:0:0:33:snare_1.wav
320,192,160323,128,0,160373:0:0:0:0:
448,192,160323,1,0,0:0:0:0:
320,192,160623,128,0,160673:0:0:0:0:
320,192,160923,1,0,0:0:0:0:
64,192,162373,1,0,0:0:0:50:kick_0.wav
320,192,162373,128,0,162523:0:0:0:50:cymbal_0.wav
192,192,162373,1,0,0:0:0:50:kick_0.wav
448,192,162373,128,0,162623:0:0:0:50:cymbal_0.wav
448,192,162673,128,0,162723:0:0:0:0:
320,192,162691,128,0,162766:0:0:0:0:
192,192,162723,128,0,162823:0:0:0:0:
320,192,162848,128,0,162973:0:0:0:0:
192,192,162898,128,0,163048:0:0:0:0:
64,192,162948,128,0,163248:0:0:0:0:
192,192,163198,128,0,163298:0:0:0:0:
320,192,163273,128,0,163373:0:0:0:0:
64,192,163323,128,0,163373:0:0:0:0:
192,192,163373,128,0,163423:0:0:0:0:
448,192,163423,128,0,163523:0:0:0:0:
320,192,163473,128,0,163598:0:0:0:0:
192,192,163498,128,0,163673:0:0:0:0:
64,192,164173,128,0,164323:0:0:0:0:
192,192,164248,128,0,164398:0:0:0:0:
448,192,164298,128,0,164473:0:0:0:0:
320,192,164373,128,0,164448:0:0:0:0:
192,192,164473,128,0,164573:0:0:0:0:
320,192,164523,128,0,164623:0:0:0:0:
448,192,164573,128,0,164673:0:0:0:0:
64,192,164623,128,0,164698:0:0:0:0:
192,192,164673,128,0,164723:0:0:0:0:
320,192,164698,1,0,0:0:0:0:
192,192,164773,5,0,0:0:0:33:snare_1.wav
448,192,164773,128,0,164823:0:0:0:33:snare_1.wav
320,192,164773,128,0,164848:0:0:0:33:snare_1.wav
320,192,165123,128,0,165173:0:0:0:0:
448,192,165123,1,0,0:0:0:0:
320,192,165423,128,0,165473:0:0:0:0:
320,192,165723,1,0,0:0:0:0:
64,192,167173,5,0,0:0:0:35:kick_2.wav
448,192,167173,1,0,0:0:0:50:cymbal_0.wav
320,192,167173,1,0,0:0:0:50:cymbal_0.wav
192,192,167248,1,0,0:0:0:0:
320,192,167323,1,0,0:0:0:0:
192,192,167398,1,0,0:0:0:0:
448,192,167473,1,0,0:0:0:35:kick_2.wav
320,192,167548,1,0,0:0:0:0:
192,192,167623,1,0,0:0:0:0:
320,192,167698,1,0,0:0:0:0:
64,192,167773,1,0,0:0:0:35:kick_2.wav
192,192,167848,1,0,0:0:0:0:
320,192,167923,1,0,0:0:0:0:
192,192,167998,1,0,0:0:0:0:
448,192,168073,1,0,0:0:0:35:kick_2.wav
320,192,168148,1,0,0:0:0:0:
192,192,168223,1,0,0:0:0:0:
320,192,168298,1,0,0:0:0:0:
64,192,168373,1,0,0:0:0:35:kick_2.wav
192,192,168448,1,0,0:0:0:0:
448,192,168523,1,0,0:0:0:0:
320,192,168598,1,0,0:0:0:0:
448,192,168673,1,0,0:0:0:35:kick_2.wav
192,192,168748,1,0,0:0:0:0:
320,192,168823,1,0,0:0:0:0:
192,192,168898,1,0,0:0:0:0:
64,192,168973,1,0,0:0:0:35:kick_2.wav
320,192,169048,1,0,0:0:0:0:
192,192,169123,1,0,0:0:0:0:
320,192,169198,1,0,0:0:0:0:
448,192,169273,1,0,0:0:0:35:kick_2.wav
192,192,169348,1,0,0:0:0:0:
320,192,169423,1,0,0:0:0:0:
192,192,169498,1,0,0:0:0:0:
64,192,169573,1,0,0:0:0:35:kick_2.wav
320,192,169648,1,0,0:0:0:0:
192,192,169723,1,0,0:0:0:0:
64,192,169798,1,0,0:0:0:0:
192,192,169873,1,0,0:0:0:35:kick_2.wav
320,192,169948,1,0,0:0:0:0:
192,192,170023,1,0,0:0:0:0:
320,192,170098,1,0,0:0:0:0:
448,192,170173,1,0,0:0:0:35:kick_2.wav
192,192,170248,1,0,0:0:0:0:
320,192,170323,1,0,0:0:0:0:
192,192,170398,1,0,0:0:0:0:
64,192,170473,1,0,0:0:0:35:kick_2.wav
192,192,170548,1,0,0:0:0:0:
320,192,170623,1,0,0:0:0:0:
192,192,170698,1,0,0:0:0:0:
448,192,170773,1,0,0:0:0:35:kick_2.wav
192,192,170848,1,0,0:0:0:0:
320,192,170923,1,0,0:0:0:0:
448,192,170998,1,0,0:0:0:0:
320,192,171073,1,0,0:0:0:35:kick_2.wav
192,192,171148,1,0,0:0:0:0:
320,192,171223,1,0,0:0:0:0:
192,192,171298,1,0,0:0:0:0:
64,192,171373,1,0,0:0:0:35:kick_2.wav
320,192,171448,1,0,0:0:0:0:
192,192,171523,1,0,0:0:0:0:
320,192,171598,1,0,0:0:0:0:
64,192,171673,1,0,0:0:0:35:kick_2.wav
448,192,171748,1,0,0:0:0:0:
192,192,171823,1,0,0:0:0:0:
320,192,171898,1,0,0:0:0:0:
64,192,171973,1,0,0:0:0:100:cymbal_0.wav
448,192,171973,1,0,0:0:0:70:kick_2.wav
192,192,172048,1,0,0:0:0:0:
64,192,172123,1,0,0:0:0:70:kick_2.wav
320,192,172198,1,0,0:0:0:0:
64,192,172273,1,0,0:0:0:35:kick_2.wav
192,192,172273,1,0,0:0:0:35:kick_2.wav
448,192,172348,1,0,0:0:0:0:
64,192,172423,1,0,0:0:0:70:kick_2.wav
320,192,172498,1,0,0:0:0:0:
448,192,172573,1,0,0:0:0:35:kick_2.wav
192,192,172573,1,0,0:0:0:35:kick_2.wav
64,192,172648,1,0,0:0:0:0:
448,192,172723,1,0,0:0:0:70:kick_2.wav
192,192,172798,1,0,0:0:0:0:
448,192,172873,1,0,0:0:0:35:kick_2.wav
64,192,172873,1,0,0:0:0:35:kick_2.wav
320,192,172948,1,0,0:0:0:0:
448,192,173023,1,0,0:0:0:70:kick_2.wav
192,192,173098,1,0,0:0:0:0:
64,192,173173,1,0,0:0:0:100:kick_2.wav
448,192,173173,1,0,0:0:0:100:cymbal_0.wav
320,192,173248,1,0,0:0:0:50:kick_2.wav
192,192,173248,1,0,0:0:0:50:kick_2.wav
64,192,173323,1,0,0:0:0:100:kick_2.wav
448,192,173398,1,0,0:0:0:100:kick_2.wav
64,192,173473,1,0,0:0:0:50:kick_2.wav
192,192,173473,1,0,0:0:0:50:kick_2.wav
448,192,173548,1,0,0:0:0:50:kick_2.wav
320,192,173548,1,0,0:0:0:50:kick_2.wav
192,192,173623,1,0,0:0:0:100:kick_2.wav
320,192,173698,1,0,0:0:0:100:kick_2.wav
64,192,173773,1,0,0:0:0:100:kick_2.wav
192,192,173810,1,0,0:0:0:100:kick_2.wav
320,192,173848,1,0,0:0:0:100:kick_2.wav
448,192,173885,1,0,0:0:0:100:kick_2.wav
64,192,173923,1,0,0:0:0:100:kick_2.wav
192,192,173998,1,0,0:0:0:100:kick_2.wav
320,192,174073,1,0,0:0:0:100:kick_2.wav
448,192,174173,1,0,0:0:0:100:kick_2.wav
448,192,174273,1,0,0:0:0:50:kick_2.wav
320,192,174273,1,0,0:0:0:50:kick_2.wav
64,192,174373,1,0,0:0:0:100:kick_2.wav
192,192,174373,1,0,0:0:0:100:cymbal_1.wav
448,192,174423,1,0,0:0:0:0:
192,192,174504,128,0,174560:0:0:0:0:
320,192,174541,128,0,174823:0:0:0:0:
448,192,174560,128,0,174785:0:0:0:0:
448,192,175423,1,0,0:0:0:100:kick_1.wav
192,192,175573,1,0,0:0:0:100:kick_1.wav
448,192,175573,1,0,0:0:0:100:cymbal_1.wav
64,192,175648,1,0,0:0:0:0:
192,192,175798,1,0,0:0:0:0:
320,192,175873,1,0,0:0:0:0:
448,192,175873,1,0,0:0:0:0:
192,192,176023,1,0,0:0:0:100:kick_1.wav
448,192,176023,1,0,0:0:0:100:cymbal_1.wav
64,192,176098,1,0,0:0:0:0:
192,192,176248,1,0,0:0:0:0:
320,192,176323,1,0,0:0:0:0:
448,192,176323,1,0,0:0:0:0:
64,192,176473,1,0,0:0:0:100:cymbal_1.wav
448,192,176473,1,0,0:0:0:100:kick_1.wav
320,192,176623,1,0,0:0:0:0:
448,192,176648,1,0,0:0:0:0:
448,192,176773,1,0,0:0:0:100:cymbal_0.wav
64,192,176773,1,0,0:0:0:50:kick_0.wav
320,192,176773,1,0,0:0:0:50:kick_0.wav
192,192,176848,1,0,0:0:0:0:
320,192,176923,1,0,0:0:0:0:
448,192,176998,1,0,0:0:0:0:
192,192,177073,1,0,0:0:0:30:snare_0.wav
320,192,177073,128,0,177148:0:0:0:50:kick_0.wav
64,192,177073,1,0,0:0:0:50:kick_0.wav
448,192,177148,128,0,177223:0:0:0:0:
192,192,177223,128,0,177298:0:0:0:0:
320,192,177298,128,0,177373:0:0:0:0:
448,192,177373,128,0,177473:0:0:0:50:kick_0.wav
64,192,177373,1,0,0:0:0:50:kick_0.wav
192,192,177448,128,0,177548:0:0:0:0:
320,192,177523,128,0,177623:0:0:0:0:
64,192,177598,128,0,177673:0:0:0:0:
192,192,177673,128,0,177748:0:0:0:30:snare_0.wav
448,192,177673,1,0,0:0:0:50:kick_0.wav
320,192,177673,1,0,0:0:0:50:kick_0.wav
64,192,177748,128,0,177823:0:0:0:0:
320,192,177823,128,0,177898:0:0:0:0:
192,192,177898,128,0,177973:0:0:0:0:
64,192,177973,1,0,0:0:0:50:kick_0.wav
448,192,177973,1,0,0:0:0:50:kick_0.wav
320,192,178048,1,0,0:0:0:0:
448,192,178123,1,0,0:0:0:0:
192,192,178198,1,0,0:0:0:0:
448,192,178273,1,0,0:0:0:30:snare_0.wav
320,192,178273,1,0,0:0:0:50:kick_0.wav
64,192,178273,1,0,0:0:0:50:kick_0.wav
192,192,178348,1,0,0:0:0:0:
64,192,178423,1,0,0:0:0:0:
448,192,178498,1,0,0:0:0:0:
64,192,178573,1,0,0:0:0:50:kick_0.wav
320,192,178573,1,0,0:0:0:50:kick_0.wav
192,192,178648,1,0,0:0:0:0:
320,192,178723,1,0,0:0:0:0:
64,192,178798,1,0,0:0:0:0:
192,192,178873,1,0,0:0:0:30:snare_0.wav
320,192,178873,1,0,0:0:0:50:kick_0.wav
448,192,178873,1,0,0:0:0:50:kick_0.wav
64,192,178948,1,0,0:0:0:0:
448,192,179023,1,0,0:0:0:0:
192,192,179098,1,0,0:0:0:0:
320,192,179173,1,0,0:0:0:50:kick_0.wav
64,192,179173,1,0,0:0:0:50:kick_0.wav
448,192,179248,1,0,0:0:0:0:
320,192,179323,1,0,0:0:0:0:
64,192,179398,1,0,0:0:0:0:
320,192,179473,1,0,0:0:0:30:snare_0.wav
192,192,179473,1,0,0:0:0:50:kick_0.wav
448,192,179473,1,0,0:0:0:50:kick_0.wav
64,192,179548,1,0,0:0:0:0:
192,192,179623,1,0,0:0:0:0:
448,192,179698,1,0,0:0:0:0:
64,192,179773,1,0,0:0:0:50:kick_0.wav
192,192,179773,1,0,0:0:0:50:kick_0.wav
448,192,179848,1,0,0:0:0:0:
320,192,179923,1,0,0:0:0:0:
64,192,179998,1,0,0:0:0:0:
320,192,180073,1,0,0:0:0:30:snare_0.wav
448,192,180073,1,0,0:0:0:50:kick_0.wav
192,192,180073,1,0,0:0:0:50:kick_0.wav
64,192,180148,1,0,0:0:0:0:
320,192,180223,1,0,0:0:0:0:
448,192,180298,1,0,0:0:0:0:
192,192,180373,1,0,0:0:0:50:kick_0.wav
64,192,180373,1,0,0:0:0:50:kick_0.wav
320,192,180448,1,0,0:0:0:0:
448,192,180523,1,0,0:0:0:50:kick_0.wav
192,192,180523,1,0,0:0:0:50:kick_0.wav
64,192,180598,1,0,0:0:0:0:
448,192,180673,1,0,0:0:0:30:snare_0.wav
192,192,180673,1,0,0:0:0:50:kick_0.wav
320,192,180673,1,0,0:0:0:50:kick_0.wav
64,192,180748,1,0,0:0:0:0:
320,192,180823,1,0,0:0:0:0:
448,192,180898,1,0,0:0:0:50:kick_0.wav
64,192,180898,1,0,0:0:0:50:kick_0.wav
320,192,180973,1,0,0:0:0:50:kick_0.wav
192,192,180973,1,0,0:0:0:50:kick_0.wav
448,192,181048,1,0,0:0:0:100:kick_0.wav
192,192,181123,1,0,0:0:0:50:kick_0.wav
64,192,181123,1,0,0:0:0:50:kick_0.wav
448,192,181198,1,0,0:0:0:100:kick_0.wav
320,192,181273,128,0,181323:0:0:0:30:snare_0.wav
448,192,181298,1,0,0:0:0:0:
320,192,181423,128,0,181473:0:0:0:0:
448,192,181448,1,0,0:0:0:0:
448,192,181573,1,0,0:0:0:100:cymbal_0.wav
64,192,181573,1,0,0:0:0:100:kick_0.wav
192,192,181648,1,0,0:0:0:0:
320,192,181723,1,0,0:0:0:0:
448,192,181798,1,0,0:0:0:0:
192,192,181873,1,0,0:0:0:30:snare_0.wav
320,192,181873,128,0,181948:0:0:0:50:kick_0.wav
64,192,181873,1,0,0:0:0:50:kick_0.wav
448,192,181948,128,0,182023:0:0:0:0:
192,192,182023,128,0,182098:0:0:0:0:
320,192,182098,128,0,182173:0:0:0:0:
448,192,182173,128,0,182273:0:0:0:50:kick_0.wav
64,192,182173,1,0,0:0:0:50:kick_0.wav
192,192,182248,128,0,182348:0:0:0:0:
320,192,182323,128,0,182423:0:0:0:0:
64,192,182398,128,0,182473:0:0:0:0:
192,192,182473,128,0,182548:0:0:0:30:snare_0.wav
448,192,182473,1,0,0:0:0:50:kick_0.wav
320,192,182473,1,0,0:0:0:50:kick_0.wav
64,192,182548,128,0,182623:0:0:0:0:
320,192,182623,128,0,182698:0:0:0:0:
192,192,182698,128,0,182773:0:0:0:0:
64,192,182773,1,0,0:0:0:50:kick_0.wav
448,192,182773,1,0,0:0:0:50:kick_0.wav
320,192,182848,1,0,0:0:0:0:
192,192,182923,1,0,0:0:0:0:
448,192,182998,1,0,0:0:0:0:
64,192,183073,1,0,0:0:0:30:snare_0.wav
192,192,183073,1,0,0:0:0:50:kick_0.wav
320,192,183073,1,0,0:0:0:50:kick_0.wav
448,192,183148,1,0,0:0:0:0:
64,192,183223,1,0,0:0:0:100:kick_0.wav
192,192,183260,1,0,0:0:0:100:kick_0.wav
320,192,183298,1,0,0:0:0:100:kick_0.wav
448,192,183335,1,0,0:0:0:100:kick_0.wav
192,192,183373,1,0,0:0:0:50:kick_0.wav
64,192,183373,1,0,0:0:0:50:kick_0.wav
448,192,183448,1,0,0:0:0:0:
320,192,183523,1,0,0:0:0:0:
64,192,183598,1,0,0:0:0:0:
192,192,183673,1,0,0:0:0:30:snare_0.wav
320,192,183673,1,0,0:0:0:50:kick_0.wav
448,192,183673,1,0,0:0:0:50:kick_0.wav
64,192,183748,1,0,0:0:0:0:
320,192,183823,1,0,0:0:0:50:kick_0.wav
448,192,183823,1,0,0:0:0:50:kick_0.wav
192,192,183898,1,0,0:0:0:100:kick_0.wav
64,192,183973,1,0,0:0:0:100:kick_0.wav
448,192,183973,1,0,0:0:0:100:cymbal_1.wav
320,192,184048,1,0,0:0:0:0:
192,192,184123,128,0,184223:0:0:0:0:
64,192,184198,1,0,0:0:0:0:
320,192,184223,128,0,184273:0:0:0:0:
448,192,184248,128,0,184298:0:0:0:0:
192,192,184273,128,0,184323:0:0:0:0:
64,192,184423,1,0,0:0:0:100:kick_0.wav
448,192,184423,1,0,0:0:0:100:cymbal_1.wav
320,192,184498,1,0,0:0:0:0:
192,192,184573,128,0,184673:0:0:0:0:
64,192,184648,1,0,0:0:0:0:
320,192,184673,128,0,184723:0:0:0:0:
448,192,184698,128,0,184748:0:0:0:0:
192,192,184723,128,0,184773:0:0:0:0:
64,192,184873,1,0,0:0:0:100:kick_0.wav
448,192,184873,1,0,0:0:0:100:cymbal_1.wav
320,192,184948,1,0,0:0:0:0:
64,192,185023,1,0,0:0:0:100:kick_0.wav
192,192,185098,1,0,0:0:0:0:
64,192,185173,1,0,0:0:0:100:kick_0.wav
320,192,185173,128,0,185248:0:0:0:50:cymbal_1.wav
448,192,185173,1,0,0:0:0:50:cymbal_1.wav
192,192,185248,128,0,185323:0:0:0:0:
448,192,185323,128,0,185398:0:0:0:0:
320,192,185398,128,0,185473:0:0:0:0:
448,192,185473,128,0,185773:0:0:0:0:
320,192,185773,128,0,185848:0:0:0:0:
448,192,185848,128,0,185923:0:0:0:0:
192,192,185923,128,0,186023:0:0:0:0:
448,192,186073,1,0,0:0:0:100:cymbal_1.wav
64,192,186073,1,0,0:0:0:100:kick_0.wav
320,192,186223,1,0,0:0:0:0:
192,192,186241,1,0,0:0:0:0:
320,192,186298,1,0,0:0:0:0:
64,192,186373,1,0,0:0:0:100:kick_0.wav
448,192,186373,1,0,0:0:0:100:cymbal_0.wav
192,192,186448,1,0,0:0:0:0:
320,192,186523,1,0,0:0:0:0:
448,192,186598,1,0,0:0:0:0:
192,192,186673,1,0,0:0:0:30:snare_0.wav
320,192,186673,128,0,186748:0:0:0:50:kick_0.wav
64,192,186673,1,0,0:0:0:50:kick_0.wav
448,192,186748,128,0,186823:0:0:0:0:
192,192,186823,128,0,186898:0:0:0:0:
320,192,186898,128,0,186973:0:0:0:0:
448,192,186973,128,0,187073:0:0:0:50:kick_0.wav
64,192,186973,1,0,0:0:0:50:kick_0.wav
192,192,187048,128,0,187148:0:0:0:0:
320,192,187123,128,0,187223:0:0:0:0:
64,192,187198,128,0,187273:0:0:0:0:
192,192,187273,128,0,187348:0:0:0:30:snare_0.wav
448,192,187273,1,0,0:0:0:50:kick_0.wav
320,192,187273,1,0,0:0:0:50:kick_0.wav
64,192,187348,128,0,187423:0:0:0:0:
320,192,187423,128,0,187498:0:0:0:0:
192,192,187498,128,0,187573:0:0:0:0:
320,192,187573,1,0,0:0:0:50:kick_0.wav
448,192,187573,1,0,0:0:0:50:kick_0.wav
64,192,187648,1,0,0:0:0:0:
320,192,187723,1,0,0:0:0:0:
448,192,187798,1,0,0:0:0:0:
320,192,187873,1,0,0:0:0:30:snare_0.wav
192,192,187873,1,0,0:0:0:50:kick_0.wav
64,192,187873,1,0,0:0:0:50:kick_0.wav
448,192,187948,1,0,0:0:0:0:
192,192,188023,1,0,0:0:0:0:
320,192,188073,1,0,0:0:0:0:
192,192,188123,128,0,188173:0:0:0:0:
448,192,188173,1,0,0:0:0:50:kick_0.wav
320,192,188173,128,0,188223:0:0:0:50:kick_0.wav
192,192,188248,128,0,188298:0:0:0:0:
320,192,188323,128,0,188398:0:0:0:0:
64,192,188398,1,0,0:0:0:0:
192,192,188473,1,0,0:0:0:30:snare_0.wav
448,192,188473,1,0,0:0:0:50:kick_0.wav
320,192,188473,128,0,188548:0:0:0:50:kick_0.wav
64,192,188548,1,0,0:0:0:0:
192,192,188623,1,0,0:0:0:50:kick_0.wav
448,192,188623,1,0,0:0:0:50:kick_0.wav
320,192,188698,128,0,188748:0:0:0:0:
64,192,188773,1,0,0:0:0:50:kick_0.wav
192,192,188773,1,0,0:0:0:50:kick_0.wav
320,192,188848,1,0,0:0:0:0:
448,192,188923,1,0,0:0:0:0:
64,192,188998,1,0,0:0:0:0:
448,192,189073,1,0,0:0:0:30:snare_0.wav
192,192,189073,1,0,0:0:0:50:kick_0.wav
320,192,189073,1,0,0:0:0:50:kick_0.wav
64,192,189148,1,0,0:0:0:0:
320,192,189223,1,0,0:0:0:0:
448,192,189298,1,0,0:0:0:0:
192,192,189373,1,0,0:0:0:50:kick_0.wav
64,192,189373,1,0,0:0:0:50:kick_0.wav
448,192,189448,1,0,0:0:0:0:
320,192,189523,1,0,0:0:0:0:
64,192,189598,1,0,0:0:0:0:
448,192,189673,1,0,0:0:0:30:snare_0.wav
320,192,189673,1,0,0:0:0:50:kick_0.wav
192,192,189673,1,0,0:0:0:50:kick_0.wav
64,192,189748,1,0,0:0:0:0:
448,192,189823,1,0,0:0:0:0:
320,192,189898,1,0,0:0:0:0:
192,192,189973,1,0,0:0:0:50:kick_0.wav
64,192,189973,1,0,0:0:0:50:kick_0.wav
320,192,190048,1,0,0:0:0:0:
448,192,190123,1,0,0:0:0:50:kick_0.wav
192,192,190123,1,0,0:0:0:50:kick_0.wav
64,192,190198,1,0,0:0:0:0:
448,192,190273,1,0,0:0:0:30:snare_0.wav
192,192,190273,1,0,0:0:0:50:kick_0.wav
320,192,190273,1,0,0:0:0:50:kick_0.wav
64,192,190348,1,0,0:0:0:0:
320,192,190423,1,0,0:0:0:0:
448,192,190498,1,0,0:0:0:50:kick_0.wav
64,192,190498,1,0,0:0:0:50:kick_0.wav
320,192,190573,1,0,0:0:0:50:kick_0.wav
192,192,190573,1,0,0:0:0:50:kick_0.wav
448,192,190648,1,0,0:0:0:100:kick_0.wav
192,192,190723,1,0,0:0:0:50:kick_0.wav
64,192,190723,1,0,0:0:0:50:kick_0.wav
448,192,190798,1,0,0:0:0:100:kick_0.wav
320,192,190873,128,0,190923:0:0:0:30:snare_0.wav
448,192,190898,1,0,0:0:0:0:
320,192,191023,128,0,191073:0:0:0:0:
192,192,191048,1,0,0:0:0:0:
448,192,191173,1,0,0:0:0:100:cymbal_0.wav
64,192,191173,1,0,0:0:0:100:kick_0.wav
192,192,191248,1,0,0:0:0:0:
320,192,191323,1,0,0:0:0:0:
448,192,191398,1,0,0:0:0:0:
192,192,191473,1,0,0:0:0:30:snare_0.wav
320,192,191473,128,0,191548:0:0:0:50:kick_0.wav
64,192,191473,1,0,0:0:0:50:kick_0.wav
448,192,191548,128,0,191623:0:0:0:0:
192,192,191623,128,0,191698:0:0:0:0:
320,192,191698,128,0,191773:0:0:0:0:
448,192,191773,128,0,191873:0:0:0:50:kick_0.wav
64,192,191773,1,0,0:0:0:50:kick_0.wav
192,192,191848,128,0,191948:0:0:0:0:
320,192,191923,128,0,192023:0:0:0:0:
64,192,191998,128,0,192073:0:0:0:0:
192,192,192073,128,0,192148:0:0:0:30:snare_0.wav
448,192,192073,1,0,0:0:0:50:kick_0.wav
320,192,192073,1,0,0:0:0:50:kick_0.wav
64,192,192148,128,0,192223:0:0:0:0:
320,192,192223,128,0,192298:0:0:0:0:
192,192,192298,128,0,192373:0:0:0:0:
448,192,192373,1,0,0:0:0:50:kick_0.wav
320,192,192373,1,0,0:0:0:50:kick_0.wav
64,192,192448,1,0,0:0:0:50:kick_0.wav
192,192,192448,1,0,0:0:0:50:kick_0.wav
320,192,192523,1,0,0:0:0:0:
64,192,192598,1,0,0:0:0:100:kick_0.wav
448,192,192673,1,0,0:0:0:30:snare_0.wav
192,192,192673,1,0,0:0:0:50:kick_0.wav
320,192,192673,1,0,0:0:0:50:kick_0.wav
64,192,192748,1,0,0:0:0:0:
320,192,192823,1,0,0:0:0:0:
448,192,192873,1,0,0:0:0:0:
320,192,192923,128,0,192973:0:0:0:0:
64,192,192973,1,0,0:0:0:50:kick_0.wav
448,192,192973,128,0,193023:0:0:0:50:kick_0.wav
320,192,193048,128,0,193098:0:0:0:0:
448,192,193123,128,0,193198:0:0:0:0:
64,192,193198,1,0,0:0:0:0:
192,192,193273,1,0,0:0:0:30:snare_0.wav
320,192,193273,1,0,0:0:0:50:kick_0.wav
448,192,193273,128,0,193348:0:0:0:50:kick_0.wav
64,192,193348,1,0,0:0:0:0:
192,192,193423,1,0,0:0:0:50:kick_0.wav
320,192,193423,1,0,0:0:0:50:kick_0.wav
448,192,193498,128,0,193548:0:0:0:100:kick_0.wav
192,192,193573,1,0,0:0:0:100:kick_0.wav
64,192,193573,1,0,0:0:0:50:cymbal_1.wav
320,192,193648,1,0,0:0:0:0:
64,192,193723,1,0,0:0:0:0:
320,192,193798,1,0,0:0:0:100:kick_0.wav
448,192,193798,1,0,0:0:0:50:cymbal_1.wav
192,192,193873,1,0,0:0:0:0:
448,192,193948,1,0,0:0:0:0:
192,192,194023,1,0,0:0:0:100:kick_0.wav
64,192,194023,1,0,0:0:0:50:cymbal_1.wav
448,192,194098,1,0,0:0:0:0:
64,192,194173,1,0,0:0:0:100:kick_0.wav
320,192,194173,1,0,0:0:0:50:cymbal_1.wav
448,192,194248,1,0,0:0:0:0:
192,192,194323,1,0,0:0:0:100:kick_0.wav
64,192,194323,1,0,0:0:0:50:cymbal_1.wav
320,192,194398,1,0,0:0:0:0:
64,192,194473,1,0,0:0:0:100:kick_0.wav
192,192,194473,1,0,0:0:0:50:cymbal_1.wav
320,192,194548,1,0,0:0:0:50:kick_0.wav
448,192,194548,1,0,0:0:0:50:kick_0.wav
192,192,194623,1,0,0:0:0:100:kick_0.wav
448,192,194698,1,0,0:0:0:50:kick_0.wav
320,192,194698,1,0,0:0:0:50:kick_0.wav
192,192,194773,1,0,0:0:0:50:kick_0.wav
64,192,194773,1,0,0:0:0:50:kick_0.wav
448,192,195073,1,0,0:0:0:100:snare_4.wav
192,192,195223,1,0,0:0:0:50:kick_0.wav
320,192,195223,1,0,0:0:0:50:kick_0.wav
64,192,195298,1,0,0:0:0:100:kick_0.wav
320,192,195373,1,0,0:0:0:0:
64,192,195523,1,0,0:0:0:100:snare_4.wav
192,192,195673,1,0,0:0:0:100:kick_0.wav
448,192,195673,1,0,0:0:0:50:cymbal_1.wav
320,192,195823,1,0,0:0:0:0:
448,192,195848,1,0,0:0:0:0:
64,192,195973,128,0,196023:0:0:0:100:kick_0.wav
448,192,195973,128,0,196023:0:0:0:50:cymbal_1.wav
64,192,196123,128,0,196173:0:0:0:100:kick_0.wav
448,192,196123,128,0,196173:0:0:0:50:cymbal_1.wav
64,192,196273,128,0,196348:0:0:0:100:kick_0.wav
448,192,196273,1,0,0:0:0:50:cymbal_0.wav
192,192,196273,1,0,0:0:0:50:cymbal_0.wav
320,192,196348,128,0,196423:0:0:0:0:
192,192,196423,128,0,196498:0:0:0:0:
320,192,196498,128,0,196573:0:0:0:0:
64,192,196573,1,0,0:0:0:50:kick_0.wav
448,192,196573,128,0,196673:0:0:0:50:kick_0.wav
192,192,196648,128,0,196748:0:0:0:0:
320,192,196723,128,0,196823:0:0:0:0:
64,192,196798,128,0,196873:0:0:0:0:
320,192,196873,1,0,0:0:0:30:snare_0.wav
448,192,196873,1,0,0:0:0:50:kick_0.wav
192,192,196873,128,0,196948:0:0:0:50:kick_0.wav
64,192,196948,128,0,197023:0:0:0:0:
320,192,197023,128,0,197098:0:0:0:0:
192,192,197098,128,0,197173:0:0:0:0:
320,192,197173,1,0,0:0:0:50:kick_0.wav
448,192,197173,1,0,0:0:0:50:kick_0.wav
64,192,197248,1,0,0:0:0:0:
192,192,197323,1,0,0:0:0:0:
448,192,197398,1,0,0:0:0:0:
192,192,197473,1,0,0:0:0:30:snare_0.wav
64,192,197473,1,0,0:0:0:50:kick_0.wav
320,192,197473,1,0,0:0:0:50:kick_0.wav
448,192,197548,1,0,0:0:0:0:
64,192,197623,1,0,0:0:0:0:
192,192,197698,1,0,0:0:0:0:
448,192,197773,1,0,0:0:0:50:kick_0.wav
320,192,197773,1,0,0:0:0:50:kick_0.wav
192,192,197848,1,0,0:0:0:0:
320,192,197923,1,0,0:0:0:0:
64,192,197998,1,0,0:0:0:0:
192,192,198073,1,0,0:0:0:30:snare_0.wav
320,192,198073,1,0,0:0:0:50:kick_0.wav
448,192,198073,1,0,0:0:0:50:kick_0.wav
64,192,198148,1,0,0:0:0:0:
448,192,198223,1,0,0:0:0:50:kick_0.wav
320,192,198223,1,0,0:0:0:50:kick_0.wav
192,192,198298,1,0,0:0:0:100:kick_0.wav
320,192,198373,1,0,0:0:0:50:kick_0.wav
64,192,198373,1,0,0:0:0:50:kick_0.wav
448,192,198448,1,0,0:0:0:0:
192,192,198523,1,0,0:0:0:0:
320,192,198598,1,0,0:0:0:0:
64,192,198673,128,0,198748:0:0:0:30:snare_0.wav
448,192,198673,1,0,0:0:0:50:kick_0.wav
192,192,198673,1,0,0:0:0:50:kick_0.wav
320,192,198748,128,0,198823:0:0:0:0:
192,192,198823,128,0,198898:0:0:0:0:
320,192,198898,128,0,198973:0:0:0:0:
64,192,198973,1,0,0:0:0:50:kick_0.wav
448,192,198973,128,0,199073:0:0:0:50:kick_0.wav
192,192,199048,128,0,199148:0:0:0:0:
320,192,199123,128,0,199223:0:0:0:0:
64,192,199198,128,0,199273:0:0:0:0:
320,192,199273,1,0,0:0:0:30:snare_0.wav
448,192,199273,1,0,0:0:0:50:kick_0.wav
192,192,199273,128,0,199348:0:0:0:50:kick_0.wav
64,192,199348,128,0,199423:0:0:0:0:
320,192,199423,128,0,199498:0:0:0:0:
192,192,199498,128,0,199573:0:0:0:0:
320,192,199573,1,0,0:0:0:50:kick_0.wav
448,192,199573,1,0,0:0:0:50:kick_0.wav
192,192,199648,1,0,0:0:0:0:
64,192,199723,1,0,0:0:0:50:kick_0.wav
320,192,199723,1,0,0:0:0:50:kick_0.wav
448,192,199798,1,0,0:0:0:0:
64,192,199873,1,0,0:0:0:30:snare_0.wav
320,192,199873,1,0,0:0:0:50:kick_0.wav
192,192,199873,1,0,0:0:0:50:kick_0.wav
448,192,199948,1,0,0:0:0:0:
192,192,200023,1,0,0:0:0:0:
64,192,200098,1,0,0:0:0:50:kick_0.wav
448,192,200098,1,0,0:0:0:50:kick_0.wav
192,192,200173,1,0,0:0:0:50:kick_0.wav
320,192,200173,1,0,0:0:0:50:kick_0.wav
64,192,200248,1,0,0:0:0:100:kick_0.wav
320,192,200323,1,0,0:0:0:50:kick_0.wav
448,192,200323,1,0,0:0:0:50:kick_0.wav
192,192,200398,1,0,0:0:0:100:kick_0.wav
192,192,200473,128,0,200523:0:0:0:30:snare_0.wav
320,192,200498,1,0,0:0:0:0:
192,192,200623,128,0,200673:0:0:0:0:
320,192,200648,1,0,0:0:0:0:
448,192,200773,1,0,0:0:0:100:cymbal_0.wav
64,192,200773,1,0,0:0:0:100:kick_0.wav
320,192,200848,1,0,0:0:0:0:
192,192,200923,1,0,0:0:0:0:
320,192,200998,1,0,0:0:0:0:
64,192,201073,128,0,201148:0:0:0:30:snare_0.wav
448,192,201073,1,0,0:0:0:50:kick_0.wav
192,192,201073,1,0,0:0:0:50:kick_0.wav
320,192,201148,128,0,201223:0:0:0:0:
192,192,201223,128,0,201298:0:0:0:0:
320,192,201298,128,0,201373:0:0:0:0:
64,192,201373,1,0,0:0:0:50:kick_0.wav
448,192,201373,128,0,201473:0:0:0:50:kick_0.wav
192,192,201448,128,0,201548:0:0:0:0:
320,192,201523,128,0,201623:0:0:0:0:
64,192,201598,128,0,201673:0:0:0:0:
320,192,201673,1,0,0:0:0:30:snare_0.wav
448,192,201673,1,0,0:0:0:50:kick_0.wav
192,192,201673,128,0,201748:0:0:0:50:kick_0.wav
64,192,201748,128,0,201823:0:0:0:0:
320,192,201823,128,0,201898:0:0:0:0:
192,192,201898,128,0,201973:0:0:0:0:
320,192,201973,1,0,0:0:0:50:kick_0.wav
448,192,201973,1,0,0:0:0:50:kick_0.wav
64,192,202048,1,0,0:0:0:0:
192,192,202123,1,0,0:0:0:0:
320,192,202198,1,0,0:0:0:0:
448,192,202273,1,0,0:0:0:30:snare_0.wav
64,192,202273,1,0,0:0:0:50:kick_0.wav
192,192,202273,1,0,0:0:0:50:kick_0.wav
320,192,202348,1,0,0:0:0:0:
64,192,202423,1,0,0:0:0:100:kick_0.wav
192,192,202460,1,0,0:0:0:100:kick_0.wav
320,192,202498,1,0,0:0:0:100:kick_0.wav
448,192,202535,1,0,0:0:0:100:kick_0.wav
192,192,202573,1,0,0:0:0:50:kick_0.wav
64,192,202573,1,0,0:0:0:50:kick_0.wav
320,192,202648,1,0,0:0:0:0:
192,192,202723,1,0,0:0:0:0:
64,192,202798,1,0,0:0:0:0:
192,192,202873,1,0,0:0:0:30:snare_0.wav
320,192,202873,1,0,0:0:0:50:kick_0.wav
448,192,202873,1,0,0:0:0:50:kick_0.wav
64,192,202948,1,0,0:0:0:0:
448,192,203023,1,0,0:0:0:50:kick_0.wav
320,192,203023,1,0,0:0:0:50:kick_0.wav
192,192,203098,1,0,0:0:0:100:kick_0.wav
64,192,203173,1,0,0:0:0:50:kick_0.wav
448,192,203173,1,0,0:0:0:50:kick_0.wav
320,192,203248,1,0,0:0:0:0:
64,192,203323,1,0,0:0:0:50:kick_0.wav
192,192,203323,1,0,0:0:0:50:kick_0.wav
320,192,203398,1,0,0:0:0:100:kick_0.wav
64,192,203473,128,0,203548:0:0:0:30:snare_0.wav
448,192,203473,1,0,0:0:0:50:kick_0.wav
192,192,203473,1,0,0:0:0:50:kick_0.wav
320,192,203548,128,0,203623:0:0:0:0:
192,192,203623,128,0,203698:0:0:0:0:
320,192,203698,128,0,203773:0:0:0:0:
64,192,203773,1,0,0:0:0:50:kick_0.wav
448,192,203773,128,0,203873:0:0:0:50:kick_0.wav
192,192,203848,128,0,203948:0:0:0:0:
320,192,203923,128,0,204023:0:0:0:0:
64,192,203998,128,0,204073:0:0:0:0:
320,192,204073,1,0,0:0:0:30:snare_0.wav
448,192,204073,1,0,0:0:0:50:kick_0.wav
192,192,204073,128,0,204148:0:0:0:50:kick_0.wav
64,192,204148,128,0,204223:0:0:0:0:
320,192,204223,128,0,204298:0:0:0:50:kick_0.wav
448,192,204223,1,0,0:0:0:50:kick_0.wav
192,192,204298,128,0,204373:0:0:0:100:kick_0.wav
448,192,204373,1,0,0:0:0:100:kick_0.wav
64,192,204373,1,0,0:0:0:100:cymbal_1.wav
320,192,204448,1,0,0:0:0:0:
64,192,204523,128,0,204623:0:0:0:0:
448,192,204598,1,0,0:0:0:0:
192,192,204623,128,0,204673:0:0:0:0:
320,192,204648,128,0,204698:0:0:0:0:
64,192,204673,128,0,204723:0:0:0:0:
64,192,204823,1,0,0:0:0:100:cymbal_1.wav
448,192,204823,1,0,0:0:0:100:kick_0.wav
320,192,204898,1,0,0:0:0:0:
64,192,204973,128,0,205073:0:0:0:0:
448,192,205048,1,0,0:0:0:0:
192,192,205073,128,0,205123:0:0:0:0:
320,192,205098,128,0,205148:0:0:0:0:
64,192,205123,128,0,205173:0:0:0:0:
64,192,205273,1,0,0:0:0:50:kick_0.wav
320,192,205273,1,0,0:0:0:50:kick_0.wav
320,192,205423,1,0,0:0:0:15:snare_0.wav
192,192,205423,1,0,0:0:0:15:snare_0.wav
448,192,205448,1,0,0:0:0:0:
448,192,205573,128,0,205623:0:0:0:100:kick_0.wav
64,192,205573,128,0,205623:0:0:0:50:cymbal_1.wav
448,192,205723,128,0,205773:0:0:0:100:kick_0.wav
64,192,205723,128,0,205773:0:0:0:50:cymbal_1.wav
64,192,205873,128,0,205948:0:0:0:100:kick_0.wav
448,192,205873,1,0,0:0:0:50:cymbal_0.wav
192,192,205873,1,0,0:0:0:50:cymbal_0.wav
320,192,205948,128,0,206023:0:0:0:0:
192,192,206023,128,0,206098:0:0:0:0:
320,192,206098,128,0,206173:0:0:0:0:
64,192,206173,1,0,0:0:0:50:kick_0.wav
448,192,206173,128,0,206273:0:0:0:50:kick_0.wav
192,192,206248,128,0,206348:0:0:0:0:
320,192,206323,128,0,206423:0:0:0:0:
64,192,206398,128,0,206473:0:0:0:0:
320,192,206473,1,0,0:0:0:30:snare_0.wav
448,192,206473,1,0,0:0:0:50:kick_0.wav
192,192,206473,128,0,206548:0:0:0:50:kick_0.wav
64,192,206548,128,0,206623:0:0:0:0:
320,192,206623,128,0,206698:0:0:0:0:
192,192,206698,128,0,206773:0:0:0:0:
320,192,206773,1,0,0:0:0:50:kick_0.wav
448,192,206773,1,0,0:0:0:50:kick_0.wav
64,192,206848,1,0,0:0:0:0:
192,192,206923,1,0,0:0:0:0:
448,192,206998,1,0,0:0:0:0:
320,192,207073,1,0,0:0:0:30:snare_0.wav
192,192,207073,1,0,0:0:0:50:kick_0.wav
64,192,207073,1,0,0:0:0:50:kick_0.wav
448,192,207148,1,0,0:0:0:0:
64,192,207223,1,0,0:0:0:0:
192,192,207273,1,0,0:0:0:0:
64,192,207323,128,0,207373:0:0:0:0:
448,192,207373,1,0,0:0:0:50:kick_0.wav
192,192,207373,128,0,207423:0:0:0:50:kick_0.wav
64,192,207448,128,0,207498:0:0:0:0:
192,192,207523,128,0,207598:0:0:0:0:
448,192,207598,1,0,0:0:0:0:
64,192,207673,1,0,0:0:0:30:snare_0.wav
320,192,207673,1,0,0:0:0:50:kick_0.wav
192,192,207673,128,0,207748:0:0:0:50:kick_0.wav
448,192,207748,1,0,0:0:0:0:
64,192,207823,1,0,0:0:0:50:kick_0.wav
320,192,207823,1,0,0:0:0:50:kick_0.wav
192,192,207898,128,0,207948:0:0:0:0:
448,192,207973,1,0,0:0:0:50:kick_0.wav
320,192,207973,1,0,0:0:0:50:kick_0.wav
64,192,208048,1,0,0:0:0:0:
192,192,208123,1,0,0:0:0:0:
320,192,208198,1,0,0:0:0:0:
64,192,208273,128,0,208348:0:0:0:30:snare_0.wav
448,192,208273,1,0,0:0:0:50:kick_0.wav
192,192,208273,1,0,0:0:0:50:kick_0.wav
320,192,208348,128,0,208423:0:0:0:0:
192,192,208423,128,0,208498:0:0:0:0:
320,192,208498,128,0,208573:0:0:0:0:
64,192,208573,1,0,0:0:0:50:kick_0.wav
448,192,208573,128,0,208673:0:0:0:50:kick_0.wav
192,192,208648,128,0,208748:0:0:0:0:
320,192,208723,128,0,208823:0:0:0:0:
64,192,208798,128,0,208873:0:0:0:0:
320,192,208873,1,0,0:0:0:30:snare_0.wav
448,192,208873,1,0,0:0:0:50:kick_0.wav
192,192,208873,128,0,208948:0:0:0:50:kick_0.wav
64,192,208948,128,0,209023:0:0:0:0:
320,192,209023,128,0,209098:0:0:0:0:
192,192,209098,128,0,209173:0:0:0:0:
320,192,209173,1,0,0:0:0:50:kick_0.wav
448,192,209173,1,0,0:0:0:50:kick_0.wav
192,192,209248,1,0,0:0:0:0:
64,192,209323,1,0,0:0:0:50:kick_0.wav
320,192,209323,1,0,0:0:0:50:kick_0.wav
448,192,209398,1,0,0:0:0:0:
64,192,209473,1,0,0:0:0:30:snare_0.wav
320,192,209473,1,0,0:0:0:50:kick_0.wav
192,192,209473,1,0,0:0:0:50:kick_0.wav
448,192,209548,1,0,0:0:0:0:
192,192,209623,1,0,0:0:0:0:
64,192,209698,1,0,0:0:0:50:kick_0.wav
448,192,209698,1,0,0:0:0:50:kick_0.wav
192,192,209773,1,0,0:0:0:50:kick_0.wav
320,192,209773,1,0,0:0:0:50:kick_0.wav
64,192,209848,1,0,0:0:0:100:kick_0.wav
320,192,209923,1,0,0:0:0:50:kick_0.wav
448,192,209923,1,0,0:0:0:50:kick_0.wav
192,192,209998,1,0,0:0:0:100:kick_0.wav
192,192,210073,128,0,210123:0:0:0:30:snare_0.wav
320,192,210098,1,0,0:0:0:0:
192,192,210223,128,0,210273:0:0:0:0:
64,192,210248,1,0,0:0:0:0:
64,192,210373,1,0,0:0:0:100:kick_0.wav
448,192,210373,1,0,0:0:0:100:cymbal_1.wav
320,192,210448,1,0,0:0:0:0:
64,192,210523,128,0,210623:0:0:0:0:
448,192,210598,1,0,0:0:0:0:
192,192,210623,128,0,210673:0:0:0:0:
320,192,210648,128,0,210698:0:0:0:0:
64,192,210673,128,0,210723:0:0:0:0:
64,192,210823,1,0,0:0:0:100:cymbal_1.wav
448,192,210823,1,0,0:0:0:100:kick_0.wav
320,192,210898,1,0,0:0:0:0:
64,192,210973,128,0,211073:0:0:0:0:
448,192,211048,1,0,0:0:0:0:
192,192,211073,128,0,211123:0:0:0:0:
320,192,211098,128,0,211148:0:0:0:0:
64,192,211123,128,0,211173:0:0:0:0:
64,192,211273,1,0,0:0:0:100:kick_0.wav
448,192,211273,1,0,0:0:0:100:cymbal_1.wav
320,192,211348,1,0,0:0:0:0:
192,192,211423,128,0,211523:0:0:0:0:
64,192,211498,1,0,0:0:0:0:
320,192,211523,128,0,211573:0:0:0:0:
448,192,211548,128,0,211598:0:0:0:0:
192,192,211573,128,0,211623:0:0:0:0:
64,192,211723,1,0,0:0:0:100:cymbal_1.wav
448,192,211723,1,0,0:0:0:100:kick_0.wav
320,192,211798,1,0,0:0:0:0:
192,192,211873,128,0,211973:0:0:0:0:
64,192,211948,1,0,0:0:0:0:
320,192,211973,128,0,212023:0:0:0:0:
448,192,211998,128,0,212048:0:0:0:0:
192,192,212023,128,0,212073:0:0:0:0:
64,192,212073,1,0,0:0:0:0:
320,192,212123,1,0,0:0:0:0:
192,192,212173,1,0,0:0:0:100:kick_0.wav
448,192,212173,128,0,212223:0:0:0:100:cymbal_1.wav
320,192,212248,128,0,212298:0:0:0:0:
448,192,212323,128,0,212398:0:0:0:0:
192,192,212398,1,0,0:0:0:0:
448,192,212473,128,0,212548:0:0:0:0:
320,192,212548,1,0,0:0:0:0:
192,192,212623,1,0,0:0:0:50:kick_0.wav
64,192,212623,1,0,0:0:0:50:kick_0.wav
448,192,212698,128,0,212748:0:0:0:50:kick_0.wav
320,192,212698,1,0,0:0:0:50:kick_0.wav
192,192,212773,1,0,0:0:0:100:kick_0.wav
64,192,212773,1,0,0:0:0:100:cymbal_1.wav
448,192,212848,1,0,0:0:0:0:
320,192,212923,1,0,0:0:0:50:kick_0.wav
192,192,212923,1,0,0:0:0:50:kick_0.wav
64,192,212998,1,0,0:0:0:0:
448,192,213073,1,0,0:0:0:100:kick_0.wav
320,192,213073,1,0,0:0:0:30:snare_0.wav
192,192,213148,1,0,0:0:0:0:
64,192,213223,1,0,0:0:0:50:kick_0.wav
448,192,213223,1,0,0:0:0:50:kick_0.wav
320,192,213298,1,0,0:0:0:0:
192,192,213373,1,0,0:0:0:50:kick_0.wav
64,192,213373,1,0,0:0:0:50:kick_0.wav
320,192,213448,1,0,0:0:0:50:kick_0.wav
448,192,213448,1,0,0:0:0:50:kick_0.wav
192,192,213523,1,0,0:0:0:100:kick_0.wav
448,192,213598,1,0,0:0:0:100:kick_0.wav
320,192,213673,1,0,0:0:0:100:kick_0.wav
64,192,213673,1,0,0:0:0:30:snare_0.wav
192,192,213748,1,0,0:0:0:50:kick_0.wav
448,192,213748,1,0,0:0:0:50:kick_0.wav
320,192,213823,1,0,0:0:0:100:kick_0.wav
448,192,213898,1,0,0:0:0:100:kick_0.wav
192,192,213973,1,0,0:0:0:100:kick_0.wav
64,192,213973,1,0,0:0:0:100:cymbal_0.wav
64,192,214123,1,0,0:0:0:0:
192,192,214273,1,0,0:0:0:0:
320,192,214423,1,0,0:0:0:0:
448,192,214573,1,0,0:0:0:0:
320,192,214723,1,0,0:0:0:0:
192,192,214798,1,0,0:0:0:0:
320,192,214873,1,0,0:0:0:0:
448,192,215173,1,0,0:0:0:100:cymbal_0.wav
320,192,215173,1,0,0:0:0:50:kick_0.wav
192,192,215173,1,0,0:0:0:50:kick_0.wav
192,192,215323,1,0,0:0:0:0:
320,192,215398,1,0,0:0:0:0:
192,192,215473,1,0,0:0:0:0:
64,192,215510,1,0,0:0:0:0:
320,192,215548,1,0,0:0:0:0:
192,192,215585,1,0,0:0:0:0:
64,192,215623,1,0,0:0:0:0:
192,192,215698,1,0,0:0:0:0:
320,192,215773,1,0,0:0:0:0:
448,192,215823,1,0,0:0:0:0:
320,192,215848,1,0,0:0:0:0:
192,192,215923,1,0,0:0:0:0:
320,192,215998,1,0,0:0:0:0:
448,192,215998,1,0,0:0:0:0:
64,192,216073,1,0,0:0:0:0:
320,192,216148,1,0,0:0:0:0:
64,192,216223,1,0,0:0:0:0:
192,192,216223,1,0,0:0:0:0:
320,192,216298,1,0,0:0:0:0:
448,192,216335,1,0,0:0:0:0:
192,192,216373,1,0,0:0:0:0:
448,192,216523,1,0,0:0:0:0:
64,192,216598,1,0,0:0:0:0:
192,192,216673,1,0,0:0:0:0:
448,192,216748,1,0,0:0:0:0:
320,192,216823,1,0,0:0:0:0:
192,192,216860,1,0,0:0:0:0:
64,192,216898,1,0,0:0:0:0:
320,192,216935,1,0,0:0:0:0:
448,192,216973,1,0,0:0:0:0:
64,192,217048,1,0,0:0:0:0:
192,192,217123,1,0,0:0:0:0:
64,192,217198,1,0,0:0:0:0:
320,192,217273,1,0,0:0:0:0:
192,192,217298,1,0,0:0:0:0:
448,192,217348,1,0,0:0:0:0:
320,192,217423,1,0,0:0:0:100:kick_0.wav
192,192,217448,1,0,0:0:0:0:
448,192,217498,1,0,0:0:0:0:
64,192,217573,1,0,0:0:0:100:cymbal_1.wav
320,192,217573,1,0,0:0:0:100:kick_0.wav
192,192,217723,1,0,0:0:0:0:
320,192,217798,1,0,0:0:0:0:
448,192,217873,1,0,0:0:0:0:
192,192,217910,1,0,0:0:0:0:
448,192,217948,1,0,0:0:0:0:
320,192,217985,1,0,0:0:0:0:
64,192,218023,1,0,0:0:0:0:
192,192,218098,1,0,0:0:0:0:
64,192,218173,1,0,0:0:0:0:
320,192,218248,1,0,0:0:0:0:
192,192,218323,1,0,0:0:0:0:
320,192,218398,1,0,0:0:0:0:
448,192,218473,1,0,0:0:0:0:
192,192,218623,1,0,0:0:0:0:
64,192,218660,1,0,0:0:0:0:
192,192,218698,1,0,0:0:0:0:
320,192,218735,1,0,0:0:0:0:
64,192,218773,1,0,0:0:0:0:
448,192,218848,1,0,0:0:0:0:
320,192,218923,1,0,0:0:0:0:
448,192,218998,1,0,0:0:0:0:
192,192,219073,1,0,0:0:0:0:
448,192,219148,1,0,0:0:0:0:
192,192,219223,1,0,0:0:0:0:
320,192,219248,1,0,0:0:0:0:
64,192,219298,1,0,0:0:0:0:
192,192,219373,1,0,0:0:0:0:
320,192,219398,1,0,0:0:0:0:
64,192,219448,1,0,0:0:0:0:
320,192,219523,1,0,0:0:0:100:cymbal_1.wav
448,192,219523,1,0,0:0:0:100:kick_0.wav
64,192,219598,1,0,0:0:0:0:
192,192,219673,128,0,219723:0:0:0:0:
64,192,219748,128,0,219798:0:0:0:0:
448,192,219823,1,0,0:0:0:100:cymbal_1.wav
320,192,219823,1,0,0:0:0:50:kick_0.wav
192,192,219823,128,0,219873:0:0:0:50:kick_0.wav
64,192,219898,128,0,219948:0:0:0:0:
448,192,219973,1,0,0:0:0:100:cymbal_1.wav
320,192,219973,1,0,0:0:0:100:kick_0.wav
320,192,220123,1,0,0:0:0:0:
448,192,220198,1,0,0:0:0:0:
192,192,220273,1,0,0:0:0:0:
64,192,220310,1,0,0:0:0:0:
320,192,220348,1,0,0:0:0:0:
448,192,220385,1,0,0:0:0:0:
192,192,220423,1,0,0:0:0:0:
320,192,220498,1,0,0:0:0:0:
192,192,220573,1,0,0:0:0:0:
448,192,220648,1,0,0:0:0:0:
320,192,220723,1,0,0:0:0:0:
64,192,220760,1,0,0:0:0:0:
192,192,220798,1,0,0:0:0:0:
64,192,220835,1,0,0:0:0:0:
320,192,220873,1,0,0:0:0:0:
192,192,220948,1,0,0:0:0:0:
320,192,221023,1,0,0:0:0:0:
448,192,221060,1,0,0:0:0:0:
192,192,221098,1,0,0:0:0:0:
448,192,221135,1,0,0:0:0:0:
320,192,221173,1,0,0:0:0:0:
64,192,221248,1,0,0:0:0:0:
192,192,221323,1,0,0:0:0:0:
320,192,221398,1,0,0:0:0:0:
192,192,221473,1,0,0:0:0:0:
64,192,221473,1,0,0:0:0:0:
448,192,221548,1,0,0:0:0:0:
64,192,221623,1,0,0:0:0:0:
320,192,221698,1,0,0:0:0:0:
192,192,221698,1,0,0:0:0:0:
448,192,221773,1,0,0:0:0:0:
320,192,221798,1,0,0:0:0:0:
192,192,221833,1,0,0:0:0:0:
64,192,221873,1,0,0:0:0:0:
448,192,221923,1,0,0:0:0:0:
320,192,221979,1,0,0:0:0:0:
192,192,222035,1,0,0:0:0:0:
320,192,222073,1,0,0:0:0:0:
64,192,222110,1,0,0:0:0:0:
192,192,222166,1,0,0:0:0:0:
448,192,222223,1,0,0:0:0:50:kick_0.wav
320,192,222223,1,0,0:0:0:50:kick_0.wav
64,192,222260,1,0,0:0:0:0:
192,192,222298,1,0,0:0:0:0:
320,192,222335,1,0,0:0:0:0:
448,192,222373,1,0,0:0:0:100:cymbal_1.wav
64,192,222373,1,0,0:0:0:100:kick_0.wav
192,192,222523,1,0,0:0:0:0:
320,192,222598,1,0,0:0:0:0:
192,192,222673,1,0,0:0:0:0:
320,192,222748,1,0,0:0:0:0:
192,192,222823,1,0,0:0:0:0:
64,192,222860,1,0,0:0:0:0:
448,192,222898,1,0,0:0:0:0:
320,192,222935,1,0,0:0:0:0:
192,192,222973,1,0,0:0:0:0:
64,192,222973,1,0,0:0:0:0:
320,192,223048,1,0,0:0:0:0:
448,192,223048,1,0,0:0:0:0:
192,192,223123,1,0,0:0:0:0:
448,192,223198,1,0,0:0:0:0:
320,192,223198,1,0,0:0:0:0:
64,192,223273,1,0,0:0:0:0:
448,192,223348,1,0,0:0:0:0:
320,192,223423,1,0,0:0:0:0:
192,192,223423,1,0,0:0:0:0:
64,192,223573,1,0,0:0:0:0:
64,192,223723,1,0,0:0:0:0:
320,192,223798,1,0,0:0:0:0:
448,192,223873,1,0,0:0:0:0:
192,192,223873,1,0,0:0:0:0:
320,192,223948,1,0,0:0:0:0:
64,192,224023,1,0,0:0:0:0:
192,192,224060,1,0,0:0:0:0:
320,192,224098,1,0,0:0:0:0:
448,192,224135,1,0,0:0:0:0:
64,192,224173,1,0,0:0:0:100:kick_0.wav
192,192,224173,1,0,0:0:0:100:cymbal_1.wav
320,192,224273,1,0,0:0:0:0:
320,192,224373,1,0,0:0:0:0:
64,192,224398,1,0,0:0:0:100:cymbal_1.wav
192,192,224398,1,0,0:0:0:100:kick_0.wav
320,192,224473,1,0,0:0:0:0:
448,192,224510,1,0,0:0:0:0:
64,192,224548,1,0,0:0:0:0:
192,192,224585,1,0,0:0:0:0:
448,192,224623,1,0,0:0:0:100:kick_0.wav
320,192,224623,1,0,0:0:0:100:cymbal_1.wav
64,192,224660,1,0,0:0:0:0:
192,192,224698,1,0,0:0:0:0:
320,192,224735,1,0,0:0:0:0:
448,192,224773,1,0,0:0:0:100:cymbal_1.wav
64,192,224773,1,0,0:0:0:100:kick_0.wav
320,192,224923,1,0,0:0:0:0:
64,192,224998,1,0,0:0:0:0:
448,192,225073,1,0,0:0:0:33:snare_1.wav
320,192,225073,1,0,0:0:0:33:snare_1.wav
192,192,225073,1,0,0:0:0:33:snare_1.wav
64,192,225148,1,0,0:0:0:0:
320,192,225223,1,0,0:0:0:0:
448,192,225260,1,0,0:0:0:0:
64,192,225298,1,0,0:0:0:0:
192,192,225323,1,0,0:0:0:0:
320,192,225373,1,0,0:0:0:0:
448,192,225448,1,0,0:0:0:0:
320,192,225485,1,0,0:0:0:0:
192,192,225523,1,0,0:0:0:0:
64,192,225598,1,0,0:0:0:0:
320,192,225673,1,0,0:0:0:0:
192,192,225673,1,0,0:0:0:0:
64,192,225748,1,0,0:0:0:0:
448,192,225823,1,0,0:0:0:0:
192,192,225860,1,0,0:0:0:0:
320,192,225898,1,0,0:0:0:0:
192,192,225935,1,0,0:0:0:0:
64,192,225973,1,0,0:0:0:0:
320,192,226048,1,0,0:0:0:0:
64,192,226123,1,0,0:0:0:0:
320,192,226198,1,0,0:0:0:0:
448,192,226273,128,0,226323:0:0:0:0:
64,192,226273,128,0,226323:0:0:0:0:
64,192,226373,128,0,226423:0:0:0:0:
448,192,226373,128,0,226423:0:0:0:0:
448,192,226473,128,0,226523:0:0:0:0:
64,192,226473,128,0,226523:0:0:0:0:
192,192,226573,1,0,0:0:0:50:snare_1.wav
448,192,226573,1,0,0:0:0:50:snare_1.wav
320,192,226723,1,0,0:0:0:0:
448,192,226798,1,0,0:0:0:0:
192,192,226873,1,0,0:0:0:50:snare_0.wav
320,192,226873,1,0,0:0:0:50:snare_0.wav
64,192,226948,1,0,0:0:0:0:
448,192,227023,1,0,0:0:0:50:kick_0.wav
192,192,227023,1,0,0:0:0:50:kick_0.wav
320,192,227098,1,0,0:0:0:0:
448,192,227173,1,0,0:0:0:100:kick_0.wav
64,192,227173,1,0,0:0:0:100:cymbal_1.wav
320,192,227248,128,0,227348:0:0:0:0:
192,192,227323,1,0,0:0:0:0:
320,192,227398,128,0,227448:0:0:0:0:
64,192,227473,1,0,0:0:0:0:
192,192,227548,1,0,0:0:0:0:
64,192,227623,1,0,0:0:0:0:
448,192,227698,1,0,0:0:0:0:
64,192,227773,1,0,0:0:0:0:
448,192,227848,1,0,0:0:0:0:
320,192,227923,1,0,0:0:0:0:
448,192,227998,1,0,0:0:0:0:
320,192,228073,1,0,0:0:0:33:snare_0.wav
192,192,228073,1,0,0:0:0:33:snare_0.wav
64,192,228073,1,0,0:0:0:33:snare_0.wav
320,192,228223,1,0,0:0:0:50:snare_1.wav
448,192,228223,1,0,0:0:0:50:snare_1.wav
64,192,228373,1,0,0:0:0:0:
192,192,228523,1,0,0:0:0:0:
64,192,228598,1,0,0:0:0:0:
448,192,228673,1,0,0:0:0:0:
192,192,228710,1,0,0:0:0:0:
320,192,228748,1,0,0:0:0:0:
64,192,228785,1,0,0:0:0:0:
320,192,228823,1,0,0:0:0:0:
192,192,228898,1,0,0:0:0:0:
320,192,228973,1,0,0:0:0:0:
448,192,229048,1,0,0:0:0:0:
192,192,229123,1,0,0:0:0:100:kick_0.wav
64,192,229123,1,0,0:0:0:100:cymbal_1.wav
448,192,229198,1,0,0:0:0:0:
320,192,229273,1,0,0:0:0:0:
448,192,229348,1,0,0:0:0:0:
192,192,229423,1,0,0:0:0:100:cymbal_1.wav
64,192,229423,1,0,0:0:0:100:kick_0.wav
320,192,229498,1,0,0:0:0:0:
192,192,229573,1,0,0:0:0:100:kick_0.wav
64,192,229573,1,0,0:0:0:100:cymbal_1.wav
64,192,229723,1,0,0:0:0:0:
192,192,229798,1,0,0:0:0:0:
320,192,229873,128,0,229923:0:0:0:0:
192,192,229948,128,0,229998:0:0:0:0:
320,192,230023,128,0,230073:0:0:0:0:
192,192,230098,128,0,230148:0:0:0:0:
320,192,230173,1,0,0:0:0:50:snare_1.wav
448,192,230173,1,0,0:0:0:50:snare_1.wav
64,192,230323,1,0,0:0:0:0:
320,192,230323,1,0,0:0:0:0:
448,192,230398,1,0,0:0:0:0:
192,192,230473,1,0,0:0:0:50:snare_1.wav
320,192,230473,1,0,0:0:0:50:snare_1.wav
192,192,230623,1,0,0:0:0:0:
320,192,230698,1,0,0:0:0:0:
64,192,230773,1,0,0:0:0:0:
448,192,230848,1,0,0:0:0:0:
320,192,230923,1,0,0:0:0:0:
64,192,230960,1,0,0:0:0:0:
192,192,230998,1,0,0:0:0:0:
64,192,231035,1,0,0:0:0:0:
320,192,231073,1,0,0:0:0:0:
192,192,231148,1,0,0:0:0:0:
320,192,231223,1,0,0:0:0:0:
448,192,231260,1,0,0:0:0:0:
192,192,231298,1,0,0:0:0:0:
448,192,231335,1,0,0:0:0:0:
320,192,231373,128,0,231473:0:0:0:0:
64,192,231448,128,0,231548:0:0:0:0:
448,192,231523,128,0,231623:0:0:0:0:
320,192,231523,1,0,0:0:0:0:
192,192,231598,128,0,231673:0:0:0:0:
448,192,231673,1,0,0:0:0:100:snare_0.wav
320,192,231698,1,0,0:0:0:0:
448,192,231823,1,0,0:0:0:50:snare_1.wav
64,192,231823,1,0,0:0:0:50:snare_1.wav
192,192,231848,1,0,0:0:0:0:
64,192,231973,1,0,0:0:0:100:cymbal_1.wav
320,192,231973,1,0,0:0:0:100:kick_0.wav
448,192,232010,1,0,0:0:0:0:
320,192,232048,1,0,0:0:0:0:
192,192,232085,1,0,0:0:0:0:
64,192,232123,1,0,0:0:0:0:
192,192,232198,1,0,0:0:0:0:
320,192,232273,1,0,0:0:0:0:
448,192,232310,1,0,0:0:0:0:
192,192,232348,1,0,0:0:0:0:
64,192,232398,1,0,0:0:0:0:
320,192,232439,1,0,0:0:0:0:
192,192,232473,1,0,0:0:0:0:
64,192,232506,1,0,0:0:0:0:
320,192,232535,1,0,0:0:0:0:
448,192,232573,1,0,0:0:0:0:
320,192,232648,1,0,0:0:0:0:
64,192,232723,1,0,0:0:0:0:
192,192,232723,1,0,0:0:0:0:
320,192,232798,1,0,0:0:0:0:
448,192,232873,1,0,0:0:0:0:
64,192,232910,1,0,0:0:0:0:
192,192,232948,1,0,0:0:0:0:
320,192,232993,1,0,0:0:0:0:
448,192,233039,1,0,0:0:0:0:
192,192,233073,1,0,0:0:0:0:
320,192,233106,1,0,0:0:0:0:
448,192,233139,1,0,0:0:0:0:
192,192,233173,1,0,0:0:0:100:kick_0.wav
64,192,233173,1,0,0:0:0:100:cymbal_1.wav
320,192,233248,1,0,0:0:0:0:
448,192,233323,1,0,0:0:0:50:kick_0.wav
64,192,233323,1,0,0:0:0:50:kick_0.wav
192,192,233398,1,0,0:0:0:0:
448,192,233473,1,0,0:0:0:100:cymbal_1.wav
320,192,233473,1,0,0:0:0:100:kick_0.wav
192,192,233548,1,0,0:0:0:0:
64,192,233623,1,0,0:0:0:50:kick_0.wav
448,192,233623,1,0,0:0:0:50:kick_0.wav
192,192,233698,1,0,0:0:0:50:kick_0.wav
320,192,233698,1,0,0:0:0:50:kick_0.wav
64,192,233773,1,0,0:0:0:100:kick_0.wav
448,192,233773,1,0,0:0:0:100:cymbal_1.wav
320,192,233848,1,0,0:0:0:0:
64,192,233923,1,0,0:0:0:50:kick_0.wav
192,192,233923,1,0,0:0:0:50:kick_0.wav
448,192,233998,1,0,0:0:0:50:kick_0.wav
320,192,233998,1,0,0:0:0:50:kick_0.wav
64,192,234073,1,0,0:0:0:100:kick_0.wav
320,192,234110,1,0,0:0:0:100:kick_0.wav
448,192,234148,1,0,0:0:0:100:kick_0.wav
192,192,234185,1,0,0:0:0:100:kick_0.wav
64,192,234223,1,0,0:0:0:100:kick_0.wav
320,192,234260,1,0,0:0:0:100:kick_0.wav
448,192,234298,1,0,0:0:0:100:kick_0.wav
192,192,234335,1,0,0:0:0:100:kick_0.wav
64,192,234373,1,0,0:0:0:100:cymbal_0.wav
320,192,234373,128,0,234448:0:0:0:100:kick_2.wav
320,192,234523,128,0,234598:0:0:0:0:
64,192,234673,1,0,0:0:0:100:kick_2.wav
320,192,234823,128,0,234898:0:0:0:0:
64,192,234973,1,0,0:0:0:100:kick_2.wav
320,192,235123,128,0,235198:0:0:0:0:
64,192,235273,1,0,0:0:0:100:kick_2.wav
320,192,235423,128,0,235498:0:0:0:0:
64,192,235573,1,0,0:0:0:100:kick_2.wav
320,192,235723,128,0,235798:0:0:0:0:
64,192,235873,1,0,0:0:0:100:kick_2.wav
320,192,236023,128,0,236098:0:0:0:0:
64,192,236173,1,0,0:0:0:100:kick_2.wav
320,192,236323,128,0,236398:0:0:0:0:
192,192,236473,128,0,236548:0:0:0:50:kick_2.wav
64,192,236473,1,0,0:0:0:50:kick_2.wav
320,192,236623,128,0,236698:0:0:0:0:
64,192,236773,1,0,0:0:0:100:kick_2.wav
320,192,236923,128,0,236998:0:0:0:0:
64,192,237073,1,0,0:0:0:100:kick_2.wav
320,192,237223,128,0,237298:0:0:0:0:
64,192,237373,1,0,0:0:0:100:kick_2.wav
320,192,237523,128,0,237598:0:0:0:0:
64,192,237673,1,0,0:0:0:100:kick_2.wav
448,192,237748,128,0,237798:0:0:0:0:
320,192,237823,1,0,0:0:0:0:
320,192,237898,128,0,237948:0:0:0:0:
64,192,238123,1,0,0:0:0:50:kick_2.wav
320,192,238123,128,0,238198:0:0:0:50:kick_2.wav
64,192,238423,1,0,0:0:0:50:kick_2.wav
320,192,238423,128,0,238498:0:0:0:50:kick_2.wav
64,192,238573,1,0,0:0:0:45:kick_2.wav
192,192,238648,1,0,0:0:0:45:kick_2.wav
64,192,238723,1,0,0:0:0:55:kick_2.wav
320,192,238798,1,0,0:0:0:55:kick_2.wav
192,192,238873,1,0,0:0:0:65:kick_2.wav
448,192,238948,1,0,0:0:0:65:kick_2.wav
320,192,239023,1,0,0:0:0:85:kick_2.wav
448,192,239098,1,0,0:0:0:85:kick_2.wav
64,192,239173,1,0,0:0:0:100:kick_2.wav
192,192,239173,1,0,0:0:0:50:cymbal_0.wav
64,192,239323,1,0,0:0:0:100:kick_2.wav
192,192,239473,1,0,0:0:0:100:kick_2.wav
192,192,239623,1,0,0:0:0:100:kick_2.wav
320,192,239773,1,0,0:0:0:50:kick_2.wav
192,192,239773,1,0,0:0:0:50:kick_2.wav
320,192,239923,1,0,0:0:0:50:kick_2.wav
192,192,239923,1,0,0:0:0:50:kick_2.wav
448,192,240073,1,0,0:0:0:50:kick_2.wav
320,192,240073,1,0,0:0:0:50:kick_2.wav
448,192,240223,1,0,0:0:0:50:kick_2.wav
320,192,240223,1,0,0:0:0:50:kick_2.wav
64,192,240373,1,0,0:0:0:100:kick_1.wav
448,192,240373,1,0,0:0:0:50:cymbal_0.wav
192,192,240448,1,0,0:0:0:50:kick_1.wav
320,192,240448,1,0,0:0:0:50:kick_1.wav
64,192,240523,1,0,0:0:0:100:kick_1.wav
320,192,240598,1,0,0:0:0:100:kick_1.wav
64,192,240673,1,0,0:0:0:50:kick_1.wav
192,192,240673,1,0,0:0:0:50:kick_1.wav
448,192,240748,1,0,0:0:0:50:kick_1.wav
320,192,240748,1,0,0:0:0:50:kick_1.wav
192,192,240823,1,0,0:0:0:100:kick_1.wav
448,192,240898,1,0,0:0:0:100:kick_1.wav
64,192,240973,1,0,0:0:0:100:kick_1.wav
192,192,241010,1,0,0:0:0:100:kick_1.wav
320,192,241048,1,0,0:0:0:100:kick_1.wav
448,192,241085,1,0,0:0:0:100:kick_1.wav
64,192,241123,1,0,0:0:0:100:kick_1.wav
192,192,241198,1,0,0:0:0:100:kick_1.wav
320,192,241273,1,0,0:0:0:50:kick_1.wav
448,192,241273,1,0,0:0:0:50:kick_1.wav
64,192,241348,1,0,0:0:0:0:
320,192,241373,1,0,0:0:0:50:kick_1.wav
448,192,241373,1,0,0:0:0:50:kick_1.wav
192,192,241423,1,0,0:0:0:0:
448,192,241473,1,0,0:0:0:100:kick_1.wav
320,192,241498,1,0,0:0:0:0:
64,192,241573,1,0,0:0:0:100:kick_0.wav
448,192,241573,1,0,0:0:0:100:cymbal_1.wav
192,192,241723,128,0,241823:0:0:0:0:
320,192,241823,128,0,241873:0:0:0:0:
448,192,241848,128,0,241898:0:0:0:0:
192,192,241873,128,0,241923:0:0:0:0:
448,192,242023,1,0,0:0:0:100:kick_0.wav
64,192,242023,1,0,0:0:0:100:cymbal_1.wav
192,192,242173,128,0,242273:0:0:0:0:
320,192,242273,128,0,242323:0:0:0:0:
448,192,242298,128,0,242348:0:0:0:0:
192,192,242323,128,0,242373:0:0:0:0:
448,192,242473,1,0,0:0:0:100:cymbal_1.wav
64,192,242473,1,0,0:0:0:100:kick_0.wav
320,192,242623,1,0,0:0:0:50:kick_0.wav
448,192,242623,1,0,0:0:0:50:kick_0.wav
64,192,242773,1,0,0:0:0:50:kick_0.wav
192,192,242773,1,0,0:0:0:50:kick_0.wav
448,192,242923,1,0,0:0:0:0:
320,192,243073,1,0,0:0:0:50:snare_4.wav
64,192,243073,1,0,0:0:0:50:snare_4.wav
64,192,243223,1,0,0:0:0:50:kick_0.wav
192,192,243223,1,0,0:0:0:50:kick_0.wav
448,192,243373,1,0,0:0:0:0:
320,192,243523,1,0,0:0:0:50:snare_4.wav
64,192,243523,1,0,0:0:0:50:snare_4.wav
192,192,243673,1,0,0:0:0:50:kick_0.wav
64,192,243673,1,0,0:0:0:50:kick_0.wav
192,192,243823,1,0,0:0:0:0:
448,192,243898,1,0,0:0:0:0:
64,192,243973,1,0,0:0:0:100:cymbal_0.wav
320,192,243973,1,0,0:0:0:50:kick_0.wav
192,192,243973,1,0,0:0:0:50:kick_0.wav
320,192,244120,128,0,244193:0:0:0:0:
64,192,244267,1,0,0:0:0:50:kick_0.wav
192,192,244267,1,0,0:0:0:50:kick_0.wav
320,192,244414,128,0,244487:0:0:0:0:
64,192,244561,1,0,0:0:0:50:kick_0.wav
192,192,244561,1,0,0:0:0:50:kick_0.wav
64,192,244705,1,0,0:0:0:50:kick_0.wav
192,192,244705,1,0,0:0:0:50:kick_0.wav
64,192,244777,1,0,0:0:0:100:kick_0.wav
192,192,244813,1,0,0:0:0:100:kick_0.wav
320,192,244849,1,0,0:0:0:50:kick_0.wav
448,192,244849,1,0,0:0:0:50:kick_0.wav
320,192,244993,1,0,0:0:0:50:kick_0.wav
448,192,244993,1,0,0:0:0:50:kick_0.wav
448,192,245137,1,0,0:0:0:100:kick_0.wav
64,192,245137,1,0,0:0:0:100:cymbal_0.wav
192,192,245278,1,0,0:0:0:0:
320,192,245420,1,0,0:0:0:0:
320,192,245561,1,0,0:0:0:0:
192,192,245632,1,0,0:0:0:0:
320,192,245703,1,0,0:0:0:0:
192,192,245772,1,0,0:0:0:0:
64,192,245841,1,0,0:0:0:0:
192,192,245876,1,0,0:0:0:0:
320,192,245911,1,0,0:0:0:0:
448,192,245946,1,0,0:0:0:0:
192,192,245980,1,0,0:0:0:50:kick_0.wav
320,192,245980,1,0,0:0:0:50:kick_0.wav
448,192,246119,1,0,0:0:0:50:kick_0.wav
320,192,246119,1,0,0:0:0:50:kick_0.wav
192,192,246258,1,0,0:0:0:100:cymbal_0.wav
64,192,246258,1,0,0:0:0:50:kick_0.wav
320,192,246258,1,0,0:0:0:50:kick_0.wav
448,192,246394,1,0,0:0:0:0:
320,192,246530,1,0,0:0:0:0:
64,192,246530,1,0,0:0:0:0:
320,192,246667,1,0,0:0:0:33:kick_0.wav
192,192,246667,1,0,0:0:0:33:kick_0.wav
64,192,246667,1,0,0:0:0:33:kick_0.wav
192,192,246803,1,0,0:0:0:0:
64,192,246871,1,0,0:0:0:0:
320,192,246939,1,0,0:0:0:0:
448,192,247008,1,0,0:0:0:0:
320,192,247076,1,0,0:0:0:33:kick_0.wav
192,192,247076,1,0,0:0:0:33:kick_0.wav
64,192,247076,1,0,0:0:0:33:kick_0.wav
448,192,247212,1,0,0:0:0:0:
320,192,247280,1,0,0:0:0:0:
192,192,247348,1,0,0:0:0:50:kick_0.wav
64,192,247348,1,0,0:0:0:50:kick_0.wav
64,192,247485,1,0,0:0:0:50:snare_2.wav
320,192,247485,1,0,0:0:0:50:snare_2.wav
192,192,247553,1,0,0:0:0:50:snare_2.wav
448,192,247553,1,0,0:0:0:50:snare_2.wav
320,192,247621,1,0,0:0:0:100:snare_2.wav
448,192,247689,1,0,0:0:0:100:snare_3.wav
320,192,247758,1,0,0:0:0:100:snare_3.wav
192,192,247826,1,0,0:0:0:100:snare_3.wav
64,192,247894,1,0,0:0:0:0:
320,192,248030,1,0,0:0:0:50:snare_4.wav
448,192,248030,1,0,0:0:0:50:snare_4.wav
64,192,248167,1,0,0:0:0:0:
192,192,248235,1,0,0:0:0:0:
448,192,248303,1,0,0:0:0:0:
192,192,248371,1,0,0:0:0:0:
64,192,248439,1,0,0:0:0:50:kick_0.wav
448,192,248439,1,0,0:0:0:50:kick_0.wav
192,192,248576,1,0,0:0:0:0:
320,192,248644,1,0,0:0:0:0:
192,192,248712,1,0,0:0:0:0:
320,192,248780,1,0,0:0:0:0:
448,192,248848,1,0,0:0:0:50:kick_0.wav
64,192,248848,1,0,0:0:0:50:kick_0.wav
192,192,248985,1,0,0:0:0:0:
320,192,249053,1,0,0:0:0:0:
64,192,249121,1,0,0:0:0:50:kick_0.wav
192,192,249121,1,0,0:0:0:50:kick_0.wav
320,192,249189,1,0,0:0:0:0:
448,192,249258,1,0,0:0:0:50:kick_0.wav
64,192,249258,1,0,0:0:0:50:kick_0.wav
320,192,249326,1,0,0:0:0:0:
192,192,249394,1,0,0:0:0:100:kick_0.wav
320,192,249428,1,0,0:0:0:100:kick_0.wav
448,192,249462,1,0,0:0:0:100:kick_0.wav
192,192,249496,1,0,0:0:0:100:kick_0.wav
64,192,249530,1,0,0:0:0:100:kick_0.wav
320,192,249667,1,0,0:0:0:0:
448,192,249803,1,0,0:0:0:50:snare_4.wav
192,192,249803,1,0,0:0:0:50:snare_4.wav
64,192,249939,1,0,0:0:0:100:kick_0.wav
320,192,250076,1,0,0:0:0:0:
448,192,250212,1,0,0:0:0:50:snare_4.wav
192,192,250212,1,0,0:0:0:50:snare_4.wav
192,192,250348,1,0,0:0:0:100:snare_1.wav
64,192,250348,1,0,0:0:0:50:kick_0.wav
320,192,250348,128,0,250394:0:0:0:50:kick_0.wav
448,192,250417,128,0,250462:0:0:0:0:
320,192,250485,128,0,250530:0:0:0:0:
448,192,250553,128,0,250598:0:0:0:0:
64,192,250621,1,0,0:0:0:33:kick_0.wav
192,192,250621,1,0,0:0:0:33:kick_0.wav
320,192,250621,1,0,0:0:0:33:kick_0.wav
448,192,250758,1,0,0:0:0:0:
320,192,250894,1,0,0:0:0:0:
64,192,250894,1,0,0:0:0:0:
320,192,251030,1,0,0:0:0:33:kick_0.wav
192,192,251030,1,0,0:0:0:33:kick_0.wav
64,192,251030,1,0,0:0:0:33:kick_0.wav
192,192,251167,1,0,0:0:0:0:
64,192,251235,1,0,0:0:0:0:
320,192,251303,1,0,0:0:0:0:
448,192,251371,1,0,0:0:0:0:
320,192,251439,1,0,0:0:0:33:kick_0.wav
192,192,251439,1,0,0:0:0:33:kick_0.wav
64,192,251439,1,0,0:0:0:33:kick_0.wav
320,192,251576,1,0,0:0:0:0:
192,192,251644,1,0,0:0:0:0:
64,192,251712,128,0,251780:0:0:0:50:kick_0.wav
448,192,251712,1,0,0:0:0:50:kick_0.wav
192,192,251780,128,0,251848:0:0:0:0:
64,192,251848,128,0,251917:0:0:0:0:
192,192,251917,128,0,251985:0:0:0:0:
320,192,251917,1,0,0:0:0:0:
64,192,251985,128,0,252053:0:0:0:0:
448,192,251985,1,0,0:0:0:0:
320,192,252053,1,0,0:0:0:0:
448,192,252121,128,0,252189:0:0:0:33:kick_0.wav
64,192,252121,1,0,0:0:0:33:kick_0.wav
192,192,252121,1,0,0:0:0:33:kick_0.wav
320,192,252189,128,0,252258:0:0:0:0:
448,192,252258,128,0,252326:0:0:0:0:
320,192,252326,128,0,252394:0:0:0:0:
64,192,252326,1,0,0:0:0:0:
448,192,252394,128,0,252462:0:0:0:0:
192,192,252394,1,0,0:0:0:0:
192,192,252530,128,0,252598:0:0:0:33:kick_0.wav
448,192,252530,1,0,0:0:0:33:kick_0.wav
320,192,252530,1,0,0:0:0:33:kick_0.wav
64,192,252598,128,0,252667:0:0:0:0:
192,192,252667,128,0,252735:0:0:0:0:
64,192,252735,128,0,252803:0:0:0:0:
448,192,252803,1,0,0:0:0:50:kick_0.wav
320,192,252803,1,0,0:0:0:50:kick_0.wav
192,192,252871,1,0,0:0:0:0:
64,192,252939,1,0,0:0:0:0:
320,192,253008,1,0,0:0:0:50:kick_0.wav
448,192,253008,1,0,0:0:0:50:kick_0.wav
64,192,253076,1,0,0:0:0:0:
192,192,253110,1,0,0:0:0:0:
320,192,253144,1,0,0:0:0:0:
448,192,253178,1,0,0:0:0:0:
320,192,253212,1,0,0:0:0:50:kick_0.wav
192,192,253212,1,0,0:0:0:50:kick_0.wav
64,192,253280,1,0,0:0:0:100:kick_0.wav
448,192,253348,1,0,0:0:0:50:kick_0.wav
320,192,253348,1,0,0:0:0:50:kick_0.wav
64,192,253417,1,0,0:0:0:0:
192,192,253485,1,0,0:0:0:0:
448,192,253553,1,0,0:0:0:50:kick_0.wav
320,192,253553,1,0,0:0:0:50:kick_0.wav
192,192,253621,1,0,0:0:0:0:
320,192,253758,1,0,0:0:0:0:
64,192,253792,1,0,0:0:0:0:
192,192,253826,1,0,0:0:0:0:
448,192,253860,1,0,0:0:0:0:
64,192,253894,1,0,0:0:0:50:kick_0.wav
320,192,253894,1,0,0:0:0:50:kick_0.wav
192,192,254030,1,0,0:0:0:0:
448,192,254167,1,0,0:0:0:50:snare_4.wav
64,192,254167,1,0,0:0:0:50:snare_4.wav
192,192,254303,1,0,0:0:0:0:
320,192,254371,1,0,0:0:0:0:
192,192,254439,1,0,0:0:0:0:
64,192,254508,1,0,0:0:0:0:
192,192,254576,1,0,0:0:0:50:snare_4.wav
320,192,254576,1,0,0:0:0:50:snare_4.wav
448,192,254610,1,0,0:0:0:0:
64,192,254644,1,0,0:0:0:0:
320,192,254678,1,0,0:0:0:0:
192,192,254712,128,0,254803:0:0:0:0:
448,192,254780,128,0,254848:0:0:0:0:
320,192,254848,128,0,254939:0:0:0:0:
320,192,254985,1,0,0:0:0:33:kick_0.wav
448,192,254985,1,0,0:0:0:33:kick_0.wav
192,192,254985,1,0,0:0:0:33:kick_0.wav
64,192,255121,1,0,0:0:0:0:
192,192,255258,1,0,0:0:0:0:
448,192,255258,1,0,0:0:0:0:
192,192,255394,1,0,0:0:0:33:kick_0.wav
320,192,255394,1,0,0:0:0:33:kick_0.wav
448,192,255394,1,0,0:0:0:33:kick_0.wav
320,192,255530,1,0,0:0:0:0:
192,192,255598,1,0,0:0:0:0:
320,192,255667,1,0,0:0:0:0:
64,192,255735,1,0,0:0:0:0:
192,192,255803,1,0,0:0:0:33:kick_0.wav
320,192,255803,1,0,0:0:0:33:kick_0.wav
448,192,255803,1,0,0:0:0:33:kick_0.wav
192,192,255939,1,0,0:0:0:0:
64,192,256008,1,0,0:0:0:0:
320,192,256076,1,0,0:0:0:50:kick_0.wav
448,192,256076,1,0,0:0:0:50:kick_0.wav
64,192,256212,1,0,0:0:0:50:snare_2.wav
320,192,256212,1,0,0:0:0:50:snare_2.wav
192,192,256280,1,0,0:0:0:50:snare_2.wav
448,192,256280,1,0,0:0:0:50:snare_2.wav
320,192,256348,1,0,0:0:0:100:snare_2.wav
448,192,256417,1,0,0:0:0:100:snare_3.wav
320,192,256485,1,0,0:0:0:100:snare_3.wav
192,192,256553,1,0,0:0:0:100:snare_3.wav
64,192,256621,1,0,0:0:0:50:snare_1.wav
448,192,256621,1,0,0:0:0:50:snare_1.wav
320,192,256758,1,0,0:0:0:0:
192,192,256894,1,0,0:0:0:33:snare_4.wav
320,192,256894,1,0,0:0:0:33:snare_4.wav
64,192,256894,1,0,0:0:0:33:snare_4.wav
192,192,257030,1,0,0:0:0:0:
320,192,257098,1,0,0:0:0:0:
64,192,257167,1,0,0:0:0:50:kick_0.wav
448,192,257167,1,0,0:0:0:50:kick_0.wav
192,192,257303,1,0,0:0:0:0:
320,192,257371,1,0,0:0:0:0:
192,192,257439,1,0,0:0:0:50:snare_4.wav
64,192,257439,1,0,0:0:0:50:snare_4.wav
320,192,257508,1,0,0:0:0:0:
448,192,257576,1,0,0:0:0:50:kick_0.wav
64,192,257576,1,0,0:0:0:50:kick_0.wav
64,192,257712,1,0,0:0:0:50:kick_0.wav
448,192,257712,1,0,0:0:0:50:kick_0.wav
320,192,257848,1,0,0:0:0:50:snare_4.wav
448,192,257848,1,0,0:0:0:50:snare_4.wav
192,192,257917,1,0,0:0:0:0:
448,192,257985,1,0,0:0:0:50:kick_0.wav
64,192,257985,1,0,0:0:0:50:kick_0.wav
320,192,258053,1,0,0:0:0:0:
64,192,258121,1,0,0:0:0:0:
192,192,258167,1,0,0:0:0:0:
320,192,258212,1,0,0:0:0:0:
448,192,258258,1,0,0:0:0:100:cymbal_1.wav
64,192,258258,1,0,0:0:0:50:kick_0.wav
192,192,258258,128,0,258326:0:0:0:50:kick_0.wav
320,192,258326,128,0,258394:0:0:0:0:
192,192,258394,128,0,258462:0:0:0:0:
320,192,258462,128,0,258530:0:0:0:0:
192,192,258530,128,0,258598:0:0:0:0:
320,192,258598,128,0,258667:0:0:0:0:
192,192,258667,128,0,258735:0:0:0:0:
320,192,258735,128,0,258803:0:0:0:0:
192,192,258803,1,0,0:0:0:100:kick_0.wav
64,192,258871,1,0,0:0:0:100:kick_0.wav
320,192,258939,1,0,0:0:0:50:snare_4.wav
448,192,258939,1,0,0:0:0:50:snare_4.wav
64,192,259076,1,0,0:0:0:100:kick_0.wav
320,192,259076,1,0,0:0:0:50:snare_1.wav
448,192,259076,1,0,0:0:0:50:snare_1.wav
192,192,259212,1,0,0:0:0:0:
448,192,259348,1,0,0:0:0:33:kick_0.wav
192,192,259348,1,0,0:0:0:33:kick_0.wav
320,192,259348,1,0,0:0:0:33:kick_0.wav
64,192,259485,1,0,0:0:0:0:
192,192,259621,1,0,0:0:0:0:
448,192,259621,1,0,0:0:0:0:
192,192,259758,1,0,0:0:0:33:kick_0.wav
320,192,259758,1,0,0:0:0:33:kick_0.wav
448,192,259758,1,0,0:0:0:33:kick_0.wav
320,192,259894,1,0,0:0:0:0:
448,192,259962,1,0,0:0:0:0:
192,192,260030,1,0,0:0:0:0:
64,192,260098,1,0,0:0:0:0:
192,192,260167,1,0,0:0:0:33:kick_0.wav
320,192,260167,1,0,0:0:0:33:kick_0.wav
448,192,260167,1,0,0:0:0:33:kick_0.wav
64,192,260303,1,0,0:0:0:0:
192,192,260371,1,0,0:0:0:0:
320,192,260439,1,0,0:0:0:50:kick_0.wav
448,192,260439,1,0,0:0:0:50:kick_0.wav
64,192,260508,1,0,0:0:0:0:
192,192,260576,1,0,0:0:0:50:kick_0.wav
320,192,260576,1,0,0:0:0:50:kick_0.wav
64,192,260644,1,0,0:0:0:0:
448,192,260712,1,0,0:0:0:0:
320,192,260735,1,0,0:0:0:0:
192,192,260773,1,0,0:0:0:0:
64,192,260814,1,0,0:0:0:0:
320,192,260848,1,0,0:0:0:0:
192,192,260894,1,0,0:0:0:0:
320,192,260939,1,0,0:0:0:0:
448,192,260985,1,0,0:0:0:50:kick_0.wav
64,192,260985,1,0,0:0:0:50:kick_0.wav
320,192,261053,1,0,0:0:0:50:kick_0.wav
192,192,261053,1,0,0:0:0:50:kick_0.wav
64,192,261121,1,0,0:0:0:0:
448,192,261189,1,0,0:0:0:0:
192,192,261258,1,0,0:0:0:50:snare_4.wav
64,192,261258,1,0,0:0:0:50:snare_4.wav
320,192,261292,1,0,0:0:0:0:
448,192,261326,1,0,0:0:0:0:
64,192,261360,1,0,0:0:0:0:
192,192,261394,1,0,0:0:0:0:
320,192,261439,1,0,0:0:0:0:
448,192,261485,1,0,0:0:0:0:
192,192,261530,1,0,0:0:0:50:kick_0.wav
64,192,261530,1,0,0:0:0:50:kick_0.wav
192,192,261621,1,0,0:0:0:0:
64,192,261667,1,0,0:0:0:0:
448,192,261712,1,0,0:0:0:50:kick_0.wav
320,192,261712,1,0,0:0:0:50:kick_0.wav
320,192,261803,1,0,0:0:0:0:
448,192,261848,1,0,0:0:0:0:
192,192,261894,1,0,0:0:0:50:kick_0.wav
64,192,261894,1,0,0:0:0:50:kick_0.wav
192,192,261985,1,0,0:0:0:0:
64,192,262030,1,0,0:0:0:0:
448,192,262076,1,0,0:0:0:50:kick_0.wav
320,192,262076,1,0,0:0:0:50:kick_0.wav
320,192,262167,1,0,0:0:0:0:
448,192,262212,1,0,0:0:0:0:
192,192,262258,1,0,0:0:0:50:kick_0.wav
64,192,262258,1,0,0:0:0:50:kick_0.wav
320,192,262348,1,0,0:0:0:50:snare_4.wav
448,192,262348,1,0,0:0:0:50:snare_4.wav
192,192,262439,1,0,0:0:0:0:
320,192,262485,1,0,0:0:0:0:
192,192,262530,1,0,0:0:0:0:
320,192,262576,1,0,0:0:0:0:
448,192,262621,1,0,0:0:0:50:kick_0.wav
64,192,262621,1,0,0:0:0:50:kick_0.wav
192,192,262758,1,0,0:0:0:0:
448,192,262894,1,0,0:0:0:50:snare_4.wav
320,192,262894,1,0,0:0:0:50:snare_4.wav
192,192,263030,1,0,0:0:0:0:
64,192,263167,1,0,0:0:0:100:kick_0.wav
192,192,263235,1,0,0:0:0:100:kick_0.wav
320,192,263303,1,0,0:0:0:50:snare_4.wav
448,192,263303,1,0,0:0:0:50:snare_4.wav
192,192,263439,1,0,0:0:0:50:kick_0.wav
64,192,263439,1,0,0:0:0:50:kick_0.wav
320,192,263508,1,0,0:0:0:100:kick_0.wav
448,192,263576,1,0,0:0:0:100:snare_4.wav
448,192,263712,1,0,0:0:0:100:kick_0.wav
320,192,263712,1,0,0:0:0:100:cymbal_0.wav
320,192,263848,1,0,0:0:0:0:
192,192,263985,1,0,0:0:0:0:
64,192,264121,1,0,0:0:0:0:
320,192,264258,1,0,0:0:0:0:
192,192,264394,1,0,0:0:0:0:
448,192,264530,1,0,0:0:0:0:
320,192,264667,1,0,0:0:0:0:
448,192,264803,1,0,0:0:0:0:
320,192,264939,1,0,0:0:0:0:
192,192,265076,1,0,0:0:0:0:
64,192,265212,1,0,0:0:0:0:
320,192,265348,1,0,0:0:0:0:
192,192,265485,1,0,0:0:0:0:
448,192,265621,1,0,0:0:0:0:
320,192,265758,1,0,0:0:0:0:
448,192,265894,1,0,0:0:0:0:
192,192,266030,1,0,0:0:0:0:
64,192,266167,1,0,0:0:0:0:
320,192,266303,1,0,0:0:0:0:
192,192,266439,1,0,0:0:0:0:
320,192,266576,1,0,0:0:0:0:
448,192,266712,1,0,0:0:0:0:
320,192,266848,1,0,0:0:0:0:
448,192,266985,1,0,0:0:0:0:
192,192,267121,1,0,0:0:0:0:
64,192,267258,1,0,0:0:0:0:
320,192,267394,1,0,0:0:0:0:
192,192,267530,1,0,0:0:0:0:
320,192,267667,1,0,0:0:0:0:
64,192,267803,1,0,0:0:0:0:
448,192,267939,1,0,0:0:0:0:
320,192,268076,1,0,0:0:0:0:
64,192,268212,1,0,0:0:0:0:
192,192,268348,1,0,0:0:0:0:
64,192,268485,1,0,0:0:0:0:
448,192,268621,1,0,0:0:0:0:
192,192,268758,1,0,0:0:0:0:
320,192,268894,1,0,0:0:0:0:
448,192,269030,1,0,0:0:0:0:
320,192,269167,1,0,0:0:0:0:
64,192,269303,1,0,0:0:0:0:
192,192,269439,1,0,0:0:0:0:
64,192,269576,1,0,0:0:0:0:
448,192,269712,1,0,0:0:0:0:
192,192,269848,1,0,0:0:0:0:
320,192,269985,1,0,0:0:0:0:
192,192,270121,1,0,0:0:0:0:
320,192,270189,1,0,0:0:0:0:
448,192,270258,1,0,0:0:0:0:
64,192,270394,1,0,0:0:0:0:
192,192,270530,1,0,0:0:0:0:
320,192,270667,1,0,0:0:0:0:
448,192,270803,1,0,0:0:0:0:
192,192,270939,1,0,0:0:0:0:
448,192,271076,1,0,0:0:0:0:
320,192,271212,1,0,0:0:0:0:
448,192,271348,1,0,0:0:0:0:
64,192,271485,1,0,0:0:0:0:
192,192,271621,1,0,0:0:0:0:
320,192,271758,1,0,0:0:0:0:
448,192,271894,1,0,0:0:0:0:
320,192,272030,1,0,0:0:0:0:
448,192,272167,1,0,0:0:0:0:
192,192,272303,1,0,0:0:0:0:
320,192,272439,1,0,0:0:0:100:kick_1.wav
448,192,272439,1,0,0:0:0:100:cymbal_1.wav
64,192,272576,1,0,0:0:0:0:
320,192,272712,1,0,0:0:0:100:snare_4.wav
448,192,272780,1,0,0:0:0:0:
320,192,272848,1,0,0:0:0:0:
192,192,272917,1,0,0:0:0:0:
64,192,272985,1,0,0:0:0:0:
448,192,273121,1,0,0:0:0:50:kick_2.wav
320,192,273121,1,0,0:0:0:50:kick_2.wav
192,192,273258,1,0,0:0:0:100:snare_4.wav
448,192,273530,1,0,0:0:0:50:kick_2.wav
320,192,273530,1,0,0:0:0:50:kick_2.wav
192,192,273667,1,0,0:0:0:0:
320,192,273735,1,0,0:0:0:0:
64,192,273803,1,0,0:0:0:100:snare_4.wav
320,192,273871,1,0,0:0:0:0:
192,192,273939,1,0,0:0:0:0:
192,192,274212,1,0,0:0:0:100:kick_2.wav
64,192,274280,1,0,0:0:0:0:
320,192,274348,1,0,0:0:0:100:snare_4.wav
448,192,274417,1,0,0:0:0:0:
320,192,274485,1,0,0:0:0:0:
448,192,274553,1,0,0:0:0:0:
192,192,274621,1,0,0:0:0:50:kick_1.wav
64,192,274621,1,0,0:0:0:50:kick_1.wav
64,192,274826,1,0,0:0:0:100:kick_1.wav
192,192,274894,1,0,0:0:0:100:snare_4.wav
448,192,274962,1,0,0:0:0:0:
320,192,275030,1,0,0:0:0:100:kick_1.wav
192,192,275098,1,0,0:0:0:0:
320,192,275167,1,0,0:0:0:0:
64,192,275303,1,0,0:0:0:50:kick_1.wav
192,192,275303,1,0,0:0:0:50:kick_1.wav
320,192,275371,1,0,0:0:0:0:
448,192,275439,1,0,0:0:0:100:snare_4.wav
192,192,275712,1,0,0:0:0:50:kick_1.wav
64,192,275712,1,0,0:0:0:50:kick_1.wav
320,192,275848,1,0,0:0:0:0:
448,192,275985,1,0,0:0:0:100:snare_4.wav
320,192,276053,1,0,0:0:0:0:
192,192,276121,1,0,0:0:0:0:
320,192,276189,1,0,0:0:0:0:
192,192,276258,1,0,0:0:0:0:
64,192,276394,1,0,0:0:0:100:kick_1.wav
192,192,276462,1,0,0:0:0:0:
320,192,276530,1,0,0:0:0:100:snare_4.wav
192,192,276598,1,0,0:0:0:0:
320,192,276667,1,0,0:0:0:100:kick_1.wav
448,192,276735,1,0,0:0:0:0:
192,192,276803,1,0,0:0:0:50:kick_0.wav
64,192,276803,1,0,0:0:0:50:kick_0.wav
192,192,276939,1,0,0:0:0:100:kick_0.wav
64,192,277008,1,0,0:0:0:100:kick_0.wav
320,192,277076,1,0,0:0:0:100:snare_4.wav
448,192,277121,1,0,0:0:0:0:
192,192,277167,1,0,0:0:0:0:
320,192,277212,1,0,0:0:0:0:
448,192,277258,1,0,0:0:0:0:
192,192,277303,1,0,0:0:0:0:
64,192,277348,1,0,0:0:0:0:
320,192,277417,1,0,0:0:0:0:
192,192,277485,1,0,0:0:0:100:kick_0.wav
64,192,277621,1,0,0:0:0:100:snare_4.wav
192,192,277667,1,0,0:0:0:0:
320,192,277712,1,0,0:0:0:0:
448,192,277758,1,0,0:0:0:0:
192,192,277792,1,0,0:0:0:0:
320,192,277826,1,0,0:0:0:0:
448,192,277860,1,0,0:0:0:0:
64,192,277894,1,0,0:0:0:50:kick_0.wav
192,192,277894,1,0,0:0:0:50:kick_0.wav
320,192,277962,1,0,0:0:0:0:
448,192,278030,1,0,0:0:0:50:kick_0.wav
64,192,278030,1,0,0:0:0:50:kick_0.wav
320,192,278098,1,0,0:0:0:0:
448,192,278167,1,0,0:0:0:100:kick_0.wav
64,192,278167,1,0,0:0:0:100:snare_4.wav
192,192,278235,1,0,0:0:0:0:
448,192,278303,1,0,0:0:0:50:kick_0.wav
320,192,278303,1,0,0:0:0:50:kick_0.wav
192,192,278371,1,0,0:0:0:0:
64,192,278371,1,0,0:0:0:0:
448,192,278439,1,0,0:0:0:100:snare_4.wav
320,192,278508,1,0,0:0:0:100:snare_4.wav
192,192,278576,1,0,0:0:0:50:kick_0.wav
64,192,278576,1,0,0:0:0:50:kick_0.wav
320,192,278644,1,0,0:0:0:50:kick_0.wav
448,192,278644,1,0,0:0:0:50:kick_0.wav
64,192,278712,1,0,0:0:0:100:snare_4.wav
192,192,278746,1,0,0:0:0:100:snare_4.wav
448,192,278780,1,0,0:0:0:100:snare_4.wav
320,192,278814,1,0,0:0:0:100:snare_4.wav
64,192,278848,1,0,0:0:0:100:snare_4.wav
192,192,278883,1,0,0:0:0:100:snare_4.wav
448,192,278917,1,0,0:0:0:100:snare_4.wav
320,192,278951,1,0,0:0:0:100:snare_4.wav
64,192,278985,1,0,0:0:0:100:cymbal_0.wav
448,192,279258,128,0,279312:0:0:0:0:
320,192,279280,128,0,279348:0:0:0:0:
192,192,279394,1,0,0:0:0:0:
320,192,279462,1,0,0:0:0:0:
448,192,279530,1,0,0:0:0:20:snare_4.wav
448,192,279598,1,0,0:0:0:20:snare_4.wav
320,192,279667,1,0,0:0:0:100:snare_3.wav
320,192,279803,1,0,0:0:0:20:snare_3.wav
192,192,279871,1,0,0:0:0:20:snare_3.wav
320,192,279939,1,0,0:0:0:100:snare_3.wav
320,192,280076,1,0,0:0:0:100:snare_3.wav
192,192,280212,1,0,0:0:0:20:snare_2.wav
192,192,280280,1,0,0:0:0:20:snare_2.wav
64,192,280348,1,0,0:0:0:20:snare_2.wav
64,192,280485,1,0,0:0:0:20:snare_2.wav
64,192,280621,128,0,280985:0:0:0:20:snare_2.wav
192,192,280758,128,0,280985:0:0:0:20:snare_2.wav
320,192,280894,128,0,280985:0:0:0:20:snare_2.wav
64,192,281030,128,0,281258:0:0:0:100:clap_1.wav
192,192,281030,128,0,281258:0:0:0:100:kick_0.wav
320,192,281030,128,0,281258:0:0:0:100:snare_0.wav
448,192,281030,128,0,281258:0:0:0:100:cymbal_0.wav
192,192,281303,1,0,0:0:0:50:kick_0.wav
64,192,281303,1,0,0:0:0:50:kick_0.wav
192,192,281439,1,0,0:0:0:35:snare_1.wav
448,192,281439,1,0,0:0:0:35:snare_1.wav
64,192,281485,1,0,0:0:0:0:
320,192,281530,1,0,0:0:0:0:
448,192,281576,1,0,0:0:0:0:
192,192,281621,1,0,0:0:0:0:
320,192,281667,1,0,0:0:0:0:
64,192,281712,1,0,0:0:0:0:
448,192,281758,1,0,0:0:0:0:
320,192,281803,1,0,0:0:0:0:
192,192,281848,1,0,0:0:0:50:kick_0.wav
64,192,281848,1,0,0:0:0:50:kick_0.wav
192,192,281985,1,0,0:0:0:35:snare_1.wav
448,192,281985,1,0,0:0:0:35:snare_1.wav
320,192,282121,1,0,0:0:0:0:
320,192,282258,1,0,0:0:0:50:kick_0.wav
192,192,282258,1,0,0:0:0:50:kick_0.wav
64,192,282326,1,0,0:0:0:100:kick_0.wav
192,192,282394,1,0,0:0:0:50:kick_0.wav
320,192,282394,1,0,0:0:0:50:kick_0.wav
64,192,282462,1,0,0:0:0:100:kick_0.wav
192,192,282530,1,0,0:0:0:100:kick_0.wav
448,192,282530,1,0,0:0:0:100:snare_3.wav
192,192,282667,1,0,0:0:0:50:snare_4.wav
448,192,282667,1,0,0:0:0:50:snare_4.wav
320,192,282735,1,0,0:0:0:0:
448,192,282803,1,0,0:0:0:50:snare_4.wav
64,192,282803,1,0,0:0:0:50:snare_4.wav
320,192,282826,1,0,0:0:0:0:
192,192,282871,1,0,0:0:0:0:
448,192,282939,1,0,0:0:0:50:snare_4.wav
320,192,282939,1,0,0:0:0:50:snare_4.wav
64,192,283008,1,0,0:0:0:0:
192,192,283059,1,0,0:0:0:0:
320,192,283076,1,0,0:0:0:100:snare_4.wav
64,192,283144,1,0,0:0:0:0:
448,192,283212,128,0,283468:0:0:0:100:clap_1.wav
320,192,283212,128,0,283348:0:0:0:100:kick_0.wav
192,192,283212,128,0,283280:0:0:0:100:cymbal_1.wav
320,192,283485,1,0,0:0:0:100:kick_0.wav
192,192,283553,1,0,0:0:0:100:kick_0.wav
448,192,283621,1,0,0:0:0:100:snare_3.wav
320,192,283621,1,0,0:0:0:70:snare_1.wav
64,192,283689,1,0,0:0:0:100:snare_3.wav
320,192,283758,1,0,0:0:0:50:snare_3.wav
192,192,283758,1,0,0:0:0:50:snare_3.wav
64,192,283826,1,0,0:0:0:100:snare_3.wav
320,192,283894,1,0,0:0:0:100:snare_3.wav
448,192,283928,1,0,0:0:0:100:snare_3.wav
192,192,283962,1,0,0:0:0:100:snare_3.wav
320,192,283996,1,0,0:0:0:100:snare_3.wav
64,192,284030,1,0,0:0:0:50:snare_3.wav
448,192,284030,1,0,0:0:0:50:snare_3.wav
320,192,284098,1,0,0:0:0:0:
448,192,284167,1,0,0:0:0:35:snare_1.wav
192,192,284167,1,0,0:0:0:35:snare_1.wav
64,192,284303,1,0,0:0:0:100:snare_3.wav
320,192,284337,1,0,0:0:0:100:snare_3.wav
192,192,284371,1,0,0:0:0:100:snare_3.wav
64,192,284405,1,0,0:0:0:100:snare_3.wav
448,192,284439,1,0,0:0:0:100:kick_0.wav
320,192,284456,1,0,0:0:0:0:
192,192,284508,1,0,0:0:0:100:kick_0.wav
320,192,284576,1,0,0:0:0:100:kick_0.wav
192,192,284644,1,0,0:0:0:100:kick_0.wav
448,192,284712,1,0,0:0:0:35:snare_1.wav
64,192,284712,1,0,0:0:0:35:snare_1.wav
192,192,284848,1,0,0:0:0:100:snare_3.wav
448,192,284917,1,0,0:0:0:100:snare_3.wav
320,192,284985,1,0,0:0:0:50:kick_0.wav
192,192,284985,1,0,0:0:0:50:kick_0.wav
448,192,285053,1,0,0:0:0:100:snare_3.wav
320,192,285121,1,0,0:0:0:50:kick_0.wav
192,192,285121,1,0,0:0:0:50:kick_0.wav
448,192,285189,1,0,0:0:0:100:snare_3.wav
64,192,285258,1,0,0:0:0:100:kick_0.wav
192,192,285258,1,0,0:0:0:70:snare_1.wav
448,192,285326,1,0,0:0:0:100:snare_3.wav
320,192,285394,128,0,285462:0:0:0:100:clap_1.wav
64,192,285394,128,0,285650:0:0:0:100:kick_0.wav
192,192,285394,128,0,285530:0:0:0:100:cymbal_1.wav
192,192,285667,1,0,0:0:0:100:kick_0.wav
448,192,285803,1,0,0:0:0:35:snare_1.wav
64,192,285803,1,0,0:0:0:35:snare_1.wav
192,192,285837,1,0,0:0:0:0:
320,192,285881,1,0,0:0:0:0:
448,192,285939,1,0,0:0:0:0:
192,192,286008,1,0,0:0:0:0:
64,192,286076,1,0,0:0:0:0:
448,192,286110,1,0,0:0:0:0:
320,192,286154,1,0,0:0:0:0:
192,192,286212,1,0,0:0:0:50:kick_0.wav
64,192,286212,1,0,0:0:0:50:kick_0.wav
448,192,286348,1,0,0:0:0:100:snare_3.wav
192,192,286348,1,0,0:0:0:70:snare_1.wav
64,192,286383,1,0,0:0:0:100:snare_3.wav
320,192,286417,1,0,0:0:0:100:snare_3.wav
192,192,286485,1,0,0:0:0:100:snare_3.wav
320,192,286519,1,0,0:0:0:100:snare_3.wav
448,192,286553,1,0,0:0:0:100:snare_3.wav
192,192,286621,1,0,0:0:0:50:kick_0.wav
64,192,286621,1,0,0:0:0:50:kick_0.wav
320,192,286689,1,0,0:0:0:50:kick_0.wav
448,192,286689,1,0,0:0:0:50:kick_0.wav
192,192,286758,1,0,0:0:0:100:snare_3.wav
448,192,286803,1,0,0:0:0:0:
320,192,286848,1,0,0:0:0:0:
64,192,286894,1,0,0:0:0:100:snare_3.wav
192,192,286894,1,0,0:0:0:70:snare_1.wav
320,192,286962,1,0,0:0:0:0:
448,192,286985,1,0,0:0:0:100:snare_3.wav
64,192,287030,1,0,0:0:0:0:
192,192,287076,1,0,0:0:0:100:snare_3.wav
320,192,287167,1,0,0:0:0:100:kick_0.wav
192,192,287184,1,0,0:0:0:0:
448,192,287235,1,0,0:0:0:100:snare_3.wav
320,192,287303,1,0,0:0:0:100:kick_0.wav
448,192,287326,1,0,0:0:0:0:
64,192,287371,1,0,0:0:0:100:kick_0.wav
192,192,287439,1,0,0:0:0:100:snare_3.wav
448,192,287439,1,0,0:0:0:70:snare_1.wav
64,192,287576,128,0,287712:0:0:0:100:cymbal_1.wav
320,192,287576,128,0,287831:0:0:0:100:kick_0.wav
192,192,287576,128,0,287644:0:0:0:100:clap_1.wav
192,192,287848,1,0,0:0:0:50:kick_0.wav
64,192,287848,1,0,0:0:0:50:kick_0.wav
448,192,287917,1,0,0:0:0:100:kick_0.wav
192,192,287985,1,0,0:0:0:35:snare_1.wav
320,192,287985,1,0,0:0:0:35:snare_1.wav
192,192,288121,1,0,0:0:0:0:
64,192,288155,1,0,0:0:0:0:
320,192,288189,1,0,0:0:0:0:
192,192,288223,1,0,0:0:0:0:
64,192,288258,1,0,0:0:0:0:
320,192,288292,1,0,0:0:0:0:
192,192,288326,1,0,0:0:0:0:
64,192,288360,1,0,0:0:0:0:
448,192,288394,1,0,0:0:0:100:kick_0.wav
64,192,288462,1,0,0:0:0:100:kick_0.wav
192,192,288530,1,0,0:0:0:35:snare_1.wav
320,192,288530,1,0,0:0:0:35:snare_1.wav
320,192,288667,1,0,0:0:0:0:
448,192,288701,1,0,0:0:0:0:
192,192,288735,1,0,0:0:0:0:
320,192,288769,1,0,0:0:0:0:
448,192,288803,1,0,0:0:0:0:
192,192,288837,1,0,0:0:0:0:
320,192,288871,1,0,0:0:0:0:
448,192,288905,1,0,0:0:0:0:
64,192,288939,1,0,0:0:0:100:kick_0.wav
448,192,289008,1,0,0:0:0:100:kick_0.wav
320,192,289076,1,0,0:0:0:100:snare_3.wav
64,192,289076,1,0,0:0:0:70:snare_1.wav
192,192,289144,1,0,0:0:0:50:snare_3.wav
448,192,289144,1,0,0:0:0:50:snare_3.wav
320,192,289212,1,0,0:0:0:100:snare_3.wav
192,192,289280,1,0,0:0:0:50:snare_3.wav
64,192,289280,1,0,0:0:0:50:snare_3.wav
320,192,289348,1,0,0:0:0:50:snare_3.wav
448,192,289348,1,0,0:0:0:50:snare_3.wav
192,192,289417,1,0,0:0:0:100:snare_3.wav
320,192,289485,1,0,0:0:0:100:snare_3.wav
64,192,289553,1,0,0:0:0:50:snare_3.wav
448,192,289553,1,0,0:0:0:50:snare_3.wav
320,192,289621,1,0,0:0:0:100:snare_3.wav
192,192,289621,1,0,0:0:0:70:snare_1.wav
64,192,289689,1,0,0:0:0:100:snare_3.wav
192,192,289758,128,0,289826:0:0:0:100:clap_1.wav
320,192,289758,128,0,290013:0:0:0:100:kick_0.wav
448,192,289758,128,0,289894:0:0:0:100:cymbal_1.wav
192,192,290030,1,0,0:0:0:50:kick_0.wav
64,192,290030,1,0,0:0:0:50:kick_0.wav
192,192,290167,1,0,0:0:0:35:snare_1.wav
448,192,290167,1,0,0:0:0:35:snare_1.wav
320,192,290303,1,0,0:0:0:100:snare_3.wav
448,192,290337,1,0,0:0:0:100:snare_3.wav
192,192,290371,1,0,0:0:0:100:snare_3.wav
320,192,290439,1,0,0:0:0:100:snare_3.wav
448,192,290473,1,0,0:0:0:100:snare_3.wav
192,192,290508,1,0,0:0:0:100:snare_3.wav
64,192,290576,1,0,0:0:0:50:kick_0.wav
320,192,290576,1,0,0:0:0:50:kick_0.wav
192,192,290712,1,0,0:0:0:35:snare_1.wav
448,192,290712,1,0,0:0:0:35:snare_1.wav
64,192,290848,1,0,0:0:0:100:snare_3.wav
192,192,290883,1,0,0:0:0:100:snare_3.wav
448,192,290917,1,0,0:0:0:100:snare_3.wav
320,192,290951,1,0,0:0:0:100:snare_3.wav
64,192,290985,1,0,0:0:0:50:kick_0.wav
192,192,290985,1,0,0:0:0:50:kick_0.wav
448,192,291053,1,0,0:0:0:100:kick_0.wav
192,192,291121,1,0,0:0:0:100:kick_0.wav
320,192,291155,1,0,0:0:0:0:
448,192,291189,1,0,0:0:0:100:kick_0.wav
64,192,291223,1,0,0:0:0:0:
192,192,291258,1,0,0:0:0:35:snare_1.wav
320,192,291258,1,0,0:0:0:35:snare_1.wav
320,192,291394,1,0,0:0:0:100:kick_0.wav
64,192,291462,1,0,0:0:0:100:kick_0.wav
192,192,291530,1,0,0:0:0:50:snare_3.wav
448,192,291530,1,0,0:0:0:50:snare_3.wav
64,192,291598,1,0,0:0:0:100:snare_3.wav
320,192,291667,1,0,0:0:0:100:snare_3.wav
448,192,291684,1,0,0:0:0:0:
192,192,291735,1,0,0:0:0:100:snare_3.wav
320,192,291803,1,0,0:0:0:100:snare_3.wav
448,192,291803,1,0,0:0:0:70:snare_1.wav
448,192,291939,128,0,292008:0:0:0:100:cymbal_1.wav
320,192,291939,128,0,292195:0:0:0:100:kick_0.wav
64,192,291939,128,0,292076:0:0:0:100:clap_1.wav
64,192,292212,1,0,0:0:0:0:
192,192,292246,1,0,0:0:0:0:
320,192,292280,1,0,0:0:0:0:
448,192,292314,1,0,0:0:0:0:
64,192,292348,1,0,0:0:0:100:snare_3.wav
192,192,292348,1,0,0:0:0:70:snare_1.wav
448,192,292417,1,0,0:0:0:100:snare_3.wav
64,192,292485,1,0,0:0:0:50:snare_3.wav
320,192,292485,1,0,0:0:0:50:snare_3.wav
448,192,292553,1,0,0:0:0:100:snare_3.wav
64,192,292621,1,0,0:0:0:100:snare_3.wav
192,192,292638,1,0,0:0:0:0:
192,192,292758,1,0,0:0:0:100:kick_0.wav
320,192,292826,1,0,0:0:0:100:kick_0.wav
448,192,292894,1,0,0:0:0:35:snare_1.wav
64,192,292894,1,0,0:0:0:35:snare_1.wav
320,192,293030,1,0,0:0:0:100:snare_3.wav
192,192,293064,1,0,0:0:0:100:snare_3.wav
448,192,293098,1,0,0:0:0:100:snare_3.wav
320,192,293133,1,0,0:0:0:100:snare_3.wav
64,192,293167,1,0,0:0:0:50:kick_0.wav
192,192,293167,1,0,0:0:0:50:kick_0.wav
448,192,293235,1,0,0:0:0:100:kick_0.wav
64,192,293303,1,0,0:0:0:100:kick_0.wav
448,192,293348,1,0,0:0:0:100:kick_0.wav
320,192,293394,1,0,0:0:0:100:kick_0.wav
64,192,293439,1,0,0:0:0:35:snare_1.wav
192,192,293439,1,0,0:0:0:35:snare_1.wav
192,192,293576,1,0,0:0:0:100:kick_0.wav
320,192,293644,1,0,0:0:0:100:kick_0.wav
448,192,293712,1,0,0:0:0:50:snare_3.wav
192,192,293712,1,0,0:0:0:50:snare_3.wav
64,192,293780,1,0,0:0:0:50:snare_3.wav
320,192,293780,1,0,0:0:0:50:snare_3.wav
448,192,293848,1,0,0:0:0:100:snare_3.wav
192,192,293917,1,0,0:0:0:100:snare_3.wav
320,192,293985,1,0,0:0:0:100:snare_3.wav
448,192,293985,1,0,0:0:0:70:snare_1.wav
64,192,294053,1,0,0:0:0:100:snare_3.wav
448,192,294121,128,0,294258:0:0:0:100:clap_1.wav
320,192,294121,128,0,294377:0:0:0:100:kick_0.wav
192,192,294121,128,0,294189:0:0:0:100:cymbal_1.wav
64,192,294394,1,0,0:0:0:50:kick_0.wav
192,192,294394,1,0,0:0:0:50:kick_0.wav
320,192,294462,1,0,0:0:0:100:kick_0.wav
64,192,294530,1,0,0:0:0:100:snare_4.wav
448,192,294530,1,0,0:0:0:70:snare_1.wav
64,192,294667,1,0,0:0:0:50:kick_0.wav
192,192,294667,1,0,0:0:0:50:kick_0.wav
448,192,294735,1,0,0:0:0:100:kick_0.wav
64,192,294803,1,0,0:0:0:50:snare_4.wav
320,192,294803,1,0,0:0:0:50:snare_4.wav
64,192,294939,1,0,0:0:0:50:kick_0.wav
192,192,294939,1,0,0:0:0:50:kick_0.wav
320,192,295008,1,0,0:0:0:100:kick_0.wav
64,192,295076,1,0,0:0:0:100:snare_4.wav
448,192,295076,1,0,0:0:0:70:snare_1.wav
192,192,295212,1,0,0:0:0:50:kick_0.wav
64,192,295212,1,0,0:0:0:50:kick_0.wav
448,192,295280,1,0,0:0:0:100:kick_0.wav
64,192,295348,1,0,0:0:0:50:snare_4.wav
320,192,295348,1,0,0:0:0:50:snare_4.wav
192,192,295485,1,0,0:0:0:50:snare_4.wav
64,192,295485,1,0,0:0:0:50:snare_4.wav
448,192,295621,1,0,0:0:0:50:snare_4.wav
320,192,295621,1,0,0:0:0:50:snare_4.wav
448,192,295758,1,0,0:0:0:50:snare_4.wav
192,192,295758,1,0,0:0:0:50:snare_4.wav
320,192,295894,1,0,0:0:0:33:snare_4.wav
448,192,295894,1,0,0:0:0:33:snare_4.wav
192,192,295894,1,0,0:0:0:33:snare_4.wav
64,192,295962,1,0,0:0:0:100:snare_4.wav
320,192,296030,1,0,0:0:0:50:snare_4.wav
448,192,296030,1,0,0:0:0:50:snare_4.wav
192,192,296098,1,0,0:0:0:100:snare_4.wav
448,192,296167,1,0,0:0:0:100:snare_4.wav
320,192,296235,1,0,0:0:0:100:snare_4.wav
192,192,296303,128,0,296559:0:0:0:100:cymbal_1.wav
448,192,296303,128,0,296559:0:0:0:100:kick_0.wav
64,192,296303,128,0,296439:0:0:0:100:clap_1.wav
64,192,296576,1,0,0:0:0:100:kick_0.wav
192,192,296712,1,0,0:0:0:100:snare_3.wav
448,192,296712,1,0,0:0:0:70:snare_1.wav
320,192,296780,1,0,0:0:0:50:snare_3.wav
64,192,296780,1,0,0:0:0:50:snare_3.wav
448,192,296848,1,0,0:0:0:100:snare_3.wav
64,192,296917,1,0,0:0:0:50:snare_3.wav
192,192,296917,1,0,0:0:0:50:snare_3.wav
448,192,296985,1,0,0:0:0:50:snare_3.wav
320,192,296985,1,0,0:0:0:50:snare_3.wav
192,192,297053,1,0,0:0:0:50:snare_3.wav
64,192,297053,1,0,0:0:0:50:snare_3.wav
320,192,297121,1,0,0:0:0:100:snare_3.wav
64,192,297189,1,0,0:0:0:50:snare_3.wav
448,192,297189,1,0,0:0:0:50:snare_3.wav
192,192,297258,1,0,0:0:0:100:snare_3.wav
320,192,297258,1,0,0:0:0:70:snare_1.wav
320,192,297394,1,0,0:0:0:50:kick_0.wav
448,192,297394,1,0,0:0:0:50:kick_0.wav
64,192,297462,1,0,0:0:0:100:kick_0.wav
192,192,297530,1,0,0:0:0:50:snare_4.wav
448,192,297530,1,0,0:0:0:50:snare_4.wav
320,192,297667,1,0,0:0:0:50:kick_0.wav
448,192,297667,1,0,0:0:0:50:kick_0.wav
192,192,297735,1,0,0:0:0:100:kick_0.wav
448,192,297803,1,0,0:0:0:100:snare_4.wav
64,192,297803,1,0,0:0:0:70:snare_1.wav
320,192,297939,1,0,0:0:0:50:kick_0.wav
448,192,297939,1,0,0:0:0:50:kick_0.wav
64,192,298008,1,0,0:0:0:100:kick_0.wav
448,192,298076,1,0,0:0:0:50:snare_4.wav
192,192,298076,1,0,0:0:0:50:snare_4.wav
320,192,298212,1,0,0:0:0:50:kick_0.wav
448,192,298212,1,0,0:0:0:50:kick_0.wav
192,192,298280,1,0,0:0:0:100:kick_0.wav
448,192,298348,1,0,0:0:0:100:snare_4.wav
64,192,298348,1,0,0:0:0:70:snare_1.wav
448,192,298485,1,0,0:0:0:100:snare_4.wav
64,192,298485,1,0,0:0:0:70:snare_1.wav
320,192,298621,1,0,0:0:0:100:cymbal_0.wav
64,192,298621,1,0,0:0:0:50:kick_0.wav
448,192,298621,1,0,0:0:0:50:kick_0.wav
192,192,298689,1,0,0:0:0:0:
448,192,298758,1,0,0:0:0:0:
64,192,298826,1,0,0:0:0:0:
448,192,298894,1,0,0:0:0:70:snare_1.wav
192,192,298894,1,0,0:0:0:50:snare_4.wav
320,192,298894,1,0,0:0:0:50:snare_4.wav
64,192,298962,1,0,0:0:0:0:
320,192,299030,1,0,0:0:0:0:
192,192,299098,1,0,0:0:0:0:
64,192,299167,1,0,0:0:0:50:kick_0.wav
448,192,299167,1,0,0:0:0:50:kick_0.wav
192,192,299235,1,0,0:0:0:50:kick_0.wav
320,192,299235,1,0,0:0:0:50:kick_0.wav
448,192,299303,1,0,0:0:0:50:kick_0.wav
64,192,299303,1,0,0:0:0:50:kick_0.wav
192,192,299371,1,0,0:0:0:100:kick_0.wav
320,192,299439,1,0,0:0:0:70:snare_1.wav
64,192,299439,1,0,0:0:0:50:snare_4.wav
448,192,299439,1,0,0:0:0:50:snare_4.wav
192,192,299508,1,0,0:0:0:0:
448,192,299576,1,0,0:0:0:0:
320,192,299644,1,0,0:0:0:0:
192,192,299712,1,0,0:0:0:50:kick_0.wav
64,192,299712,1,0,0:0:0:50:kick_0.wav
320,192,299780,1,0,0:0:0:0:
64,192,299848,1,0,0:0:0:0:
448,192,299917,1,0,0:0:0:0:
192,192,299985,1,0,0:0:0:70:snare_1.wav
64,192,299985,1,0,0:0:0:50:snare_4.wav
320,192,299985,1,0,0:0:0:50:snare_4.wav
448,192,300053,1,0,0:0:0:0:
192,192,300121,1,0,0:0:0:0:
320,192,300189,1,0,0:0:0:0:
448,192,300258,1,0,0:0:0:50:kick_0.wav
192,192,300258,1,0,0:0:0:50:kick_0.wav
320,192,300326,1,0,0:0:0:50:kick_0.wav
64,192,300326,1,0,0:0:0:50:kick_0.wav
448,192,300394,1,0,0:0:0:50:kick_0.wav
192,192,300394,1,0,0:0:0:50:kick_0.wav
320,192,300462,1,0,0:0:0:100:kick_0.wav
64,192,300530,1,0,0:0:0:70:snare_1.wav
192,192,300530,1,0,0:0:0:50:snare_4.wav
448,192,300530,1,0,0:0:0:50:snare_4.wav
320,192,300598,1,0,0:0:0:0:
64,192,300667,1,0,0:0:0:0:
192,192,300735,1,0,0:0:0:0:
320,192,300803,1,0,0:0:0:33:kick_0.wav
64,192,300803,1,0,0:0:0:33:kick_0.wav
448,192,300803,1,0,0:0:0:33:kick_0.wav
192,192,300871,1,0,0:0:0:0:
320,192,300939,1,0,0:0:0:0:
64,192,301008,1,0,0:0:0:0:
320,192,301076,1,0,0:0:0:70:snare_1.wav
448,192,301076,1,0,0:0:0:50:snare_4.wav
192,192,301076,1,0,0:0:0:50:snare_4.wav
64,192,301144,1,0,0:0:0:0:
448,192,301212,1,0,0:0:0:0:
320,192,301280,1,0,0:0:0:0:
192,192,301348,1,0,0:0:0:50:kick_0.wav
64,192,301348,1,0,0:0:0:50:kick_0.wav
320,192,301417,1,0,0:0:0:0:
448,192,301417,1,0,0:0:0:0:
192,192,301485,1,0,0:0:0:50:kick_0.wav
64,192,301485,1,0,0:0:0:50:kick_0.wav
320,192,301553,1,0,0:0:0:0:
448,192,301621,1,0,0:0:0:70:snare_1.wav
192,192,301621,1,0,0:0:0:50:snare_4.wav
64,192,301621,1,0,0:0:0:50:snare_4.wav
320,192,301689,1,0,0:0:0:0:
192,192,301758,1,0,0:0:0:0:
448,192,301826,1,0,0:0:0:0:
192,192,301894,1,0,0:0:0:33:kick_0.wav
64,192,301894,1,0,0:0:0:33:kick_0.wav
320,192,301894,1,0,0:0:0:33:kick_0.wav
448,192,301962,1,0,0:0:0:0:
64,192,302030,1,0,0:0:0:0:
320,192,302098,1,0,0:0:0:0:
64,192,302167,1,0,0:0:0:70:snare_1.wav
448,192,302167,1,0,0:0:0:50:snare_4.wav
192,192,302167,1,0,0:0:0:50:snare_4.wav
320,192,302235,1,0,0:0:0:0:
192,192,302303,1,0,0:0:0:0:
64,192,302371,1,0,0:0:0:0:
320,192,302439,1,0,0:0:0:100:snare_4.wav
448,192,302439,1,0,0:0:0:100:kick_0.wav
64,192,302508,1,0,0:0:0:100:snare_4.wav
192,192,302576,1,0,0:0:0:50:snare_4.wav
320,192,302576,1,0,0:0:0:50:snare_4.wav
64,192,302644,1,0,0:0:0:100:snare_4.wav
320,192,302712,1,0,0:0:0:100:snare_4.wav
448,192,302712,1,0,0:0:0:70:snare_1.wav
192,192,302780,1,0,0:0:0:50:snare_4.wav
64,192,302780,1,0,0:0:0:50:snare_4.wav
320,192,302848,1,0,0:0:0:50:snare_4.wav
448,192,302848,1,0,0:0:0:50:snare_4.wav
192,192,302917,1,0,0:0:0:100:snare_4.wav
320,192,302985,1,0,0:0:0:33:kick_0.wav
64,192,302985,1,0,0:0:0:33:kick_0.wav
448,192,302985,1,0,0:0:0:33:kick_0.wav
192,192,303053,1,0,0:0:0:0:
448,192,303121,1,0,0:0:0:0:
64,192,303189,1,0,0:0:0:0:
448,192,303258,1,0,0:0:0:70:snare_1.wav
192,192,303258,1,0,0:0:0:50:snare_4.wav
320,192,303258,1,0,0:0:0:50:snare_4.wav
64,192,303326,1,0,0:0:0:0:
320,192,303394,1,0,0:0:0:0:
192,192,303462,1,0,0:0:0:0:
64,192,303530,1,0,0:0:0:50:kick_0.wav
448,192,303530,1,0,0:0:0:50:kick_0.wav
192,192,303598,1,0,0:0:0:50:kick_0.wav
320,192,303598,1,0,0:0:0:50:kick_0.wav
448,192,303667,1,0,0:0:0:50:kick_0.wav
64,192,303667,1,0,0:0:0:50:kick_0.wav
192,192,303735,1,0,0:0:0:100:kick_0.wav
320,192,303803,1,0,0:0:0:70:snare_1.wav
64,192,303803,1,0,0:0:0:50:snare_4.wav
448,192,303803,1,0,0:0:0:50:snare_4.wav
192,192,303871,1,0,0:0:0:0:
448,192,303939,1,0,0:0:0:0:
320,192,304008,1,0,0:0:0:0:
192,192,304076,1,0,0:0:0:33:kick_0.wav
64,192,304076,1,0,0:0:0:33:kick_0.wav
448,192,304076,1,0,0:0:0:33:kick_0.wav
320,192,304144,1,0,0:0:0:0:
64,192,304212,1,0,0:0:0:0:
448,192,304280,1,0,0:0:0:0:
192,192,304348,1,0,0:0:0:70:snare_1.wav
64,192,304348,1,0,0:0:0:50:snare_4.wav
320,192,304348,1,0,0:0:0:50:snare_4.wav
448,192,304417,1,0,0:0:0:0:
192,192,304485,1,0,0:0:0:0:
320,192,304553,1,0,0:0:0:0:
192,192,304621,1,0,0:0:0:50:kick_0.wav
448,192,304621,1,0,0:0:0:50:kick_0.wav
320,192,304689,1,0,0:0:0:50:kick_0.wav
64,192,304689,1,0,0:0:0:50:kick_0.wav
192,192,304758,1,0,0:0:0:50:kick_0.wav
448,192,304758,1,0,0:0:0:50:kick_0.wav
320,192,304826,1,0,0:0:0:100:kick_0.wav
64,192,304894,1,0,0:0:0:70:snare_1.wav
192,192,304894,1,0,0:0:0:50:snare_4.wav
448,192,304894,1,0,0:0:0:50:snare_4.wav
320,192,304962,1,0,0:0:0:0:
64,192,305030,1,0,0:0:0:0:
192,192,305098,1,0,0:0:0:0:
320,192,305167,1,0,0:0:0:33:kick_0.wav
64,192,305167,1,0,0:0:0:33:kick_0.wav
448,192,305167,1,0,0:0:0:33:kick_0.wav
192,192,305235,1,0,0:0:0:0:
320,192,305303,1,0,0:0:0:0:
64,192,305371,1,0,0:0:0:0:
320,192,305439,1,0,0:0:0:70:snare_1.wav
448,192,305439,1,0,0:0:0:50:snare_4.wav
192,192,305439,1,0,0:0:0:50:snare_4.wav
64,192,305508,1,0,0:0:0:0:
448,192,305576,1,0,0:0:0:0:
320,192,305644,1,0,0:0:0:0:
192,192,305712,1,0,0:0:0:50:kick_0.wav
64,192,305712,1,0,0:0:0:50:kick_0.wav
448,192,305780,1,0,0:0:0:0:
192,192,305848,1,0,0:0:0:50:kick_0.wav
320,192,305848,1,0,0:0:0:50:kick_0.wav
64,192,305917,1,0,0:0:0:0:
320,192,305985,1,0,0:0:0:100:snare_4.wav
448,192,305985,1,0,0:0:0:70:snare_1.wav
192,192,306053,1,0,0:0:0:0:
448,192,306121,1,0,0:0:0:50:kick_0.wav
64,192,306121,1,0,0:0:0:50:kick_0.wav
320,192,306189,1,0,0:0:0:100:kick_0.wav
64,192,306258,1,0,0:0:0:100:kick_0.wav
192,192,306258,1,0,0:0:0:100:snare_4.wav
448,192,306258,1,0,0:0:0:70:snare_1.wav
192,192,306394,1,0,0:0:0:100:kick_0.wav
320,192,306462,1,0,0:0:0:100:kick_0.wav
64,192,306530,1,0,0:0:0:100:snare_4.wav
448,192,306530,1,0,0:0:0:70:snare_1.wav
192,192,306564,1,0,0:0:0:0:
320,192,306621,1,0,0:0:0:0:
192,192,306667,1,0,0:0:0:100:kick_0.wav
448,192,306701,1,0,0:0:0:0:
64,192,306735,1,0,0:0:0:100:kick_0.wav
448,192,306803,1,0,0:0:0:100:snare_4.wav
320,192,306803,1,0,0:0:0:70:snare_1.wav
192,192,306837,1,0,0:0:0:0:
320,192,306894,1,0,0:0:0:0:
64,192,306939,1,0,0:0:0:100:snare_4.wav
192,192,306973,1,0,0:0:0:100:snare_4.wav
320,192,307008,1,0,0:0:0:100:snare_4.wav
448,192,307042,1,0,0:0:0:100:snare_4.wav
192,192,307076,1,0,0:0:0:50:snare_4.wav
64,192,307076,1,0,0:0:0:50:snare_4.wav
192,192,307212,1,0,0:0:0:50:snare_4.wav
448,192,307212,1,0,0:0:0:50:snare_4.wav
320,192,307348,1,0,0:0:0:100:cymbal_0.wav
64,192,307348,1,0,0:0:0:50:kick_0.wav
448,192,307348,1,0,0:0:0:50:kick_0.wav
192,192,307417,1,0,0:0:0:0:
448,192,307485,1,0,0:0:0:0:
64,192,307553,1,0,0:0:0:0:
448,192,307621,1,0,0:0:0:70:snare_1.wav
192,192,307621,1,0,0:0:0:50:snare_4.wav
320,192,307621,1,0,0:0:0:50:snare_4.wav
64,192,307689,1,0,0:0:0:0:
320,192,307758,1,0,0:0:0:0:
192,192,307826,1,0,0:0:0:0:
64,192,307894,1,0,0:0:0:50:kick_0.wav
448,192,307894,1,0,0:0:0:50:kick_0.wav
192,192,307962,1,0,0:0:0:50:kick_0.wav
320,192,307962,1,0,0:0:0:50:kick_0.wav
448,192,308030,1,0,0:0:0:50:kick_0.wav
64,192,308030,1,0,0:0:0:50:kick_0.wav
192,192,308098,1,0,0:0:0:100:kick_0.wav
320,192,308167,1,0,0:0:0:70:snare_1.wav
64,192,308167,1,0,0:0:0:50:snare_4.wav
448,192,308167,1,0,0:0:0:50:snare_4.wav
192,192,308235,1,0,0:0:0:0:
448,192,308303,1,0,0:0:0:0:
320,192,308371,1,0,0:0:0:0:
64,192,308439,1,0,0:0:0:33:kick_0.wav
192,192,308439,1,0,0:0:0:33:kick_0.wav
448,192,308439,1,0,0:0:0:33:kick_0.wav
320,192,308508,1,0,0:0:0:0:
64,192,308576,1,0,0:0:0:0:
448,192,308644,1,0,0:0:0:0:
192,192,308712,1,0,0:0:0:70:snare_1.wav
64,192,308712,1,0,0:0:0:50:snare_4.wav
320,192,308712,1,0,0:0:0:50:snare_4.wav
448,192,308780,1,0,0:0:0:0:
192,192,308848,1,0,0:0:0:0:
320,192,308917,1,0,0:0:0:0:
192,192,308985,1,0,0:0:0:50:kick_0.wav
448,192,308985,1,0,0:0:0:50:kick_0.wav
320,192,309053,1,0,0:0:0:50:kick_0.wav
64,192,309053,1,0,0:0:0:50:kick_0.wav
192,192,309121,1,0,0:0:0:50:kick_0.wav
448,192,309121,1,0,0:0:0:50:kick_0.wav
320,192,309189,1,0,0:0:0:100:kick_0.wav
64,192,309258,1,0,0:0:0:70:snare_1.wav
192,192,309258,1,0,0:0:0:50:snare_4.wav
448,192,309258,1,0,0:0:0:50:snare_4.wav
320,192,309326,1,0,0:0:0:0:
64,192,309394,1,0,0:0:0:0:
192,192,309462,1,0,0:0:0:0:
320,192,309530,1,0,0:0:0:33:kick_0.wav
64,192,309530,1,0,0:0:0:33:kick_0.wav
448,192,309530,1,0,0:0:0:33:kick_0.wav
192,192,309598,1,0,0:0:0:0:
320,192,309667,1,0,0:0:0:0:
64,192,309735,1,0,0:0:0:0:
320,192,309803,1,0,0:0:0:70:snare_1.wav
448,192,309803,1,0,0:0:0:50:snare_4.wav
192,192,309803,1,0,0:0:0:50:snare_4.wav
64,192,309871,1,0,0:0:0:0:
448,192,309939,1,0,0:0:0:0:
320,192,310008,1,0,0:0:0:0:
64,192,310076,1,0,0:0:0:50:kick_0.wav
192,192,310076,1,0,0:0:0:50:kick_0.wav
320,192,310144,1,0,0:0:0:0:
448,192,310144,1,0,0:0:0:0:
192,192,310212,1,0,0:0:0:50:kick_0.wav
64,192,310212,1,0,0:0:0:50:kick_0.wav
320,192,310280,1,0,0:0:0:0:
448,192,310348,1,0,0:0:0:70:snare_1.wav
192,192,310348,1,0,0:0:0:50:snare_4.wav
64,192,310348,1,0,0:0:0:50:snare_4.wav
320,192,310417,1,0,0:0:0:0:
192,192,310485,1,0,0:0:0:0:
448,192,310553,1,0,0:0:0:0:
192,192,310621,1,0,0:0:0:33:kick_0.wav
64,192,310621,1,0,0:0:0:33:kick_0.wav
320,192,310621,1,0,0:0:0:33:kick_0.wav
448,192,310689,1,0,0:0:0:0:
64,192,310758,1,0,0:0:0:0:
320,192,310826,1,0,0:0:0:0:
64,192,310894,1,0,0:0:0:70:snare_1.wav
448,192,310894,1,0,0:0:0:50:snare_4.wav
192,192,310894,1,0,0:0:0:50:snare_4.wav
320,192,310962,1,0,0:0:0:0:
192,192,311030,1,0,0:0:0:0:
320,192,311098,1,0,0:0:0:0:
64,192,311167,1,0,0:0:0:100:snare_4.wav
448,192,311167,1,0,0:0:0:100:kick_0.wav
320,192,311201,1,0,0:0:0:100:snare_4.wav
192,192,311235,1,0,0:0:0:100:snare_4.wav
64,192,311269,1,0,0:0:0:100:snare_4.wav
320,192,311303,1,0,0:0:0:100:snare_4.wav
192,192,311371,1,0,0:0:0:100:snare_4.wav
64,192,311439,1,0,0:0:0:70:snare_1.wav
448,192,311439,1,0,0:0:0:50:snare_4.wav
320,192,311439,1,0,0:0:0:50:snare_4.wav
192,192,311508,1,0,0:0:0:100:snare_4.wav
448,192,311576,1,0,0:0:0:100:snare_4.wav
320,192,311644,1,0,0:0:0:100:snare_4.wav
64,192,311712,1,0,0:0:0:33:kick_0.wav
192,192,311712,1,0,0:0:0:33:kick_0.wav
448,192,311712,1,0,0:0:0:33:kick_0.wav
320,192,311780,1,0,0:0:0:0:
64,192,311848,1,0,0:0:0:0:
448,192,311917,1,0,0:0:0:0:
64,192,311985,1,0,0:0:0:70:snare_1.wav
192,192,311985,1,0,0:0:0:50:snare_4.wav
320,192,311985,1,0,0:0:0:50:snare_4.wav
448,192,312053,1,0,0:0:0:0:
192,192,312121,1,0,0:0:0:0:
320,192,312189,1,0,0:0:0:0:
64,192,312258,1,0,0:0:0:50:kick_0.wav
448,192,312258,1,0,0:0:0:50:kick_0.wav
320,192,312326,1,0,0:0:0:50:kick_0.wav
192,192,312326,1,0,0:0:0:50:kick_0.wav
64,192,312394,1,0,0:0:0:50:kick_0.wav
448,192,312394,1,0,0:0:0:50:kick_0.wav
320,192,312462,1,0,0:0:0:100:kick_0.wav
192,192,312530,1,0,0:0:0:70:snare_1.wav
448,192,312530,1,0,0:0:0:50:snare_4.wav
64,192,312530,1,0,0:0:0:50:snare_4.wav
320,192,312598,1,0,0:0:0:0:
64,192,312667,1,0,0:0:0:0:
192,192,312735,1,0,0:0:0:0:
448,192,312803,1,0,0:0:0:33:kick_0.wav
64,192,312803,1,0,0:0:0:33:kick_0.wav
320,192,312803,1,0,0:0:0:33:kick_0.wav
192,192,312871,1,0,0:0:0:0:
448,192,312939,1,0,0:0:0:0:
64,192,313008,1,0,0:0:0:0:
448,192,313076,1,0,0:0:0:70:snare_1.wav
192,192,313076,1,0,0:0:0:50:snare_4.wav
320,192,313076,1,0,0:0:0:50:snare_4.wav
64,192,313144,1,0,0:0:0:0:
320,192,313212,1,0,0:0:0:0:
192,192,313280,1,0,0:0:0:0:
64,192,313348,1,0,0:0:0:50:kick_0.wav
320,192,313348,1,0,0:0:0:50:kick_0.wav
192,192,313417,1,0,0:0:0:50:kick_0.wav
448,192,313417,1,0,0:0:0:50:kick_0.wav
320,192,313485,1,0,0:0:0:50:kick_0.wav
64,192,313485,1,0,0:0:0:50:kick_0.wav
192,192,313553,1,0,0:0:0:100:kick_0.wav
448,192,313621,1,0,0:0:0:70:snare_1.wav
320,192,313621,1,0,0:0:0:50:snare_4.wav
64,192,313621,1,0,0:0:0:50:snare_4.wav
192,192,313689,1,0,0:0:0:0:
448,192,313758,1,0,0:0:0:0:
192,192,313826,1,0,0:0:0:0:
320,192,313894,1,0,0:0:0:33:kick_0.wav
64,192,313894,1,0,0:0:0:33:kick_0.wav
448,192,313894,1,0,0:0:0:33:kick_0.wav
192,192,313962,1,0,0:0:0:0:
320,192,314030,1,0,0:0:0:0:
448,192,314098,1,0,0:0:0:0:
320,192,314167,1,0,0:0:0:70:snare_1.wav
192,192,314167,1,0,0:0:0:50:snare_4.wav
64,192,314167,1,0,0:0:0:50:snare_4.wav
448,192,314235,1,0,0:0:0:0:
192,192,314303,1,0,0:0:0:0:
64,192,314371,1,0,0:0:0:0:
320,192,314439,1,0,0:0:0:50:kick_0.wav
448,192,314439,1,0,0:0:0:50:kick_0.wav
192,192,314508,1,0,0:0:0:0:
64,192,314508,1,0,0:0:0:0:
320,192,314576,1,0,0:0:0:50:kick_0.wav
448,192,314576,1,0,0:0:0:50:kick_0.wav
192,192,314644,1,0,0:0:0:0:
320,192,314712,1,0,0:0:0:70:snare_1.wav
448,192,314712,1,0,0:0:0:50:snare_4.wav
64,192,314712,1,0,0:0:0:50:snare_4.wav
192,192,314780,1,0,0:0:0:0:
64,192,314848,1,0,0:0:0:50:kick_0.wav
320,192,314848,1,0,0:0:0:50:kick_0.wav
448,192,314917,1,0,0:0:0:100:kick_0.wav
320,192,314985,1,0,0:0:0:33:snare_4.wav
192,192,314985,1,0,0:0:0:33:snare_4.wav
64,192,314985,1,0,0:0:0:33:snare_4.wav
448,192,315053,1,0,0:0:0:100:kick_0.wav
320,192,315121,1,0,0:0:0:33:snare_4.wav
64,192,315121,1,0,0:0:0:33:snare_4.wav
192,192,315121,1,0,0:0:0:33:snare_4.wav
448,192,315189,1,0,0:0:0:100:kick_0.wav
192,192,315258,1,0,0:0:0:100:snare_4.wav
64,192,315258,1,0,0:0:0:70:snare_1.wav
320,192,315326,1,0,0:0:0:50:snare_4.wav
448,192,315326,1,0,0:0:0:50:snare_4.wav
64,192,315394,1,0,0:0:0:100:kick_0.wav
320,192,315462,1,0,0:0:0:50:kick_0.wav
448,192,315462,1,0,0:0:0:50:kick_0.wav
64,192,315530,1,0,0:0:0:50:snare_4.wav
192,192,315530,1,0,0:0:0:50:snare_4.wav
448,192,315598,1,0,0:0:0:100:kick_0.wav
64,192,315667,1,0,0:0:0:50:kick_0.wav
320,192,315667,1,0,0:0:0:50:kick_0.wav
192,192,315735,1,0,0:0:0:100:kick_0.wav
64,192,315803,1,0,0:0:0:100:snare_4.wav
448,192,315803,1,0,0:0:0:70:snare_1.wav
192,192,315837,1,0,0:0:0:100:snare_4.wav
320,192,315871,1,0,0:0:0:100:snare_4.wav
448,192,315905,1,0,0:0:0:100:snare_4.wav
64,192,315939,1,0,0:0:0:100:snare_4.wav
192,192,315973,1,0,0:0:0:100:snare_4.wav
320,192,316008,1,0,0:0:0:100:snare_4.wav
448,192,316042,1,0,0:0:0:100:snare_4.wav
64,192,316076,1,0,0:0:0:100:snare_4.wav
192,192,316076,1,0,0:0:0:100:kick_0.wav
448,192,316348,128,0,316400:0:0:0:0:
320,192,316371,128,0,316439:0:0:0:0:
320,192,316621,1,0,0:0:0:0:
320,192,316758,1,0,0:0:0:0:
192,192,316826,1,0,0:0:0:0:
192,192,317030,1,0,0:0:0:0:
320,192,317167,1,0,0:0:0:0:
192,192,317303,1,0,0:0:0:0:
320,192,317371,1,0,0:0:0:0:
192,192,317439,1,0,0:0:0:0:
192,192,317576,1,0,0:0:0:0:
64,192,317712,1,0,0:0:0:0:
64,192,317848,1,0,0:0:0:0:
192,192,317917,1,0,0:0:0:0:
320,192,317985,1,0,0:0:0:0:
320,192,318121,1,0,0:0:0:0:
64,192,318258,1,0,0:0:0:0:
192,192,318394,1,0,0:0:0:0:
320,192,318462,1,0,0:0:0:0:
448,192,318530,1,0,0:0:0:0:
192,192,318598,1,0,0:0:0:0:
320,192,318667,1,0,0:0:0:0:
192,192,318735,1,0,0:0:0:0:
64,192,318803,1,0,0:0:0:0:
320,192,318939,1,0,0:0:0:0:
192,192,319008,1,0,0:0:0:0:
320,192,319076,1,0,0:0:0:0:
192,192,319212,1,0,0:0:0:0:
64,192,319280,1,0,0:0:0:0:
64,192,319485,1,0,0:0:0:0:
448,192,319621,1,0,0:0:0:0:
320,192,319689,1,0,0:0:0:0:
448,192,319758,1,0,0:0:0:0:
192,192,319826,1,0,0:0:0:0:
320,192,319894,1,0,0:0:0:0:
192,192,319962,1,0,0:0:0:0:
64,192,320030,1,0,0:0:0:0:
192,192,320098,1,0,0:0:0:0:
320,192,320167,1,0,0:0:0:0:
192,192,320235,1,0,0:0:0:0:
320,192,320303,1,0,0:0:0:0:
192,192,320371,1,0,0:0:0:0:
64,192,320439,1,0,0:0:0:0:
448,192,320712,1,0,0:0:0:0:
320,192,320780,1,0,0:0:0:0:
192,192,320848,1,0,0:0:0:0:
448,192,320883,1,0,0:0:0:0:
320,192,320917,1,0,0:0:0:0:
192,192,320951,1,0,0:0:0:0:
64,192,320985,1,0,0:0:0:0:
320,192,321053,1,0,0:0:0:0:
192,192,321121,1,0,0:0:0:0:
448,192,321189,1,0,0:0:0:0:
320,192,321258,1,0,0:0:0:0:
192,192,321326,1,0,0:0:0:0:
64,192,321394,1,0,0:0:0:0:
192,192,321428,1,0,0:0:0:0:
448,192,321462,1,0,0:0:0:0:
320,192,321496,1,0,0:0:0:0:
192,192,321530,1,0,0:0:0:0:
64,192,321598,1,0,0:0:0:0:
192,192,321667,1,0,0:0:0:0:
320,192,321735,1,0,0:0:0:0:
448,192,321803,1,0,0:0:0:0:
448,192,321939,1,0,0:0:0:0:
320,192,322008,1,0,0:0:0:0:
64,192,322076,1,0,0:0:0:0:
64,192,322212,1,0,0:0:0:0:
192,192,322280,1,0,0:0:0:0:
320,192,322348,1,0,0:0:0:0:
192,192,322417,1,0,0:0:0:0:
320,192,322485,1,0,0:0:0:0:
64,192,322621,1,0,0:0:0:0:
448,192,322894,1,0,0:0:0:0:
64,192,323030,1,0,0:0:0:0:
192,192,323098,1,0,0:0:0:0:
320,192,323167,1,0,0:0:0:0:
192,192,323235,1,0,0:0:0:0:
448,192,323303,1,0,0:0:0:0:
320,192,323439,1,0,0:0:0:0:
192,192,323508,1,0,0:0:0:0:
448,192,323576,1,0,0:0:0:0:
448,192,323712,1,0,0:0:0:0:
64,192,323848,1,0,0:0:0:0:
192,192,323917,1,0,0:0:0:0:
64,192,323985,1,0,0:0:0:0:
64,192,324121,1,0,0:0:0:0:
320,192,324394,1,0,0:0:0:0:
192,192,324530,1,0,0:0:0:0:
64,192,324598,1,0,0:0:0:0:
320,192,324667,1,0,0:0:0:0:
448,192,324735,1,0,0:0:0:0:
64,192,324803,1,0,0:0:0:50:cymbal_0.wav
320,192,324803,1,0,0:0:0:50:cymbal_0.wav
448,192,325076,1,0,0:0:0:0:
448,192,325348,1,0,0:0:0:0:
448,192,325485,1,0,0:0:0:0:
320,192,325553,1,0,0:0:0:0:
448,192,325621,1,0,0:0:0:0:
320,192,325689,1,0,0:0:0:0:
192,192,325758,1,0,0:0:0:0:
192,192,325894,1,0,0:0:0:0:
192,192,326030,1,0,0:0:0:0:
320,192,326098,1,0,0:0:0:0:
192,192,326167,1,0,0:0:0:0:
320,192,326235,1,0,0:0:0:0:
64,192,326303,1,0,0:0:0:0:
64,192,326439,1,0,0:0:0:0:
64,192,326576,1,0,0:0:0:0:
192,192,326644,1,0,0:0:0:0:
64,192,326712,1,0,0:0:0:0:
192,192,326780,1,0,0:0:0:0:
320,192,326848,1,0,0:0:0:0:
64,192,326985,1,0,0:0:0:0:
320,192,327121,1,0,0:0:0:0:
64,192,327258,1,0,0:0:0:0:
320,192,327326,1,0,0:0:0:0:
192,192,327394,1,0,0:0:0:0:
320,192,327462,1,0,0:0:0:0:
192,192,327530,1,0,0:0:0:0:
192,192,327667,1,0,0:0:0:0:
320,192,327735,1,0,0:0:0:0:
448,192,327803,1,0,0:0:0:0:
320,192,327939,1,0,0:0:0:0:
192,192,328008,1,0,0:0:0:0:
64,192,328076,1,0,0:0:0:0:
64,192,328212,1,0,0:0:0:0:
192,192,328280,1,0,0:0:0:0:
448,192,328348,1,0,0:0:0:0:
192,192,328417,1,0,0:0:0:0:
448,192,328485,1,0,0:0:0:0:
192,192,328553,1,0,0:0:0:0:
320,192,328758,1,0,0:0:0:0:
192,192,328826,1,0,0:0:0:0:
64,192,328894,1,0,0:0:0:0:
192,192,328962,1,0,0:0:0:0:
64,192,329030,1,0,0:0:0:0:
192,192,329098,1,0,0:0:0:0:
64,192,329167,1,0,0:0:0:0:
320,192,329439,1,0,0:0:0:0:
320,192,329644,1,0,0:0:0:0:
192,192,329712,1,0,0:0:0:0:
448,192,329780,1,0,0:0:0:0:
320,192,329848,1,0,0:0:0:0:
192,192,329917,1,0,0:0:0:0:
64,192,329985,1,0,0:0:0:0:
192,192,330189,1,0,0:0:0:0:
64,192,330258,1,0,0:0:0:0:
448,192,330326,1,0,0:0:0:0:
320,192,330394,1,0,0:0:0:0:
192,192,330462,1,0,0:0:0:0:
64,192,330530,1,0,0:0:0:0:
192,192,330803,1,0,0:0:0:0:
320,192,330939,1,0,0:0:0:0:
192,192,331008,1,0,0:0:0:0:
64,192,331144,1,0,0:0:0:0:
192,192,331212,1,0,0:0:0:0:
64,192,331348,1,0,0:0:0:0:
320,192,331621,1,0,0:0:0:0:
192,192,331894,1,0,0:0:0:0:
320,192,332030,1,0,0:0:0:0:
192,192,332439,1,0,0:0:0:0:
320,192,332490,1,0,0:0:0:0:
448,192,332508,128,0,333530:0:0:0:0:
64,192,333530,1,0,0:0:0:0:
192,192,333621,1,0,0:0:0:0:
320,192,333837,1,0,0:0:0:0:
448,192,334008,1,0,0:0:0:0:
64,192,334314,1,0,0:0:0:0:
192,192,334740,1,0,0:0:0:0:
320,192,335167,1,0,0:0:0:0:
448,192,335695,1,0,0:0:0:0:
192,192,336581,1,0,0:0:0:0:
320,192,336615,1,0,0:0:0:0:
448,192,336650,1,0,0:0:0:0:
