osu file format v14

[General]
AudioFilename: audio.mp3
AudioLeadIn: 0
PreviewTime: 3463
Countdown: 0
SampleSet: Normal
StackLeniency: 0.2
Mode: 1
LetterboxInBreaks: 0
WidescreenStoryboard: 1

[Editor]
DistanceSpacing: 0.8
BeatDivisor: 4
GridSize: 32
TimelineZoom: 1

[Metadata]
Title:wtf
TitleUnicode:wtf
Artist:Kurokotei
ArtistUnicode:黒皇帝
Creator:Vulkin
Version:muzukashii
Source:
Tags:kurokoutei faputa dialgadu77 Sayaka- electronic
BeatmapID:1946823
BeatmapSetID:932440

[Difficulty]
HPDrainRate:7
CircleSize:7
OverallDifficulty:5
ApproachRate:10
SliderMultiplier:1.4
SliderTickRate:1

[Events]
//Background and Video events
0,0,"9ae59faf15a95c2ba86ffc934329e4d2.jpg",0,0
//Break Periods
//Storyboard Layer 0 (Background)
//Storyboard Layer 1 (Fail)
//Storyboard Layer 2 (Pass)
//Storyboard Layer 3 (Foreground)
//Storyboard Sound Samples

[TimingPoints]
313,300,4,1,0,70,1,0
3613,300,4,1,0,70,1,0
13513,-100,4,1,0,75,0,1
22813,-100,4,1,0,70,0,0
22888,-100,4,1,0,60,0,0
28738,-100,4,1,0,50,0,0
31138,-100,4,1,0,40,0,0
32188,-100,4,1,0,30,0,0

[HitObjects]
256,192,313,5,4,0:0:0:0:
256,192,2413,1,8,0:0:0:0:
256,192,3613,1,4,0:0:0:0:
256,192,3763,1,8,0:0:0:0:
256,192,4063,1,8,0:0:0:0:
256,192,4363,1,8,0:0:0:0:
256,192,4513,1,0,0:0:0:0:
256,192,4963,1,8,0:0:0:0:
256,192,5413,1,8,0:0:0:0:
256,192,5563,1,8,0:0:0:0:
256,192,5638,1,8,0:0:0:0:
256,192,5713,1,8,0:0:0:0:
256,192,6013,1,0,0:0:0:0:
256,192,6163,1,8,0:0:0:0:
256,192,6463,1,8,0:0:0:0:
256,192,6763,1,8,0:0:0:0:
256,192,6913,1,0,0:0:0:0:
256,192,7363,1,8,0:0:0:0:
256,192,7813,1,0,0:0:0:0:
256,192,7963,1,8,0:0:0:0:
256,192,8038,1,8,0:0:0:0:
256,192,8113,1,8,0:0:0:0:
256,192,8413,1,0,0:0:0:0:
256,192,8563,1,8,0:0:0:0:
256,192,8863,1,8,0:0:0:0:
256,192,9163,1,8,0:0:0:0:
256,192,9313,1,0,0:0:0:0:
256,192,9763,1,8,0:0:0:0:
256,192,10213,1,8,0:0:0:0:
256,192,10363,1,8,0:0:0:0:
256,192,10438,1,8,0:0:0:0:
256,192,10513,1,8,0:0:0:0:
256,192,10813,1,0,0:0:0:0:
256,192,10963,1,8,0:0:0:0:
256,192,11263,1,8,0:0:0:0:
256,192,11563,1,8,0:0:0:0:
256,192,11713,1,0,0:0:0:0:
256,192,12163,1,8,0:0:0:0:
256,192,12313,1,8,0:0:0:0:
256,192,12463,1,0,0:0:0:0:
256,192,12613,1,8,0:0:0:0:
256,192,12913,1,8,0:0:0:0:
256,192,13513,1,4,0:0:0:0:
256,192,13813,1,0,0:0:0:0:
256,192,13888,1,0,0:0:0:0:
256,192,13963,1,0,0:0:0:0:
256,192,14113,1,8,0:0:0:0:
256,192,14413,1,8,0:0:0:0:
256,192,14713,1,0,0:0:0:0:
256,192,14863,1,0,0:0:0:0:
256,192,15013,1,8,0:0:0:0:
256,192,15313,1,8,0:0:0:0:
256,192,15613,1,0,0:0:0:0:
256,192,16063,1,8,0:0:0:0:
256,192,16213,1,0,0:0:0:0:
256,192,16288,1,0,0:0:0:0:
256,192,16363,1,0,0:0:0:0:
256,192,16513,1,8,0:0:0:0:
256,192,16813,1,0,0:0:0:0:
256,192,17113,1,8,0:0:0:0:
256,192,17263,1,0,0:0:0:0:
256,192,17413,1,8,0:0:0:0:
256,192,18013,1,0,0:0:0:0:
256,192,18463,1,8,0:0:0:0:
256,192,18613,1,0,0:0:0:0:
256,192,18688,1,0,0:0:0:0:
256,192,18763,1,0,0:0:0:0:
256,192,18913,1,8,0:0:0:0:
256,192,19213,1,8,0:0:0:0:
256,192,19513,1,0,0:0:0:0:
256,192,19663,1,8,0:0:0:0:
256,192,19813,1,8,0:0:0:0:
256,192,20413,1,0,0:0:0:0:
256,192,20713,1,8,0:0:0:0:
256,192,21013,1,0,0:0:0:0:
256,192,21088,1,0,0:0:0:0:
256,192,21163,1,0,0:0:0:0:
256,192,21313,1,8,0:0:0:0:
256,192,21463,1,0,0:0:0:0:
256,192,21613,1,8,0:0:0:0:
256,192,21763,1,8,0:0:0:0:
256,192,21913,1,8,0:0:0:0:
256,192,22213,1,8,0:0:0:0:
256,192,22813,1,4,0:0:0:0:
256,192,23113,1,8,0:0:0:0:
256,192,23263,1,0,0:0:0:0:
256,192,23563,1,8,0:0:0:0:
256,192,23638,1,8,0:0:0:0:
256,192,23713,1,8,0:0:0:0:
256,192,24013,1,0,0:0:0:0:
256,192,24313,1,8,0:0:0:0:
256,192,24613,1,8,0:0:0:0:
256,192,24763,1,0,0:0:0:0:
256,192,24913,1,8,0:0:0:0:
256,192,24988,1,8,0:0:0:0:
256,192,25063,1,8,0:0:0:0:
256,192,25213,1,0,0:0:0:0:
256,192,25663,1,8,0:0:0:0:
256,192,26113,1,0,0:0:0:0:
256,192,26413,1,8,0:0:0:0:
256,192,26713,1,0,0:0:0:0:
256,192,27013,1,8,0:0:0:0:
256,192,27163,1,0,0:0:0:0:
256,192,27313,1,8,0:0:0:0:
256,192,27613,1,0,0:0:0:0:
256,192,27913,1,0,0:0:0:0:
256,192,28063,1,8,0:0:0:0:
256,192,28363,1,8,0:0:0:0:
256,192,28513,1,0,0:0:0:0:
256,192,28813,1,8,0:0:0:0:
256,192,29113,1,0,0:0:0:0:
256,192,29413,1,0,0:0:0:0:
256,192,30013,1,0,0:0:0:0:
256,192,30613,1,0,0:0:0:0:
256,192,31213,1,0,0:0:0:0:
256,192,31513,1,0,0:0:0:0:
256,192,31813,1,0,0:0:0:0:
256,192,32263,1,8,0:0:0:0:
