osu file format v14

[General]
AudioFilename: audio.mp3
AudioLeadIn: 0
PreviewTime: 3388
Countdown: 0
SampleSet: Soft
StackLeniency: 0.7
Mode: 2
LetterboxInBreaks: 0
WidescreenStoryboard: 1

[Editor]
Bookmarks: 32263
DistanceSpacing: 1.3
BeatDivisor: 8
GridSize: 32
TimelineZoom: 2.699999

[Metadata]
Title:wtf
TitleUnicode:wtf
Artist:Kurokotei
ArtistUnicode:黒皇帝
Creator:Juansy-
Version:cup
Source:
Tags:Foss kurokoutei dialgadu77 Sayaka- electronic instrumental
BeatmapID:4328802
BeatmapSetID:2068896

[Difficulty]
HPDrainRate:2
CircleSize:3
OverallDifficulty:6
ApproachRate:6
SliderMultiplier:1.2
SliderTickRate:0.5

[Events]
//Background and Video events
0,0,"banishment - insane.jpg",0,0
//Break Periods
//Storyboard Layer 0 (Background)
//Storyboard Layer 1 (Fail)
//Storyboard Layer 2 (Pass)
//Storyboard Layer 3 (Foreground)
//Storyboard Layer 4 (Overlay)
//Storyboard Sound Samples

[TimingPoints]
313,300,4,2,1,80,1,0
3613,300,4,2,11,80,1,1
5413,-100,4,2,12,80,0,1
5713,-100,4,2,13,80,0,1
6013,-100,4,2,11,80,0,1
7813,-100,4,2,12,80,0,1
7963,-100,4,2,2,80,0,1
8113,-100,4,2,14,80,0,1
8413,-100,4,2,11,80,0,0
10213,-100,4,2,12,80,0,0
10513,-100,4,2,13,80,0,0
10813,-100,4,2,11,80,0,0
12613,-100,4,2,12,80,0,1
12763,-100,4,2,2,80,0,1
12913,-100,4,2,14,80,0,1
13213,-100,4,2,15,80,0,0
13513,-100,4,2,3,80,0,1
13663,-100,4,2,16,80,0,1
15013,-100,4,2,17,80,0,1
15313,-100,4,2,18,80,0,1
15613,-100,4,2,16,80,0,1
17413,-100,4,2,17,80,0,1
17563,-100,4,2,2,80,0,1
17713,-100,4,2,19,80,0,1
18013,-100,4,2,16,80,0,1
19213,-100,4,2,16,80,0,1
19813,-100,4,2,17,80,0,1
20113,-100,4,2,18,80,0,1
20413,-100,4,2,16,80,0,1
21313,-100,4,2,20,80,0,1
21613,-100,4,2,8,80,0,1
21763,-100,4,2,16,80,0,1
22213,-100,4,2,17,80,0,1
22363,-100,4,2,2,80,0,1
22513,-100,4,2,19,80,0,1
22813,-100,4,2,21,80,0,0
22963,-100,4,2,22,80,0,0
23113,-100,4,2,23,80,0,0
23263,-100,4,2,24,80,0,0
23413,-100,4,2,21,80,0,0
23563,-100,4,2,22,80,0,0
23713,-100,4,2,23,80,0,0
23863,-100,4,2,24,80,0,0
24013,-100,4,2,21,80,0,0
24163,-100,4,2,22,80,0,0
24313,-100,4,2,23,80,0,0
24463,-100,4,2,24,80,0,0
24613,-100,4,2,21,80,0,0
24763,-100,4,2,22,80,0,0
24913,-100,4,2,23,80,0,0
25063,-100,4,2,24,80,0,0
25213,-100,4,2,21,80,0,0
25363,-100,4,2,22,80,0,0
25513,-100,4,2,25,80,0,0
25663,-100,4,2,24,80,0,0
25813,-100,4,2,21,80,0,0
25963,-100,4,2,26,80,0,0
26113,-100,4,2,27,80,0,0
26263,-100,4,2,24,80,0,0
26413,-100,4,2,28,80,0,0
26563,-100,4,2,22,80,0,0
26713,-100,4,2,23,80,0,0
26863,-100,4,2,24,80,0,0
27013,-100,4,2,21,80,0,0
27163,-100,4,2,22,80,0,0
27313,-100,4,2,23,80,0,0
27463,-100,4,2,24,80,0,0
27613,-100,4,2,21,60,0,0
27763,-100,4,2,22,60,0,0
27913,-100,4,2,23,60,0,0
28063,-100,4,2,24,60,0,0
28213,-100,4,2,21,60,0,0
28363,-100,4,2,22,60,0,0
28513,-100,4,2,23,60,0,0
28663,-100,4,2,24,60,0,0
28813,-100,4,2,21,50,0,0
28963,-100,4,2,22,50,0,0
29113,-100,4,2,23,50,0,0
29263,-100,4,2,24,50,0,0
29413,-100,4,2,21,50,0,0
29563,-100,4,2,22,50,0,0
29713,-100,4,2,23,50,0,0
29863,-100,4,2,24,50,0,0
30013,-100,4,2,21,40,0,0
30163,-100,4,2,22,40,0,0
30313,-100,4,2,23,40,0,0
30463,-100,4,2,24,40,0,0
30613,-100,4,2,21,40,0,0
30763,-100,4,2,22,40,0,0
30913,-100,4,2,23,40,0,0
31063,-100,4,2,24,40,0,0
31213,-100,4,2,21,40,0,0
31363,-100,4,2,22,40,0,0
31513,-100,4,2,23,40,0,0
31663,-100,4,2,24,40,0,0
31813,-100,4,2,21,40,0,0
31963,-100,4,2,22,40,0,0
32113,-100,4,2,23,40,0,0
32263,-100,4,2,29,40,0,0

[Colours]
Combo1 : 78,63,54
Combo2 : 39,99,116
Combo3 : 131,122,112
Combo4 : 247,179,117

[HitObjects]
256,192,313,12,0,3013,0:0:0:0:
166,344,3613,6,0,L|165:223,1,120,10|0,3:2|0:0,0:0:0:0:
230,215,4063,2,0,L|234:92,1,120,10|0,3:2|1:0,0:0:0:0:
298,70,4513,6,0,L|171:68,1,120,10|0,3:2|0:0,0:0:0:0:
111,69,4963,1,10,3:2:0:0:
301,298,5413,2,0,L|432:285,1,120,10|10,3:2|3:2,0:0:0:0:
286,246,6013,6,0,L|273:117,1,120,10|0,3:2|0:0,0:0:0:0:
211,115,6463,2,0,L|206:242,1,120,10|0,3:2|1:0,0:0:0:0:
142,248,6913,6,0,L|269:230,1,120,10|0,3:2|0:0,0:0:0:0:
326,213,7363,1,10,3:2:0:0:
145,114,7813,2,0,L|22:112,1,120,10|10,3:2|3:2,0:0:0:0:
165,126,8413,6,0,P|207:148|166:201,1,120,10|0,3:2|0:0,0:0:0:0:
113,204,8863,2,0,P|77:218|112:275,1,120,10|0,3:2|1:0,0:0:0:0:
173,281,9313,6,0,L|183:149,1,120,10|0,3:2|0:0,0:0:0:0:
122,126,9763,1,10,3:2:0:0:
305,74,10213,2,0,L|180:74,1,120,10|10,3:2|3:2,0:0:0:0:
324,146,10813,6,0,L|350:264,1,120,10|0,3:2|0:0,0:0:0:0:
285,264,11263,2,0,L|244:387,1,120,10|0,3:2|1:0,0:0:0:0:
182,365,11713,6,0,L|163:237,1,120,10|0,3:2|0:0,0:0:0:0:
230,219,12163,2,0,L|101:211,1,120,10|0,3:2|1:0,0:0:0:0:
176,156,12613,1,10,3:2:0:0:
297,131,12913,1,10,3:2:0:0:
165,289,13213,6,0,L|103:295,2,60,2|0|12,3:2|0:0|3:2,0:0:0:0:
297,131,13813,2,0,L|165:133,2,120,8|10|8,3:2|3:2|3:2,0:0:0:0:
416,235,14713,5,8,3:2:0:0:
271,247,15013,2,0,P|198:183|297:124,1,240,10|10,3:2|3:2,0:0:0:0:
349,115,15763,5,0,1:0:0:0:
405,105,15913,1,8,3:2:0:0:
272,266,16213,2,0,P|242:254|286:200,1,120,8|10,3:2|3:2,0:0:0:0:
408,134,16813,6,0,L|277:148,2,120,8|8|10,3:2|3:2|3:2,0:0:0:0:
468,68,17563,2,0,L|460:141,1,60,2|10,1:2|3:2,0:0:0:0:
333,236,18013,6,0,L|386:207,2,60,10|0|8,3:2|1:0|3:2,0:0:0:0:
201,307,18613,2,0,P|206:277|220:184,1,120,8|10,3:2|3:2,0:0:0:0:
352,170,19213,5,8,3:2:0:0:
221,172,19513,1,8,3:2:0:0:
373,96,19813,2,0,P|450:169|363:218,1,240,10|10,3:2|3:2,0:0:0:0:
299,179,20563,5,0,1:0:0:0:
236,140,20713,1,8,3:2:0:0:
364,81,21013,2,0,L|494:86,1,120,8|10,3:2|3:2,0:0:0:0:
352,131,21613,6,0,L|345:199,2,60,10|2|8,3:2|1:2|3:2,0:0:0:0:
224,234,22213,2,0,L|104:232,1,120,10|10,3:2|3:2,0:0:0:0:
232,70,22813,6,0,P|277:63|246:255,1,360,6|8,3:2|0:0,0:0:0:0:
133,258,24013,5,2,3:2:0:0:
133,170,24313,2,0,P|154:154|368:122,1,240,8|8,0:0|0:0,0:0:0:0:
479,163,25213,5,2,3:2:0:0:
339,48,25513,2,0,L|308:292,1,240,8|8,0:0|0:0,0:0:0:0:
192,220,26413,6,0,L|313:199,1,120,2|8,3:2|0:0,0:0:0:0:
384,78,27013,1,2,0:0:0:0:
311,199,27313,6,0,L|187:221,1,120,8|2,0:0|3:2,0:0:0:0:
321,56,27913,6,0,P|381:65|317:168,1,240,8|8,0:0|0:0,0:0:0:0:
201,155,28813,6,0,L|196:279,1,120,2|8,3:2|0:0,0:0:0:0:
77,273,29413,2,0,L|75:150,1,120,2|8,0:0|0:0,0:0:0:0:
206,89,30013,6,0,L|206:211,1,120,2|0,0:0|0:0,0:0:0:0:
331,208,30613,2,0,L|332:336,1,120,2|0,0:0|0:0,0:0:0:0:
454,319,31213,6,0,L|459:194,1,120,2|0,0:0|0:0,0:0:0:0:
335,182,31813,2,0,L|323:52,1,120,2|0,0:0|0:0,0:0:0:0:
387,55,32263,1,2,0:0:0:0:
