osu file format v14

[General]
AudioFilename: wtf.mp3
AudioLeadIn: 0
PreviewTime: 3388
Countdown: 0
SampleSet: Soft
StackLeniency: 0.7
Mode: 3
LetterboxInBreaks: 0
SpecialStyle: 0
WidescreenStoryboard: 0

[Editor]
DistanceSpacing: 0.8
BeatDivisor: 4
GridSize: 32
TimelineZoom: 2.1

[Metadata]
Title:wtf
TitleUnicode:wtf
Artist:Kurokotei
ArtistUnicode:黒皇帝
Creator:FAMoss
Version:hard
Source:
Tags:kurokoutei banishment dialgadu77 sayaka- electronic instrumental
BeatmapID:1947601
BeatmapSetID:932851

[Difficulty]
HPDrainRate:8
CircleSize:4
OverallDifficulty:8
ApproachRate:5
SliderMultiplier:1.4
SliderTickRate:1

[Events]
//Background and Video events
0,0,"banishment - hard.jpg",0,0
//Break Periods
//Storyboard Layer 0 (Background)
//Storyboard Layer 1 (Fail)
//Storyboard Layer 2 (Pass)
//Storyboard Layer 3 (Foreground)
//Storyboard Sound Samples
Sample,313,0,"LR3_FX PDLR_edit.wav",100

[TimingPoints]
313,300,4,2,1,20,1,0
3613,300,4,2,1,40,1,1
8413,-100,4,2,1,40,0,0
13513,-100,4,2,1,40,0,1
19213,-100,4,2,1,40,0,0
22963,-100,4,2,1,20,0,0

[HitObjects]
64,192,313,5,0,0:0:0:0:
320,192,313,128,4,2413:0:0:0:0:
192,192,2413,128,0,3613:0:0:0:0:
64,192,3613,1,2,0:0:0:0:
320,192,3613,1,0,0:0:0:0:
448,192,3613,1,8,0:0:0:0:
192,192,3763,1,0,0:0:0:0:
192,192,3913,1,0,0:0:0:0:
64,192,4063,1,2,0:0:0:0:
448,192,4063,1,8,0:0:0:0:
320,192,4213,1,0,0:0:0:0:
320,192,4363,1,0,0:0:0:0:
64,192,4513,1,8,0:0:0:0:
448,192,4513,1,2,0:0:0:0:
192,192,4663,1,0,0:0:0:0:
192,192,4813,1,0,0:0:0:0:
64,192,4963,1,2,0:0:0:0:
448,192,4963,1,8,0:0:0:0:
320,192,5113,1,0,0:0:0:0:
320,192,5263,1,0,0:0:0:0:
64,192,5413,1,2,0:0:0:0:
192,192,5413,1,8,0:0:0:0:
448,192,5563,1,0,0:0:0:0:
320,192,5638,1,0,0:0:0:0:
64,192,5713,1,8,0:0:0:0:
192,192,5713,1,2,0:0:0:0:
320,192,5863,1,0,0:0:0:0:
192,192,5938,1,0,0:0:0:0:
64,192,6013,1,8,0:0:0:0:
448,192,6013,1,2,0:0:0:0:
320,192,6163,1,0,0:0:0:0:
320,192,6313,1,0,0:0:0:0:
64,192,6463,1,8,0:0:0:0:
448,192,6463,1,2,0:0:0:0:
192,192,6613,1,0,0:0:0:0:
192,192,6763,1,0,0:0:0:0:
64,192,6913,1,2,0:0:0:0:
448,192,6913,1,8,0:0:0:0:
320,192,7063,1,0,0:0:0:0:
320,192,7213,1,0,0:0:0:0:
64,192,7363,1,8,0:0:0:0:
448,192,7363,1,2,0:0:0:0:
192,192,7513,1,0,0:0:0:0:
192,192,7663,1,0,0:0:0:0:
320,192,7813,1,8,0:0:0:0:
448,192,7813,1,2,0:0:0:0:
64,192,7963,1,0,0:0:0:30:wou.wav
192,192,8038,1,0,0:0:0:30:wou.wav
320,192,8113,1,10,0:0:0:0:
448,192,8113,1,0,0:0:0:30:wou.wav
192,192,8263,1,0,0:0:0:0:
320,192,8338,1,0,0:0:0:0:
64,192,8413,1,2,0:0:0:0:
448,192,8413,1,8,0:0:0:0:
192,192,8563,1,0,0:0:0:0:
192,192,8713,1,0,0:0:0:0:
64,192,8863,1,2,0:0:0:0:
448,192,8863,1,8,0:0:0:0:
320,192,9013,1,0,0:0:0:0:
320,192,9163,1,0,0:0:0:0:
64,192,9313,1,8,0:0:0:0:
448,192,9313,1,2,0:0:0:0:
192,192,9463,1,0,0:0:0:0:
192,192,9613,1,0,0:0:0:0:
64,192,9763,1,2,0:0:0:0:
448,192,9763,1,8,0:0:0:0:
320,192,9913,1,0,0:0:0:0:
320,192,10063,1,0,0:0:0:0:
64,192,10213,1,2,0:0:0:0:
192,192,10213,1,8,0:0:0:0:
448,192,10363,1,0,0:0:0:0:
320,192,10438,1,0,0:0:0:0:
64,192,10513,1,8,0:0:0:0:
192,192,10513,1,2,0:0:0:0:
320,192,10663,1,0,0:0:0:0:
192,192,10738,1,0,0:0:0:0:
64,192,10813,1,8,0:0:0:0:
448,192,10813,1,2,0:0:0:0:
320,192,10963,1,0,0:0:0:0:
320,192,11113,1,0,0:0:0:0:
64,192,11263,1,8,0:0:0:0:
448,192,11263,1,2,0:0:0:0:
192,192,11413,1,0,0:0:0:0:
192,192,11563,1,0,0:0:0:0:
64,192,11713,1,2,0:0:0:0:
448,192,11713,1,8,0:0:0:0:
320,192,11863,1,0,0:0:0:0:
320,192,12013,1,0,0:0:0:0:
64,192,12163,1,8,0:0:0:0:
448,192,12163,1,2,0:0:0:0:
192,192,12313,1,0,0:0:0:0:
192,192,12463,1,0,0:0:0:0:
320,192,12613,1,8,0:0:0:0:
448,192,12613,1,2,0:0:0:0:
64,192,12763,1,0,0:0:0:30:wou.wav
192,192,12838,1,0,0:0:0:30:wou.wav
320,192,12913,1,10,0:0:0:0:
448,192,12913,1,0,0:0:0:30:wou.wav
64,192,13063,1,0,0:0:0:0:
192,192,13138,1,0,0:0:0:0:
320,192,13213,1,2,0:0:0:0:
448,192,13213,1,0,0:0:0:0:
64,192,13288,1,0,0:0:0:0:
320,192,13363,1,0,0:0:0:0:
192,192,13438,1,0,0:0:0:0:
64,192,13513,1,2,0:0:0:0:
448,192,13513,1,4,0:0:0:0:
320,192,13663,1,0,0:0:0:0:
192,192,13738,1,0,0:0:0:0:
448,192,13813,1,2,0:0:0:0:
320,192,13963,1,0,0:0:0:0:
64,192,14113,1,2,0:0:0:0:
192,192,14113,1,0,0:0:0:0:
320,192,14188,1,0,0:0:0:0:
448,192,14263,1,0,0:0:0:0:
64,192,14338,1,0,0:0:0:0:
192,192,14413,1,2,0:0:0:0:
320,192,14563,1,0,0:0:0:0:
192,192,14638,1,0,0:0:0:0:
64,192,14713,1,2,0:0:0:0:
448,192,14713,1,0,0:0:0:0:
320,192,14863,1,0,0:0:0:0:
192,192,15013,1,2,0:0:0:0:
320,192,15088,1,0,0:0:0:0:
64,192,15163,1,0,0:0:0:0:
192,192,15238,1,0,0:0:0:0:
320,192,15313,1,2,0:0:0:0:
448,192,15313,1,0,0:0:0:0:
320,192,15463,1,2,0:0:0:0:
64,192,15613,1,2,0:0:0:0:
192,192,15613,1,0,0:0:0:0:
448,192,15688,1,0,0:0:0:0:
320,192,15763,1,0,0:0:0:0:
192,192,15838,1,0,0:0:0:0:
64,192,15913,1,2,0:0:0:0:
448,192,15913,1,0,0:0:0:0:
192,192,16063,1,0,0:0:0:0:
320,192,16138,1,0,0:0:0:0:
64,192,16213,1,2,0:0:0:0:
192,192,16363,1,0,0:0:0:0:
320,192,16513,1,2,0:0:0:0:
448,192,16513,1,0,0:0:0:0:
192,192,16588,1,0,0:0:0:0:
64,192,16663,1,0,0:0:0:0:
448,192,16738,1,0,0:0:0:0:
320,192,16813,1,2,0:0:0:0:
192,192,16963,1,0,0:0:0:0:
320,192,17038,1,0,0:0:0:0:
64,192,17113,1,2,0:0:0:0:
448,192,17113,1,0,0:0:0:0:
192,192,17263,1,0,0:0:0:0:
320,192,17413,1,2,0:0:0:0:
192,192,17488,1,0,0:0:0:0:
448,192,17563,1,0,0:0:0:30:wou.wav
320,192,17638,1,0,0:0:0:30:wou.wav
64,192,17713,1,2,0:0:0:0:
192,192,17713,1,0,0:0:0:30:wou.wav
64,192,17863,1,2,0:0:0:0:
320,192,18013,1,2,0:0:0:0:
448,192,18013,1,0,0:0:0:0:
64,192,18088,1,0,0:0:0:0:
192,192,18163,1,0,0:0:0:0:
320,192,18238,1,0,0:0:0:0:
64,192,18313,1,2,0:0:0:0:
448,192,18313,1,0,0:0:0:0:
320,192,18463,1,0,0:0:0:0:
192,192,18538,1,0,0:0:0:0:
448,192,18613,1,2,0:0:0:0:
320,192,18763,1,0,0:0:0:0:
64,192,18913,1,2,0:0:0:0:
192,192,18913,1,0,0:0:0:0:
320,192,18988,1,0,0:0:0:0:
448,192,19063,1,0,0:0:0:0:
64,192,19138,1,0,0:0:0:0:
192,192,19213,1,2,0:0:0:0:
320,192,19363,1,0,0:0:0:0:
192,192,19438,1,0,0:0:0:0:
64,192,19513,1,2,0:0:0:0:
448,192,19513,1,0,0:0:0:0:
320,192,19663,1,0,0:0:0:0:
192,192,19813,1,2,0:0:0:0:
320,192,19888,1,0,0:0:0:0:
64,192,19963,1,0,0:0:0:0:
192,192,20038,1,0,0:0:0:0:
320,192,20113,1,2,0:0:0:0:
448,192,20113,1,0,0:0:0:0:
448,192,20263,1,2,0:0:0:0:
64,192,20413,1,2,0:0:0:0:
192,192,20413,1,0,0:0:0:0:
448,192,20488,1,0,0:0:0:0:
320,192,20563,1,0,0:0:0:0:
192,192,20638,1,0,0:0:0:0:
64,192,20713,1,2,0:0:0:0:
448,192,20713,1,0,0:0:0:0:
192,192,20863,1,0,0:0:0:0:
320,192,20938,1,0,0:0:0:0:
64,192,21013,1,2,0:0:0:0:
192,192,21163,1,0,0:0:0:0:
320,192,21313,1,2,0:0:0:0:
448,192,21313,1,0,0:0:0:30:wou.wav
192,192,21388,1,0,0:0:0:0:
64,192,21463,1,0,0:0:0:0:
448,192,21538,1,0,0:0:0:0:
320,192,21613,1,2,0:0:0:0:
192,192,21763,1,0,0:0:0:0:
320,192,21838,1,0,0:0:0:0:
64,192,21913,1,2,0:0:0:0:
448,192,21913,1,0,0:0:0:0:
192,192,22063,1,0,0:0:0:0:
320,192,22213,1,2,0:0:0:0:
192,192,22288,1,0,0:0:0:0:
448,192,22363,1,0,0:0:0:30:wou.wav
320,192,22438,1,0,0:0:0:30:wou.wav
64,192,22513,1,2,0:0:0:0:
192,192,22513,1,0,0:0:0:30:wou.wav
192,192,22663,1,2,0:0:0:0:
320,192,22813,1,4,0:0:0:0:
448,192,22813,1,0,0:0:0:50:D6S_s.wav
64,192,22963,1,0,0:0:0:50:C#6S_Db6S_s.wav
320,192,23113,1,0,0:0:0:50:F#5S_Gb5S_s.wav
192,192,23263,1,0,0:0:0:50:A5S.wav
448,192,23413,1,0,0:0:0:50:D6S_s.wav
64,192,23563,1,0,0:0:0:50:C#6S_Db6S_s.wav
320,192,23713,1,0,0:0:0:50:F#5S_Gb5S_s.wav
192,192,23863,1,0,0:0:0:50:A5S.wav
448,192,24013,1,0,0:0:0:50:D6S_s.wav
64,192,24163,1,0,0:0:0:50:C#6S_Db6S_s.wav
320,192,24313,1,0,0:0:0:50:F#5S_Gb5S_s.wav
192,192,24463,1,0,0:0:0:50:A5S.wav
448,192,24613,1,0,0:0:0:50:D6S_s.wav
64,192,24763,1,0,0:0:0:50:C#6S_Db6S_s.wav
320,192,24913,1,0,0:0:0:50:F#5S_Gb5S_s.wav
192,192,25063,1,0,0:0:0:50:A5S.wav
64,192,25213,1,0,0:0:0:50:D6S_s.wav
448,192,25363,1,0,0:0:0:50:C#6S_Db6S_s.wav
192,192,25513,1,0,0:0:0:50:F#5S_Gb5S_s.wav
320,192,25663,1,0,0:0:0:50:A5S.wav
64,192,25813,1,0,0:0:0:50:D6S_s.wav
448,192,25963,1,0,0:0:0:50:C#6S_Db6S_s.wav
192,192,26113,1,0,0:0:0:50:F#5S_Gb5S_s.wav
320,192,26263,1,0,0:0:0:50:A5S.wav
64,192,26413,1,0,0:0:0:50:D6S_s.wav
448,192,26563,1,0,0:0:0:50:C#6S_Db6S_s.wav
192,192,26713,1,0,0:0:0:50:F#5S_Gb5S_s.wav
320,192,26863,1,0,0:0:0:50:A5S.wav
64,192,27013,1,0,0:0:0:50:D6S_s.wav
448,192,27163,1,0,0:0:0:50:C#6S_Db6S_s.wav
192,192,27313,1,0,0:0:0:50:F#5S_Gb5S_s.wav
320,192,27463,1,0,0:0:0:50:A5S.wav
448,192,27613,1,0,0:0:0:50:D6S_s.wav
64,192,27763,1,0,0:0:0:50:C#6S_Db6S_s.wav
320,192,27913,1,0,0:0:0:50:F#5S_Gb5S_s.wav
192,192,28063,1,0,0:0:0:50:A5S.wav
448,192,28213,1,0,0:0:0:50:D6S_s.wav
64,192,28363,1,0,0:0:0:50:C#6S_Db6S_s.wav
320,192,28513,1,0,0:0:0:50:F#5S_Gb5S_s.wav
192,192,28663,1,0,0:0:0:50:A5S.wav
448,192,28813,1,0,0:0:0:50:D6S_s.wav
64,192,28963,1,0,0:0:0:50:C#6S_Db6S_s.wav
320,192,29113,1,0,0:0:0:50:F#5S_Gb5S_s.wav
192,192,29263,1,0,0:0:0:50:A5S.wav
448,192,29413,1,0,0:0:0:50:D6S_s.wav
64,192,29563,1,0,0:0:0:50:C#6S_Db6S_s.wav
320,192,29713,1,0,0:0:0:50:F#5S_Gb5S_s.wav
192,192,29863,1,0,0:0:0:50:A5S.wav
64,192,30013,1,0,0:0:0:50:D6S_s.wav
448,192,30163,1,0,0:0:0:50:C#6S_Db6S_s.wav
192,192,30313,1,0,0:0:0:50:F#5S_Gb5S_s.wav
320,192,30463,1,0,0:0:0:50:A5S.wav
64,192,30613,1,0,0:0:0:50:D6S_s.wav
448,192,30763,1,0,0:0:0:50:C#6S_Db6S_s.wav
192,192,30913,1,0,0:0:0:50:F#5S_Gb5S_s.wav
320,192,31063,1,0,0:0:0:50:A5S.wav
64,192,31213,1,0,0:0:0:50:D6S_s.wav
448,192,31363,1,0,0:0:0:50:C#6S_Db6S_s.wav
192,192,31513,1,0,0:0:0:50:F#5S_Gb5S_s.wav
320,192,31663,1,0,0:0:0:50:A5S.wav
64,192,31813,1,0,0:0:0:50:D6S_s.wav
448,192,31963,1,0,0:0:0:50:C#6S_Db6S_s.wav
192,192,32113,1,0,0:0:0:50:F#5S_Gb5S_s.wav
320,192,32263,1,0,0:0:0:50:A5S.wav
