osu file format v14

[General]
AudioFilename: wtf.mp3
AudioLeadIn: 0
PreviewTime: 3388
Countdown: 0
SampleSet: Soft
StackLeniency: 0.7
Mode: 3
LetterboxInBreaks: 0
SpecialStyle: 0
WidescreenStoryboard: 0

[Editor]
DistanceSpacing: 0.8
BeatDivisor: 2
GridSize: 32
TimelineZoom: 1.1

[Metadata]
Title:wtf
TitleUnicode:wtf
Artist:Kurokotei
ArtistUnicode:黒皇帝
Creator:FAMoss
Version:easy
Source:
Tags:kurokoutei banishment dialgadu77 sayaka- electronic instrumental
BeatmapID:1947600
BeatmapSetID:932851

[Difficulty]
HPDrainRate:7
CircleSize:4
OverallDifficulty:7
ApproachRate:5
SliderMultiplier:1.4
SliderTickRate:1

[Events]
//Background and Video events
0,0,"banishment - easy.jpg",0,0
//Break Periods
//Storyboard Layer 0 (Background)
//Storyboard Layer 1 (Fail)
//Storyboard Layer 2 (Pass)
//Storyboard Layer 3 (Foreground)
//Storyboard Sound Samples
Sample,313,0,"LR3_FX PDLR_edit.wav",100
Sample,7963,0,"wou.wav",30
Sample,8038,0,"wou.wav",30
Sample,8113,0,"wou.wav",30
Sample,12763,0,"wou.wav",30
Sample,12838,0,"wou.wav",30
Sample,12913,0,"wou.wav",30
Sample,17563,0,"wou.wav",30
Sample,17638,0,"wou.wav",30
Sample,17713,0,"wou.wav",30
Sample,21313,0,"wou.wav",30
Sample,22363,0,"wou.wav",30
Sample,22438,0,"wou.wav",30
Sample,22513,0,"wou.wav",30
Sample,22813,0,"D6S_s.wav",50
Sample,22963,0,"C#6S_Db6S_s.wav",50
Sample,23113,0,"F#5S_Gb5S_s.wav",50
Sample,23263,0,"A5S.wav",50
Sample,23563,0,"C#6S_Db6S_s.wav",50
Sample,23713,0,"F#5S_Gb5S_s.wav",50
Sample,23863,0,"A5S.wav",50
Sample,24163,0,"C#6S_Db6S_s.wav",50
Sample,24313,0,"F#5S_Gb5S_s.wav",50
Sample,24463,0,"A5S.wav",50
Sample,24763,0,"C#6S_Db6S_s.wav",50
Sample,24913,0,"F#5S_Gb5S_s.wav",50
Sample,25063,0,"A5S.wav",50
Sample,25363,0,"C#6S_Db6S_s.wav",50
Sample,25513,0,"F#5S_Gb5S_s.wav",50
Sample,25663,0,"A5S.wav",50
Sample,25963,0,"C#6S_Db6S_s.wav",50
Sample,26113,0,"F#5S_Gb5S_s.wav",50
Sample,26263,0,"A5S.wav",50
Sample,26563,0,"C#6S_Db6S_s.wav",50
Sample,26713,0,"F#5S_Gb5S_s.wav",50
Sample,26863,0,"A5S.wav",50
Sample,27163,0,"C#6S_Db6S_s.wav",50
Sample,27313,0,"F#5S_Gb5S_s.wav",50
Sample,27463,0,"A5S.wav",50
Sample,27763,0,"C#6S_Db6S_s.wav",50
Sample,27913,0,"F#5S_Gb5S_s.wav",50
Sample,28063,0,"A5S.wav",50
Sample,28363,0,"C#6S_Db6S_s.wav",50
Sample,28513,0,"F#5S_Gb5S_s.wav",50
Sample,28663,0,"A5S.wav",50
Sample,28963,0,"C#6S_Db6S_s.wav",50
Sample,29113,0,"F#5S_Gb5S_s.wav",50
Sample,29263,0,"A5S.wav",50
Sample,29563,0,"C#6S_Db6S_s.wav",50
Sample,29713,0,"F#5S_Gb5S_s.wav",50
Sample,29863,0,"A5S.wav",50
Sample,30163,0,"C#6S_Db6S_s.wav",50
Sample,30313,0,"F#5S_Gb5S_s.wav",50
Sample,30463,0,"A5S.wav",50
Sample,30763,0,"C#6S_Db6S_s.wav",50
Sample,30913,0,"F#5S_Gb5S_s.wav",50
Sample,31063,0,"A5S.wav",50
Sample,31363,0,"C#6S_Db6S_s.wav",50
Sample,31513,0,"F#5S_Gb5S_s.wav",50
Sample,31663,0,"A5S.wav",50
Sample,31963,0,"C#6S_Db6S_s.wav",50
Sample,32113,0,"F#5S_Gb5S_s.wav",50

[TimingPoints]
313,300,4,2,1,20,1,0
3613,300,4,2,1,40,1,1
8413,-100,4,2,1,40,0,0
13513,-100,4,2,1,40,0,1
19213,-100,4,2,1,40,0,0
22963,-100,4,2,1,20,0,0

[HitObjects]
448,192,313,128,4,2413:0:0:0:0:
192,192,2413,128,0,3613:0:0:0:0:
320,192,3613,1,2,0:0:0:0:
448,192,3613,1,8,0:0:0:0:
320,192,4063,1,10,0:0:0:0:
64,192,4513,1,8,0:0:0:0:
192,192,4513,1,2,0:0:0:0:
64,192,4963,1,10,0:0:0:0:
320,192,5413,1,2,0:0:0:0:
448,192,5413,1,8,0:0:0:0:
192,192,5713,1,10,0:0:0:0:
320,192,6013,1,8,0:0:0:0:
448,192,6013,1,2,0:0:0:0:
320,192,6463,1,10,0:0:0:0:
64,192,6913,1,2,0:0:0:0:
192,192,6913,1,8,0:0:0:0:
64,192,7363,1,10,0:0:0:0:
320,192,7813,1,8,0:0:0:0:
448,192,7813,1,2,0:0:0:0:
192,192,8113,1,10,0:0:0:0:
320,192,8413,1,2,0:0:0:0:
448,192,8413,1,8,0:0:0:0:
448,192,8863,1,10,0:0:0:0:
64,192,9313,1,8,0:0:0:0:
192,192,9313,1,2,0:0:0:0:
192,192,9763,1,10,0:0:0:0:
320,192,10213,1,2,0:0:0:0:
448,192,10213,1,8,0:0:0:0:
64,192,10513,1,10,0:0:0:0:
320,192,10813,1,8,0:0:0:0:
448,192,10813,1,2,0:0:0:0:
448,192,11263,1,10,0:0:0:0:
64,192,11713,1,2,0:0:0:0:
192,192,11713,1,8,0:0:0:0:
192,192,12163,1,10,0:0:0:0:
320,192,12613,1,8,0:0:0:0:
448,192,12613,1,2,0:0:0:0:
64,192,12913,1,10,0:0:0:0:
320,192,13213,1,2,0:0:0:0:
64,192,13513,1,2,0:0:0:0:
448,192,13513,1,4,0:0:0:0:
192,192,13813,1,2,0:0:0:0:
448,192,14113,1,2,0:0:0:0:
320,192,14413,1,2,0:0:0:0:
64,192,14713,1,2,0:0:0:0:
448,192,15013,128,2,15613:0:0:0:0:
192,192,15313,1,2,0:0:0:0:
192,192,15613,1,2,0:0:0:0:
448,192,15913,1,2,0:0:0:0:
320,192,16213,1,2,0:0:0:0:
64,192,16513,1,2,0:0:0:0:
192,192,16813,1,2,0:0:0:0:
448,192,17113,1,2,0:0:0:0:
64,192,17413,128,2,18013:0:0:0:0:
320,192,17713,1,2,0:0:0:0:
320,192,18013,1,2,0:0:0:0:
64,192,18313,1,2,0:0:0:0:
192,192,18613,1,2,0:0:0:0:
448,192,18913,1,2,0:0:0:0:
320,192,19213,1,2,0:0:0:0:
64,192,19513,1,2,0:0:0:0:
448,192,19813,128,2,20413:0:0:0:0:
192,192,20113,1,2,0:0:0:0:
192,192,20413,1,2,0:0:0:0:
448,192,20713,1,2,0:0:0:0:
320,192,21013,1,2,0:0:0:0:
64,192,21313,1,2,0:0:0:0:
192,192,21613,1,2,0:0:0:0:
320,192,21913,1,2,0:0:0:0:
64,192,22213,128,2,22813:0:0:0:0:
448,192,22513,1,2,0:0:0:0:
320,192,22813,1,4,0:0:0:0:
320,192,23413,1,0,0:0:0:50:D6S_s.wav
64,192,24013,1,0,0:0:0:50:D6S_s.wav
64,192,24613,1,0,0:0:0:50:D6S_s.wav
448,192,25213,1,0,0:0:0:50:D6S_s.wav
448,192,25813,1,0,0:0:0:50:D6S_s.wav
192,192,26413,1,0,0:0:0:50:D6S_s.wav
192,192,27013,1,0,0:0:0:50:D6S_s.wav
320,192,27613,1,0,0:0:0:50:D6S_s.wav
320,192,28213,1,0,0:0:0:50:D6S_s.wav
64,192,28813,1,0,0:0:0:50:D6S_s.wav
64,192,29413,1,0,0:0:0:50:D6S_s.wav
448,192,30013,1,0,0:0:0:50:D6S_s.wav
448,192,30613,1,0,0:0:0:50:D6S_s.wav
192,192,31213,1,0,0:0:0:50:D6S_s.wav
192,192,31813,1,0,0:0:0:50:D6S_s.wav
320,192,32263,1,0,0:0:0:50:A5S.wav
