osu file format v14

[General]
AudioFilename: audio.mp3
AudioLeadIn: 0
PreviewTime: 22984
Countdown: 0
SampleSet: Soft
StackLeniency: 0.7
Mode: 0
LetterboxInBreaks: 0
WidescreenStoryboard: 1

[Editor]
Bookmarks: 80,11577,17325,23074,34571,40319,43193,46068,57565,69062,80559,92056,94930,106427,117924,129421,140918
DistanceSpacing: 1.3
BeatDivisor: 8
GridSize: 32
TimelineZoom: 1.5

[Metadata]
Title:Valkyrie Attack
TitleUnicode:Valkyrie Attack
Artist:Kurokotei
ArtistUnicode:黒皇帝
Creator:Shyotamaze
Version:Hard
Source:BMS
Tags:dialgadu77 Sayaka- Be-Music West artcore
BeatmapID:1459160
BeatmapSetID:643961

[Difficulty]
HPDrainRate:4
CircleSize:4
OverallDifficulty:5
ApproachRate:7.5
SliderMultiplier:1.3
SliderTickRate:1

[Events]
//Background and Video events
0,0,"Valkyrie.jpg",0,0
//Break Periods
2,46268,68162
//Storyboard Layer 0 (Background)
//Storyboard Layer 1 (Fail)
//Storyboard Layer 2 (Pass)
//Storyboard Layer 3 (Foreground)
//Storyboard Sound Samples

[TimingPoints]
80,359.281437125748,4,2,1,70,1,0
11577,-133.333333333333,4,2,1,70,0,0
14271,-133.333333333333,4,2,1,5,0,0
14451,-133.333333333333,4,2,1,70,0,0
17145,-133.333333333333,4,2,1,5,0,0
17325,-100,4,2,1,70,0,0
23074,-133.333333333333,4,2,4,70,0,0
23702,-133.333333333333,4,2,4,5,0,0
23792,-80,4,2,2,70,0,0
24062,-80,4,2,2,5,0,0
24151,-80,4,2,2,70,0,0
24511,-100,4,2,1,70,0,0
25229,-133.333333333333,4,2,5,70,0,0
25858,-133.333333333333,4,2,1,5,0,0
25948,-133.333333333333,4,2,1,70,0,0
26127,-80,4,2,3,70,0,0
26217,-80,4,2,3,5,0,0
26307,-80,4,2,3,70,0,0
26397,-80,4,2,3,5,0,0
26487,-80,4,2,3,70,0,0
26577,-80,4,2,3,5,0,0
26666,-80,4,2,3,70,0,0
26936,-80,4,2,3,5,0,0
27026,-80,4,2,3,70,0,0
27295,-80,4,2,1,5,0,0
27385,-100,4,2,1,70,0,0
28103,-133.333333333333,4,2,1,70,0,0
28732,-133.333333333333,4,2,1,5,0,0
28822,-133.333333333333,4,2,4,70,0,0
29451,-133.333333333333,4,2,4,5,0,0
29541,-80,4,2,2,70,0,0
29810,-80,4,2,2,5,0,0
29900,-80,4,2,2,70,0,0
30259,-100,4,2,1,70,0,0
30978,-133.333333333333,4,2,5,70,0,0
31606,-133.333333333333,4,2,1,5,0,0
31696,-133.333333333333,4,2,1,70,0,0
31876,-80,4,2,3,70,0,0
31966,-80,4,2,3,5,0,0
32056,-80,4,2,3,70,0,0
32145,-80,4,2,3,5,0,0
32235,-80,4,2,3,70,0,0
32325,-80,4,2,3,5,0,0
32415,-80,4,2,3,70,0,0
32684,-80,4,2,3,5,0,0
32774,-80,4,2,3,70,0,0
33044,-80,4,2,1,5,0,0
33133,-100,4,2,1,70,0,0
33852,-133.333333333333,4,2,1,70,0,0
34481,-100,4,2,1,5,0,0
34571,-100,4,2,1,70,0,0
92056,-133.333333333333,4,2,1,70,0,0
94301,-133.333333333333,4,2,1,5,0,0
94391,-100,4,2,1,70,0,0
117924,-86.9565217391304,4,2,1,70,0,1
140918,-100,4,2,1,70,0,0

[Colours]
Combo1 : 239,78,78
Combo2 : 186,220,229
Combo3 : 46,106,179
Combo4 : 202,0,0

[HitObjects]
256,192,11577,5,0,3:0:0:0:
256,192,11756,1,0,3:0:0:0:
87,285,13014,22,2,B|170:235|170:235|247:301|247:301|327:253|327:253|371:275,1,341.250013017655,2|2,0:0|0:0,0:0:0:0:
256,192,14451,37,0,3:0:0:0:
256,192,14630,1,0,3:0:0:0:
178,150,15888,22,2,B|137:66|137:66|230:106|230:106|328:82|328:82|280:78,1,341.250013017655,2|2,0:0|0:0,0:0:0:0:
256,192,17325,5,4,3:2:0:0:
256,192,17505,1,0,0:0:0:0:
337,171,17684,2,0,B|390:157|390:157|424:84,1,130,8|0,0:0|0:0,0:0:0:0:
490,40,18223,1,0,3:0:0:0:
497,124,18403,2,0,L|469:184,1,65,8|0,0:0|0:0,0:0:0:0:
380,245,18762,2,0,L|253:276,2,130,2|8|0,3:2|0:0|0:0,0:0:0:0:
337,171,19660,1,0,3:0:0:0:
256,192,19840,2,0,L|192:207,1,65,8|0,0:0|0:0,0:0:0:0:
258,108,20199,5,2,3:2:0:0:
258,108,20379,1,0,3:0:0:0:
342,100,20559,2,0,L|357:163,1,65,8|0,0:0|0:0,0:0:0:0:
380,245,20918,2,0,L|348:253,3,32.5,0|0|0|0,3:0|3:0|3:0|3:0,0:0:0:0:
338,283,21277,2,0,L|402:268,1,65,8|0,3:2|3:0,0:0:0:0:
505,305,21636,1,2,3:2:0:0:
505,305,21816,1,0,3:0:0:0:
430,345,21996,2,0,L|366:360,1,65,8|0,0:0|3:0,0:0:0:0:
283,346,22355,2,0,L|251:338,3,32.5,0|0|0|0,3:0|3:0|3:0|3:0,0:0:0:0:
219,330,22714,2,0,L|187:338,3,32.5,8|0|0|0,3:2|3:0|3:0|3:0,0:0:0:0:
156,348,23074,6,0,B|105:337|61:364|61:364|92:338|92:300,1,170.625006508827,0|0,0:0|0:0,0:0:0:0:
92,302,23792,6,0,B|86:242|86:242|51:191,1,121.875,10|0,0:0|0:0,0:0:0:0:
24,158,24151,2,0,L|19:109,1,40.625,2|2,0:0|0:0,0:0:0:0:
91,87,24331,2,0,L|96:128,1,40.625,2|2,0:0|0:0,0:0:0:0:
30,40,24511,6,0,P|69:13|117:13,2,97.5,8|8|8,0:3|0:3|0:3,0:0:0:0:
91,87,25229,6,0,B|137:101|174:80|174:76|173:72|211:52|255:65,1,170.625006508827,10|0,0:0|0:0,0:0:0:0:
279,74,25948,1,2,3:2:0:0:
228,168,26127,6,0,L|239:208,1,40.625,2|0,0:0|0:0,0:0:0:0:
312,243,26307,2,0,L|272:233,1,40.625,2|0,0:0|0:0,0:0:0:0:
203,277,26487,2,0,L|232:247,1,40.625,2|0,0:0|0:0,0:0:0:0:
304,165,26666,6,0,B|365:181|365:181|390:237,1,121.875,10|0,0:0|0:0,0:0:0:0:
474,304,27026,2,0,B|413:288|413:288|389:234,1,121.875,2|0,0:0|0:0,0:0:0:0:
425,137,27385,6,0,L|466:226,2,97.5,8|8|8,0:3|0:3|0:3,0:0:0:0:
352,99,28103,6,2,P|272:89|223:155,1,170.625006508827,10|2,0:0|0:0,0:0:0:0:
222,155,28822,6,0,B|241:206|278:234|278:234|305:198|300:160,1,170.625006508827,0|0,0:0|0:0,0:0:0:0:
301,166,29541,6,0,B|359:178|359:178|406:219,1,121.875,10|0,0:0|0:0,0:0:0:0:
438,246,29900,2,0,L|419:281,1,40.625,2|2,0:0|0:0,0:0:0:0:
475,332,30079,2,0,L|493:296,1,40.625,2|2,0:0|0:0,0:0:0:0:
403,355,30259,6,0,P|362:329|345:284,2,97.5,8|8|8,0:3|0:3|0:3,0:0:0:0:
475,332,30978,6,0,B|500:291|489:250|485:248|481:248|472:207|496:167,1,170.625006508827,10|0,0:0|0:0,0:0:0:0:
510,146,31697,1,2,3:2:0:0:
416,97,31876,6,0,L|381:73,1,40.625,2|0,0:0|0:0,0:0:0:0:
303,94,32056,2,0,L|340:75,1,40.625,2|0,0:0|0:0,0:0:0:0:
365,0,32236,2,0,L|362:41,1,40.625,2|0,0:0|0:0,0:0:0:0:
361,147,32415,6,0,B|303:173|303:173|251:149,1,121.875,10|0,0:0|0:0,0:0:0:0:
140,151,32775,2,0,B|197:124|197:124|250:149,1,121.875,2|0,0:0|0:0,0:0:0:0:
285,248,33133,6,0,L|196:206,2,97.5,8|8|8,0:3|0:3|0:3,0:0:0:0:
359,225,33852,6,2,P|346:296|257:321,1,170.625006508827,10|2,0:0|0:0,0:0:0:0:
230,308,34571,38,0,L|159:275,1,65,2|0,3:2|0:0,0:0:0:0:
86,291,34930,2,0,L|32:328,1,65,0|0,3:0|0:0,0:0:0:0:
119,213,35289,2,0,L|113:148,1,65,8|0,3:2|0:0,0:0:0:0:
61,81,35648,2,0,L|2:53,1,65,0|0,3:0|0:0,0:0:0:0:
146,70,36008,2,0,L|200:33,1,65,0|0,3:0|0:0,0:0:0:0:
284,22,36367,2,0,L|343:50,1,65,0|0,3:0|0:0,0:0:0:0:
198,137,36726,2,0,L|252:100,1,65,10|0,3:2|0:0,0:0:0:0:
329,134,37085,2,0,L|388:162,1,65,2|0,3:2|0:0,0:0:0:0:
474,46,37445,6,0,L|420:83,1,65,2|0,3:2|0:0,0:0:0:0:
470,150,37804,2,0,L|523:113,1,65,0|0,3:0|0:0,0:0:0:0:
497,258,38163,2,0,L|438:230,1,65,8|0,3:2|0:0,0:0:0:0:
355,240,38523,2,0,L|296:212,1,65,0|0,3:0|0:0,0:0:0:0:
154,194,38882,2,0,L|213:222,1,65,0|0,3:0|0:0,0:0:0:0:
263,290,39241,2,0,L|322:318,1,65,0|0,3:0|0:0,0:0:0:0:
179,299,39600,2,0,L|120:271,1,65,10|0,3:2|0:0,0:0:0:0:
70,203,39960,2,0,L|11:175,1,65,0|0,3:0|0:0,0:0:0:0:
154,194,40319,37,2,3:2:0:0:
154,194,40499,1,0,3:0:0:0:
45,98,40678,2,0,L|104:126,1,65,8|0,3:2|3:0,0:0:0:0:
188,117,41038,1,0,3:0:0:0:
188,117,41217,1,0,3:0:0:0:
79,21,41397,2,0,L|138:49,1,65,8|0,3:2|3:0,0:0:0:0:
222,40,41756,1,0,3:0:0:0:
222,40,41936,1,0,3:0:0:0:
104,126,42115,2,0,L|45:98,1,65,8|0,3:2|3:0,0:0:0:0:
154,194,42475,2,0,L|159:259,1,65,10|0,3:2|3:0,0:0:0:0:
188,117,42834,2,0,L|241:79,1,65,10|0,3:2|3:0,0:0:0:0:
325,70,43193,6,0,L|352:86,3,32.5,2|0|0|0,3:2|3:0|3:0|3:0,0:0:0:0:
384,94,43553,2,0,L|401:120,3,32.5,8|0|0|0,3:2|3:0|3:0|3:0,0:0:0:0:
427,140,43912,2,0,L|431:171,3,32.5,0|0|0|0,3:0|3:0|3:0|3:0,0:0:0:0:
449,204,44271,2,0,L|439:235,3,32.5,8|0|0|0,3:2|3:0|3:0|3:0,0:0:0:0:
363,210,44630,2,0,L|331:202,3,32.5,0|0|0|0,3:0|3:0|3:0|3:0,0:0:0:0:
304,187,44990,2,0,L|273:193,3,32.5,8|0|0|0,3:2|3:0|3:0|3:0,0:0:0:0:
239,190,45349,2,0,L|213:209,3,32.5,10|0|0|0,3:2|3:0|3:0|3:0,0:0:0:0:
180,221,45708,2,0,L|165:250,1,32.5,8|8,3:2|3:2,0:0:0:0:
137,306,45888,2,0,L|139:274,1,32.5,8|8,3:2|3:2,0:0:0:0:
99,199,46068,37,4,3:2:0:0:
192,256,69062,6,0,L|256:288,1,65,4|0,3:2|0:0,0:0:0:0:
243,369,69421,2,0,B|126:310,1,130,8|0,0:0|0:0,0:0:0:0:
112,225,69960,1,0,3:0:0:0:
192,256,70139,2,0,L|221:197,1,65,8|0,0:0|0:0,0:0:0:0:
112,225,70499,2,0,B|170:108,2,130,0|8|0,3:0|0:0|0:0,0:0:0:0:
127,310,71397,1,0,3:0:0:0:
192,256,71577,2,0,L|221:197,1,65,8|0,0:0|0:0,0:0:0:0:
332,137,71936,38,0,L|273:108,1,65,0|0,3:0|0:0,0:0:0:0:
189,118,72295,2,0,B|72:59,1,130,8|0,0:0|0:0,0:0:0:0:
138,5,72834,2,0,L|197:34,2,65,0|8|0,3:0|0:0|0:0,0:0:0:0:
189,118,73373,2,0,B|130:234,2,130,0|8|0,3:0|0:0|0:0,0:0:0:0:
197,34,74271,2,0,L|138:5,2,65,0|8|0,3:0|0:0|0:0,0:0:0:0:
273,108,74810,6,0,L|332:137,1,65,0|0,3:0|0:0,0:0:0:0:
367,213,75169,2,0,B|308:330,1,130,8|0,0:0|0:0,0:0:0:0:
224,343,75708,1,0,3:0:0:0:
254,264,75888,2,0,L|283:205,1,65,8|0,0:0|0:0,0:0:0:0:
169,255,76247,2,0,B|228:139,2,130,0|8|0,3:0|0:0|0:0,0:0:0:0:
203,332,77145,1,0,3:0:0:0:
254,264,77325,2,0,L|283:205,1,65,8|0,0:0|0:0,0:0:0:0:
415,143,77684,38,0,L|356:114,1,65,0|0,3:0|0:0,0:0:0:0:
365,29,78044,2,0,B|481:88,1,130,8|0,0:0|0:0,0:0:0:0:
494,171,78582,2,0,L|465:230,2,65,0|8|0,3:0|0:0|0:0,0:0:0:0:
380,221,79121,2,0,B|264:162,2,130,0|8|0,3:0|0:0|0:0,0:0:0:0:
415,143,80020,2,0,L|356:114,2,65,0|8|0,3:0|0:0|0:0,0:0:0:0:
417,300,80559,6,0,L|388:359,1,65,4|0,3:2|3:0,0:0:0:0:
304,348,80918,2,0,B|363:232,1,130,8|0,0:0|0:0,0:0:0:0:
446,221,81457,1,0,3:0:0:0:
417,300,81636,2,0,L|476:329,1,65,8|0,0:0|0:0,0:0:0:0:
363,232,81996,2,0,B|247:173,2,130,0|8|0,3:0|0:0|0:0,0:0:0:0:
446,221,82894,1,0,3:0:0:0:
394,154,83074,2,0,L|335:125,1,65,8|0,0:0|0:0,0:0:0:0:
281,15,83433,38,0,L|252:74,1,65,4|0,3:2|0:0,0:0:0:0:
259,157,83792,2,0,B|200:274,1,130,8|0,0:0|0:0,0:0:0:0:
146,208,84331,2,0,L|175:149,2,65,0|8|0,3:0|0:0|0:0,0:0:0:0:
120,83,84870,2,0,B|61:199,2,130,0|8|0,3:0|0:0|0:0,0:0:0:0:
175,149,85768,2,0,L|146:208,2,65,0|8|0,3:0|0:0|0:0,0:0:0:0:
201,273,86307,6,0,L|172:332,1,65,4|0,3:2|0:0,0:0:0:0:
87,323,86666,2,0,B|146:207,1,130,8|0,0:0|0:0,0:0:0:0:
229,193,87205,1,0,3:0:0:0:
201,273,87385,2,0,L|260:302,1,65,8|0,0:0|3:0,0:0:0:0:
229,193,87744,2,0,B|345:252,2,130,4|8|0,3:2|0:0|0:0,0:0:0:0:
146,207,88642,1,0,3:0:0:0:
201,273,88822,2,0,L|260:302,1,65,8|0,0:0|3:0,0:0:0:0:
118,287,89181,38,0,L|59:258,1,65,4|0,3:2|3:0,0:0:0:0:
32,338,89541,2,0,L|91:367,1,65,8|0,0:0|0:0,0:0:0:0:
174,358,89900,2,0,L|187:327,3,32.5,4|0|0|0,3:2|3:0|3:0|3:0,0:0:0:0:
218,323,90259,2,0,L|191:383,1,65,8|0,3:2|3:0,0:0:0:0:
306,299,90618,2,0,L|335:240,1,65,4|0,3:2|3:0,0:0:0:0:
475,247,90978,2,0,L|416:218,1,65,12|0,0:0|3:0,0:0:0:0:
357,158,91337,2,0,L|348:122,3,32.5,4|0|0|0,3:2|3:0|3:0|3:0,0:0:0:0:
367,99,91696,2,0,L|358:63,3,32.5,12|0|0|0,3:2|3:0|3:0|3:0,0:0:0:0:
336,57,92056,22,2,B|290:19|240:19|240:19|256:47|273:204|182:238|106:171|86:72|161:10|288:102|312:144|312:144|304:175|288:193,1,609.375023245812,2|2,0:0|0:0,0:0:0:0:
267,218,94391,37,0,3:0:0:0:
188,250,94571,2,0,L|155:245,3,32.5,10|2|2|2,0:0|0:0|0:0|0:0,0:0:0:0:
135,266,94930,38,0,L|199:277,1,65,6|0,3:2|0:0,0:0:0:0:
213,361,95289,2,0,B|84:338,1,130,8|0,0:0|0:0,0:0:0:0:
50,260,95828,1,0,3:0:0:0:
135,266,96008,2,0,L|146:202,1,65,8|0,0:0|0:0,0:0:0:0:
50,260,96367,2,0,B|73:131,2,130,2|8|0,3:2|0:0|0:0,0:0:0:0:
85,338,97265,1,0,3:0:0:0:
135,266,97445,2,0,L|146:202,1,65,8|0,0:0|0:0,0:0:0:0:
232,113,97804,6,0,L|168:102,1,65,2|0,3:2|0:0,0:0:0:0:
99,52,98163,1,8,0:0:0:0:
176,17,98343,2,0,L|240:28,1,65,2|0,0:0|0:0,0:0:0:0:
308,78,98702,2,0,L|372:89,1,65,2|8,3:2|0:0,0:0:0:0:
232,113,99062,2,0,L|168:102,1,65,2|0,0:0|3:0,0:0:0:0:
160,187,99421,2,0,L|224:198,1,65,2|8,0:0|0:0,0:0:0:0:
300,163,99780,2,0,L|364:174,1,65,2|0,0:0|0:0,0:0:0:0:
372,89,100139,2,0,L|308:78,2,65,2|10|2,3:2|0:0|0:0,0:0:0:0:
232,113,100678,38,0,L|168:102,1,65,2|0,3:2|0:0,0:0:0:0:
99,52,101038,1,8,0:0:0:0:
176,17,101217,2,0,L|240:28,1,65,2|0,0:0|0:0,0:0:0:0:
308,78,101576,1,0,3:2:0:0:
300,163,101756,2,0,L|364:174,1,65,10|0,0:0|0:0,0:0:0:0:
232,113,102115,2,0,B|209:242,1,130,2|8,3:2|0:0,0:0:0:0:
243,318,102654,2,0,B|370:340,1,130,2|0,0:0|3:2,0:0:0:0:
357,256,103193,2,0,L|293:245,1,65,10|0,0:0|0:0,0:0:0:0:
436,287,103553,6,0,L|447:223,1,65,2|0,3:2|0:0,0:0:0:0:
393,156,103912,2,0,B|415:28,1,130,8|0,0:0|0:0,0:0:0:0:
488,78,104451,2,0,L|477:142,2,65,0|8|0,3:0|0:0|0:0,0:0:0:0:
393,156,104990,2,0,L|329:145,1,65,2|0,3:2|0:0,0:0:0:0:
247,170,105349,2,0,L|183:159,1,65,8|0,0:0|0:0,0:0:0:0:
119,102,105708,2,0,L|55:91,1,65,2|0,0:0|3:0,0:0:0:0:
201,77,106068,1,8,0:0:0:0:
201,77,106247,1,8,0:0:0:0:
329,145,106427,38,0,L|393:156,1,65,6|0,3:2|0:0,0:0:0:0:
446,221,106786,2,0,B|423:349,1,130,8|0,0:0|0:0,0:0:0:0:
346,383,107325,1,0,3:0:0:0:
352,299,107505,2,0,L|363:235,1,65,8|0,0:0|0:0,0:0:0:0:
268,312,107864,2,0,B|291:184,2,130,2|8|0,3:2|0:0|0:0,0:0:0:0:
321,378,108762,1,0,3:0:0:0:
352,299,108942,2,0,L|363:235,1,65,8|0,0:0|0:0,0:0:0:0:
435,158,109301,6,0,L|371:147,1,65,2|0,3:2|0:0,0:0:0:0:
291,184,109660,1,8,0:0:0:0:
223,133,109840,2,0,L|159:122,1,65,2|0,0:0|0:0,0:0:0:0:
174,39,110199,2,0,L|238:50,1,65,2|8,3:2|0:0,0:0:0:0:
291,184,110559,2,0,L|280:248,1,65,2|0,0:0|3:0,0:0:0:0:
341,305,110918,2,0,L|405:316,1,65,2|8,0:0|0:0,0:0:0:0:
483,284,111277,2,0,L|494:220,1,65,2|0,0:0|0:0,0:0:0:0:
435,158,111636,2,0,L|371:147,2,65,2|10|2,3:2|0:0|0:0,0:0:0:0:
405,316,112175,38,0,L|341:305,1,65,2|0,3:2|0:0,0:0:0:0:
280,248,112535,1,8,0:0:0:0:
203,283,112714,2,0,L|139:272,1,65,2|0,0:0|0:0,0:0:0:0:
71,220,113074,1,0,3:2:0:0:
149,187,113253,2,0,L|213:198,1,65,10|0,0:0|0:0,0:0:0:0:
136,103,113612,2,0,B|264:126,1,130,2|8,3:2|0:0,0:0:0:0:
278,42,114151,2,0,B|149:19,1,130,2|0,0:0|3:2,0:0:0:0:
71,50,114690,2,0,L|7:39,1,65,10|0,0:0|0:0,0:0:0:0:
136,103,115050,6,0,L|125:167,1,65,2|0,3:2|0:0,0:0:0:0:
141,248,115409,2,0,B|12:226,1,130,8|0,0:0|0:0,0:0:0:0:
61,156,115948,2,0,L|125:167,2,65,0|8|0,3:0|0:0|0:0,0:0:0:0:
203,193,116487,2,0,L|267:204,1,65,2|0,3:2|0:0,0:0:0:0:
346,230,116846,2,0,L|410:241,1,65,8|0,0:0|0:0,0:0:0:0:
425,228,117115,1,8,0:0:0:0:
439,215,117205,1,2,0:0:0:0:
470,137,117385,1,8,0:0:0:0:
392,103,117565,2,0,L|387:136,3,32.5,8|8|8|8,0:0|0:0|0:0|0:0,0:0:0:0:
353,151,117924,38,0,L|366:77,1,74.7500014257431,6|0,0:0|0:0,0:0:0:0:
281,27,118283,2,0,B|259:174,1,149.500002851486,8|0,0:0|0:0,0:0:0:0:
326,244,118822,1,0,3:2:0:0:
353,151,119002,2,0,L|427:161,1,74.7500014257431,8|0,0:0|0:0,0:0:0:0:
326,244,119361,2,0,B|473:266,2,149.500002851486,2|8|0,3:2|0:0|0:0,0:0:0:0:
259,174,120259,1,0,3:2:0:0:
353,151,120439,2,0,L|427:161,1,74.7500014257431,8|0,0:0|0:0,0:0:0:0:
326,244,120798,5,2,3:2:0:0:
259,174,120978,1,0,0:0:0:0:
259,174,121157,2,0,L|185:163,1,74.7500014257431,8|0,0:0|0:0,0:0:0:0:
91,186,121517,2,0,L|17:175,1,74.7500014257431,0|0,0:0|3:2,0:0:0:0:
0,271,121876,2,0,L|73:281,1,74.7500014257431,8|0,0:0|0:0,0:0:0:0:
242,269,122235,2,0,L|168:259,1,74.7500014257431,0|0,3:2|0:0,0:0:0:0:
185,163,122594,2,0,L|259:174,1,74.7500014257431,8|0,0:0|0:0,0:0:0:0:
335,246,122954,2,0,L|409:257,1,74.7500014257431,0|0,0:0|3:2,0:0:0:0:
393,353,123313,2,0,L|318:342,1,74.7500014257431,8|0,0:0|0:0,0:0:0:0:
168,259,123672,38,0,L|242:269,1,74.7500014257431,2|0,3:2|0:0,0:0:0:0:
335,246,124032,1,8,0:0:0:0:
362,153,124211,2,0,L|373:79,1,74.7500014257431,2|0,0:0|0:0,0:0:0:0:
305,8,124571,1,0,3:2:0:0:
279,101,124750,2,0,L|268:175,1,74.7500014257431,10|0,0:0|0:0,0:0:0:0:
199,45,125109,2,0,B|171:192,1,149.500002851486,2|8,3:2|0:0,0:0:0:0:
234,266,125648,2,0,L|223:340,1,74.7500014257431,2|0,0:0|0:0,0:0:0:0:
126,358,126008,1,2,3:2:0:0:
126,358,126097,1,2,0:0:0:0:
126,358,126187,2,0,L|137:284,1,74.7500014257431,10|2,0:0|0:0,0:0:0:0:
320,321,126547,5,2,3:2:0:0:
223,340,126726,1,2,0:0:0:0:
223,340,126816,1,2,0:0:0:0:
223,340,126906,2,0,L|234:266,1,74.7500014257431,10|2,0:0|0:0,0:0:0:0:
417,302,127265,1,2,0:0:0:0:
320,321,127444,1,2,3:2:0:0:
320,321,127534,1,2,0:0:0:0:
320,321,127624,2,0,L|331:247,1,74.7500014257431,10|2,0:0|0:0,0:0:0:0:
277,99,127984,2,0,L|266:173,1,74.7500014257431,2|0,3:2|0:0,0:0:0:0:
234,266,128343,2,0,L|223:340,1,74.7500014257431,8|0,0:0|0:0,0:0:0:0:
320,321,128702,2,0,L|331:247,1,74.7500014257431,2|0,0:0|3:2,0:0:0:0:
170,191,129062,1,8,0:0:0:0:
170,191,129241,1,8,0:0:0:0:
277,99,129421,38,0,L|266:173,1,74.7500014257431,6|0,3:2|0:0,0:0:0:0:
170,191,129780,2,0,B|194:42,1,149.500002851486,8|0,0:0|0:0,0:0:0:0:
281,2,130319,1,0,3:2:0:0:
277,99,130499,2,0,L|266:173,1,74.7500014257431,8|0,0:0|0:0,0:0:0:0:
373,73,130858,2,0,B|350:221,2,149.500002851486,2|8|0,3:2|0:0|0:0,0:0:0:0:
304,5,131756,1,0,3:2:0:0:
277,99,131936,2,0,L|266:173,1,74.7500014257431,8|0,0:0|0:0,0:0:0:0:
304,5,132295,5,2,3:2:0:0:
373,73,132475,1,0,0:0:0:0:
373,73,132654,2,0,L|362:147,1,74.7500014257431,8|0,0:0|0:0,0:0:0:0:
411,252,133014,2,0,L|337:241,1,74.7500014257431,0|0,0:0|3:2,0:0:0:0:
266,173,133373,2,0,L|277:99,1,74.7500014257431,8|0,0:0|0:0,0:0:0:0:
436,158,133732,2,0,L|362:147,1,74.7500014257431,0|0,3:2|0:0,0:0:0:0:
266,173,134091,2,0,L|192:162,1,74.7500014257431,8|0,0:0|0:0,0:0:0:0:
167,256,134451,2,0,L|241:267,1,74.7500014257431,0|0,0:0|3:2,0:0:0:0:
337,241,134810,2,0,L|411:252,1,74.7500014257431,8|0,0:0|0:0,0:0:0:0:
266,173,135169,38,0,L|192:162,1,74.7500014257431,6|0,3:2|0:0,0:0:0:0:
123,92,135529,1,8,0:0:0:0:
217,68,135708,2,0,L|291:79,1,74.7500014257431
362,147,136067,1,0,3:2:0:0:
337,241,136247,2,0,L|326:315,1,74.7500014257431,10|0,0:0|3:2,0:0:0:0:
362,147,136606,2,0,B|510:170,1,149.500002851486,6|8,3:2|0:0,0:0:0:0:
487,75,137145,2,0,L|413:64,1,74.7500014257431,2|0,0:0|0:0,0:0:0:0:
315,62,137505,1,2,3:2:0:0:
315,62,137594,1,2,0:0:0:0:
315,62,137684,2,0,L|241:51,1,74.7500014257431,10|2,3:2|3:2,0:0:0:0:
215,230,138044,5,6,3:2:0:0:
265,146,138223,1,2,3:2:0:0:
265,146,138313,1,2,0:0:0:0:
265,146,138403,2,0,L|191:135,1,74.7500014257431,10|2,3:2|3:2,0:0:0:0:
165,314,138762,1,6,3:2:0:0:
215,230,138942,1,2,3:2:0:0:
215,230,139032,1,2,0:0:0:0:
215,230,139121,2,0,L|141:219,1,74.7500014257431,10|2,3:2|3:2,0:0:0:0:
20,122,139481,2,0,L|94:133,1,74.7500014257431,4|0,3:2|3:2,0:0:0:0:
191,135,139840,2,0,L|265:146,1,74.7500014257431,12|0,3:2|3:2,0:0:0:0:
279,157,140109,1,8,3:2:0:0:
293,168,140199,1,4,3:2:0:0:
305,264,140379,1,8,3:2:0:0:
260,350,140559,2,0,L|231:327,1,37.3750007128716,12|8,3:2|3:2,0:0:0:0:
383,321,140738,2,0,L|357:347,1,37.3750007128716,12|8,3:2|3:2,0:0:0:0:
305,264,140918,37,4,0:0:0:0:
