osu file format v14

[General]
AudioFilename: audio.mp3
AudioLeadIn: 0
PreviewTime: 22984
Countdown: 0
SampleSet: Soft
StackLeniency: 0.8
Mode: 0
LetterboxInBreaks: 0
WidescreenStoryboard: 0

[Editor]
Bookmarks: 80,11577,17325,23074,34571,40319,43193,46068,57565,69062,80559,92056,94930,106427,117924,129421,140918
DistanceSpacing: 1.3
BeatDivisor: 4
GridSize: 32
TimelineZoom: 1.5

[Metadata]
Title:Valkyrie Attack
TitleUnicode:Valkyrie Attack
Artist:Kurokotei
ArtistUnicode:黒皇帝
Creator:Shyotamaze
Version:Normal
Source:BMS
Tags:dialgadu77 Sayaka- Be-Music West artcore
BeatmapID:1364958
BeatmapSetID:643961

[Difficulty]
HPDrainRate:3
CircleSize:3.5
OverallDifficulty:3
ApproachRate:5
SliderMultiplier:1
SliderTickRate:1

[Events]
//Background and Video events
0,0,"Valkyrie.jpg",0,0
//Break Periods
2,46268,67742
//Storyboard Layer 0 (Background)
//Storyboard Layer 1 (Fail)
//Storyboard Layer 2 (Pass)
//Storyboard Layer 3 (Foreground)
//Storyboard Sound Samples

[TimingPoints]
80,359.281437125748,4,2,1,70,1,0
11577,-100,4,2,1,70,0,0
14271,-100,4,2,1,5,0,0
14451,-100,4,2,1,70,0,0
17145,-100,4,2,1,5,0,0
17325,-100,4,2,1,70,0,0
23074,-100,4,2,4,70,0,0
23792,-100,4,2,2,70,0,0
24511,-100,4,2,1,70,0,0
25229,-100,4,2,5,70,0,0
25948,-100,4,2,1,70,0,0
26127,-100,4,2,3,70,0,0
27385,-100,4,2,1,70,0,0
28822,-100,4,2,4,70,0,0
29541,-100,4,2,2,70,0,0
30259,-100,4,2,1,70,0,0
30978,-100,4,2,5,70,0,0
31696,-100,4,2,1,70,0,0
31876,-100,4,2,3,70,0,0
33133,-100,4,2,1,70,0,0
117924,-100,4,2,1,70,0,1
140918,-100,4,2,1,70,0,0

[Colours]
Combo1 : 239,78,78
Combo2 : 186,220,229
Combo3 : 46,106,179
Combo4 : 202,0,0

[HitObjects]
256,192,11577,5,0,3:0:0:0:
256,192,11756,1,0,3:0:0:0:
304,120,13014,22,2,B|368:40|368:40|400:136|400:136|336:216|336:216|293:205,1,350,2|2,0:0|0:0,0:0:0:0:
256,192,14451,37,0,3:0:0:0:
256,192,14631,1,0,3:0:0:0:
198,322,15888,22,2,B|177:222|177:222|101:155|101:155|193:121|193:121|234:162,1,350,2|2,0:0|0:0,0:0:0:0:
256,192,17325,5,4,3:2:0:0:
276,279,17684,2,0,B|286:328|286:328|324:362,1,100,8|0,0:0|0:0,0:0:0:0:
411,361,18403,1,8,0:0:0:0:
455,284,18762,2,0,B|445:235|445:235|408:202,2,100,2|8|0,3:2|0:0|0:0,0:0:0:0:
366,282,19840,1,8,0:0:0:0:
321,203,20199,6,0,B|332:154|332:154|371:122,2,100,2|8|0,3:2|0:0|3:0,0:0:0:0:
276,279,21277,1,8,3:2:0:0:
231,200,21636,1,2,3:2:0:0:
186,278,21996,1,8,0:0:0:0:
141,199,22355,2,0,P|98:256|110:329,1,150,0|0,3:0|3:0,0:0:0:0:
143,359,23074,6,0,B|205:374|205:374|237:358,1,100,0|2,0:0|0:0,0:0:0:0:
276,279,23792,1,10,0:0:0:0:
345,221,24151,1,2,0:0:0:0:
385,242,24331,1,2,0:0:0:0:
424,263,24511,22,0,L|497:247,2,75,8|8|8,0:3|0:3|0:3,0:0:0:0:
386,288,25229,2,0,B|323:301|323:301|267:345|267:345|204:359,1,200,10|2,0:0|3:2,0:0:0:0:
161,343,26127,38,0,L|111:353,1,50,2|2,0:0|0:0,0:0:0:0:
69,338,26487,2,0,L|19:348,1,50,2|10,0:0|0:0,0:0:0:0:
0,259,27026,1,2,0:0:0:0:
69,202,27385,22,0,L|53:129,2,75,8|8|8,0:3|0:3|0:3,0:0:0:0:
87,244,28103,2,2,B|185:222|185:222|226:248,1,150,10|0,0:0|0:0,0:0:0:0:
264,273,28822,6,0,B|326:259|326:259|348:230,1,100,0|2,0:0|0:0,0:0:0:0:
277,174,29541,1,10,0:0:0:0:
207,116,29900,1,2,0:0:0:0:
162,123,30080,1,2,0:0:0:0:
118,129,30260,22,0,L|54:88,2,75,8|8|8,0:3|0:3|0:3,0:0:0:0:
145,165,30978,2,0,B|199:198|199:198|237:259|237:259|291:293,1,200,10|2,0:0|3:2,0:0:0:0:
338,294,31876,38,0,L|381:320,1,50,2|2,0:0|0:0,0:0:0:0:
426,320,32236,2,0,L|469:346,1,50,2|10,0:0|0:0,0:0:0:0:
509,265,32774,1,2,0:0:0:0:
454,193,33133,22,0,L|492:128,2,75,8|8|8,0:3|0:3|0:3,0:0:0:0:
426,229,33852,2,2,B|339:177|339:177|292:189,1,150,10|0,0:0|0:0,0:0:0:0:
246,190,34571,38,0,L|297:104,1,100,2|0,3:2|3:0,0:0:0:0:
219,57,35289,2,0,L|168:143,1,100,8|0,3:2|3:0,0:0:0:0:
167,233,36008,2,0,L|116:319,1,100,0|0,3:0|3:0,0:0:0:0:
38,272,36726,2,0,L|89:186,1,100,10|2,3:2|3:2,0:0:0:0:
167,233,37445,6,0,L|253:284,1,100,2|0,3:2|3:0,0:0:0:0:
336,251,38163,2,0,L|387:165,1,100,8|0,3:2|3:0,0:0:0:0:
388,74,38882,2,0,L|302:23,1,100,0|0,3:0|3:0,0:0:0:0:
219,57,39600,2,0,L|168:143,1,100,10|0,3:2|3:0,0:0:0:0:
167,233,40319,38,0,P|142:229|118:218,1,50,2|0,3:2|3:0,0:0:0:0:
90,184,40678,1,8,3:2:0:0:
40,259,41038,2,0,P|49:282|51:308,1,50,0|0,3:0|3:0,0:0:0:0:
36,350,41397,1,8,3:2:0:0:
125,354,41756,2,0,P|140:334|162:319,1,50,0|0,3:0|3:0,0:0:0:0:
206,312,42115,1,8,3:2:0:0:
167,233,42475,2,0,P|142:229|118:218,1,50,10|0,3:2|3:0,0:0:0:0:
90,184,42834,1,10,3:2:0:0:
256,192,43193,12,4,46068,3:2:0:0:
273,279,69062,5,4,3:2:0:0:
358,250,69421,2,0,L|353:150,1,100,8|0,0:0|0:0,0:0:0:0:
345,60,70139,1,8,0:0:0:0:
260,89,70498,2,0,L|264:188,2,100,0|8|0,3:0|0:0|0:0,0:0:0:0:
193,30,71577,1,8,0:0:0:0:
175,118,71936,37,0,3:0:0:0:
260,89,72295,2,0,L|359:84,1,100,8|0,0:0|0:0,0:0:0:0:
445,55,73014,1,8,0:0:0:0:
427,143,73373,2,0,L|431:242,2,100,0|8|0,3:0|0:0|0:0,0:0:0:0:
445,55,74451,1,8,0:0:0:0:
360,84,74810,5,0,3:0:0:0:
275,113,75169,2,0,L|280:212,1,100,8|0,0:0|0:0,0:0:0:0:
347,273,75888,1,8,0:0:0:0:
431,242,76247,2,0,L|427:143,2,100,0|8|0,3:0|0:0|0:0,0:0:0:0:
498,303,77325,1,8,0:0:0:0:
413,334,77684,37,0,3:0:0:0:
347,273,78044,2,0,L|248:278,1,100,8|0,0:0|0:0,0:0:0:0:
181,217,78762,1,8,0:0:0:0:
267,190,79121,2,0,L|366:186,2,100,0|8|0,3:0|0:0|0:0,0:0:0:0:
200,129,80199,1,8,0:0:0:0:
181,217,80559,6,0,P|191:241|208:259,1,50,4|0,3:2|3:0,0:0:0:0:
248,278,80918,2,0,L|347:273,1,100,8|0,0:0|0:0,0:0:0:0:
433,246,81637,1,8,0:0:0:0:
366,186,81996,2,0,L|267:190,2,100,0|8|0,3:0|0:0|0:0,0:0:0:0:
451,158,83074,1,8,0:0:0:0:
433,246,83433,38,0,P|410:238|388:221,1,50,4|0,3:2|0:0,0:0:0:0:
366,186,83792,2,0,L|361:87,1,100,8|0,0:0|0:0,0:0:0:0:
379,0,84511,1,8,0:0:0:0:
447,57,84870,2,0,L|451:156,2,100,0|8|0,3:0|0:0|0:0,0:0:0:0:
379,0,85948,1,8,0:0:0:0:
361,86,86307,6,0,P|335:77|312:55,1,50,4|0,3:2|0:0,0:0:0:0:
293,26,86666,2,0,L|194:31,1,100,8|0,0:0|0:0,0:0:0:0:
108,62,87385,1,8,0:0:0:0:
176,120,87744,2,0,L|275:116,2,100,4|8|0,3:2|0:0|0:0,0:0:0:0:
91,151,88822,1,8,0:0:0:0:
159,208,89181,38,0,L|161:257,1,50,4|0,3:2|3:0,0:0:0:0:
163,303,89541,1,8,0:0:0:0:
78,334,89900,2,0,L|75:284,1,50,4|0,3:2|3:0,0:0:0:0:
74,239,90260,1,8,3:2:0:0:
91,151,90618,2,0,L|86:52,2,100,4|12|4,3:2|0:0|3:2,0:0:0:0:
74,239,91696,1,12,3:2:0:0:
159,208,92056,22,2,B|251:183|346:257|346:257|323:296|312:349|312:349|277:308|237:286|237:286|282:174|390:145,1,600,2|0,0:0|0:0,0:0:0:0:
419,136,94391,21,0,3:0:0:0:
419,136,94571,1,10,0:0:0:0:
481,201,94930,5,6,3:2:0:0:
507,115,95289,2,0,L|460:26,1,100,8|0,0:0|0:0,0:0:0:0:
376,58,96008,1,8,0:0:0:0:
419,136,96367,2,0,P|417:184|388:228,2,100,2|8|0,3:2|0:0|0:0,0:0:0:0:
331,157,97445,1,8,0:0:0:0:
243,178,97804,38,0,P|255:106|317:66,1,150,2|2,3:2|0:0,0:0:0:0:
331,157,98702,1,2,3:2:0:0:
307,243,99062,2,0,P|263:267|212:264,2,100,2|2|2,0:0|0:0|0:0,0:0:0:0:
393,220,100139,2,0,P|412:205|436:196,2,50,2|10|2,3:2|0:0|0:0,0:0:0:0:
394,264,100678,6,0,P|346:322|277:351,1,150,2|2,3:2|0:0,0:0:0:0:
145,322,101756,1,10,0:0:0:0:
215,265,102115,2,0,P|205:191|162:130,1,150,2|2,3:2|0:0,0:0:0:0:
29,136,103193,1,10,0:0:0:0:
97,190,103553,38,0,P|122:233|118:283,2,100,2|8|0,3:2|0:0|0:0,0:0:0:0:
35,255,104630,1,8,0:0:0:0:
52,343,104990,2,0,P|93:370|142:370,1,100,2|8,3:2|0:0,0:0:0:0:
207,304,105708,1,2,0:0:0:0:
289,341,106068,2,0,P|315:339|341:329,1,50,8|8,0:0|0:0,0:0:0:0:
370,300,106427,5,6,3:2:0:0:
458,318,106786,2,0,L|473:220,1,100,8|0,0:0|0:0,0:0:0:0:
419,150,107505,1,8,0:0:0:0:
329,161,107864,2,0,P|299:202|295:251,2,100,2|8|0,3:2|0:0|0:0,0:0:0:0:
419,150,108942,1,8,0:0:0:0:
473,220,109301,38,0,P|455:290|388:324,1,150,2|2,3:2|0:0,0:0:0:0:
386,234,110199,1,2,3:2:0:0:
419,149,110559,2,0,P|464:132|513:141,2,100,2|2|2,0:0|0:0|0:0,0:0:0:0:
330,163,111636,2,0,P|307:175|283:181,2,50,2|10|2,3:2|0:0|0:0,0:0:0:0:
335,117,112175,6,0,P|391:66|462:47,1,150,2|2,3:2|0:0,0:0:0:0:
511,172,113253,1,10,0:0:0:0:
421,180,113612,2,0,P|439:251|491:305,1,150,2|2,3:2|0:0,0:0:0:0:
511,172,114690,1,10,0:0:0:0:
460,97,115050,38,0,P|411:88|365:107,2,100,2|8|0,3:2|0:0|0:0,0:0:0:0:
421,180,116127,1,8,0:0:0:0:
330,191,116487,2,0,P|350:237|390:266,1,100,2|8,3:2|0:0,0:0:0:0:
445,339,117205,2,0,P|474:300|479:250,1,100,2|8,0:0|0:0,0:0:0:0:
421,180,117924,5,4,0:0:0:0:
390,266,118283,2,0,P|350:237|330:191,1,100,8|0,0:0|0:0,0:0:0:0:
366,106,119001,1,8,0:0:0:0:
277,118,119361,2,0,P|246:157|241:206,2,100,0|8|0,3:2|0:0|0:0,0:0:0:0:
366,106,120439,1,8,0:0:0:0:
331,192,120798,37,0,3:2:0:0:
298,276,121157,2,0,P|253:296|205:289,1,100,8|0,0:0|0:0,0:0:0:0:
152,215,121876,1,8,0:0:0:0:
61,217,122235,2,0,P|76:264|113:296,1,100,0|8,3:2|0:0,0:0:0:0:
199,190,123133,2,0,P|187:167|181:143,2,50,2|10|2,3:2|0:0|0:0,0:0:0:0:
241,206,123672,6,0,P|289:262|306:334,1,150,2|2,3:2|0:0,0:0:0:0:
175,372,124750,1,10,0:0:0:0:
204,288,125109,2,0,P|141:248|67:241,1,150,2|2,3:2|0:0,0:0:0:0:
1,359,126187,1,10,0:0:0:0:
86,330,126547,38,0,P|132:344|163:382,2,100,2|8|0,3:2|0:0|0:0,0:0:0:0:
1,359,127624,1,8,0:0:0:0:
19,269,127984,2,0,P|59:242|109:241,1,100,2|8,3:2|0:0,0:0:0:0:
174,306,128702,1,2,0:0:0:0:
195,217,129062,2,0,P|219:227|238:242,1,50,8|8,0:0|0:0,0:0:0:0:
261,282,129421,5,4,3:2:0:0:
237,368,129780,2,0,P|287:366|328:339,1,100,8|0,0:0|0:0,0:0:0:0:
345,251,130498,1,8,0:0:0:0:
425,214,130858,2,0,P|432:263|412:309,2,100,0|8|0,3:2|0:0|0:0,0:0:0:0:
353,160,131936,1,8,0:0:0:0:
345,251,132295,37,0,3:2:0:0:
425,214,132654,2,0,P|442:167|434:119,1,100,8|0,0:0|0:0,0:0:0:0:
358,69,133373,1,8,0:0:0:0:
277,110,133732,2,0,P|263:157|274:205,1,100,0|8,3:2|0:0,0:0:0:0:
401,252,134630,2,0,P|400:276|406:301,2,50,2|10|2,3:2|0:0|0:0,0:0:0:0:
425,214,135169,6,0,P|456:146|454:72,1,150,6|2,3:2|0:0,0:0:0:0:
353,160,136247,1,10,0:0:0:0:
344,249,136606,2,0,P|272:228|218:177,1,150,6|2,3:2|0:0,0:0:0:0:
353,160,137684,1,10,3:2:0:0:
425,213,138044,38,0,P|441:167|432:118,1,100,6|8,3:2|3:2,0:0:0:0:
444,28,138762,2,0,P|395:36|358:69,1,100,4|8,3:2|3:2,0:0:0:0:
275,105,139481,2,0,P|306:142|353:159,2,100,4|12|4,3:2|3:2|3:2,0:0:0:0:
284,15,140558,1,12,3:2:0:0:
202,53,140918,1,4,0:0:0:0:
