osu file format v14

[General]
AudioFilename: audio.mp3
AudioLeadIn: 0
PreviewTime: 94476
Countdown: 1
SampleSet: Soft
StackLeniency: 0.7
Mode: 0
LetterboxInBreaks: 0
WidescreenStoryboard: 1

[Editor]
Bookmarks: 34581,46078,57575,69072,89820,92066,140928
DistanceSpacing: 0.9
BeatDivisor: 4
GridSize: 4
TimelineZoom: 1

[Metadata]
Title:Valkyrie Attack
TitleUnicode:Valkyrie Attack
Artist:Kurokotei
ArtistUnicode:黒皇帝
Creator:BOUYAAA
Version:Normal
Source:BMS
Tags:dialgadu77 sayaka- be-music west artcore edm electro
BeatmapID:1370254
BeatmapSetID:646762

[Difficulty]
HPDrainRate:4
CircleSize:3
OverallDifficulty:4
ApproachRate:4
SliderMultiplier:0.999999999999999
SliderTickRate:1

[Events]
//Background and Video events
0,0,"valkyrie.png",0,0
//Break Periods
2,46263,56240
//Storyboard Layer 0 (Background)
//Storyboard Layer 1 (Fail)
//Storyboard Layer 2 (Pass)
//Storyboard Layer 3 (Foreground)
//Storyboard Sound Samples

[TimingPoints]
75,359.281437125748,4,2,1,67,1,0
75,-100,4,2,1,67,0,0
11572,-100,4,2,1,67,0,0
17320,-100,4,2,1,67,0,0
23069,-100,4,2,1,67,0,0
23787,-100,4,2,1,67,0,0
24146,-100,4,2,1,67,0,0
27021,-100,4,2,1,67,0,0
27380,-100,4,2,1,67,0,0
28098,-100,4,2,1,67,0,0
28817,-100,4,2,1,67,0,0
29536,-100,4,2,1,67,0,0
29895,-100,4,2,1,67,0,0
30973,-100,4,2,1,67,0,0
32769,-100,4,2,1,67,0,0
33128,-100,4,2,1,67,0,0
33847,-100,4,2,1,67,0,0
34566,-100,4,2,1,67,0,0
42470,-100,4,2,1,67,0,0
43907,-100,4,2,1,67,0,0
57560,-100,4,2,0,67,0,0
69057,-100,4,2,1,67,0,0
81991,-100,4,2,1,67,0,0
92051,-100,4,2,1,67,0,0
94925,-100,4,2,1,67,0,0
117919,-100,4,2,1,67,0,0
120793,-100,4,2,1,67,0,0
121152,-100,4,2,1,67,0,0
121512,-100,4,2,1,67,0,0
121871,-100,4,2,1,67,0,0
122230,-100,4,2,1,67,0,0
123667,-100,4,2,1,67,0,0

[Colours]
Combo1 : 254,154,95
Combo2 : 255,219,94
Combo3 : 198,192,121
Combo4 : 186,152,131

[HitObjects]
104,68,11572,6,0,L|114:143,1,50,4|4,2:3|2:3,0:0:0:0:
57,347,13009,2,0,B|141:338|141:338|171:319|171:319|205:340|205:340|243:346|243:346|279:369|279:369|304:343|304:343|379:335,1,350,0|0,0:0|0:0,0:0:0:0:
420,326,14446,6,0,L|410:251,1,50,4|4,0:3|0:3,0:0:0:0:
449,48,15883,2,0,B|364:56|364:56|334:75|334:75|300:54|300:54|262:48|262:48|226:25|226:25|201:51|201:51|127:60,1,350,0|0,0:0|0:0,0:0:0:0:
85,70,17320,6,0,P|61:116|86:176,1,99.9999999999999,6|8,0:0|0:0,0:0:0:0:
155,193,18039,2,0,L|260:195,1,99.9999999999999,0|8,0:0|0:0,0:0:0:0:
343,178,18757,2,0,P|395:202|445:190,1,99.9999999999999,2|8,0:0|0:0,0:0:0:0:
478,181,19296,2,0,L|467:290,1,99.9999999999999,0|2,0:0|0:0,0:0:0:0:
462,325,19835,1,8,0:0:0:0:
372,321,20194,6,0,B|342:303|342:303|270:314,1,99.9999999999999,2|8,0:0|0:0,0:0:0:0:
192,342,20913,2,0,B|162:360|162:360|90:349,1,99.9999999999999,2|8,0:0|0:0,0:0:0:0:
31,289,21631,2,0,L|23:232,1,50,2|2,0:0|0:0,0:0:0:0:
51,203,21991,2,0,L|56:145,1,50,10|2,0:0|0:0,0:0:0:0:
33,113,22350,2,0,B|51:82|51:82|120:69,1,99.9999999999999,2|10,0:0|0:0,0:0:0:0:
203,58,23069,6,0,B|249:64|249:64|274:79|274:79|298:69|298:69|356:73,1,150
391,77,23787,1,8,0:0:0:0:
461,132,24146,2,0,P|454:168|456:200,1,50,2|2,0:3|0:3,0:0:0:0:
419,210,24506,6,0,L|322:220,2,74.9999999999999,2|2|2,0:0|0:0|0:0,0:0:0:0:
450,242,25224,2,0,P|472:279|478:342,1,99.9999999999999,8|0,0:0|0:0,0:0:0:0:
396,370,25943,6,0,L|279:362,1,99.9999999999999,2|2,0:0|0:3,0:0:0:0:
271,325,26482,1,2,0:3:0:0:
245,288,26661,2,0,P|194:306|150:297,1,99.9999999999999,10|2,0:3|0:3,0:0:0:0:
66,263,27380,6,0,L|59:352,2,74.9999999999999,2|2|2,0:0|0:0|0:0,0:0:0:0:
71,218,28098,1,8,0:0:0:0:
136,52,28817,6,0,B|176:84|229:70|229:70|233:106|261:134,1,150,2|0,0:0|0:0,0:0:0:0:
292,132,29536,2,0,L|393:126,1,99.9999999999999,8|2,0:0|0:3,0:0:0:0:
476,92,30254,6,0,L|480:15,2,74.9999999999999,2|2|2,0:0|0:0|0:0,0:0:0:0:
500,128,30973,2,0,L|496:232,1,99.9999999999999,8|0,0:0|0:0,0:0:0:0:
468,312,31691,6,0,P|420:292|368:292,1,99.9999999999999,2|2,0:0|0:3,0:0:0:0:
340,324,32230,1,2,0:3:0:0:
312,360,32410,2,0,L|196:348,1,99.9999999999999,10|2,0:3|0:3,0:0:0:0:
132,312,33128,6,0,P|108:360|104:384,2,74.9999999999999,2|2|2,0:0|0:0|0:0,0:0:0:0:
160,276,33847,1,8,0:0:0:0:
180,96,34566,6,0,L|72:108,1,99.9999999999999,2|2,0:0|0:0,0:0:0:0:
36,28,35284,2,0,L|135:16,1,99.9999999999999,10|2,0:0|0:0,0:0:0:0:
224,12,36003,1,2,0:0:0:0:
308,44,36362,1,2,0:0:0:0:
392,12,36721,2,0,P|436:48|452:96,1,99.9999999999999,10|2,0:0|0:0,0:0:0:0:
408,168,37440,6,0,L|420:268,1,99.9999999999999,2|2,0:0|0:0,0:0:0:0:
388,352,38158,2,0,P|352:336|288:340,1,99.9999999999999,10|2,0:0|0:0,0:0:0:0:
208,372,38877,1,2,0:0:0:0:
120,352,39236,1,2,0:0:0:0:
64,280,39595,2,0,L|76:180,1,99.9999999999999,10|2,0:0|0:0,0:0:0:0:
124,104,40314,6,0,L|116:48,2,50,2|2|10,0:0|0:0|0:0,0:0:0:0:
173,179,41033,2,0,L|180:228,2,50,2|2|10,0:0|0:0|0:0,0:0:0:0:
224,104,41751,2,0,P|272:76|336:96,1,99.9999999999999,2|10,0:0|0:0,0:0:0:0:
400,112,42470,2,0,L|392:232,1,99.9999999999999,10|2,0:0|0:0,0:0:0:0:
332,280,43188,6,0,L|244:260,2,50,2|2|10,0:0|0:0|0:0,0:0:0:0:
412,324,43907,2,0,L|500:304,2,50,2|2|10,0:0|0:0|0:0,0:0:0:0:
332,368,44625,2,0,L|212:340,1,99.9999999999999,10|0,0:0|0:0,0:0:0:0:
148,324,45344,2,0,P|140:348|132:388,2,50,10|2|2,0:0|0:0|0:3,0:0:0:0:
132,236,46063,5,4,0:0:0:0:
424,128,57560,6,0,L|404:316,2,150,2|2|2,0:2|0:2|0:2,0:0:0:0:
364,60,58997,2,0,B|308:52|308:52|276:72|276:72|184:60,1,150,2|2,0:2|0:2,0:0:0:0:
31,187,60434,6,0,L|44:354,2,150,2|2|2,0:2|0:2|0:2,0:0:0:0:
120,201,61871,2,0,L|132:362,1,150,2|2,0:2|0:2,0:0:0:0:
219,368,62769,2,0,P|256:361|288:338,1,50,2|2,0:2|0:2,0:0:0:0:
343,308,63308,6,0,B|400:315|400:315|429:334|429:334|515:345,2,150,2|2|2,0:2|0:2|0:2,0:0:0:0:
369,221,64745,2,0,B|426:228|426:228|455:247|455:247|541:258,2,150,2|2|0,0:2|0:2|0:0,0:0:0:0:
282,196,66182,6,0,B|268:82|268:82|288:22,2,150,2|2|2,0:2|0:2|0:2,0:0:0:0:
193,213,67619,2,0,B|171:100|171:100|133:49,1,150,2|2,0:2|0:2,0:0:0:0:
65,104,68518,2,0,L|52:178,1,50,2|2,0:2|0:2,0:0:0:0:
37,241,69057,6,0,P|88:268|105:327,1,99.9999999999999,6|8,0:0|0:0,0:0:0:0:
113,348,69595,2,0,L|235:336,1,99.9999999999999,0|2,0:0|0:0,0:0:0:0:
257,333,70134,1,8,0:0:0:0:
328,278,70494,2,0,B|451:294|451:294|482:269,2,150,2|0|8,0:0|0:0|0:0,0:0:0:0:
241,251,71931,6,0,P|227:169|261:130,1,99.9999999999999,2|8,0:0|0:0,0:0:0:0:
271,135,72470,2,0,L|385:130,1,99.9999999999999,0|2,0:0|0:0,0:0:0:0:
415,127,73009,1,8,0:0:0:0:
404,37,73368,2,0,L|296:23,1,99.9999999999999,2|8,0:0|0:0,0:0:0:0:
264,44,73907,2,0,L|156:30,1,99.9999999999999,0|2,0:0|0:0,0:0:0:0:
121,43,74446,1,8,0:0:0:0:
120,132,74805,6,0,B|170:123|170:123|206:141|206:141|287:129,2,150,2|0|8,0:0|0:0|0:0,0:0:0:0:
46,184,76242,2,0,P|38:249|74:317,1,99.9999999999999,2|8,0:0|0:0,0:0:0:0:
81,310,76781,2,0,B|133:304|133:304|202:335,1,99.9999999999999,0|2,0:0|0:0,0:0:0:0:
208,354,77320,1,8,0:0:0:0:
263,282,77679,6,0,L|440:270,2,150,2|0|8,0:0|0:0|0:0,0:0:0:0:
198,219,79116,2,0,P|194:166|228:108,1,99.9999999999999,2|8,0:0|0:0,0:0:0:0:
257,117,79655,2,0,P|310:138|364:127,1,99.9999999999999,0|2,0:0|0:0,0:0:0:0:
389,107,80194,1,8,0:0:0:0:
411,19,80554,6,0,L|231:23,2,150,6|0|8,0:0|0:0|0:0,0:0:0:0:
491,58,81991,2,0,P|503:115|476:181,1,99.9999999999999,2|8,0:0|0:0,0:0:0:0:
462,187,82530,2,0,L|470:294,1,99.9999999999999,0|2,0:0|0:0,0:0:0:0:
474,330,83069,1,8,0:0:0:0:
387,306,83428,6,0,B|339:337|339:337|238:340,2,150,4|0|8,0:3|0:0|0:0,0:0:0:0:
354,221,84865,2,0,B|338:171|338:171|355:59,2,150,2|0|8,0:0|0:0|0:0,0:0:0:0:
269,252,86302,6,0,L|147:255,1,99.9999999999999,10|2,0:0|0:0,0:0:0:0:
123,254,86841,2,0,B|105:204|105:204|128:146,1,99.9999999999999,2|2,0:0|0:0,0:0:0:0:
156,130,87380,1,8,0:0:0:0:
131,43,87739,2,0,L|251:39,1,99.9999999999999,2|2,0:0|0:0,0:0:0:0:
269,62,88278,2,0,P|320:88|370:78,1,99.9999999999999,2|2,0:0|0:0,0:0:0:0:
395,53,88817,1,8,0:0:0:0:
472,98,89176,6,0,L|459:213,1,99.9999999999999,6|10,0:0|0:0,0:0:0:0:
399,263,89895,2,0,B|416:313|416:313|394:378,1,99.9999999999999,6|10,0:0|0:0,0:0:0:0:
323,312,90613,2,0,L|221:321,1,99.9999999999999,6|6,0:0|0:0,0:0:0:0:
144,364,91332,1,6,0:0:0:0:
58,335,91691,1,6,0:0:0:0:
45,245,92051,6,0,B|70:157|70:157|19:60|19:60|155:16|155:16|158:133|158:133|234:169|234:169|297:136,1,599.999999999999,4|0,0:0|0:0,0:0:0:0:
321,121,94386,1,2,0:0:0:0:
312,76,94566,1,8,0:0:0:0:
383,21,94925,6,0,P|436:21|478:52,1,99.9999999999999,6|8,0:0|0:0,0:0:0:0:
493,87,95464,2,0,L|470:195,1,99.9999999999999,0|2,0:0|0:0,0:0:0:0:
462,228,96003,1,8,0:0:0:0:
402,294,96362,2,0,P|329:287|299:303,1,99.9999999999999,2|8,0:0|0:0,0:0:0:0:
230,345,97080,2,0,P|181:356|134:341,1,99.9999999999999,0|8,0:0|0:0,0:0:0:0:
69,278,97799,6,0,L|75:168,1,99.9999999999999,2|8,0:0|0:0,0:0:0:0:
93,137,98338,2,0,B|129:111|129:111|196:121|196:121|240:98,1,150,0|8,0:0|0:0,0:0:0:0:
254,65,99057,1,2,0:3:0:0:
338,35,99416,1,2,0:3:0:0:
405,94,99775,1,2,0:3:0:0:
380,180,100134,2,0,L|431:212,2,50,2|8|0,0:0|0:0|0:0,0:0:0:0:
335,188,100673,6,0,P|303:230|307:293,1,99.9999999999999,2|8,0:0|0:0,0:0:0:0:
320,316,101212,2,0,L|155:327,1,150,0|8,0:0|0:0,0:0:0:0:
89,365,102110,2,0,P|80:312|108:266,1,99.9999999999999,2|8,0:0|0:0,0:0:0:0:
136,245,102649,2,0,L|125:81,1,150,0|8,0:0|0:0,0:0:0:0:
198,41,103548,6,0,B|244:65|244:65|293:55,1,99.9999999999999,2|8,0:0|0:0,0:0:0:0:
331,35,104086,2,0,B|443:48,1,99.9999999999999,0|2,0:0|0:0,0:0:0:0:
466,73,104625,1,8,0:0:0:0:
398,133,104985,2,0,B|372:180|372:180|388:229,1,99.9999999999999,2|8,0:0|0:0,0:0:0:0:
409,311,105703,2,0,P|357:337|313:332,1,99.9999999999999,0|8,0:0|0:0,0:0:0:0:
241,283,106422,6,0,L|130:289,1,99.9999999999999,6|8,0:0|0:0,0:0:0:0:
96,279,106961,2,0,P|65:233|82:183,1,99.9999999999999,0|2,0:0|0:0,0:0:0:0:
110,165,107500,1,8,0:0:0:0:
157,88,107859,2,0,L|266:97,1,99.9999999999999,2|8,0:0|0:0,0:0:0:0:
337,55,108577,2,0,P|347:110|317:160,1,99.9999999999999,0|8,0:0|0:0,0:0:0:0:
286,227,109296,6,0,L|386:236,1,99.9999999999999,2|8,0:0|0:0,0:0:0:0:
426,215,109835,2,0,P|473:274|446:348,1,150,0|8,0:0|0:0,0:0:0:0:
412,358,110554,1,2,0:3:0:0:
326,328,110913,1,2,0:3:0:0:
244,366,111272,1,2,0:3:0:0:
158,338,111631,2,0,L|93:343,2,50,2|8|0,0:0|0:0|0:0,0:0:0:0:
160,293,112170,6,0,B|162:245|162:245|118:203,1,99.9999999999999,2|8,0:0|0:0,0:0:0:0:
89,180,112709,2,0,P|59:116|101:40,1,150,0|8,0:0|0:0,0:0:0:0:
150,115,113607,2,0,L|253:121,1,99.9999999999999,2|8,0:0|0:0,0:0:0:0:
292,105,114146,2,0,B|322:61|322:61|420:52,1,150,0|8,0:0|0:0,0:0:0:0:
501,88,115045,6,0,P|515:138|494:186,1,99.9999999999999,2|8,0:0|0:0,0:0:0:0:
456,198,115583,2,0,L|460:302,1,99.9999999999999,0|2,0:0|0:0,0:0:0:0:
438,337,116122,1,8,0:0:0:0:
351,363,116482,1,2,0:0:0:0:
273,317,116841,2,0,L|182:323,2,74.9999999999999,8|8|8,0:0|0:0|0:0,0:0:0:0:
309,290,117560,2,0,P|318:250|316:220,1,50,8|8,0:0|0:0,0:0:0:0:
285,209,117919,6,0,L|289:108,1,99.9999999999999,6|8,0:0|0:0,0:0:0:0:
351,44,118637,2,0,P|304:22|238:35,1,99.9999999999999,0|8,0:0|0:0,0:0:0:0:
201,97,119356,2,0,L|88:84,1,99.9999999999999,2|8,0:0|0:0,0:0:0:0:
38,149,120074,2,0,P|80:165|116:210,1,99.9999999999999,0|8,0:0|0:0,0:0:0:0:
179,268,120793,6,0,L|165:376,2,99.9999999999999,2|8|0,0:0|0:0|0:0,0:0:0:0:
253,217,121871,1,8,0:0:0:0:
314,282,122230,2,0,P|375:299|419:279,1,99.9999999999999,2|8,0:0|0:0,0:0:0:0:
436,252,122769,2,0,L|431:131,1,99.9999999999999,0|2,0:0|0:0,0:0:0:0:
428,107,123308,1,8,0:0:0:0:
369,38,123667,6,0,B|328:70|328:70|265:64,1,99.9999999999999,2|8,0:0|0:0,0:0:0:0:
245,36,124206,2,0,P|196:30|150:52,1,99.9999999999999,0|2,0:0|0:0,0:0:0:0:
125,87,124745,1,8,0:0:0:0:
79,164,125104,2,0,L|86:267,1,99.9999999999999,2|8,0:0|0:0,0:0:0:0:
102,305,125643,2,0,P|159:293|198:312,1,99.9999999999999,0|2,0:0|0:0,0:0:0:0:
218,348,126182,1,8,0:0:0:0:
300,312,126542,6,0,L|417:305,1,99.9999999999999,2|8,0:0|0:0,0:0:0:0:
432,275,127080,2,0,P|444:232|425:179,1,99.9999999999999,0|2,0:0|0:0,0:0:0:0:
384,164,127619,1,8,0:0:0:0:
394,74,127979,2,0,L|504:71,2,99.9999999999999,2|8|0,0:0|0:0|0:0,0:0:0:0:
318,25,129057,2,0,L|287:81,1,50,8|8,0:0|0:0,0:0:0:0:
254,90,129416,6,0,P|201:91|158:67,1,99.9999999999999,6|8,0:0|0:0,0:0:0:0:
71,59,130134,2,0,L|83:172,1,99.9999999999999,0|8,0:0|0:0,0:0:0:0:
47,242,130853,2,0,P|103:273|128:322,1,99.9999999999999,2|8,0:0|0:0,0:0:0:0:
123,347,131392,1,0,0:0:0:0:
162,368,131572,2,0,L|274:362,1,99.9999999999999,0|8,0:0|0:0,0:0:0:0:
338,315,132290,6,0,P|388:333|438:324,1,99.9999999999999,2|8,0:0|0:0,0:0:0:0:
489,255,133009,2,0,L|496:150,1,99.9999999999999,0|8,0:0|0:0,0:0:0:0:
468,69,133727,2,0,B|432:51|432:51|352:59,1,99.9999999999999,2|8,0:0|0:0,0:0:0:0:
310,122,134446,1,0,0:0:0:0:
220,109,134805,1,8,0:0:0:0:
154,47,135164,6,0,L|51:54,1,99.9999999999999,6|8,0:0|0:0,0:0:0:0:
23,82,135703,2,0,P|7:124|25:179,1,99.9999999999999,2|2,0:0|0:0,0:0:0:0:
61,196,136242,1,8,0:0:0:0:
150,197,136601,2,0,P|181:242|172:304,1,99.9999999999999,6|8,0:0|0:0,0:0:0:0:
152,321,137140,2,0,L|261:317,1,99.9999999999999,2|2,0:0|0:0,0:0:0:0:
296,315,137679,1,8,0:0:0:0:
364,373,138039,6,0,P|387:323|371:270,1,99.9999999999999,6|10,0:0|0:0,0:0:0:0:
355,241,138577,1,2,0:0:0:0:
351,196,138757,2,0,L|364:83,1,99.9999999999999,6|10,0:0|0:0,0:0:0:0:
307,24,139476,1,6,0:0:0:0:
226,64,139835,2,0,B|198:47|198:47|141:44,2,74.9999999999999,14|12|14,0:0|0:0|0:0,0:0:0:0:
240,107,140554,2,0,L|245:162,2,50,8|8|6,0:0|0:0|0:0,0:0:0:0:
