osu file format v14

[General]
AudioFilename: audio.mp3
AudioLeadIn: 0
PreviewTime: 94476
Countdown: 1
SampleSet: Soft
StackLeniency: 0.7
Mode: 0
LetterboxInBreaks: 0
WidescreenStoryboard: 1

[Editor]
Bookmarks: 34581,46078,57575,69072,92066
DistanceSpacing: 0.7
BeatDivisor: 4
GridSize: 4
TimelineZoom: 1

[Metadata]
Title:Valkyrie Attack
TitleUnicode:Valkyrie Attack
Artist:Kurokotei
ArtistUnicode:黒皇帝
Creator:BOUYAAA
Version:Insane
Source:BMS
Tags:dialgadu77 sayaka- be-music west artcore edm electro
BeatmapID:1370253
BeatmapSetID:646762

[Difficulty]
HPDrainRate:6
CircleSize:4
OverallDifficulty:7
ApproachRate:9
SliderMultiplier:1.6
SliderTickRate:1

[Events]
//Background and Video events
0,0,"valkyrie.png",0,0
//Break Periods
2,46263,56960
//Storyboard Layer 0 (Background)
//Storyboard Layer 1 (Fail)
//Storyboard Layer 2 (Pass)
//Storyboard Layer 3 (Foreground)
//Storyboard Sound Samples

[TimingPoints]
75,359.281437125748,4,2,1,67,1,0
75,-142.857142857143,4,2,1,67,0,0
11572,-166.666666666667,4,2,1,67,0,0
17320,-90.9090909090909,4,2,1,67,0,0
23069,-125,4,2,1,67,0,0
23787,-83.3333333333333,4,2,1,67,0,0
24146,-100,4,2,1,67,0,0
27021,-125,4,2,1,67,0,0
27380,-100,4,2,1,67,0,0
28098,-166.666666666667,4,2,1,67,0,0
28817,-111.111111111111,4,2,1,67,0,0
29536,-83.3333333333333,4,2,1,67,0,0
29895,-100,4,2,1,67,0,0
30973,-100,4,2,1,67,0,0
32769,-125,4,2,1,67,0,0
33128,-100,4,2,1,67,0,0
33847,-166.666666666667,4,2,1,67,0,0
34566,-125,4,2,1,67,0,0
42470,-90.9090909090909,4,2,1,67,0,0
43188,-125,4,2,1,67,0,0
57560,-125,4,2,0,67,0,0
69057,-100,4,2,1,67,0,0
81991,-100,4,2,1,67,0,0
92051,-200,4,2,1,67,0,0
94386,-83.3333333333334,4,2,1,67,0,0
117919,-100,4,2,1,67,0,0
120793,-142.857142857143,4,2,1,67,0,0
121152,-125,4,2,1,67,0,0
121512,-111.111111111111,4,2,1,67,0,0
121871,-100,4,2,1,67,0,0
122230,-125,4,2,1,67,0,0
123667,-100,4,2,1,67,0,0
132290,-142.857142857143,4,2,1,67,0,0
132649,-125,4,2,1,67,0,0
133009,-111.111111111111,4,2,1,67,0,0
133368,-100,4,2,1,67,0,0

[Colours]
Combo1 : 254,154,95
Combo2 : 255,219,94
Combo3 : 198,192,121
Combo4 : 186,152,131

[HitObjects]
92,80,11572,6,0,L|96:144,1,47.9999985351563,4|4,2:3|2:3,0:0:0:0:
94,127,13009,6,0,B|43:150|43:150|143:166|143:166|163:190|163:190|263:206|263:206|223:230,1,335.999989746094,0|0,0:0|0:0,0:0:0:0:
420,304,14446,6,0,L|416:240,1,47.9999985351563,4|4,0:3|0:3,0:0:0:0:
418,257,15883,6,0,B|468:233|468:233|368:217|368:217|348:193|348:193|248:177|248:177|288:153,1,335.999989746094,0|0,0:0|0:0,0:0:0:0:
356,72,17320,6,0,P|320:48|252:52,1,88.000002685547,6|0,0:0|0:0,0:0:0:0:
256,56,17589,1,0,0:0:0:0:
236,68,17679,2,0,L|144:60,1,88.000002685547,8|0,0:0|0:0,0:0:0:0:
72,80,17949,2,0,B|40:112|40:112|44:180,1,88.000002685547,0|0,0:0|0:0,0:0:0:0:
56,176,18218,1,2,0:0:0:0:
188,216,18398,2,0,L|196:312,1,88.000002685547,8|0,0:0|0:0,0:0:0:0:
24,376,18757,6,0,P|68:332|132:344,1,132.00000402832,2|0,0:0|0:0,0:0:0:0:
144,368,19116,2,0,B|176:384|176:384|232:376,1,88.000002685547,8|0,0:0|0:0,0:0:0:0:
288,320,19386,2,0,L|380:336,1,88.000002685547,0|0,0:0|0:0,0:0:0:0:
392,348,19655,1,2,0:0:0:0:
488,252,19835,2,0,P|492:208|464:164,1,88.000002685547,8|0,0:0|0:0,0:0:0:0:
268,104,20194,6,0,L|252:8,1,88.000002685547,2|0,0:0|0:0,0:0:0:0:
369,182,20554,2,0,L|384:96,1,88.000002685547,8|0,0:0|0:0,0:0:0:0:
168,108,20913,2,0,P|136:156|148:208,1,88.000002685547,2|0,0:0|0:0,0:0:0:0:
278,260,21272,2,0,P|275:217|248:184,1,88.000002685547,8|0,0:0|0:0,0:0:0:0:
48,232,21631,5,2,0:0:0:0:
120,284,21811,1,2,0:0:0:0:
48,140,21991,2,0,L|64:24,1,88.000002685547,10|2,0:0|0:0,0:0:0:0:
168,16,22350,1,2,0:0:0:0:
188,28,22440,1,2,0:0:0:0:
208,32,22530,1,2,0:0:0:0:
228,32,22619,1,2,0:0:0:0:
248,24,22709,2,0,L|292:16,3,44.0000013427735,10|2|2|2,0:0|0:0|0:0|0:0,0:0:0:0:
256,104,23069,6,0,B|292:96|292:96|272:213|272:213|334:193,1,192,0|0,0:0|0:0,0:0:0:0:
388,144,23787,6,0,B|492:128|492:128|484:188,1,143.999995605469,8|0,0:0|0:0,0:0:0:0:
432,248,24146,1,2,0:3:0:0:
428,268,24236,1,2,0:3:0:0:
432,288,24326,1,2,0:3:0:0:
444,304,24416,1,2,0:3:0:0:
464,328,24506,6,0,B|404:324|404:324|376:348,1,80,2|0,0:0|0:0,0:0:0:0:
364,340,24775,2,0,B|348:352|348:352|288:348,1,80,2|0,0:0|0:0,0:0:0:0:
268,332,25045,1,2,0:0:0:0:
168,204,25224,2,0,L|-12:220,1,160,8|0,0:0|0:0,0:0:0:0:
172,8,25943,5,2,0:0:0:0:
312,32,26122,2,0,L|307:88,1,40,2|0,0:3|0:0,0:0:0:0:
234,70,26302,2,0,L|229:118,1,40,2|0,0:3|0:0,0:0:0:0:
325,107,26482,2,0,L|320:155,1,40,2|0,0:3|0:0,0:0:0:0:
240,196,26661,2,0,L|229:310,1,80,10|0,0:3|0:0,0:0:0:0:
320,236,27021,2,0,L|308:360,1,96,2|0,0:3|0:0,0:0:0:0:
456,356,27380,6,0,B|460:296|460:296|436:268,1,80,2|0,0:0|0:0,0:0:0:0:
444,256,27649,2,0,B|432:240|432:240|436:180,1,80,2|0,0:0|0:0,0:0:0:0:
452,160,27919,1,2,0:0:0:0:
488,44,28098,2,0,P|412:4|340:32,1,167.999994873047,8|0,0:0|0:0,0:0:0:0:
356,112,28817,6,0,B|308:120|276:96|261:58|261:58|244:96|244:96|200:76|152:112,1,251.999992309571,2|0,0:0|0:0,0:0:0:0:
104,168,29536,6,0,L|116:312,1,143.999995605469,8|0,0:0|0:0,0:0:0:0:
192,360,29895,1,2,0:3:0:0:
207,346,29985,1,2,0:3:0:0:
226,340,30074,1,2,0:3:0:0:
246,340,30164,1,2,0:3:0:0:
262,349,30254,6,0,B|322:345|322:345|350:369,1,80,2|0,0:0|0:0,0:0:0:0:
362,361,30523,2,0,B|378:373|378:373|438:369,1,80,2|0,0:0|0:0,0:0:0:0:
458,353,30793,1,2,0:0:0:0:
476,228,30973,2,0,B|449:151|449:151|401:232,1,160,8|0,0:0|0:0,0:0:0:0:
357,47,31691,5,2,0:0:0:0:
200,32,31871,2,0,L|205:88,1,40,2|0,0:3|0:0,0:0:0:0:
278,70,32051,2,0,L|283:118,1,40,2|0,0:3|0:0,0:0:0:0:
187,107,32231,2,0,L|192:155,1,40,2|0,0:3|0:0,0:0:0:0:
272,196,32410,2,0,L|283:310,1,80,10|0,0:3|0:0,0:0:0:0:
192,236,32770,2,0,L|204:360,1,96,2|0,0:3|0:0,0:0:0:0:
56,356,33128,6,0,B|52:296|52:296|76:268,1,80,2|0,0:0|0:0,0:0:0:0:
68,256,33397,2,0,B|80:240|80:240|76:180,1,80,2|0,0:0|0:0,0:0:0:0:
60,160,33667,1,2,0:0:0:0:
23,36,33847,6,0,L|203:46,1,167.999994873047,8|0,0:0|0:0,0:0:0:0:
219,118,34566,6,0,P|254:88|265:60,1,64,2|0,0:0|0:0,0:0:0:0:
327,125,34925,2,0,P|342:81|337:51,1,64,2|0,0:0|0:0,0:0:0:0:
472,126,35284,2,0,P|464:171|473:199,1,64,10|0,0:0|0:0,0:0:0:0:
385,191,35643,2,0,P|401:234|424:253,1,64,2|0,0:0|0:0,0:0:0:0:
449,343,36003,6,0,L|364:354,1,64,2|0,0:0|0:0,0:0:0:0:
293,331,36362,2,0,L|208:342,1,64,2|0,0:0|0:0,0:0:0:0:
31,253,36721,2,0,L|116:264,1,64,10|0,0:0|0:0,0:0:0:0:
187,241,37080,2,0,L|272:252,1,64,2|0,0:0|0:0,0:0:0:0:
451,157,37440,6,0,P|415:186|404:214,1,64,2|0,0:0|0:0,0:0:0:0:
343,150,37799,2,0,P|328:194|333:223,1,64,2|0,0:0|0:0,0:0:0:0:
198,149,38158,2,0,P|205:103|196:75,1,64,10|0,0:0|0:0,0:0:0:0:
285,84,38517,2,0,P|268:40|245:21,1,64,2|0,0:0|0:0,0:0:0:0:
60,30,38877,6,0,L|70:126,1,64,2|0,0:0|0:0,0:0:0:0:
122,195,39236,2,0,L|111:274,1,64,2|0,0:0|0:0,0:0:0:0:
271,365,39595,2,0,L|261:269,1,64,10|0,0:0|0:0,0:0:0:0:
209,200,39954,2,0,L|220:121,1,64,2|0,0:0|0:0,0:0:0:0:
362,108,40314,5,2,0:0:0:0:
346,33,40494,1,2,0:0:0:0:
427,164,40673,5,10,0:0:0:0:
443,89,40853,1,2,0:0:0:0:
363,268,41033,5,2,0:0:0:0:
347,193,41213,1,2,0:0:0:0:
428,324,41392,5,10,0:0:0:0:
444,249,41572,1,2,0:0:0:0:
291,322,41751,5,2,0:0:0:0:
291,322,41931,1,2,0:0:0:0:
444,249,42110,1,10,0:0:0:0:
444,249,42290,1,2,0:0:0:0:
273,226,42470,6,0,L|156:237,1,88.000002685547,10|2,0:0|0:0,0:0:0:0:
33,342,42829,2,0,L|150:353,1,88.000002685547,2|2,0:0|0:0,0:0:0:0:
130,175,43188,5,2,0:0:0:0:
111,163,43278,1,2,0:0:0:0:
89,158,43368,1,2,0:0:0:0:
66,159,43458,1,2,0:0:0:0:
46,170,43548,2,0,L|51:222,3,32,10|2|2|2,0:0|0:0|0:0|0:0,0:0:0:0:
138,80,43907,2,0,L|141:28,3,32,2|2|2|2,0:0|0:0|0:0|0:0,0:0:0:0:
224,163,44266,2,0,L|225:194,3,32,10|2|2|2,0:0|0:0|0:0|0:0,0:0:0:0:
300,52,44625,5,10,0:0:0:0:
314,44,44715,1,2,0:0:0:0:
329,41,44805,1,2,0:0:0:0:
345,41,44895,1,2,0:0:0:0:
359,48,44985,2,0,L|398:52,3,32,0|2|2|2,0:0|0:0|0:0|0:0,0:0:0:0:
349,162,45344,2,0,L|310:166,3,32,10|2|2|2,0:0|0:0|0:0|0:0,0:0:0:0:
437,223,45703,2,0,L|434:272,1,32,2|2,0:3|0:3,0:0:0:0:
361,323,45883,2,0,L|354:278,1,32,2|2,0:3|0:3,0:0:0:0:
267,260,46063,5,4,0:0:0:0:
132,68,57560,6,0,L|122:200,1,128,2|0,0:2|0:2,0:0:0:0:
55,246,58098,2,0,P|98:278|173:263,1,128,2|0,0:2|0:2,0:0:0:0:
222,194,58637,2,0,L|213:118,1,64,2|2,0:2|0:2,0:0:0:0:
338,23,58997,6,0,L|324:164,1,128,2|0,0:2|0:2,0:0:0:0:
311,228,59536,1,2,0:2:0:0:
311,228,60434,6,0,B|455:215|455:215|494:244,2,192,2|2|2,0:2|0:2|0:2,0:0:0:0:
205,228,61871,2,0,B|61:215|61:215|22:244,1,192,2|2,0:2|0:2,0:0:0:0:
142,321,62769,2,0,L|219:313,1,64,2|2,0:2|0:2,0:0:0:0:
233,142,63308,6,0,L|92:128,1,128,2|0,0:2|0:2,0:0:0:0:
33,170,63847,2,0,P|32:87|78:51,1,128,2|0,0:2|0:2,0:0:0:0:
143,42,64386,2,0,L|219:56,1,64,2|2,0:2|0:2,0:0:0:0:
335,25,64745,6,0,L|353:151,1,128,2|0,0:2|0:2,0:0:0:0:
367,230,65284,1,2,0:2:0:0:
306,356,66182,6,0,B|342:353|366:334|366:334|410:361|410:361|447:335|482:333,2,192,2|2|2,0:2|0:2|0:2,0:0:0:0:
206,356,67619,2,0,B|170:353|146:334|146:334|102:361|102:361|64:335|30:333,1,192,2|2,0:2|0:2,0:0:0:0:
89,216,68518,2,0,P|135:217|175:198,1,64,2|2,0:2|0:2,0:0:0:0:
247,21,69057,6,0,L|252:156,1,80,6|0,0:0|0:0,0:0:0:0:
250,118,69326,1,0,0:0:0:0:
250,138,69416,2,0,B|283:161|283:161|350:154,1,80,8|0,0:0|0:0,0:0:0:0:
394,120,69685,2,0,P|442:123|477:152,1,80,0|0,0:0|0:0,0:0:0:0:
473,158,69955,1,2,0:0:0:0:
411,272,70134,2,0,L|422:367,1,80,8|0,0:0|0:0,0:0:0:0:
298,253,70494,6,0,P|258:305|181:286,1,120,2|0,0:0|0:0,0:0:0:0:
189,297,70853,2,0,L|106:295,1,80,8|0,0:0|0:0,0:0:0:0:
41,253,71122,2,0,P|28:215|47:165,1,80,0|0,0:0|0:0,0:0:0:0:
56,170,71392,1,2,0:0:0:0:
129,82,71572,2,0,L|39:79,1,80,8|0,0:0|0:0,0:0:0:0:
164,174,71931,6,0,P|219:174|240:155,1,80,2|0,0:0|0:0,0:0:0:0:
240,139,72200,1,0,0:0:0:0:
239,118,72290,2,0,L|330:112,1,80,8|0,0:0|0:0,0:0:0:0:
371,51,72560,2,0,P|426:51|447:70,1,80,0|0,0:0|0:0,0:0:0:0:
449,85,72829,1,2,0:0:0:0:
379,180,73009,2,0,L|394:276,1,80,8|0,0:0|0:0,0:0:0:0:
274,368,73368,6,0,P|283:316|240:268,1,120,2|0,0:0|0:0,0:0:0:0:
216,262,73727,2,0,L|113:273,1,80,8|0,0:0|0:0,0:0:0:0:
68,326,73997,2,0,P|99:351|155:351,1,80,0|0,0:0|0:0,0:0:0:0:
160,349,74266,1,2,0:0:0:0:
65,213,74446,2,0,L|72:117,1,80,8|0,0:0|0:0,0:0:0:0:
162,33,74805,6,0,L|178:121,1,80,2|0,0:0|0:0,0:0:0:0:
191,125,75074,1,0,0:0:0:0:
208,133,75164,2,0,P|254:119|293:132,1,80,8|0,0:0|0:0,0:0:0:0:
344,179,75434,2,0,L|436:168,1,80,0|0,0:0|0:0,0:0:0:0:
437,154,75703,1,2,0:0:0:0:
376,33,75883,2,0,L|273:29,1,80,8|0,0:0|0:0,0:0:0:0:
253,201,76242,6,0,B|270:295|270:295|253:340,1,120,2|0,0:0|0:0,0:0:0:0:
253,340,76601,2,0,L|153:332,1,80,8|0,0:0|0:0,0:0:0:0:
93,358,76871,2,0,P|52:358|21:328,1,80,0|0,0:0|0:0,0:0:0:0:
20,313,77140,1,2,0:0:0:0:
129,222,77320,2,0,L|135:140,1,80,8|0,0:0|0:0,0:0:0:0:
29,35,77679,6,0,P|71:53|120:32,1,80,2|0,0:0|0:0,0:0:0:0:
120,34,77949,1,0,0:0:0:0:
135,20,78039,2,0,L|215:25,1,80,8|0,0:0|0:0,0:0:0:0:
268,88,78308,2,0,L|376:78,1,80,0|0,0:0|0:0,0:0:0:0:
359,63,78577,1,2,0:0:0:0:
479,142,78757,2,0,P|484:181|468:237,1,80,8|0,0:0|0:0,0:0:0:0:
270,210,79116,6,0,L|288:329,1,120,2|0,0:0|0:0,0:0:0:0:
302,342,79476,2,0,B|339:365|339:365|400:350,1,80,8|0,0:0|0:0,0:0:0:0:
454,329,79745,2,0,P|428:288|381:277,1,80,0|0,0:0|0:0,0:0:0:0:
373,275,80014,1,2,0:0:0:0:
222,359,80194,2,0,L|133:352,1,80,8|0,0:0|0:0,0:0:0:0:
13,230,80554,5,6,0:0:0:0:
99,267,80733,1,0,0:0:0:0:
99,267,80823,1,0,0:0:0:0:
99,267,80913,1,8,0:0:0:0:
144,153,81092,2,0,L|135:59,1,80,0|0,0:0|0:0,0:0:0:0:
203,2,81452,1,2,0:0:0:0:
300,108,81631,2,0,P|351:105|380:77,1,80,8|0,0:0|0:0,0:0:0:0:
479,220,81991,6,0,B|498:335|498:335|473:371,1,160,2|8,0:0|0:0,0:0:0:0:
348,323,82530,2,0,B|299:317|299:317|274:302|274:302|250:312|250:312|182:308,1,160,0|2,0:0|0:0,0:0:0:0:
68,299,83069,2,0,P|44:344|46:381,1,80,8|0,0:0|0:0,0:0:0:0:
114,204,83428,5,4,0:3:0:0:
11,213,83607,1,4,0:3:0:0:
54,122,83787,1,12,0:3:0:0:
215,225,83967,2,0,B|340:210|340:210|376:237,1,160,0|2,0:0|0:0,0:0:0:0:
499,197,84506,2,0,P|502:154|476:116,1,80,8|0,0:0|0:0,0:0:0:0:
338,55,84865,6,0,B|267:59|267:59|242:40|242:40|161:47,1,160,2|8,0:0|0:0,0:0:0:0:
80,132,85404,2,0,P|37:120|11:61,1,80,0|0,0:0|0:0,0:0:0:0:
94,42,85763,1,2,0:0:0:0:
176,151,85943,2,0,L|166:239,1,80,8|0,0:0|0:0,0:0:0:0:
57,361,86302,6,0,L|48:267,1,80,10|0,0:0|0:0,0:0:0:0:
47,260,86572,1,2,0:0:0:0:
46,240,86661,1,2,0:0:0:0:
151,327,86841,2,0,P|221:339|285:262,1,160,2|2,0:0|0:0,0:0:0:0:
374,245,87380,2,0,L|386:333,1,80,8|0,0:0|0:0,0:0:0:0:
282,186,87739,6,0,L|296:73,1,80,2|0,0:0|0:0,0:0:0:0:
297,87,88009,1,2,0:0:0:0:
300,67,88098,1,2,0:0:0:0:
379,16,88278,2,0,P|429:66|379:162,1,160,2|2,0:0|0:0,0:0:0:0:
207,81,88817,2,0,L|102:72,1,80,8|8,0:0|0:0,0:0:0:0:
31,217,89176,5,6,0:0:0:0:
94,148,89356,1,2,0:0:0:0:
65,299,89536,1,10,0:0:0:0:
130,233,89715,1,2,0:0:0:0:
290,289,89895,5,6,0:0:0:0:
225,223,90074,1,2,0:0:0:0:
254,374,90254,1,10,0:0:0:0:
191,305,90434,1,2,0:0:0:0:
326,197,90613,1,6,0:0:0:0:
345,198,90703,1,2,0:0:0:0:
365,199,90793,1,2,0:0:0:0:
385,200,90883,1,2,0:0:0:0:
405,201,90973,2,0,L|413:244,3,40,6|2|2|2,0:0|0:0|0:0|0:0,0:0:0:0:
470,124,91332,2,0,L|478:167,3,40,6|2|2|2,0:0|0:0|0:0|0:0,0:0:0:0:
387,48,91691,2,0,L|395:91,3,40,6|2|2|2,0:0|0:0|0:0|0:0,0:0:0:0:
294,32,92051,6,0,B|255:6|255:6|270:65|270:65|255:93|255:93|264:187|264:187|253:211|253:211|261:313|261:313|254:341|254:341|258:384|258:384|220:361,1,480,4|0,0:0|0:0,0:0:0:0:
150,305,94386,2,0,L|99:313,1,47.9999985351563,2|0,0:0|0:0,0:0:0:0:
16,212,94566,5,8,0:0:0:0:
50,229,94655,1,0,0:0:0:0:
88,228,94745,1,0,0:0:0:0:
120,208,94835,1,0,0:0:0:0:
139,174,94925,6,0,L|129:69,1,95.9999970703126,6|0,0:0|0:0,0:0:0:0:
129,64,95194,1,0,0:0:0:0:
128,49,95284,1,8,0:0:0:0:
251,110,95464,2,0,P|323:128|385:55,1,143.999995605469,0|0,0:0|0:0,0:0:0:0:
376,74,95823,1,2,0:0:0:0:
461,162,96003,2,0,L|448:273,1,95.9999970703126,8|0,0:0|0:0,0:0:0:0:
317,368,96362,6,0,P|281:337|311:238,1,143.999995605469,2|0,0:0|0:0,0:0:0:0:
319,247,96721,1,8,0:0:0:0:
215,199,96901,2,0,L|107:206,1,95.9999970703126,0|0,0:0|0:0,0:0:0:0:
32,255,97260,1,2,0:0:0:0:
2,102,97440,2,0,P|72:112|98:139,1,95.9999970703126,8|0,0:0|0:0,0:0:0:0:
234,114,97799,6,0,L|228:10,1,95.9999970703126,2|0,0:0|0:0,0:0:0:0:
294,177,98158,1,8,0:0:0:0:
353,60,98338,2,0,P|409:64|447:96,1,95.9999970703126,0|0,0:0|0:0,0:0:0:0:
480,170,98697,1,2,0:0:0:0:
512,44,98877,1,8,0:0:0:0:
373,150,99057,6,0,B|378:216|378:216|400:238,1,95.9999970703126,2|2,0:3|0:0,0:0:0:0:
503,334,99416,2,0,B|442:305|442:305|413:313,1,95.9999970703126,2|8,0:3|0:0,0:0:0:0:
267,358,99775,2,0,B|321:319|321:319|329:290,1,95.9999970703126,2|0,0:3|0:0,0:0:0:0:
275,199,100134,1,2,0:0:0:0:
181,311,100314,2,0,L|73:301,1,95.9999970703126,8|0,0:0|0:0,0:0:0:0:
25,184,100673,6,0,P|83:186|139:116,1,143.999995605469,2|0,0:0|0:0,0:0:0:0:
128,103,101033,1,8,0:0:0:0:
228,21,101212,2,0,B|352:10|352:10|381:26,1,143.999995605469,0|0,0:0|0:0,0:0:0:0:
371,43,101572,1,2,0:0:0:0:
371,167,101751,2,0,L|270:155,1,95.9999970703126,8|0,0:0|0:0,0:0:0:0:
426,241,102110,6,0,P|455:203|432:104,1,143.999995605469,2|0,0:0|0:0,0:0:0:0:
416,108,102470,1,8,0:0:0:0:
333,252,102649,2,0,L|351:351,1,95.9999970703126,0|0,0:0|0:0,0:0:0:0:
441,368,103009,1,2,0:0:0:0:
260,308,103188,2,0,B|218:288|218:288|154:306,1,95.9999970703126,8|0,0:0|0:0,0:0:0:0:
11,176,103548,6,0,P|98:169|143:212,1,143.999995605469,2|0,0:0|0:0,0:0:0:0:
129,225,103907,1,8,0:0:0:0:
250,186,104086,2,0,L|236:33,1,143.999995605469,0|0,0:0|0:0,0:0:0:0:
235,18,104446,1,2,0:0:0:0:
379,45,104625,2,0,L|370:150,1,95.9999970703126,8|0,0:0|0:0,0:0:0:0:
349,308,104985,6,0,P|404:332|477:293,1,143.999995605469,2|0,0:0|0:0,0:0:0:0:
480,264,105344,1,8,0:0:0:0:
322,226,105524,2,0,B|272:242|272:242|250:359,1,143.999995605469,0|0,0:0|0:0,0:0:0:0:
250,355,105883,1,2,0:0:0:0:
142,247,106063,1,8,0:0:0:0:
30,340,106242,1,8,0:0:0:0:
84,163,106422,6,0,L|75:63,1,95.9999970703126,6|0,0:0|0:0,0:0:0:0:
74,52,106691,1,0,0:0:0:0:
73,37,106781,1,8,0:0:0:0:
207,30,106961,2,0,P|226:78|327:77,1,143.999995605469,0|0,0:0|0:0,0:0:0:0:
326,73,107320,1,2,0:0:0:0:
211,179,107500,2,0,L|198:286,1,95.9999970703126,8|0,0:0|0:0,0:0:0:0:
309,359,107859,6,0,P|340:318|429:318,1,143.999995605469,2|0,0:0|0:0,0:0:0:0:
439,336,108218,1,8,0:0:0:0:
400,195,108398,2,0,L|407:93,1,95.9999970703126,0|0,0:0|0:0,0:0:0:0:
464,37,108757,1,2,0:0:0:0:
285,29,108937,2,0,B|276:79|276:79|313:133,1,95.9999970703126,8|0,0:0|0:0,0:0:0:0:
304,231,109296,6,0,L|176:238,1,95.9999970703126,2|0,0:0|0:0,0:0:0:0:
188,250,109566,1,0,0:0:0:0:
168,263,109655,1,8,0:0:0:0:
60,300,109835,2,0,P|11:266|18:175,1,143.999995605469,0|0,0:0|0:0,0:0:0:0:
31,178,110194,1,2,0:0:0:0:
52,56,110374,1,8,0:0:0:0:
176,121,110554,6,0,P|235:128|274:94,1,95.9999970703126,2|2,0:3|0:0,0:0:0:0:
375,6,110913,2,0,P|339:53|349:104,1,95.9999970703126,2|8,0:3|0:0,0:0:0:0:
377,234,111272,2,0,P|353:179|304:162,1,95.9999970703126,2|0,0:3|0:0,0:0:0:0:
213,229,111631,1,2,0:0:0:0:
349,332,111811,2,0,L|456:323,1,95.9999970703126,8|0,0:0|0:0,0:0:0:0:
266,370,112170,6,0,B|235:324|235:324|132:308,1,143.999995605469,2|0,0:0|0:0,0:0:0:0:
131,317,112530,1,8,0:0:0:0:
44,227,112709,2,0,P|53:174|135:153,1,143.999995605469,0|0,0:0|0:0,0:0:0:0:
148,169,113069,1,2,0:0:0:0:
258,99,113248,2,0,L|247:-1,1,95.9999970703126,8|0,0:0|0:0,0:0:0:0:
451,78,113607,6,0,P|382:83|346:154,1,143.999995605469,2|0,0:0|0:0,0:0:0:0:
350,164,113967,1,8,0:0:0:0:
459,249,114146,2,0,B|474:352|474:352|430:384,1,143.999995605469,0|0,0:0|0:0,0:0:0:0:
417,377,114506,1,2,0:0:0:0:
296,262,114685,2,0,L|174:256,1,95.9999970703126,8|0,0:0|0:0,0:0:0:0:
16,351,115045,6,0,P|75:370|123:337,1,95.9999970703126,2|0,0:0|0:0,0:0:0:0:
120,340,115314,1,0,0:0:0:0:
129,317,115404,1,8,0:0:0:0:
58,212,115583,2,0,L|67:90,1,95.9999970703126,0|0,0:0|0:0,0:0:0:0:
26,33,115943,1,2,0:0:0:0:
154,150,116122,2,0,P|225:145|248:116,1,95.9999970703126,8|0,0:0|0:0,0:0:0:0:
313,13,116482,6,0,P|374:16|410:51,1,95.9999970703126,2|0,0:0|0:0,0:0:0:0:
443,146,116841,2,0,L|433:258,1,95.9999970703126,8|0,0:0|0:0,0:0:0:0:
404,244,117110,2,0,L|415:349,1,95.9999970703126,8|0,0:0|0:0,0:0:0:0:
492,368,117380,1,8,0:0:0:0:
324,301,117560,1,8,0:0:0:0:
300,306,117649,1,8,0:0:0:0:
276,311,117739,1,8,0:0:0:0:
252,317,117829,1,8,0:0:0:0:
223,326,117919,6,0,P|187:307|125:323,1,80,6|0,0:0|0:0,0:0:0:0:
80,356,118188,1,0,0:0:0:0:
80,356,118278,2,0,L|68:252,1,80,8|0,0:0|0:0,0:0:0:0:
50,153,118637,1,0,0:0:0:0:
50,153,118727,1,0,0:0:0:0:
50,153,118817,2,0,L|57:102,1,40,2|0,0:0|0:0,0:0:0:0:
138,57,118997,1,8,0:0:0:0:
138,57,119087,1,0,0:0:0:0:
138,57,119177,2,0,L|145:108,1,40,0|0,0:0|0:0,0:0:0:0:
228,147,119356,6,0,P|286:154|317:123,1,80,2|0,0:0|0:0,0:0:0:0:
315,128,119625,1,0,0:0:0:0:
327,112,119715,2,0,L|417:120,1,80,8|0,0:0|0:0,0:0:0:0:
511,202,120074,1,0,0:0:0:0:
511,202,120164,1,0,0:0:0:0:
511,202,120254,2,0,L|436:210,1,40,2|0,0:0|0:0,0:0:0:0:
370,262,120434,1,8,0:0:0:0:
370,262,120524,1,0,0:0:0:0:
370,262,120614,2,0,L|445:270,1,40,0|0,0:0|0:0,0:0:0:0:
498,350,120793,6,0,L|452:358,3,27.9999991455078,2|0|0|0,0:0|0:0|0:0|0:0,0:0:0:0:
380,347,121152,2,0,L|325:355,3,32,8|0|0|0,0:0|0:0|0:0|0:0,0:0:0:0:
268,337,121512,2,0,L|215:344,3,35.9999989013672,0|0|2|0,0:0|0:0|0:0|0:0,0:0:0:0:
151,327,121871,2,0,L|97:335,3,40,8|0|0|0,0:0|0:0|0:0|0:0,0:0:0:0:
38,287,122230,5,2,0:0:0:0:
27,263,122320,1,0,0:0:0:0:
28,237,122410,1,0,0:0:0:0:
38,213,122500,1,0,0:0:0:0:
56,195,122589,2,0,L|50:138,3,32,8|0|0|0,0:0|0:0|0:0|0:0,0:0:0:0:
149,204,122949,2,0,L|145:235,3,32,0|0|2|0,0:0|0:0|0:0|0:0,0:0:0:0:
232,188,123308,1,8,0:0:0:0:
243,164,123398,1,0,0:0:0:0:
242,138,123488,1,0,0:0:0:0:
232,114,123578,1,0,0:0:0:0:
211,95,123667,6,0,L|316:90,1,80,2|0,0:0|0:0,0:0:0:0:
310,84,123937,1,0,0:0:0:0:
327,75,124027,2,0,P|382:87|423:73,1,80,8|0,0:0|0:0,0:0:0:0:
489,141,124386,2,0,L|480:192,2,40,0|0|2,0:0|0:0|0:0,0:0:0:0:
384,189,124745,2,0,L|396:270,1,80,8|0,0:0|0:0,0:0:0:0:
326,374,125104,6,0,P|258:367|231:333,1,80,2|0,0:0|0:0,0:0:0:0:
236,347,125374,1,0,0:0:0:0:
226,329,125464,2,0,L|233:219,1,80,8|0,0:0|0:0,0:0:0:0:
219,143,125823,2,0,P|168:138|131:165,1,80,0|2,0:0|0:0,0:0:0:0:
92,275,126182,1,8,0:0:0:0:
72,277,126272,1,0,0:0:0:0:
51,274,126362,1,0,0:0:0:0:
33,264,126452,1,0,0:0:0:0:
20,247,126542,6,0,L|30:141,1,80,2|0,0:0|0:0,0:0:0:0:
66,50,126901,1,8,0:0:0:0:
84,57,126991,1,0,0:0:0:0:
103,58,127080,1,0,0:0:0:0:
122,52,127170,1,0,0:0:0:0:
139,42,127260,2,0,L|222:40,1,80,0|2,0:0|0:0,0:0:0:0:
373,43,127619,1,8,0:0:0:0:
400,44,127709,1,0,0:0:0:0:
425,56,127799,1,0,0:0:0:0:
440,79,127888,1,0,0:0:0:0:
441,107,127979,6,0,L|434:150,3,40,2|0|0|0,0:0|0:0|0:0|0:0,0:0:0:0:
360,188,128338,2,0,L|367:231,3,40,8|0|0|0,0:0|0:0|0:0|0:0,0:0:0:0:
325,300,128697,2,0,L|357:343,3,40,0|0|2|0,0:0|0:0|0:0|0:0,0:0:0:0:
250,349,129057,2,0,L|190:355,1,40,8|0,0:0|0:0,0:0:0:0:
141,314,129236,2,0,L|98:319,1,40,8|0,0:0|0:0,0:0:0:0:
66,222,129416,6,0,P|85:186|69:124,1,80,6|0,0:0|0:0,0:0:0:0:
36,79,129685,1,0,0:0:0:0:
36,79,129775,2,0,L|140:67,1,80,8|0,0:0|0:0,0:0:0:0:
200,26,130134,1,0,0:0:0:0:
200,26,130224,1,0,0:0:0:0:
200,26,130314,2,0,L|251:33,1,40,2|0,0:0|0:0,0:0:0:0:
296,114,130494,1,8,0:0:0:0:
296,114,130584,1,0,0:0:0:0:
296,114,130674,2,0,L|245:121,1,40,0|0,0:0|0:0,0:0:0:0:
201,181,130853,6,0,P|194:239|225:270,1,80,2|0,0:0|0:0,0:0:0:0:
220,268,131122,1,0,0:0:0:0:
236,280,131212,2,0,L|228:370,1,80,8|0,0:0|0:0,0:0:0:0:
388,378,131571,1,0,0:0:0:0:
388,378,131661,1,0,0:0:0:0:
388,378,131751,2,0,L|380:303,1,40,2|0,0:0|0:0,0:0:0:0:
328,237,131931,1,8,0:0:0:0:
328,237,132021,1,0,0:0:0:0:
328,237,132111,2,0,L|320:312,1,40,0|0,0:0|0:0,0:0:0:0:
478,347,132290,6,0,L|471:310,3,27.9999991455078,2|0|0|0,0:0|0:0|0:0|0:0,0:0:0:0:
501,239,132649,2,0,L|492:180,3,32,8|0|0|0,0:0|0:0|0:0|0:0,0:0:0:0:
428,158,133009,2,0,L|420:106,3,35.9999989013672,0|0|2|0,0:0|0:0|0:0|0:0,0:0:0:0:
471,51,133368,2,0,L|463:-3,3,40,8|0|0|0,0:0|0:0|0:0|0:0,0:0:0:0:
378,42,133727,5,2,0:0:0:0:
354,31,133817,1,0,0:0:0:0:
328,32,133907,1,0,0:0:0:0:
304,42,133997,1,0,0:0:0:0:
286,60,134086,2,0,L|227:55,3,40,8|0|0|0,0:0|0:0|0:0|0:0,0:0:0:0:
302,150,134446,2,0,L|342:147,3,40,0|0|2|0,0:0|0:0|0:0|0:0,0:0:0:0:
275,233,134805,1,8,0:0:0:0:
251,244,134895,1,0,0:0:0:0:
225,243,134985,1,0,0:0:0:0:
201,233,135075,1,0,0:0:0:0:
182,212,135164,6,0,L|177:317,1,80,6|0,0:0|0:0,0:0:0:0:
177,312,135434,1,2,0:0:0:0:
177,332,135524,1,8,0:0:0:0:
69,348,135703,2,0,L|64:186,1,160,2|2,0:0|0:0,0:0:0:0:
89,80,136242,1,8,0:0:0:0:
108,84,136332,1,0,0:0:0:0:
128,82,136422,1,2,0:0:0:0:
146,74,136512,1,0,0:0:0:0:
162,62,136601,6,0,L|248:68,1,80,6|0,0:0|0:0,0:0:0:0:
259,76,136871,1,2,0:0:0:0:
277,84,136961,1,8,0:0:0:0:
388,49,137140,2,0,P|437:60|456:171,1,160,2|2,0:0|0:0,0:0:0:0:
404,234,137679,2,0,L|411:282,3,40,8|0|0|0,0:0|0:0|0:0|0:0,0:0:0:0:
303,187,138039,6,0,L|293:303,1,80,6|2,0:0|0:0,0:0:0:0:
215,353,138398,1,10,0:0:0:0:
199,339,138488,1,0,0:0:0:0:
181,330,138577,1,2,0:0:0:0:
161,328,138667,1,0,0:0:0:0:
141,332,138757,2,0,L|40:339,1,80,6|2,0:0|0:0,0:0:0:0:
28,230,139116,2,0,L|80:236,3,40,10|0|2|0,0:0|0:0|0:0|0:0,0:0:0:0:
126,151,139476,6,0,L|213:143,1,80,6|2,0:0|0:0,0:0:0:0:
220,20,139835,2,0,L|307:28,1,80,14|2,0:0|0:0,0:0:0:0:
327,47,140104,2,0,P|300:92|314:138,1,80,12|2,0:0|0:0,0:0:0:0:
324,139,140374,1,14,0:0:0:0:
442,179,140554,1,8,0:0:0:0:
439,198,140643,1,8,0:0:0:0:
435,217,140733,1,8,0:0:0:0:
431,236,140823,1,8,0:0:0:0:
427,261,140913,5,6,0:0:0:0:
