osu file format v14

[General]
AudioFilename: audio.mp3
AudioLeadIn: 0
PreviewTime: 87817
Countdown: 0
SampleSet: Normal
StackLeniency: 0.7
Mode: 1
LetterboxInBreaks: 0
WidescreenStoryboard: 0

[Editor]
DistanceSpacing: 0.9
BeatDivisor: 4
GridSize: 32
TimelineZoom: 2.799999

[Metadata]
Title:Serphut (Cut Ver.)
TitleUnicode:Serphut (Cut Ver.)
Artist:Kurokotei
ArtistUnicode:黒皇帝
Creator:Nifty
Version:sparkle
Source:
Tags:breakcore hardcore juke footwork footcore dialgadu77 taiko world cup 2021 TWC2021 tech electronic instrumental sparkle paris n-qia like a little bird artifakt serph remix sf semifinals hr1
BeatmapID:3587178
BeatmapSetID:1408888

[Difficulty]
HPDrainRate:6
CircleSize:2
OverallDifficulty:6.5
ApproachRate:10
SliderMultiplier:1.4
SliderTickRate:1

[Events]
//Background and Video events
0,0,"bleu.jpg",0,-20
//Break Periods
//Storyboard Layer 0 (Background)
//Storyboard Layer 1 (Fail)
//Storyboard Layer 2 (Pass)
//Storyboard Layer 3 (Foreground)
//Storyboard Layer 4 (Overlay)
//Storyboard Sound Samples

[TimingPoints]
132,342.857142857143,4,1,0,50,1,0
132,-125,4,1,0,50,0,0
10332,-121.951219512195,4,1,0,50,0,0
10417,-119.047619047619,4,1,0,50,0,0
10503,-116.279069767442,4,1,0,50,0,0
10589,-113.636363636364,4,1,0,50,0,0
10674,-111.111111111111,4,1,0,50,0,0
10760,-108.695652173913,4,1,0,50,0,0
10803,-107.52688172043,4,1,0,50,0,0
10846,-106.382978723404,4,1,0,50,0,0
10932,-104.166666666667,4,1,0,50,0,0
11017,-102.040816326531,4,1,0,50,0,0
11103,-100,4,1,0,60,0,0
11189,-111.111111111111,4,1,0,60,0,0
19674,-106.666666666667,4,1,0,60,0,0
20017,-102.564102564103,4,1,0,60,0,0
20189,-100.623867981485,4,1,0,60,0,0
20274,-99.6909580301067,4,1,0,60,0,0
20360,-98.7654320987654,4,1,0,60,0,0
20446,-97.8569331637147,4,1,0,60,0,0
20532,-96.9649956365752,4,1,0,60,0,0
20703,-95.2380952380953,4,1,0,70,0,0
20874,-93.562874251497,4,1,0,70,0,0
20932,-93.0232558139535,4,1,0,70,0,0
20989,-92.4812725423102,4,1,0,70,0,0
21046,-91.9540229885058,4,1,0,70,0,0
21217,-90.3913947392208,4,1,0,70,0,0
21303,-89.6378630333453,4,1,0,70,0,0
21389,-88.8888888888889,4,1,0,70,0,0
21474,-88.1523272214387,4,1,0,70,0,0
21560,-87.4278720055954,4,1,0,70,0,0
21646,-86.7227473766369,4,1,0,70,0,0
21732,-86.0215053763441,4,1,0,70,0,0
21774,-85.6751199451679,4,1,0,70,0,0
21817,-85.3315129277242,4,1,0,70,0,0
21903,-84.6525014814188,4,1,0,70,0,0
21989,-83.9912649084495,4,1,0,70,0,0
22074,-83.3333333333333,4,1,0,70,0,0
22246,-125,4,1,0,50,0,0
23446,-133.333333333333,4,1,0,50,0,0
23532,-125,4,1,0,50,0,0
24132,-142.857142857143,4,1,0,50,0,0
24474,-133.333333333333,4,1,0,50,0,0
24589,-130.429111777749,4,1,0,50,0,0
24703,-127.665007021575,4,1,0,50,0,0
24817,-125,4,1,0,50,0,0
26167,-133.333333333333,4,1,0,50,0,0
26253,-125,4,1,0,50,0,0
26874,-142.857142857143,4,1,0,50,0,0
27217,-133.422281521014,4,1,0,50,0,0
27332,-130.548302872063,4,1,0,50,0,0
27389,-129.165590286748,4,1,0,50,0,0
27446,-127.79552715655,4,1,0,50,0,0
27560,-125.156445556946,4,1,0,50,0,0
28910,-133.333333333333,4,1,0,50,0,0
28996,-125,4,1,0,50,0,0
29617,-142.857142857143,4,1,0,50,0,0
29960,-133.422281521014,4,1,0,50,0,0
30074,-130.548302872063,4,1,0,50,0,0
30189,-127.79552715655,4,1,0,50,0,0
30303,-125.156445556946,4,1,0,50,0,0
31674,-125,4,1,0,60,0,0
32017,-117.68859597505,4,1,0,60,0,0
32189,-114.337983077978,4,1,0,60,0,0
32360,-111.172873818788,4,1,0,60,0,0
32446,-109.661147055598,4,1,0,60,0,0
32532,-108.178277801817,4,1,0,60,0,0
32617,-106.746370623399,4,1,0,60,0,0
32703,-105.35187526338,4,1,0,60,0,0
32817,-103.54110581901,4,1,0,60,0,0
32932,-101.791530944625,4,1,0,60,0,0
33046,-100.1001001001,4,1,0,70,0,0
41274,-100,4,1,0,70,0,0
41446,-99.3838203140529,4,1,0,70,0,0
41617,-98.7654320987654,4,1,0,70,0,0
41789,-98.1643270835378,4,1,0,70,0,0
41960,-97.5704946824081,4,1,0,70,0,0
42132,-96.9743987587277,4,1,0,70,0,0
42217,-96.6837474620516,4,1,0,70,0,0
42303,-96.3948332369385,4,1,0,70,0,0
42389,-96.1076405574243,4,1,0,70,0,0
42474,-95.8221540820238,4,1,0,70,0,0
42646,-95.2471663967997,4,1,0,70,0,0
42817,-94.6880030300161,4,1,0,70,0,0
42903,-94.4108761329305,4,1,0,70,0,0
42989,-94.1353666572531,4,1,0,70,0,0
43160,-93.5803855511885,4,1,0,70,0,0
43246,-93.3096948772978,4,1,0,70,0,0
43417,-92.7729845069116,4,1,0,70,0,0
43503,-92.5069380203515,4,1,0,70,0,0
43589,-92.2339051835455,4,1,0,70,0,0
43674,-91.9709371838499,4,1,0,70,0,0
43732,-91.7936478795667,4,1,0,70,0,0
43789,-91.6254352208173,4,1,0,70,0,0
43903,-91.2741876597298,4,1,0,70,0,0
44017,-90.9338910611985,4,1,0,80,0,0
53617,-90.9090909090909,4,1,0,80,0,0
53703,-91.424392027793,4,1,0,80,0,0
53789,-91.9455682236116,4,1,0,80,0,0
53874,-92.4812725423102,4,1,0,80,0,0
53960,-93.014603292717,4,1,0,80,0,0
54046,-93.5541210590327,4,1,0,80,0,0
54132,-94.0999341300461,4,1,0,80,0,0
54217,-94.6521533364884,4,1,0,80,0,0
54303,-95.2108921260592,4,1,0,80,0,0
54346,-95.4927425515661,4,1,0,80,0,0
54389,-95.7854406130268,4,1,0,80,0,0
54474,-96.3576797070727,4,1,0,80,0,0
54560,-96.9367972082203,4,1,0,80,0,0
54646,-97.5229178857032,4,1,0,80,0,0
54732,-98.116169544741,4,1,0,80,0,0
54817,-98.7166831194472,4,1,0,80,0,0
54903,-99.3344591238701,4,1,0,80,0,0
54989,-99.9500249875063,4,1,0,80,0,0
55674,-90.9090909090909,4,1,0,80,0,0
55846,-97.4848898420745,4,1,0,80,0,0
56017,-105.097214923805,4,1,0,80,0,0
56189,-113.986093696569,4,1,0,80,0,0
56360,-124.517494708006,4,1,0,80,0,0
56532,-121.212121212121,4,1,0,80,0,0
56703,-117.647058823529,4,1,0,80,0,0
56874,-114.285714285714,4,1,0,80,0,0
56960,-112.676056338028,4,1,0,80,0,0
57046,-111.111111111111,4,1,0,80,0,0
57132,-109.58904109589,4,1,0,80,0,0
57217,-108.108108108108,4,1,0,80,0,0
57389,-105.263157894737,4,1,0,80,0,0
57474,-103.896103896104,4,1,0,80,0,0
57560,-102.564102564103,4,1,0,80,0,0
57646,-101.26582278481,4,1,0,80,0,0
57732,-100,4,1,0,80,0,0
57817,-98.7654320987654,4,1,0,80,0,0
57903,-97.5609756097561,4,1,0,80,0,0
58074,-95.2380952380953,4,1,0,80,0,0
58246,-93.0232558139535,4,1,0,80,0,0
58332,-91.9540229885058,4,1,0,80,0,0
58417,-90.9090909090909,4,1,0,80,0,0
58932,-125,4,1,0,80,0,0
59103,-120.365912373616,4,1,0,80,0,0
59274,-116.076610562972,4,1,0,80,0,0
59446,-112.069931637342,4,1,0,80,0,0
59617,-108.330625067707,4,1,0,80,0,0
59703,-106.553010122536,4,1,0,80,0,0
59874,-103.177878662815,4,1,0,80,0,0
59960,-101.564086938858,4,1,0,80,0,0
60132,-98.4833563127832,4,1,0,80,0,0
60217,-97.012029491657,4,1,0,80,0,0
60303,-95.5840183521315,4,1,0,80,0,0
60389,-94.2063118228921,4,1,0,80,0,0
60474,-92.8591326957006,4,1,0,80,0,0
60646,-90.2771508531191,4,1,0,80,0,0
60732,-89.0392663164455,4,1,0,80,0,0
60817,-87.8348704435661,4,1,0,80,0,0
60989,-85.5285665412248,4,1,0,80,0,0
61160,-83.3333333333333,4,1,0,80,0,0
61674,-125,4,1,0,80,0,0
61846,-121.432908318154,4,1,0,80,0,0
62017,-118.077695123391,4,1,0,80,0,0
62103,-116.455106556422,4,1,0,80,0,0
62189,-114.889705882353,4,1,0,80,0,0
62360,-111.869336614834,4,1,0,80,0,0
62446,-110.424028268551,4,1,0,80,0,0
62532,-109.003706126008,4,1,0,80,0,0
62617,-107.631040792164,4,1,0,80,0,0
62703,-106.292517006803,4,1,0,80,0,0
62874,-103.702167375298,4,1,0,80,0,0
62960,-102.459016393443,4,1,0,80,0,0
63046,-101.235067827495,4,1,0,80,0,0
63132,-100.050025012506,4,1,0,80,0,0
63217,-98.8924050632912,4,1,0,80,0,0
63474,-95.5566172957477,4,1,0,80,0,0
63560,-94.5000945000945,4,1,0,80,0,0
63732,-92.4470740501063,4,1,0,80,0,0
63903,-90.4895484571532,4,1,0,80,0,0
64160,-87.6962202929054,4,1,0,80,0,0
64246,-86.7980210051211,4,1,0,80,0,0
64417,-85.0629465804695,4,1,0,80,0,0
64503,-84.224711530363,4,1,0,80,0,0
64589,-83.4028356964137,4,1,0,80,0,0
65960,-83.3333333333333,4,1,0,50,0,0
66217,-90.9090909090909,4,1,0,50,0,0
66474,-100,4,1,0,50,0,0
66646,-90.9090909090909,4,1,0,50,0,0
66903,-100,4,1,0,50,0,0
67160,-111.111111111111,4,1,0,50,0,0
67332,-100,4,1,0,50,0,0
67589,-106.666666666667,4,1,0,50,0,0
67846,-114.285714285714,4,1,0,50,0,0
68017,-120.004800192008,4,1,0,50,0,0
68189,-126.310471138057,4,1,0,50,0,0
68360,-133.333333333333,4,1,0,50,0,0
68703,-90.9090909090909,4,1,0,50,0,0
68960,-100,4,1,0,50,0,0
69217,-111.111111111111,4,1,0,50,0,0
69389,-100,4,1,0,50,0,0
69646,-108.108108108108,4,1,0,50,0,0
69903,-117.647058823529,4,1,0,50,0,0
70074,-125,4,1,0,50,0,0
70246,-117.68859597505,4,1,0,50,0,0
70332,-114.337983077978,4,1,0,50,0,0
70417,-111.172873818788,4,1,0,50,0,0
70589,-105.35187526338,4,1,0,50,0,0
70760,-100.1001001001,4,1,0,50,0,0
70846,-97.6753272123462,4,1,0,50,0,0
70932,-95.3561552398207,4,1,0,50,0,0
71017,-93.1445603576751,4,1,0,50,0,0
71103,-91.0415149308085,4,1,0,50,0,0
71274,-87.0928409684724,4,1,0,50,0,0
71360,-85.2442247037763,4,1,0,50,0,0
71424,-83.3333333333333,4,1,0,50,0,0
71681,-90.9090909090909,4,1,0,50,0,0
71938,-100,4,1,0,50,0,0
72110,-90.9090909090909,4,1,0,50,0,0
72367,-100,4,1,0,50,0,0
72624,-111.111111111111,4,1,0,50,0,0
72796,-100,4,1,0,50,0,0
73053,-106.666666666667,4,1,0,50,0,0
73310,-114.285714285714,4,1,0,50,0,0
73481,-120.004800192008,4,1,0,50,0,0
73653,-126.310471138057,4,1,0,50,0,0
73824,-133.333333333333,4,1,0,50,0,0
74167,-90.9090909090909,4,1,0,50,0,0
74424,-100,4,1,0,50,0,0
74681,-111.111111111111,4,1,0,50,0,0
74853,-100,4,1,0,50,0,0
75110,-108.108108108108,4,1,0,50,0,0
75367,-117.647058823529,4,1,0,50,0,0
75538,-125,4,1,0,60,0,0
75710,-117.68859597505,4,1,0,60,0,0
75796,-114.337983077978,4,1,0,60,0,0
75881,-111.172873818788,4,1,0,60,0,0
76053,-105.35187526338,4,1,0,60,0,0
76224,-100.1001001001,4,1,0,60,0,0
76246,-100,4,1,0,70,0,0
76332,-97.5895384014834,4,1,0,70,0,0
76417,-95.2834683182468,4,1,0,70,0,0
76503,-93.0925339787749,4,1,0,70,0,0
76589,-90.9918107370337,4,1,0,70,0,0
76674,-88.9917237696894,4,1,0,70,0,0
76760,-87.070091423596,4,1,0,70,0,0
76846,-85.236958745312,4,1,0,70,0,0
76910,-83.4794223223975,4,1,0,80,0,0
82417,-83.3333333333333,4,1,0,80,0,0
82646,-90.9090909090909,4,1,0,80,0,0
82874,-100,4,1,0,80,0,0
82989,-83.3333333333333,4,1,0,80,0,0
83046,-84.7457627118644,4,1,0,80,0,0
83103,-86.2068965517241,4,1,0,80,0,0
83332,-92.5925925925926,4,1,0,80,0,0
83560,-100,4,1,0,80,0,0
83789,-83.3333333333333,4,1,0,80,0,0
84017,-90.9090909090909,4,1,0,80,0,0
84246,-100,4,1,0,80,0,0
84360,-83.3333333333333,4,1,0,80,0,0
84417,-84.331253162422,4,1,0,80,0,0
84474,-85.3460783476999,4,1,0,80,0,0
84589,-87.4584572328144,4,1,0,80,0,0
84703,-89.6860986547085,4,1,0,80,0,0
84817,-92.0217171252416,4,1,0,80,0,0
84932,-94.4822373393802,4,1,0,80,0,0
85046,-97.0779535967382,4,1,0,80,0,0
85160,-100,4,1,0,80,0,0
85203,-99.6412913511359,4,1,0,80,0,0
85246,-99.2950054612253,4,1,0,80,0,0
85374,-98.2511298879937,4,1,0,80,0,0
85503,-97.2289742343218,4,1,0,80,0,0
85546,-96.8992248062016,4,1,0,80,0,0
85589,-96.5623792970259,4,1,0,80,0,0
85674,-95.9048623765225,4,1,0,80,0,0
85732,-95.4653937947494,4,1,0,80,0,0
85789,-95.0389659760502,4,1,0,80,0,0
85846,-94.6073793755913,4,1,0,80,0,0
85960,-93.764650726676,4,1,0,80,0,0
86017,-93.3532486930545,4,1,0,80,0,0
86074,-92.9368029739777,4,1,0,80,0,0
86189,-92.1234454168586,4,1,0,80,0,0
86303,-91.324200913242,4,1,0,80,0,0
86360,-90.9338910611985,4,1,0,80,0,0
86417,-90.5387052965143,4,1,0,80,0,0
86532,-89.7746655893707,4,1,0,80,0,0
86617,-89.1981090000892,4,1,0,80,0,0
86703,-88.636766530757,4,1,0,80,0,0
86746,-88.3548330093656,4,1,0,80,0,0
86789,-88.0824451686779,4,1,0,80,0,0
86832,-87.8040214241812,4,1,0,80,0,0
86874,-87.5350140056023,4,1,0,80,0,0
86960,-86.9867780097425,4,1,0,80,0,0
87046,-86.4528399757932,4,1,0,80,0,0
87089,-86.1920358558869,4,1,0,80,0,0
87132,-85.9254167382712,4,1,0,80,0,0
87217,-85.404389785635,4,1,0,80,0,0
87303,-84.8896434634975,4,1,0,80,0,0
87389,-84.3739453256834,4,1,0,80,0,0
87474,-83.8715088484442,4,1,0,80,0,0
87560,-83.3750208437552,4,1,0,80,0,0
87903,-83.3333333333333,4,1,0,80,0,1
93046,-83.33333,4,1,0,80,0,1
93103,-83.301476,4,1,0,80,0,1
93160,-83.07915,4,1,0,80,0,1
93217,-82.48164,4,1,0,80,0,1
93274,-81.34239,4,1,0,80,0,1
93332,-79.49305,4,1,0,80,0,1
93389,-76.92308,4,1,0,80,0,0
93732,-83.3333333333333,4,1,0,80,0,1
98532,-83.33333,4,1,0,80,0,1
98574,-82.5182,4,1,0,80,0,1
98617,-81.69191,4,1,0,80,0,1
98703,-80.06408,4,1,0,80,0,1
98760,-79.00309,4,1,0,80,0,1
98817,-77.95615,4,1,0,80,0,1
98874,-76.92308,4,1,0,80,0,1
101274,-76.9230769230769,4,1,0,80,0,0
101617,-76.9230769230769,4,1,0,80,0,1
107103,-76.92308,4,1,0,80,0,1
107274,-77.30788,4,1,0,80,0,1
107360,-77.50213,4,1,0,80,0,1
107446,-77.69687,4,1,0,80,0,1
107532,-77.8921,4,1,0,80,0,1
107617,-78.08553,4,1,0,80,0,1
107703,-78.28174,4,1,0,80,0,1
107789,-78.47844,4,1,0,80,0,1
107874,-78.67333,4,1,0,80,0,1
107917,-78.77212,4,1,0,80,0,1
107960,-78.87102,4,1,0,80,0,1
108046,-79.06919,4,1,0,80,0,1
108132,-79.26787,4,1,0,80,0,1
108217,-79.46474,4,1,0,80,0,1
108303,-79.6644,4,1,0,80,0,1
108389,-79.86457,4,1,0,80,0,1
108474,-80.062904,4,1,0,80,0,1
108560,-80.26409,4,1,0,80,0,1
108603,-80.36486,4,1,0,80,0,1
108646,-80.46576,4,1,0,80,0,1
108732,-80.66795,4,1,0,80,0,1
108817,-80.868286,4,1,0,80,0,1
108903,-81.07148,4,1,0,80,0,1
108989,-81.275185,4,1,0,80,0,1
109074,-81.47703,4,1,0,80,0,1
109160,-81.681755,4,1,0,80,0,1
109246,-81.887,4,1,0,80,0,1
109289,-81.989815,4,1,0,80,0,1
109332,-82.09276,4,1,0,80,0,1
109417,-82.29663,4,1,0,80,0,1
109503,-82.50341,4,1,0,80,0,1
109589,-82.71071,4,1,0,80,0,1
109674,-82.91613,4,1,0,80,0,1
109717,-83.020226,4,1,0,80,0,1
109760,-83.124466,4,1,0,80,0,1
109803,-83.228836,4,1,0,80,0,1
109846,-83.33333,4,1,0,80,0,0
114732,-84.3241420018551,4,1,0,80,0,0
114817,-85.3387950162144,4,1,0,80,0,0
114903,-86.3856254319281,4,1,0,80,0,0
114989,-87.4508089199825,4,1,0,80,0,0
115074,-88.5425889853019,4,1,0,80,0,0
115160,-89.6619743566753,4,1,0,80,0,0
115246,-90.8100254268071,4,1,0,80,0,0
115310,-83.2500832500832,4,1,0,80,0,0
120132,-83.3333333333333,4,1,0,80,0,0
120360,-90.9090909090909,4,1,0,80,0,0
120589,-99.9999999999999,4,1,0,80,0,0
120817,-90.9090909090909,4,1,0,70,0,0
121074,-95.7854406130268,4,1,0,70,0,0
121332,-101.20433154539,4,1,0,70,0,0
121503,-105.1745898191,4,1,0,70,0,0
121617,-108.003024084674,4,1,0,70,0,0
121732,-110.987791342952,4,1,0,70,0,0
121846,-114.129194247889,4,1,0,70,0,0
121960,-117.467402795724,4,1,0,70,0,0
122074,-121.006776379477,4,1,0,70,0,0
122189,-125,4,1,0,70,0,0
122446,-117.647058823529,4,1,0,70,0,0
122532,-115.380177685474,4,1,0,70,0,0
122703,-111.111111111111,4,1,0,70,0,0
122874,-105.263157894737,4,1,0,70,0,0
122989,-108.073057386793,4,1,0,70,0,0
123103,-111.049416990561,4,1,0,70,0,0
123217,-114.181319936058,4,1,0,70,0,0
123332,-117.508813160987,4,1,0,70,0,0
123446,-121.02142079148,4,1,0,70,0,0
123560,-125,4,1,0,70,0,0
123817,-117.647058823529,4,1,0,70,0,0
123903,-115.380177685474,4,1,0,70,0,0
124074,-111.111111111111,4,1,0,70,0,0
124246,-105.263157894737,4,1,0,70,0,0
124332,-107.365256602963,4,1,0,70,0,0
124417,-109.541023113156,4,1,0,70,0,0
124503,-111.819300011182,4,1,0,70,0,0
124589,-114.181319936058,4,1,0,70,0,0
124674,-116.658889407373,4,1,0,70,0,0
124760,-119.232144986288,4,1,0,70,0,0
124846,-121.936349225704,4,1,0,70,0,0
124910,-124.766063630692,4,1,0,70,0,0
125274,-114.285714285714,4,1,0,70,0,0
125360,-111.894371713103,4,1,0,70,0,0
125446,-109.58904109589,4,1,0,70,0,0
125532,-107.376785139053,4,1,0,70,0,0
125617,-105.263157894737,4,1,0,70,0,0
125789,-101.26582278481,4,1,0,70,0,0
125960,-97.5609756097561,4,1,0,70,0,0
126003,-96.6744006187162,4,1,0,70,0,0
126046,-95.8037938302357,4,1,0,70,0,0
126132,-94.1176470588235,4,1,0,70,0,0
126217,-92.4812725423102,4,1,0,70,0,0
126282,-90.9090909090909,4,1,0,70,0,0
126539,-95.7854406130268,4,1,0,70,0,0
126797,-101.20433154539,4,1,0,70,0,0
126968,-105.1745898191,4,1,0,70,0,0
127082,-108.003024084674,4,1,0,70,0,0
127197,-110.987791342952,4,1,0,70,0,0
127311,-114.129194247889,4,1,0,70,0,0
127425,-117.467402795724,4,1,0,70,0,0
127539,-121.006776379477,4,1,0,70,0,0
127654,-125,4,1,0,70,0,0
128017,-115.380177685474,4,1,0,70,0,0
128360,-105.263157894737,4,1,0,70,0,0
128446,-107.365256602963,4,1,0,70,0,0
128531,-109.541023113156,4,1,0,70,0,0
128617,-111.819300011182,4,1,0,70,0,0
128703,-114.181319936058,4,1,0,70,0,0
128788,-116.658889407373,4,1,0,70,0,0
128874,-120.481927710843,4,1,0,70,0,0
129024,-124.766063630692,4,1,0,70,0,0
129217,-120.019203072492,4,1,0,70,0,0
129303,-117.674746999294,4,1,0,70,0,0
129389,-115.420129270545,4,1,0,70,0,0
129474,-113.263110205006,4,1,0,70,0,0
129560,-111.172873818788,4,1,0,70,0,0
129732,-107.215610592902,4,1,0,70,0,0
129817,-105.340777414937,4,1,0,70,0,0
129903,-103.53038616834,4,1,0,70,0,0
129989,-101.781170483461,4,1,0,70,0,0
130074,-100.090081072966,4,1,0,70,0,0
130246,-96.8710646130001,4,1,0,70,0,0
130332,-95.34706331045,4,1,0,70,0,0
130417,-93.8614604843252,4,1,0,70,0,0
130474,-92.8936367858802,4,1,0,70,0,0
130532,-91.9455682236116,4,1,0,70,0,0
130589,-91.0249408337885,4,1,0,70,0,0
130932,-111.111111111111,4,1,0,70,0,0
131017,-107.52688172043,4,1,0,70,0,0
131103,-104.166666666667,4,1,0,70,0,0
131274,-98.0392156862745,4,1,0,70,0,0
131360,-95.2380952380953,4,1,0,70,0,0
131446,-92.5925925925926,4,1,0,70,0,0
131617,-87.719298245614,4,1,0,70,0,0
131789,-83.33333,4,1,0,70,0,0
132046,-83.3328,4,1,0,70,0,0
132217,-83.33086,4,1,0,70,0,0
132303,-83.32905,4,1,0,70,0,0
132389,-83.326515,4,1,0,70,0,0
132474,-83.32319,4,1,0,70,0,0
132646,-83.31348,4,1,0,70,0,0
132817,-83.29907,4,1,0,70,0,0
132903,-83.289734,4,1,0,70,0,0
132989,-83.27885,4,1,0,70,0,0
133074,-83.26643,4,1,0,70,0,0
133160,-83.2521,4,1,0,70,0,0
133417,-83.1974,4,1,0,70,0,0
133589,-83.14972,4,1,0,70,0,0
133674,-83.12253,4,1,0,70,0,0
133760,-83.09242,4,1,0,70,0,0
133846,-83.0596,4,1,0,70,0,0
134103,-82.9442,4,1,0,70,0,0
134274,-82.85192,4,1,0,70,0,0
134360,-82.80052,4,1,0,70,0,0
134446,-82.745636,4,1,0,70,0,0
134532,-82.687164,4,1,0,70,0,0
134789,-82.490005,4,1,0,70,0,0
134960,-82.33924,4,1,0,70,0,0
135132,-82.17093,4,1,0,70,0,0
135217,-82.08135,4,1,0,70,0,0
135474,-81.78376,4,1,0,70,0,0
135646,-81.56133,4,1,0,70,0,0
135731,-81.44429,4,1,0,70,0,0
135903,-81.1927,4,1,0,70,0,0
136074,-80.92258,4,1,0,70,0,0
136160,-80.77903,4,1,0,70,0,0
136332,-80.47622,4,1,0,70,0,0
136503,-80.154076,4,1,0,70,0,0
136589,-79.98399,4,1,0,70,0,0
136846,-79.443184,4,1,0,70,0,0
136932,-79.251205,4,1,0,70,0,0
136974,-79.155426,4,1,0,70,0,0
137017,-79.056,4,1,0,70,0,0
137103,-78.85297,4,1,0,70,0,0
137189,-78.64433,4,1,0,70,0,0
137274,-78.43263,4,1,0,70,0,0
137532,-77.75654,4,1,0,70,0,0
137703,-77.28068,4,1,0,70,0,0
137789,-77.03302,4,1,0,70,0,0
137874,-76.78279,4,1,0,70,0,0
137960,-76.52413,4,1,0,70,0,0
138217,-75.71849,4,1,0,70,0,0
138389,-75.15235,4,1,0,70,0,0
138474,-74.86471,4,1,0,70,0,0
138560,-74.568474,4,1,0,70,0,0
138646,-74.26704,4,1,0,70,0,0
138903,-73.33588,4,1,0,70,0,0
139074,-72.69177,4,1,0,70,0,0
139160,-72.36065,4,1,0,70,0,0
139246,-72.02481,4,1,0,70,0,0
139332,-71.68435,4,1,0,70,0,0
139589,-70.64025,4,1,0,70,0,0
139760,-69.92429,4,1,0,70,0,0
139903,-69.18794,4,1,0,70,0,0
140017,-68.81829,4,1,0,70,0,0
140274,-67.67881,4,1,0,70,0,0
140446,-66.898964,4,1,0,70,0,0
140532,-66.504196,4,1,0,70,0,0
140617,-66.111,4,1,0,70,0,0
140703,-65.710236,4,1,0,70,0,0
140960,-64.49618,4,1,0,70,0,0
141046,-64.084816,4,1,0,70,0,0
141132,-63.671097,4,1,0,70,0,0
141217,-63.260014,4,1,0,70,0,0
141303,-62.841984,4,1,0,70,0,0
141389,-62.421963,4,1,0,70,0,0
141646,-61.156178,4,1,0,70,0,0
141817,-60.30634,4,1,0,70,0,0
141989,-59.446518,4,1,0,70,0,0
142074,-59.02004,4,1,0,70,0,0
142332,-57.720642,4,1,0,70,0,0
142417,-57.29131,4,1,0,70,0,0
142460,-57.073944,4,1,0,70,0,0
142503,-56.856483,4,1,0,70,0,0
142589,-56.421333,4,1,0,70,0,0
142674,-55.991028,4,1,0,70,0,0
142760,-55.555557,4,1,0,70,0,0

[HitObjects]
306,147,132,5,0,0:0:0:0:
352,137,817,1,8,0:0:0:0:
352,137,989,1,0,0:0:0:0:
395,99,1503,1,0,0:0:0:0:
383,108,2017,1,0,0:0:0:0:
383,108,2189,1,8,0:0:0:0:
392,108,2360,1,0,0:0:0:0:
392,108,2532,1,8,0:0:0:0:
392,108,2646,1,8,0:0:0:0:
392,107,2760,1,8,0:0:0:0:
392,108,2874,1,0,0:0:0:0:
398,102,3560,1,8,0:0:0:0:
398,102,3732,1,0,0:0:0:0:
397,94,4246,1,0,0:0:0:0:
403,89,4760,1,0,0:0:0:0:
426,103,4846,1,0,0:0:0:0:
407,90,4932,1,8,0:0:0:0:
409,89,5103,1,0,0:0:0:0:
422,82,5274,1,8,0:0:0:0:
422,81,5317,1,8,0:0:0:0:
422,82,5360,1,0,0:0:0:0:
417,83,5446,1,8,0:0:0:0:
417,83,5532,1,8,0:0:0:0:
417,83,5617,1,0,0:0:0:0:
412,98,6303,1,8,0:0:0:0:
412,98,6474,1,0,0:0:0:0:
412,98,6989,1,0,0:0:0:0:
412,98,7503,1,0,0:0:0:0:
412,98,7674,1,8,0:0:0:0:
412,98,7846,1,0,0:0:0:0:
412,98,8017,1,8,0:0:0:0:
412,98,8132,1,8,0:0:0:0:
412,98,8246,1,8,0:0:0:0:
417,93,8360,1,0,0:0:0:0:
419,91,9046,1,8,0:0:0:0:
419,90,9217,1,0,0:0:0:0:
419,91,9732,1,0,0:0:0:0:
419,90,10246,1,0,0:0:0:0:
435,94,10332,1,0,0:0:0:0:
419,91,10417,1,8,0:0:0:0:
432,95,10503,1,0,0:0:0:0:
443,96,10589,1,0,0:0:0:0:
432,95,10674,1,0,0:0:0:0:
443,96,10760,1,8,0:0:0:0:
443,82,10803,1,8,0:0:0:0:
443,82,10846,1,0,0:0:0:0:
443,82,10932,1,8,0:0:0:0:
400,95,11017,1,8,0:0:0:0:
329,110,11103,5,4,0:0:0:0:
345,114,11446,1,0,0:0:0:0:
345,114,11789,1,8,0:0:0:0:
345,114,11960,1,0,0:0:0:0:
339,118,12046,1,8,0:0:0:0:
339,118,12132,1,0,0:0:0:0:
345,114,12217,1,0,0:0:0:0:
345,114,12303,1,8,0:0:0:0:
345,114,12474,1,0,0:0:0:0:
345,114,12560,1,0,0:0:0:0:
352,112,12646,1,8,0:0:0:0:
358,113,12817,1,8,0:0:0:0:
358,113,12903,1,0,0:0:0:0:
358,113,13074,1,0,0:0:0:0:
358,113,13160,1,8,0:0:0:0:
358,113,13246,1,8,0:0:0:0:
358,113,13332,1,0,0:0:0:0:
358,113,13417,1,0,0:0:0:0:
358,113,13503,1,8,0:0:0:0:
361,96,13617,1,8,0:0:0:0:
361,96,13732,1,8,0:0:0:0:
361,96,13846,1,0,0:0:0:0:
367,98,14189,1,0,0:0:0:0:
367,98,14532,1,8,0:0:0:0:
366,100,14703,1,0,0:0:0:0:
367,102,14789,1,8,0:0:0:0:
361,96,14874,1,0,0:0:0:0:
367,98,14960,1,0,0:0:0:0:
367,98,15046,1,8,0:0:0:0:
367,98,15217,1,0,0:0:0:0:
367,98,15389,1,8,0:0:0:0:
367,98,15446,1,0,0:0:0:0:
347,106,15503,1,0,0:0:0:0:
359,102,15560,1,8,0:0:0:0:
382,114,15732,1,0,0:0:0:0:
362,115,15817,1,0,0:0:0:0:
359,107,15903,1,8,0:0:0:0:
368,115,15989,1,8,0:0:0:0:
367,113,16074,1,0,0:0:0:0:
381,136,16160,1,0,0:0:0:0:
376,136,16246,1,8,0:0:0:0:
383,96,16289,1,8,0:0:0:0:
382,97,16332,1,0,0:0:0:0:
357,125,16417,1,8,0:0:0:0:
362,123,16503,1,8,0:0:0:0:
365,123,16589,1,0,0:0:0:0:
373,121,16932,1,0,0:0:0:0:
373,121,17274,1,8,0:0:0:0:
368,115,17446,1,0,0:0:0:0:
371,116,17532,1,8,0:0:0:0:
365,123,17617,1,0,0:0:0:0:
373,121,17703,1,0,0:0:0:0:
385,134,17789,1,8,0:0:0:0:
383,134,17960,1,0,0:0:0:0:
383,134,18046,1,0,0:0:0:0:
383,134,18132,1,8,0:0:0:0:
383,134,18303,1,8,0:0:0:0:
383,134,18389,1,0,0:0:0:0:
383,133,18560,1,0,0:0:0:0:
383,133,18646,1,8,0:0:0:0:
383,133,18732,1,8,0:0:0:0:
385,134,18817,1,0,0:0:0:0:
383,134,18903,1,0,0:0:0:0:
383,134,18989,1,8,0:0:0:0:
400,123,19103,1,8,0:0:0:0:
400,121,19217,1,8,0:0:0:0:
400,121,19332,1,0,0:0:0:0:
393,119,19674,1,0,0:0:0:0:
393,119,20017,1,8,0:0:0:0:
400,121,20189,1,0,0:0:0:0:
400,121,20274,1,8,0:0:0:0:
392,120,20360,1,0,0:0:0:0:
393,119,20446,1,0,0:0:0:0:
393,119,20532,1,8,0:0:0:0:
393,119,20703,1,0,0:0:0:0:
393,119,20874,1,8,0:0:0:0:
401,117,20932,1,8,0:0:0:0:
401,117,20989,1,8,0:0:0:0:
401,117,21046,1,0,0:0:0:0:
400,121,21217,1,0,0:0:0:0:
400,121,21303,1,0,0:0:0:0:
392,120,21389,1,8,0:0:0:0:
393,119,21474,1,8,0:0:0:0:
393,119,21560,1,0,0:0:0:0:
393,119,21646,1,0,0:0:0:0:
393,119,21732,1,8,0:0:0:0:
415,97,21774,1,8,0:0:0:0:
405,101,21817,1,8,0:0:0:0:
404,101,21903,1,0,0:0:0:0:
404,101,21989,1,0,0:0:0:0:
373,82,22074,1,8,0:0:0:0:
426,98,22932,1,8,0:0:0:0:
426,98,23617,1,8,0:0:0:0:
426,98,24132,1,0,0:0:0:0:
429,106,24474,1,0,0:0:0:0:
426,98,24589,1,0,0:0:0:0:
426,98,24703,1,0,0:0:0:0:
426,98,24817,1,8,0:0:0:0:
426,98,25674,1,8,0:0:0:0:
422,91,26360,1,8,0:0:0:0:
422,91,26874,1,0,0:0:0:0:
422,91,27217,1,0,0:0:0:0:
431,90,27332,1,8,0:0:0:0:
436,90,27389,1,8,0:0:0:0:
431,90,27446,1,0,0:0:0:0:
431,90,27560,1,8,0:0:0:0:
425,83,28417,1,8,0:0:0:0:
425,83,29103,1,8,0:0:0:0:
425,83,29617,1,0,0:0:0:0:
425,83,29960,1,0,0:0:0:0:
425,83,30074,1,0,0:0:0:0:
425,83,30189,1,0,0:0:0:0:
425,83,30303,1,8,0:0:0:0:
425,83,31160,1,8,0:0:0:0:
425,83,31503,1,8,0:0:0:0:
425,83,31674,1,0,0:0:0:0:
425,83,32017,1,0,0:0:0:0:
419,86,32189,1,0,0:0:0:0:
425,83,32360,1,0,0:0:0:0:
425,83,32446,1,0,0:0:0:0:
425,83,32532,1,0,0:0:0:0:
425,83,32617,1,0,0:0:0:0:
442,89,32703,1,0,0:0:0:0:
437,92,32817,1,0,0:0:0:0:
436,90,32932,1,0,0:0:0:0:
429,75,33046,1,8,0:0:0:0:
432,76,33217,1,0,0:0:0:0:
431,80,33303,1,0,0:0:0:0:
425,83,33389,1,8,0:0:0:0:
425,83,33560,1,0,0:0:0:0:
431,80,33732,1,0,0:0:0:0:
408,92,33817,1,0,0:0:0:0:
433,80,33903,1,0,0:0:0:0:
433,100,33989,1,0,0:0:0:0:
433,80,34074,1,8,0:0:0:0:
442,91,34246,1,8,0:0:0:0:
443,90,34332,1,8,0:0:0:0:
441,91,34417,1,0,0:0:0:0:
436,88,34589,1,8,0:0:0:0:
431,80,34760,1,0,0:0:0:0:
435,85,34846,1,8,0:0:0:0:
433,80,34932,1,0,0:0:0:0:
442,79,35017,1,0,0:0:0:0:
441,81,35103,1,8,0:0:0:0:
443,79,35274,1,0,0:0:0:0:
443,79,35446,1,8,0:0:0:0:
443,79,35617,1,8,0:0:0:0:
450,78,35703,1,0,0:0:0:0:
448,79,35789,1,8,0:0:0:0:
448,80,35960,1,0,0:0:0:0:
446,90,36046,1,0,0:0:0:0:
446,90,36132,1,0,0:0:0:0:
447,90,36303,1,8,0:0:0:0:
447,90,36474,1,0,0:0:0:0:
443,79,36560,1,8,0:0:0:0:
449,88,36646,1,0,0:0:0:0:
443,81,36732,1,0,0:0:0:0:
448,79,36817,1,8,0:0:0:0:
448,80,36989,1,8,0:0:0:0:
443,81,37074,1,8,0:0:0:0:
444,81,37160,1,0,0:0:0:0:
451,82,37332,1,8,0:0:0:0:
451,82,37503,1,0,0:0:0:0:
443,79,37589,1,8,0:0:0:0:
443,81,37760,1,8,0:0:0:0:
448,79,37846,1,0,0:0:0:0:
448,80,38017,1,0,0:0:0:0:
443,81,38103,1,0,0:0:0:0:
444,81,38189,1,8,0:0:0:0:
449,63,38232,1,8,0:0:0:0:
420,83,38274,1,0,0:0:0:0:
422,81,38360,1,8,0:0:0:0:
422,81,38446,1,8,0:0:0:0:
451,82,38532,1,0,0:0:0:0:
448,85,38703,1,0,0:0:0:0:
448,85,38789,1,0,0:0:0:0:
442,85,38874,1,8,0:0:0:0:
442,85,39046,1,0,0:0:0:0:
444,81,39217,1,8,0:0:0:0:
448,84,39303,1,0,0:0:0:0:
446,89,39389,1,0,0:0:0:0:
446,89,39474,1,0,0:0:0:0:
446,89,39560,1,8,0:0:0:0:
448,85,39732,1,0,0:0:0:0:
436,88,39817,1,8,0:0:0:0:
442,85,39903,1,0,0:0:0:0:
442,85,40074,1,8,0:0:0:0:
437,87,40246,1,0,0:0:0:0:
437,89,40332,1,0,0:0:0:0:
437,89,40417,1,8,0:0:0:0:
437,89,40503,1,8,0:0:0:0:
437,89,40589,1,0,0:0:0:0:
437,89,40760,1,8,0:0:0:0:
436,88,40846,1,0,0:0:0:0:
442,85,40932,1,8,0:0:0:0:
442,85,41103,1,0,0:0:0:0:
437,87,41189,1,0,0:0:0:0:
437,87,41274,1,8,0:0:0:0:
437,89,41446,1,8,0:0:0:0:
437,89,41617,1,0,0:0:0:0:
434,96,41789,1,0,0:0:0:0:
434,96,41960,1,8,0:0:0:0:
434,96,42132,1,8,0:0:0:0:
434,96,42217,1,8,0:0:0:0:
434,96,42303,1,0,0:0:0:0:
434,96,42389,1,0,0:0:0:0:
434,96,42474,1,8,0:0:0:0:
434,96,42646,1,0,0:0:0:0:
434,96,42817,1,8,0:0:0:0:
434,96,42903,1,0,0:0:0:0:
434,96,42989,1,8,0:0:0:0:
434,96,43160,1,8,0:0:0:0:
434,96,43246,1,0,0:0:0:0:
434,96,43417,1,8,0:0:0:0:
435,112,43503,1,0,0:0:0:0:
434,96,43589,1,0,0:0:0:0:
441,94,43674,1,8,0:0:0:0:
434,96,43732,1,8,0:0:0:0:
442,106,43789,1,0,0:0:0:0:
449,112,43903,1,8,0:0:0:0:
447,109,44017,1,0,0:0:0:0:
449,93,44189,1,8,0:0:0:0:
441,106,44274,1,0,0:0:0:0:
431,116,44360,1,8,0:0:0:0:
435,112,44532,1,0,0:0:0:0:
437,101,44589,1,8,0:0:0:0:
437,101,44646,1,8,0:0:0:0:
437,101,44703,1,0,0:0:0:0:
436,106,44789,1,0,0:0:0:0:
436,106,44874,1,8,0:0:0:0:
436,107,44960,1,0,0:0:0:0:
436,106,45046,1,8,0:0:0:0:
436,109,45217,1,8,0:0:0:0:
441,106,45303,1,8,0:0:0:0:
436,109,45389,1,0,0:0:0:0:
430,112,45560,1,8,0:0:0:0:
430,112,45646,1,0,0:0:0:0:
429,113,45732,1,8,0:0:0:0:
429,113,45903,1,0,0:0:0:0:
429,113,46074,1,8,0:0:0:0:
418,111,46117,1,8,0:0:0:0:
430,113,46160,1,8,0:0:0:0:
430,113,46246,1,0,0:0:0:0:
430,113,46332,1,8,0:0:0:0:
430,113,46417,1,0,0:0:0:0:
437,102,46503,1,0,0:0:0:0:
437,102,46589,1,8,0:0:0:0:
437,102,46674,1,0,0:0:0:0:
437,102,46760,1,8,0:0:0:0:
429,113,46932,1,0,0:0:0:0:
429,113,47017,1,8,0:0:0:0:
429,113,47103,1,0,0:0:0:0:
430,113,47274,1,8,0:0:0:0:
428,124,47446,1,0,0:0:0:0:
430,124,47532,1,0,0:0:0:0:
430,124,47617,1,8,0:0:0:0:
430,124,47703,1,0,0:0:0:0:
430,124,47789,1,8,0:0:0:0:
430,124,47960,1,8,0:0:0:0:
430,124,48046,1,8,0:0:0:0:
430,124,48132,1,0,0:0:0:0:
430,124,48303,1,8,0:0:0:0:
428,124,48389,1,0,0:0:0:0:
428,124,48474,1,8,0:0:0:0:
430,124,48646,1,0,0:0:0:0:
430,124,48817,1,8,0:0:0:0:
405,113,48860,1,8,0:0:0:0:
408,119,48903,1,8,0:0:0:0:
414,126,48989,1,0,0:0:0:0:
414,126,49074,1,0,0:0:0:0:
414,126,49160,1,8,0:0:0:0:
423,117,49332,1,8,0:0:0:0:
411,122,49417,1,8,0:0:0:0:
420,114,49503,1,0,0:0:0:0:
420,114,49674,1,8,0:0:0:0:
420,114,49760,1,0,0:0:0:0:
420,114,49846,1,8,0:0:0:0:
420,114,50017,1,0,0:0:0:0:
420,114,50189,1,8,0:0:0:0:
423,117,50360,1,0,0:0:0:0:
420,114,50446,1,0,0:0:0:0:
420,114,50532,1,8,0:0:0:0:
420,114,50703,1,0,0:0:0:0:
420,114,50874,1,0,0:0:0:0:
420,114,51046,1,8,0:0:0:0:
420,114,51132,1,0,0:0:0:0:
420,114,51217,1,8,0:0:0:0:
423,117,51389,1,0,0:0:0:0:
420,114,51560,1,8,0:0:0:0:
416,107,51603,1,8,0:0:0:0:
417,106,51646,1,0,0:0:0:0:
422,123,51732,1,8,0:0:0:0:
422,123,51817,1,8,0:0:0:0:
422,123,51903,1,0,0:0:0:0:
419,107,51989,1,0,0:0:0:0:
419,107,52074,1,8,0:0:0:0:
420,114,52160,1,0,0:0:0:0:
420,114,52246,1,8,0:0:0:0:
423,117,52417,1,0,0:0:0:0:
420,114,52503,1,0,0:0:0:0:
420,114,52589,1,8,0:0:0:0:
419,116,52760,1,0,0:0:0:0:
419,116,52932,1,8,0:0:0:0:
419,118,53103,1,0,0:0:0:0:
420,114,53189,1,8,0:0:0:0:
420,114,53274,1,0,0:0:0:0:
423,117,53446,1,8,0:0:0:0:
426,119,53532,1,8,0:0:0:0:
426,122,53617,1,0,0:0:0:0:
422,124,53703,1,0,0:0:0:0:
425,121,53789,1,0,0:0:0:0:
425,121,53874,1,8,0:0:0:0:
425,121,53960,1,0,0:0:0:0:
424,121,54046,1,0,0:0:0:0:
424,121,54132,1,8,0:0:0:0:
424,121,54217,1,0,0:0:0:0:
423,117,54303,1,8,0:0:0:0:
423,117,54346,1,8,0:0:0:0:
423,117,54389,1,8,0:0:0:0:
423,117,54474,1,0,0:0:0:0:
426,122,54560,1,0,0:0:0:0:
426,122,54646,1,8,0:0:0:0:
431,120,54732,1,8,0:0:0:0:
425,121,54817,1,0,0:0:0:0:
425,121,54903,1,0,0:0:0:0:
425,121,54989,1,8,0:0:0:0:
418,125,55160,1,0,0:0:0:0:
424,121,55246,1,8,0:0:0:0:
418,125,55332,1,0,0:0:0:0:
423,117,55503,1,0,0:0:0:0:
426,122,55674,1,8,0:0:0:0:
425,121,55846,1,8,0:0:0:0:
425,121,56017,1,8,0:0:0:0:
418,125,56189,1,8,0:0:0:0:
424,123,56360,1,0,0:0:0:0:
423,117,56532,1,0,0:0:0:0:
433,129,56703,1,8,0:0:0:0:
433,129,56874,1,0,0:0:0:0:
433,129,56960,1,8,0:0:0:0:
433,129,57046,1,0,0:0:0:0:
433,129,57132,1,0,0:0:0:0:
435,128,57217,1,8,0:0:0:0:
435,128,57389,1,0,0:0:0:0:
435,128,57474,1,8,0:0:0:0:
435,128,57560,1,0,0:0:0:0:
433,129,57646,1,8,0:0:0:0:
433,129,57732,1,0,0:0:0:0:
422,128,57817,1,0,0:0:0:0:
440,148,57903,1,8,0:0:0:0:
447,140,58074,1,0,0:0:0:0:
447,140,58246,1,8,0:0:0:0:
446,140,58332,1,0,0:0:0:0:
444,140,58417,1,8,0:0:0:0:
431,144,58932,1,8,0:1:0:0:
431,143,59103,1,0,0:1:0:0:
441,148,59274,1,0,0:0:0:0:
444,140,59446,1,8,0:0:0:0:
442,145,59617,1,0,0:0:0:0:
442,145,59703,1,8,0:0:0:0:
445,143,59874,1,8,0:0:0:0:
445,143,59960,1,0,0:0:0:0:
445,143,60132,1,8,0:0:0:0:
441,148,60217,1,0,0:0:0:0:
441,148,60303,1,8,0:0:0:0:
438,145,60389,1,8,0:0:0:0:
438,145,60474,1,0,0:0:0:0:
442,145,60646,1,0,0:0:0:0:
442,145,60732,1,8,0:0:0:0:
438,145,60817,1,0,0:0:0:0:
438,145,60989,1,0,0:0:0:0:
438,145,61160,1,8,0:0:0:0:
442,145,61674,1,8,0:0:0:0:
445,144,61846,1,0,0:0:0:0:
445,144,62017,1,0,0:0:0:0:
445,144,62103,1,0,0:0:0:0:
445,144,62189,1,8,0:0:0:0:
442,145,62360,1,0,0:0:0:0:
442,145,62446,1,8,0:0:0:0:
442,145,62532,1,0,0:0:0:0:
442,145,62617,1,0,0:0:0:0:
442,145,62703,1,8,0:0:0:0:
445,144,62874,1,0,0:0:0:0:
445,144,62960,1,0,0:0:0:0:
445,144,63046,1,8,0:0:0:0:
445,144,63132,1,8,0:0:0:0:
445,144,63217,1,0,0:0:0:0:
442,145,63474,1,0,0:0:0:0:
442,145,63560,1,8,0:0:0:0:
442,145,63732,1,0,0:0:0:0:
437,145,63903,1,8,0:0:0:0:
430,144,64160,1,0,0:0:0:0:
430,147,64246,1,0,0:0:0:0:
425,141,64417,1,8,0:0:0:0:
425,141,64503,1,8,0:0:0:0:
425,141,64589,1,0,0:0:0:0:
437,145,64817,1,0,0:0:0:0:
425,142,64932,1,8,0:0:0:0:
430,144,65046,1,0,0:0:0:0:
430,144,65160,1,8,0:0:0:0:
424,142,65274,1,0,0:0:0:0:
425,141,65389,1,0,0:0:0:0:
425,141,65446,1,0,0:0:0:0:
425,141,65503,1,0,0:0:0:0:
425,141,65617,1,8,0:0:0:0:
419,144,65732,1,8,0:0:0:0:
419,144,65846,1,8,0:0:0:0:
425,142,65960,1,0,0:0:0:0:
430,144,66217,1,0,0:0:0:0:
425,141,66474,1,0,0:0:0:0:
425,141,66646,1,0,0:0:0:0:
428,146,66903,1,0,0:0:0:0:
430,144,67160,1,0,0:0:0:0:
425,141,67332,1,0,0:0:0:0:
425,141,67589,1,0,0:0:0:0:
428,146,67846,1,0,0:0:0:0:
430,144,68017,1,8,0:0:0:0:
430,144,68189,1,8,0:0:0:0:
435,143,68360,1,0,0:0:0:0:
436,143,68703,1,8,0:0:0:0:
436,143,68960,1,8,0:0:0:0:
436,143,69217,1,8,0:0:0:0:
435,143,69389,1,8,0:0:0:0:
436,143,69646,1,8,0:0:0:0:
436,143,69903,1,8,0:0:0:0:
436,143,70074,1,8,0:0:0:0:
436,143,70246,1,0,0:0:0:0:
422,146,70332,1,8,0:0:0:0:
422,146,70417,1,0,0:0:0:0:
420,147,70589,1,8,0:0:0:0:
420,147,70760,1,0,0:0:0:0:
423,146,70846,1,0,0:0:0:0:
423,146,70932,1,8,0:0:0:0:
422,146,71017,1,0,0:0:0:0:
423,145,71103,1,8,0:0:0:0:
425,146,71274,1,8,0:0:0:0:
422,146,71360,1,8,0:0:0:0:
422,146,71446,1,0,0:0:0:0:
420,147,71703,1,0,0:0:0:0:
423,146,71960,1,0,0:0:0:0:
423,145,72132,1,0,0:0:0:0:
422,146,72389,1,0,0:0:0:0:
420,147,72646,1,0,0:0:0:0:
423,146,72817,1,0,0:0:0:0:
423,145,73074,1,0,0:0:0:0:
422,146,73332,1,0,0:0:0:0:
420,147,73503,1,8,0:0:0:0:
420,147,73674,1,8,0:0:0:0:
423,146,73846,1,0,0:0:0:0:
422,146,74189,1,8,0:0:0:0:
420,147,74446,1,8,0:0:0:0:
420,147,74703,1,8,0:0:0:0:
423,146,74874,1,8,0:0:0:0:
422,146,75132,1,8,0:0:0:0:
420,147,75389,1,8,0:0:0:0:
420,147,75560,1,0,0:0:0:0:
420,147,75732,1,8,0:0:0:0:
423,146,75817,1,0,0:0:0:0:
423,146,75903,1,8,0:0:0:0:
422,146,76074,1,0,0:0:0:0:
411,161,76246,1,0,0:0:0:0:
412,160,76332,1,0,0:0:0:0:
412,160,76417,1,0,0:0:0:0:
412,160,76503,1,0,0:0:0:0:
420,147,76589,1,8,0:0:0:0:
420,147,76674,1,8,0:0:0:0:
420,147,76760,1,8,0:0:0:0:
414,147,76846,1,8,0:0:0:0:
410,149,76932,1,0,0:0:0:0:
410,149,77017,1,8,0:0:0:0:
422,146,77103,1,0,0:0:0:0:
421,152,77146,1,8,0:0:0:0:
413,128,77189,1,0,0:0:0:0:
413,128,77232,1,0,0:0:0:0:
411,146,77274,1,8,0:0:0:0:
416,146,77360,1,8,0:0:0:0:
411,146,77446,1,0,0:0:0:0:
411,146,77617,1,8,0:0:0:0:
411,146,77703,1,0,0:0:0:0:
411,146,77789,1,0,0:0:0:0:
414,147,77874,1,0,0:0:0:0:
410,149,77960,1,8,0:0:0:0:
419,148,78046,1,0,0:0:0:0:
422,146,78089,1,0,0:0:0:0:
407,140,78132,1,8,0:0:0:0:
407,140,78217,1,8,0:0:0:0:
411,146,78303,1,0,0:0:0:0:
407,142,78389,1,8,0:0:0:0:
395,132,78474,1,8,0:0:0:0:
411,146,78560,1,0,0:0:0:0:
411,146,78646,1,8,0:0:0:0:
423,137,78732,1,0,0:0:0:0:
411,134,78817,1,0,0:0:0:0:
427,153,78989,1,8,0:0:0:0:
427,152,79074,1,8,0:0:0:0:
426,152,79160,1,0,0:0:0:0:
426,152,79246,1,0,0:0:0:0:
425,152,79332,1,8,0:0:0:0:
419,134,79417,1,0,0:0:0:0:
425,152,79503,1,0,0:0:0:0:
425,152,79674,1,0,0:0:0:0:
471,119,79760,1,8,0:0:0:0:
424,131,79803,1,8,0:0:0:0:
424,131,79846,1,8,0:0:0:0:
447,124,79932,1,0,0:0:0:0:
447,124,80017,1,8,0:0:0:0:
443,109,80060,1,8,0:0:0:0:
436,122,80103,1,0,0:0:0:0:
434,125,80146,1,0,0:0:0:0:
436,122,80189,1,8,0:0:0:0:
463,123,80274,1,8,0:0:0:0:
428,125,80360,1,0,0:0:0:0:
463,123,80446,1,0,0:0:0:0:
458,126,80532,1,0,0:0:0:0:
458,126,80617,1,0,0:0:0:0:
456,118,80703,1,8,0:0:0:0:
464,125,80789,1,8,0:0:0:0:
456,118,80874,1,0,0:0:0:0:
456,118,80960,1,8,0:0:0:0:
456,118,81046,1,0,0:0:0:0:
437,112,81132,1,0,0:0:0:0:
438,112,81217,1,8,0:0:0:0:
454,110,81260,1,8,0:0:0:0:
443,112,81303,1,0,0:0:0:0:
443,112,81346,1,0,0:0:0:0:
443,112,81389,1,8,0:0:0:0:
454,114,81474,1,8,0:0:0:0:
456,117,81560,1,0,0:0:0:0:
456,117,81646,1,8,0:0:0:0:
456,118,81732,1,0,0:0:0:0:
460,102,81817,1,8,0:0:0:0:
442,85,81903,1,8,0:0:0:0:
459,110,81989,1,0,0:0:0:0:
443,104,82074,1,8,0:0:0:0:
448,111,82160,1,8,0:0:0:0:
448,111,82246,1,0,0:0:0:0:
443,112,82332,1,0,0:0:0:0:
443,112,82417,1,0,0:0:0:0:
453,107,82646,1,0,0:0:0:0:
453,107,82874,1,0,0:0:0:0:
459,110,82989,1,8,0:0:0:0:
457,108,83046,1,8,0:0:0:0:
456,109,83103,1,0,0:0:0:0:
459,103,83332,1,0,0:0:0:0:
459,103,83560,1,0,0:0:0:0:
459,103,83789,1,8,0:0:0:0:
462,103,84017,1,8,0:0:0:0:
459,103,84246,1,8,0:0:0:0:
459,103,84360,1,0,0:0:0:0:
459,103,84417,1,0,0:0:0:0:
459,103,84474,1,8,0:0:0:0:
459,103,84589,1,8,0:0:0:0:
459,103,84703,1,8,0:0:0:0:
459,103,84817,1,8,0:0:0:0:
462,103,84932,1,8,0:0:0:0:
459,103,85046,1,8,0:0:0:0:
459,103,85160,1,0,0:0:0:0:
459,103,85217,1,0,0:0:0:0:
459,103,85274,1,0,0:0:0:0:
459,103,85389,1,0,0:0:0:0:
436,108,85503,1,8,0:0:0:0:
436,107,85560,1,8,0:0:0:0:
442,101,85617,1,0,0:0:0:0:
443,101,85674,1,8,0:0:0:0:
443,101,85732,1,0,0:0:0:0:
438,105,85789,1,0,0:0:0:0:
438,105,85846,1,8,0:0:0:0:
418,102,85960,1,0,0:0:0:0:
418,102,86017,1,8,0:0:0:0:
418,102,86074,1,0,0:0:0:0:
418,95,86189,1,8,0:0:0:0:
418,95,86303,1,0,0:0:0:0:
418,95,86360,1,0,0:0:0:0:
418,95,86417,1,8,0:0:0:0:
408,103,86532,1,0,0:0:0:0:
400,92,86617,1,0,0:0:0:0:
405,92,86703,1,8,0:0:0:0:
406,92,86746,1,8,0:0:0:0:
406,92,86789,1,0,0:0:0:0:
358,94,86832,1,0,0:0:0:0:
406,92,86874,1,8,0:0:0:0:
377,86,86960,1,0,0:0:0:0:
378,86,87046,1,8,0:0:0:0:
380,82,87089,1,8,0:0:0:0:
380,80,87132,1,8,0:0:0:0:
380,80,87217,1,0,0:0:0:0:
385,83,87303,1,8,0:0:0:0:
385,83,87389,1,8,0:0:0:0:
385,83,87474,1,0,0:0:0:0:
385,83,87560,1,8,0:0:0:0:
402,79,87903,1,0,0:0:0:0:
396,84,87989,1,8,0:0:0:0:
397,90,88074,1,8,0:0:0:0:
397,90,88160,1,0,0:0:0:0:
402,89,88246,1,8,0:0:0:0:
425,110,88332,1,8,0:0:0:0:
424,111,88417,1,0,0:0:0:0:
357,131,88503,1,0,0:0:0:0:
411,113,88546,1,0,0:0:0:0:
424,111,88589,1,8,0:0:0:0:
410,101,88674,1,8,0:0:0:0:
412,106,88760,1,8,0:0:0:0:
411,107,88846,1,0,0:0:0:0:
411,107,88932,1,8,0:0:0:0:
394,80,89103,1,8,0:0:0:0:
399,103,89189,1,8,0:0:0:0:
399,103,89274,1,0,0:0:0:0:
401,100,89360,1,8,0:0:0:0:
400,102,89446,1,0,0:0:0:0:
401,98,89532,1,0,0:0:0:0:
417,112,89617,1,8,0:0:0:0:
417,112,89703,1,8,0:0:0:0:
412,106,89789,1,0,0:0:0:0:
421,107,89960,1,8,0:0:0:0:
435,90,90003,1,8,0:0:0:0:
436,87,90046,1,0,0:0:0:0:
432,86,90132,1,8,0:0:0:0:
432,86,90217,1,8,0:0:0:0:
425,83,90303,1,0,0:0:0:0:
449,72,90346,1,0,0:0:0:0:
449,72,90389,1,0,0:0:0:0:
413,94,90432,1,0,0:0:0:0:
448,73,90474,1,8,0:0:0:0:
436,68,90532,1,8,0:0:0:0:
436,68,90589,1,8,0:0:0:0:
436,68,90646,1,0,0:0:0:0:
426,93,90732,1,8,0:0:0:0:
426,93,90817,1,8,0:0:0:0:
417,79,90903,1,0,0:0:0:0:
416,78,90989,1,8,0:0:0:0:
416,78,91074,1,8,0:0:0:0:
416,78,91160,1,0,0:0:0:0:
416,78,91246,1,0,0:0:0:0:
416,78,91332,1,8,0:0:0:0:
414,79,91417,1,8,0:0:0:0:
414,79,91503,1,0,0:0:0:0:
414,79,91589,1,8,0:0:0:0:
414,79,91674,1,8,0:0:0:0:
412,80,91760,1,0,0:0:0:0:
417,79,91846,1,8,0:0:0:0:
417,79,91903,1,8,0:0:0:0:
416,78,91960,1,8,0:0:0:0:
416,78,92017,1,0,0:0:0:0:
424,74,92103,1,8,0:0:0:0:
424,75,92189,1,8,0:0:0:0:
424,75,92274,1,0,0:0:0:0:
416,78,92360,1,8,0:0:0:0:
423,73,92446,1,8,0:0:0:0:
423,74,92532,1,0,0:0:0:0:
439,79,92617,1,0,0:0:0:0:
436,77,92703,1,8,0:0:0:0:
448,67,92746,1,8,0:0:0:0:
448,67,92789,1,0,0:0:0:0:
448,67,92874,1,8,0:0:0:0:
437,86,92960,1,0,0:0:0:0:
436,85,93046,1,8,0:0:0:0:
443,84,93103,1,8,0:0:0:0:
444,81,93160,1,0,0:0:0:0:
445,81,93217,1,8,0:0:0:0:
445,81,93274,1,8,0:0:0:0:
445,81,93332,1,8,0:0:0:0:
445,81,93389,1,0,0:0:0:0:
390,108,93732,1,8,0:0:0:0:
412,104,93903,1,0,0:0:0:0:
432,102,93989,1,8,0:0:0:0:
436,85,94074,1,0,0:0:0:0:
435,94,94160,1,0,0:0:0:0:
430,95,94246,1,8,0:0:0:0:
426,94,94332,1,0,0:0:0:0:
407,108,94374,1,0,0:0:0:0:
426,94,94417,1,8,0:0:0:0:
413,83,94589,1,8,0:0:0:0:
413,83,94674,1,0,0:0:0:0:
420,79,94760,1,8,0:0:0:0:
425,90,94817,1,8,0:0:0:0:
418,92,94874,1,0,0:0:0:0:
418,92,94932,1,8,0:0:0:0:
418,92,94989,1,0,0:0:0:0:
418,92,95046,1,0,0:0:0:0:
418,92,95103,1,8,0:0:0:0:
430,95,95274,1,8,0:0:0:0:
427,93,95360,1,8,0:0:0:0:
426,94,95446,1,0,0:0:0:0:
437,103,95489,1,0,0:0:0:0:
413,108,95532,1,8,0:0:0:0:
462,163,95617,1,0,0:0:0:0:
465,114,95660,1,0,0:0:0:0:
465,114,95703,1,8,0:0:0:0:
465,114,95746,1,8,0:0:0:0:
465,114,95789,1,8,0:0:0:0:
427,93,95960,1,0,0:0:0:0:
428,94,96132,1,8,0:0:0:0:
451,101,96217,1,0,0:0:0:0:
451,101,96303,1,8,0:0:0:0:
451,101,96389,1,0,0:0:0:0:
451,101,96474,1,0,0:0:0:0:
441,96,96560,1,0,0:0:0:0:
451,101,96646,1,8,0:0:0:0:
445,90,96817,1,8,0:0:0:0:
445,90,96903,1,8,0:0:0:0:
446,88,96989,1,0,0:0:0:0:
446,88,97074,1,0,0:0:0:0:
446,88,97160,1,8,0:0:0:0:
446,88,97246,1,8,0:0:0:0:
446,88,97332,1,0,0:0:0:0:
446,88,97417,1,8,0:0:0:0:
446,89,97503,1,0,0:0:0:0:
446,89,97589,1,0,0:0:0:0:
446,89,97674,1,8,0:0:0:0:
445,90,97760,1,0,0:0:0:0:
445,90,97846,1,8,0:0:0:0:
446,88,98017,1,0,0:0:0:0:
452,103,98103,1,8,0:0:0:0:
446,88,98146,1,8,0:0:0:0:
446,88,98189,1,0,0:0:0:0:
439,94,98232,1,0,0:0:0:0:
439,94,98274,1,0,0:0:0:0:
448,75,98360,1,8,0:0:0:0:
445,75,98446,1,0,0:0:0:0:
445,75,98532,1,8,0:0:0:0:
417,104,98574,1,8,0:0:0:0:
412,106,98617,1,0,0:0:0:0:
446,89,98703,1,8,0:0:0:0:
414,103,98760,1,8,0:0:0:0:
416,103,98817,1,0,0:0:0:0:
439,95,98874,1,0,0:0:0:0:
425,88,99046,1,8,0:0:0:0:
425,94,99132,1,0,0:0:0:0:
439,94,99303,1,8,0:0:0:0:
443,94,99389,1,0,0:0:0:0:
443,94,99474,1,0,0:0:0:0:
443,93,99560,1,8,0:0:0:0:
446,89,99732,1,0,0:0:0:0:
450,92,99817,1,8,0:0:0:0:
450,92,99989,1,0,0:0:0:0:
447,92,100074,1,8,0:0:0:0:
451,103,100117,1,8,0:0:0:0:
441,102,100160,1,8,0:0:0:0:
439,94,100246,1,0,0:0:0:0:
443,94,100417,1,8,0:0:0:0:
443,94,100503,1,0,0:0:0:0:
443,93,100589,1,0,0:0:0:0:
440,94,100674,1,8,0:0:0:0:
441,94,100760,1,8,0:0:0:0:
451,76,100846,1,0,0:0:0:0:
443,85,100889,1,0,0:0:0:0:
431,92,100932,1,8,0:0:0:0:
432,92,101017,1,8,0:0:0:0:
432,92,101103,1,8,0:0:0:0:
432,92,101189,1,0,0:0:0:0:
430,93,101274,1,8,0:0:0:0:
439,86,101617,1,0,0:0:0:0:
441,94,101789,1,8,0:0:0:0:
440,87,101874,1,0,0:0:0:0:
432,92,102046,1,8,0:0:0:0:
449,85,102132,1,0,0:0:0:0:
448,83,102217,1,0,0:0:0:0:
448,83,102303,1,8,0:0:0:0:
448,83,102474,1,0,0:0:0:0:
448,83,102560,1,8,0:0:0:0:
446,88,102646,1,0,0:0:0:0:
463,83,102689,1,0,0:0:0:0:
453,81,102732,1,8,0:0:0:0:
454,79,102817,1,0,0:0:0:0:
452,85,102903,1,8,0:0:0:0:
452,85,102989,1,0,0:0:0:0:
416,81,103160,1,8,0:0:0:0:
437,74,103246,1,0,0:0:0:0:
448,83,103332,1,8,0:0:0:0:
440,74,103417,1,8,0:0:0:0:
440,74,103503,1,0,0:0:0:0:
448,83,103589,1,8,0:0:0:0:
440,67,103632,1,8,0:0:0:0:
454,77,103674,1,0,0:0:0:0:
443,74,103760,1,8,0:0:0:0:
442,74,103846,1,8,0:0:0:0:
445,92,103932,1,0,0:0:0:0:
445,92,104017,1,8,0:0:0:0:
458,103,104060,1,8,0:0:0:0:
458,68,104103,1,8,0:0:0:0:
457,75,104189,1,0,0:0:0:0:
439,63,104232,1,0,0:0:0:0:
439,63,104274,1,8,0:0:0:0:
440,74,104317,1,8,0:0:0:0:
440,74,104360,1,0,0:0:0:0:
432,94,104532,1,8,0:0:0:0:
420,78,104617,1,0,0:0:0:0:
420,79,104789,1,8,0:0:0:0:
420,79,104874,1,0,0:0:0:0:
425,75,104960,1,0,0:0:0:0:
425,75,105046,1,8,0:0:0:0:
425,75,105217,1,0,0:0:0:0:
425,75,105303,1,8,0:0:0:0:
424,75,105389,1,0,0:0:0:0:
424,75,105474,1,0,0:0:0:0:
424,75,105560,1,8,0:0:0:0:
420,78,105646,1,0,0:0:0:0:
420,79,105732,1,8,0:0:0:0:
420,79,105903,1,0,0:0:0:0:
425,75,105989,1,8,0:0:0:0:
421,66,106074,1,8,0:0:0:0:
421,66,106160,1,0,0:0:0:0:
421,66,106246,1,8,0:0:0:0:
400,72,106289,1,8,0:0:0:0:
400,72,106332,1,8,0:0:0:0:
421,66,106417,1,0,0:0:0:0:
424,83,106503,1,0,0:0:0:0:
425,83,106589,1,8,0:0:0:0:
424,86,106674,1,0,0:0:0:0:
424,86,106717,1,0,0:0:0:0:
424,86,106760,1,8,0:0:0:0:
424,86,106846,1,8,0:0:0:0:
411,79,106932,1,8,0:0:0:0:
421,66,107017,1,8,0:0:0:0:
430,69,107103,1,0,0:0:0:0:
392,96,107274,1,8,0:0:0:0:
406,80,107360,1,0,0:0:0:0:
429,68,107446,1,8,0:0:0:0:
424,83,107532,1,8,0:0:0:0:
429,68,107617,1,0,0:0:0:0:
423,69,107703,1,8,0:0:0:0:
454,81,107789,1,0,0:0:0:0:
424,86,107874,1,8,0:0:0:0:
423,85,107917,1,8,0:0:0:0:
420,61,107960,1,8,0:0:0:0:
413,63,108046,1,0,0:0:0:0:
416,74,108132,1,8,0:0:0:0:
416,63,108217,1,8,0:0:0:0:
422,68,108303,1,0,0:0:0:0:
417,73,108389,1,8,0:0:0:0:
399,88,108474,1,0,0:0:0:0:
393,75,108560,1,8,0:0:0:0:
391,83,108603,1,8,0:0:0:0:
412,75,108646,1,8,0:0:0:0:
412,75,108732,1,0,0:0:0:0:
441,59,108817,1,8,0:0:0:0:
420,61,108903,1,8,0:0:0:0:
441,59,108989,1,0,0:0:0:0:
423,56,109074,1,8,0:0:0:0:
423,55,109160,1,0,0:0:0:0:
433,63,109246,1,8,0:0:0:0:
442,77,109289,1,8,0:0:0:0:
442,81,109332,1,8,0:0:0:0:
440,77,109417,1,0,0:0:0:0:
440,77,109503,1,8,0:0:0:0:
440,77,109589,1,0,0:0:0:0:
439,67,109674,1,8,0:0:0:0:
429,57,109717,1,8,0:0:0:0:
428,57,109760,1,8,0:0:0:0:
428,57,109803,1,8,0:0:0:0:
428,57,109846,1,0,0:0:0:0:
382,90,109932,1,0,0:0:0:0:
389,85,110017,1,0,0:0:0:0:
425,68,110103,1,0,0:0:0:0:
425,68,110189,1,8,0:0:0:0:
428,69,110360,1,0,0:0:0:0:
419,68,110446,1,0,0:0:0:0:
422,57,110532,1,8,0:0:0:0:
428,68,110617,1,0,0:0:0:0:
422,58,110703,1,8,0:0:0:0:
428,57,110874,1,0,0:0:0:0:
421,74,110932,1,8,0:0:0:0:
423,57,110989,1,8,0:0:0:0:
390,65,111046,1,0,0:0:0:0:
423,57,111132,1,8,0:0:0:0:
423,57,111217,1,0,0:0:0:0:
430,57,111303,1,8,0:0:0:0:
430,58,111389,1,0,0:0:0:0:
422,57,111474,1,0,0:0:0:0:
422,57,111560,1,8,0:0:0:0:
412,49,111732,1,0,0:0:0:0:
429,73,111817,1,0,0:0:0:0:
428,57,111903,1,8,0:0:0:0:
403,73,111946,1,8,0:0:0:0:
406,72,111989,1,0,0:0:0:0:
406,72,112074,1,8,0:0:0:0:
417,44,112246,1,0,0:0:0:0:
409,46,112289,1,0,0:0:0:0:
432,68,112332,1,0,0:0:0:0:
426,67,112417,1,8,0:0:0:0:
409,46,112503,1,8,0:0:0:0:
409,46,112589,1,0,0:0:0:0:
424,57,112674,1,0,0:0:0:0:
403,64,112760,1,8,0:0:0:0:
409,45,112846,1,0,0:0:0:0:
426,49,112932,1,8,0:0:0:0:
416,39,113103,1,0,0:0:0:0:
410,62,113160,1,0,0:0:0:0:
410,62,113217,1,0,0:0:0:0:
420,50,113274,1,8,0:0:0:0:
420,50,113360,1,0,0:0:0:0:
420,50,113446,1,8,0:0:0:0:
417,47,113617,1,0,0:0:0:0:
424,57,113674,1,0,0:0:0:0:
428,57,113732,1,8,0:0:0:0:
419,52,113789,1,8,0:0:0:0:
426,49,113874,1,0,0:0:0:0:
426,49,113960,1,8,0:0:0:0:
409,55,114046,1,8,0:0:0:0:
410,55,114132,1,0,0:0:0:0:
413,55,114217,1,0,0:0:0:0:
413,55,114303,1,8,0:0:0:0:
420,50,114474,1,8,0:0:0:0:
417,47,114532,1,0,0:0:0:0:
408,60,114589,1,0,0:0:0:0:
417,47,114646,1,8,0:0:0:0:
419,52,114732,1,8,0:0:0:0:
419,52,114817,1,8,0:0:0:0:
418,50,114903,1,8,0:0:0:0:
418,50,114989,1,8,0:0:0:0:
418,51,115074,1,8,0:0:0:0:
413,55,115160,1,8,0:0:0:0:
419,51,115246,1,8,0:0:0:0:
437,36,115332,1,0,0:0:0:0:
443,88,115417,1,0,0:0:0:0:
443,88,115503,1,0,0:0:0:0:
425,42,115589,1,0,0:0:0:0:
425,42,115674,1,8,0:0:0:0:
437,61,115846,1,0,0:0:0:0:
434,78,115932,1,0,0:0:0:0:
437,61,116017,1,8,0:0:0:0:
441,58,116103,1,0,0:0:0:0:
448,54,116189,1,8,0:0:0:0:
448,54,116360,1,0,0:0:0:0:
454,64,116417,1,0,0:0:0:0:
454,64,116474,1,0,0:0:0:0:
448,55,116532,1,8,0:0:0:0:
448,55,116617,1,8,0:0:0:0:
448,55,116703,1,0,0:0:0:0:
442,47,116789,1,8,0:0:0:0:
442,47,116874,1,0,0:0:0:0:
449,55,116960,1,0,0:0:0:0:
451,54,117046,1,8,0:0:0:0:
442,47,117217,1,0,0:0:0:0:
430,50,117303,1,0,0:0:0:0:
430,50,117389,1,8,0:0:0:0:
439,98,117432,1,8,0:0:0:0:
448,55,117474,1,0,0:0:0:0:
448,55,117560,1,8,0:0:0:0:
454,49,117732,1,0,0:0:0:0:
454,49,117789,1,0,0:0:0:0:
412,65,117846,1,8,0:0:0:0:
448,56,117903,1,8,0:0:0:0:
454,49,117989,1,0,0:0:0:0:
451,54,118074,1,8,0:0:0:0:
454,50,118160,1,0,0:0:0:0:
454,50,118246,1,0,0:0:0:0:
454,50,118332,1,0,0:0:0:0:
454,50,118417,1,8,0:0:0:0:
463,35,118589,1,0,0:0:0:0:
464,45,118646,1,0,0:0:0:0:
397,81,118703,1,8,0:0:0:0:
463,45,118760,1,0,0:0:0:0:
462,40,118846,1,0,0:0:0:0:
460,43,118932,1,8,0:0:0:0:
451,54,119103,1,8,0:0:0:0:
444,52,119160,1,8,0:0:0:0:
443,50,119217,1,8,0:0:0:0:
444,52,119274,1,0,0:0:0:0:
444,52,119360,1,0,0:0:0:0:
444,52,119446,1,8,0:0:0:0:
456,60,119532,1,0,0:0:0:0:
442,54,119617,1,0,0:0:0:0:
442,54,119703,1,0,0:0:0:0:
442,54,119789,1,8,0:0:0:0:
442,54,119960,1,0,0:0:0:0:
388,57,120017,1,0,0:0:0:0:
388,57,120074,1,8,0:0:0:0:
443,52,120132,1,8,0:0:0:0:
444,52,120360,1,8,0:0:0:0:
442,54,120589,1,8,0:0:0:0:
435,61,120817,1,0,0:0:0:0:
462,46,121074,1,0,0:0:0:0:
462,46,121332,1,0,0:0:0:0:
423,70,121503,1,8,0:0:0:0:
449,58,121617,1,8,0:0:0:0:
435,61,121732,1,0,0:0:0:0:
435,61,121846,1,0,0:0:0:0:
439,60,121960,1,8,0:0:0:0:
439,56,122074,1,8,0:0:0:0:
439,56,122189,1,0,0:0:0:0:
443,58,122446,1,0,0:0:0:0:
446,61,122532,1,8,0:0:0:0:
442,51,122703,1,0,0:0:0:0:
458,44,122874,1,8,0:0:0:0:
460,49,122989,1,0,0:0:0:0:
460,49,123103,1,0,0:0:0:0:
460,49,123217,1,8,0:0:0:0:
460,49,123332,1,8,0:0:0:0:
460,49,123446,1,0,0:0:0:0:
333,96,123560,1,0,0:0:0:0:
403,68,123817,1,0,0:0:0:0:
403,68,123903,1,8,0:0:0:0:
422,71,124074,1,0,0:0:0:0:
388,85,124246,1,8,0:0:0:0:
434,67,124332,1,8,0:0:0:0:
435,67,124417,1,0,0:0:0:0:
436,66,124503,1,8,0:0:0:0:
436,66,124589,1,0,0:0:0:0:
436,66,124674,1,0,0:0:0:0:
436,66,124760,1,8,0:0:0:0:
444,59,124846,1,8,0:0:0:0:
438,58,124932,1,0,0:0:0:0:
437,58,125274,1,8,0:0:0:0:
435,52,125360,1,0,0:0:0:0:
434,52,125446,1,0,0:0:0:0:
434,52,125532,1,0,0:0:0:0:
436,52,125617,1,8,0:0:0:0:
436,52,125789,1,0,0:0:0:0:
438,58,125960,1,8,0:0:0:0:
434,49,126003,1,8,0:0:0:0:
434,47,126046,1,0,0:0:0:0:
434,47,126132,1,8,0:0:0:0:
434,47,126217,1,8,0:0:0:0:
435,47,126303,1,0,0:0:0:0:
434,52,126560,1,0,0:0:0:0:
436,52,126817,1,0,0:0:0:0:
430,49,126989,1,8,0:0:0:0:
443,44,127103,1,8,0:0:0:0:
434,47,127217,1,0,0:0:0:0:
446,45,127332,1,8,0:0:0:0:
428,44,127446,1,8,0:0:0:0:
428,44,127560,1,0,0:0:0:0:
434,39,127674,1,0,0:0:0:0:
434,40,128017,1,8,0:0:0:0:
429,39,128360,1,8,0:0:0:0:
441,41,128474,1,0,0:0:0:0:
441,41,128589,1,0,0:0:0:0:
441,41,128703,1,8,0:0:0:0:
441,41,128817,1,8,0:0:0:0:
441,41,128932,1,0,0:0:0:0:
441,41,129046,1,0,0:0:0:0:
437,28,129217,1,0,0:0:0:0:
448,71,129303,1,0,0:0:0:0:
456,39,129389,1,8,0:0:0:0:
461,38,129474,1,8,0:0:0:0:
452,33,129560,1,0,0:0:0:0:
447,35,129732,1,8,0:0:0:0:
441,41,129817,1,0,0:0:0:0:
460,52,129903,1,0,0:0:0:0:
460,51,129989,1,8,0:0:0:0:
460,51,130074,1,0,0:0:0:0:
460,51,130246,1,8,0:0:0:0:
460,51,130332,1,8,0:0:0:0:
460,51,130417,1,0,0:0:0:0:
449,48,130474,1,0,0:0:0:0:
454,95,130532,1,0,0:0:0:0:
447,50,130589,1,8,0:0:0:0:
487,67,130932,1,0,0:0:0:0:
474,69,131017,1,0,0:0:0:0:
471,72,131103,1,8,0:0:0:0:
465,69,131274,1,0,0:0:0:0:
454,72,131360,1,8,0:0:0:0:
454,67,131446,1,0,0:0:0:0:
462,66,131617,1,8,0:0:0:0:
415,62,131789,1,0,0:0:0:0:
463,60,132046,1,8,0:0:0:0:
441,61,132217,1,8,0:0:0:0:
449,58,132303,1,0,0:0:0:0:
442,58,132389,1,0,0:0:0:0:
459,58,132474,1,8,0:0:0:0:
447,57,132646,1,0,0:0:0:0:
447,57,132817,1,8,0:0:0:0:
444,62,132903,1,8,0:0:0:0:
446,61,132989,1,0,0:0:0:0:
452,56,133074,1,0,0:0:0:0:
452,56,133160,1,8,0:0:0:0:
452,56,133417,1,0,0:0:0:0:
447,57,133589,1,8,0:0:0:0:
447,57,133674,1,0,0:0:0:0:
447,57,133760,1,0,0:0:0:0:
447,57,133846,1,8,0:0:0:0:
452,56,134103,1,0,0:0:0:0:
452,56,134274,1,8,0:0:0:0:
452,56,134360,1,8,0:0:0:0:
452,56,134446,1,0,0:0:0:0:
447,57,134532,1,0,0:0:0:0:
447,57,134789,1,8,0:0:0:0:
452,56,134960,1,0,0:0:0:0:
452,56,135132,1,0,0:0:0:0:
457,45,135217,1,8,0:0:0:0:
457,45,135474,1,0,0:0:0:0:
462,41,135646,1,8,0:0:0:0:
457,45,135732,1,0,0:0:0:0:
461,52,135903,1,8,0:0:0:0:
462,47,136074,1,0,0:0:0:0:
457,34,136160,1,8,0:0:0:0:
457,45,136332,1,0,0:0:0:0:
457,45,136503,1,0,0:0:0:0:
452,41,136589,1,8,0:0:0:0:
448,74,136846,1,0,0:0:0:0:
458,33,136932,1,8,0:0:0:0:
459,38,136974,1,8,0:0:0:0:
459,38,137017,1,0,0:0:0:0:
459,38,137103,1,8,0:0:0:0:
457,34,137189,1,8,0:0:0:0:
457,45,137274,1,0,0:0:0:0:
418,94,137532,1,0,0:0:0:0:
436,79,137703,1,0,0:0:0:0:
448,61,137789,1,0,0:0:0:0:
447,61,137874,1,0,0:0:0:0:
446,56,137960,1,8,0:0:0:0:
448,52,138217,1,0,0:0:0:0:
446,55,138389,1,8,0:0:0:0:
444,56,138474,1,8,0:0:0:0:
443,57,138560,1,0,0:0:0:0:
443,57,138646,1,0,0:0:0:0:
447,61,138903,1,8,0:0:0:0:
442,60,139074,1,0,0:0:0:0:
442,60,139160,1,0,0:0:0:0:
442,60,139246,1,0,0:0:0:0:
446,55,139332,1,8,0:0:0:0:
443,57,139589,1,0,0:0:0:0:
447,61,139789,1,0,0:0:0:0:
447,61,139903,1,0,0:0:0:0:
442,60,140017,1,8,0:0:0:0:
442,60,140274,1,0,0:0:0:0:
443,57,140446,1,8,0:0:0:0:
443,57,140532,1,0,0:0:0:0:
440,56,140617,1,0,0:0:0:0:
447,61,140703,1,8,0:0:0:0:
439,57,140960,1,0,0:0:0:0:
401,94,141046,1,8,0:0:0:0:
425,64,141132,1,0,0:0:0:0:
430,66,141217,1,0,0:0:0:0:
436,54,141303,1,8,0:0:0:0:
430,53,141389,1,0,0:0:0:0:
430,53,141646,1,0,0:0:0:0:
439,57,141817,1,0,0:0:0:0:
439,57,141989,1,0,0:0:0:0:
432,54,142074,1,8,0:0:0:0:
436,54,142332,1,0,0:0:0:0:
430,53,142417,1,8,0:0:0:0:
409,54,142460,1,8,0:0:0:0:
410,54,142503,1,0,0:0:0:0:
410,54,142589,1,8,0:0:0:0:
410,54,142674,1,8,0:0:0:0:
404,58,142760,1,4,0:0:0:0:
