osu file format v14

[General]
AudioFilename: audio.mp3
AudioLeadIn: 0
PreviewTime: 87817
Countdown: 0
SampleSet: Normal
StackLeniency: 0.7
Mode: 1
LetterboxInBreaks: 0
WidescreenStoryboard: 1

[Editor]
DistanceSpacing: 0.9
BeatDivisor: 4
GridSize: 32
TimelineZoom: 2.799999

[Metadata]
Title:Serphut (Cut Ver.)
TitleUnicode:Serphut (Cut Ver.)
Artist:Kurokotei
ArtistUnicode:黒皇帝
Creator:Nifty
Version:Oni
Source:
Tags:breakcore hardcore juke footwork footcore dialgadu77 taiko world cup 2021 TWC2021 tech electronic instrumental sparkle paris n-qia like a little bird artifakt serph remix sf semifinals hr1
BeatmapID:2905127
BeatmapSetID:1408888

[Difficulty]
HPDrainRate:5
CircleSize:2
OverallDifficulty:5
ApproachRate:10
SliderMultiplier:1.4
SliderTickRate:1

[Events]
//Background and Video events
0,0,"bleu.jpg",0,-20
//Break Periods
//Storyboard Layer 0 (Background)
//Storyboard Layer 1 (Fail)
//Storyboard Layer 2 (Pass)
//Storyboard Layer 3 (Foreground)
//Storyboard Layer 4 (Overlay)
//Storyboard Sound Samples

[TimingPoints]
132,342.857142857143,4,1,0,50,1,0
11103,-100,4,1,0,60,0,0
20703,-100,4,1,0,70,0,0
22246,-100,4,1,0,50,0,0
31674,-100,4,1,0,60,0,0
33046,-100,4,1,0,70,0,0
44017,-100,4,1,0,80,0,0
65960,-100,4,1,0,50,0,0
75538,-100,4,1,0,60,0,0
76246,-100,4,1,0,70,0,0
76910,-100,4,1,0,80,0,0
87903,-90.9090909090909,4,1,0,80,0,1
93389,-100,4,1,0,80,0,0
93732,-90.9090909090909,4,1,0,80,0,1
101274,-90.9090909090909,4,1,0,80,0,0
101617,-90.9090909090909,4,1,0,80,0,1
109846,-90.9090909090909,4,1,0,80,0,0
109932,-100,4,1,0,80,0,0
120817,-100,4,1,0,70,0,0

[HitObjects]
306,147,132,5,0,0:0:0:0:
352,137,817,1,8,0:0:0:0:
352,137,989,1,0,0:0:0:0:
395,99,1503,1,0,0:0:0:0:
383,108,2017,1,0,0:0:0:0:
383,108,2189,1,8,0:0:0:0:
392,108,2360,1,0,0:0:0:0:
392,108,2532,1,8,0:0:0:0:
392,108,2646,1,8,0:0:0:0:
392,107,2760,1,8,0:0:0:0:
392,108,2874,1,0,0:0:0:0:
398,102,3560,1,8,0:0:0:0:
398,102,3732,1,0,0:0:0:0:
397,94,4246,1,0,0:0:0:0:
403,89,4760,1,0,0:0:0:0:
426,103,4846,1,0,0:0:0:0:
407,90,4932,1,8,0:0:0:0:
409,89,5103,1,0,0:0:0:0:
422,82,5274,1,8,0:0:0:0:
417,83,5446,1,8,0:0:0:0:
417,83,5532,1,8,0:0:0:0:
417,83,5617,1,0,0:0:0:0:
412,98,6303,1,8,0:0:0:0:
412,98,6474,1,0,0:0:0:0:
412,98,6989,1,0,0:0:0:0:
412,98,7503,1,0,0:0:0:0:
412,98,7674,1,8,0:0:0:0:
412,98,7846,1,0,0:0:0:0:
412,98,8017,1,8,0:0:0:0:
412,98,8132,1,8,0:0:0:0:
412,98,8246,1,8,0:0:0:0:
417,93,8360,1,0,0:0:0:0:
419,91,9046,1,8,0:0:0:0:
419,90,9217,1,0,0:0:0:0:
419,91,9732,1,0,0:0:0:0:
419,90,10246,1,0,0:0:0:0:
435,94,10332,1,0,0:0:0:0:
419,91,10417,1,8,0:0:0:0:
443,96,10589,1,0,0:0:0:0:
443,96,10760,1,8,0:0:0:0:
443,82,10932,1,8,0:0:0:0:
400,95,11017,1,8,0:0:0:0:
329,110,11103,5,4,0:0:0:0:
345,114,11789,1,8,0:0:0:0:
345,114,11960,1,0,0:0:0:0:
339,118,12132,1,0,0:0:0:0:
345,114,12217,1,0,0:0:0:0:
345,114,12303,1,8,0:0:0:0:
345,114,12474,1,0,0:0:0:0:
352,112,12646,1,8,0:0:0:0:
358,113,12817,1,8,0:0:0:0:
358,113,12903,1,0,0:0:0:0:
358,113,13074,1,0,0:0:0:0:
358,113,13160,1,8,0:0:0:0:
358,113,13332,1,0,0:0:0:0:
358,113,13503,1,8,0:0:0:0:
361,96,13617,1,8,0:0:0:0:
361,96,13732,1,8,0:0:0:0:
361,96,13846,1,0,0:0:0:0:
367,98,14532,1,8,0:0:0:0:
366,100,14703,1,0,0:0:0:0:
361,96,14874,1,0,0:0:0:0:
367,98,14960,1,0,0:0:0:0:
367,98,15046,1,8,0:0:0:0:
367,98,15217,1,0,0:0:0:0:
367,98,15389,1,8,0:0:0:0:
367,98,15474,1,0,0:0:0:0:
359,102,15560,1,8,0:0:0:0:
382,114,15732,1,0,0:0:0:0:
359,107,15903,1,8,0:0:0:0:
368,115,15989,1,8,0:0:0:0:
367,113,16074,1,0,0:0:0:0:
376,136,16246,1,8,0:0:0:0:
357,125,16417,1,8,0:0:0:0:
362,123,16503,1,8,0:0:0:0:
365,123,16589,1,0,0:0:0:0:
373,121,17274,1,8,0:0:0:0:
368,115,17446,1,0,0:0:0:0:
365,123,17617,1,0,0:0:0:0:
373,121,17703,1,0,0:0:0:0:
385,134,17789,1,8,0:0:0:0:
383,134,17960,1,0,0:0:0:0:
383,134,18132,1,8,0:0:0:0:
383,134,18303,1,8,0:0:0:0:
383,134,18389,1,0,0:0:0:0:
383,133,18560,1,0,0:0:0:0:
383,133,18646,1,8,0:0:0:0:
385,134,18817,1,0,0:0:0:0:
383,134,18989,1,8,0:0:0:0:
400,123,19103,1,8,0:0:0:0:
400,121,19217,1,8,0:0:0:0:
400,121,19332,1,0,0:0:0:0:
393,119,20017,1,8,0:0:0:0:
400,121,20189,1,0,0:0:0:0:
392,120,20360,1,0,0:0:0:0:
393,119,20446,1,0,0:0:0:0:
393,119,20532,1,8,0:0:0:0:
393,119,20703,1,0,0:0:0:0:
393,119,20874,1,8,0:0:0:0:
401,117,20960,1,8,0:0:0:0:
401,117,21046,1,0,0:0:0:0:
400,121,21217,1,0,0:0:0:0:
392,120,21389,1,8,0:0:0:0:
393,119,21474,1,8,0:0:0:0:
393,119,21560,1,0,0:0:0:0:
393,119,21732,1,8,0:0:0:0:
404,101,21817,1,0,0:0:0:0:
367,97,21989,1,0,0:0:0:0:
373,82,22074,1,8,0:0:0:0:
426,98,22932,1,8,0:0:0:0:
426,98,23617,1,8,0:0:0:0:
426,98,24132,1,0,0:0:0:0:
429,106,24474,1,0,0:0:0:0:
426,98,24589,1,0,0:0:0:0:
426,98,24703,1,0,0:0:0:0:
426,98,24817,1,8,0:0:0:0:
426,98,25674,1,8,0:0:0:0:
422,91,26360,1,8,0:0:0:0:
422,91,26874,1,0,0:0:0:0:
422,91,27217,1,0,0:0:0:0:
431,90,27332,1,8,0:0:0:0:
431,90,27446,1,0,0:0:0:0:
431,90,27560,1,8,0:0:0:0:
425,83,28417,1,8,0:0:0:0:
425,83,29103,1,8,0:0:0:0:
425,83,29617,1,0,0:0:0:0:
425,83,29960,1,0,0:0:0:0:
425,83,30074,1,0,0:0:0:0:
425,83,30189,1,0,0:0:0:0:
425,83,30303,1,8,0:0:0:0:
425,83,31160,1,8,0:0:0:0:
425,83,31503,1,8,0:0:0:0:
425,83,31674,1,0,0:0:0:0:
425,83,32017,1,0,0:0:0:0:
419,86,32189,1,0,0:0:0:0:
425,83,32360,1,0,0:0:0:0:
425,83,32446,1,0,0:0:0:0:
425,83,32532,1,0,0:0:0:0:
442,89,32703,1,0,0:0:0:0:
437,92,32817,1,0,0:0:0:0:
436,90,32932,1,0,0:0:0:0:
429,75,33046,1,8,0:0:0:0:
431,80,33303,1,0,0:0:0:0:
425,83,33389,1,8,0:0:0:0:
425,83,33560,1,0,0:0:0:0:
408,92,33817,1,0,0:0:0:0:
433,100,33989,1,0,0:0:0:0:
433,80,34074,1,8,0:0:0:0:
442,91,34246,1,8,0:0:0:0:
441,91,34417,1,0,0:0:0:0:
411,112,34674,1,8,0:0:0:0:
431,80,34760,1,0,0:0:0:0:
433,80,34932,1,0,0:0:0:0:
441,81,35103,1,8,0:0:0:0:
443,79,35189,1,0,0:0:0:0:
403,94,35360,1,0,0:0:0:0:
443,79,35446,1,8,0:0:0:0:
443,79,35617,1,0,0:0:0:0:
448,79,35789,1,8,0:0:0:0:
446,90,36132,1,0,0:0:0:0:
447,90,36303,1,8,0:0:0:0:
447,90,36474,1,0,0:0:0:0:
443,79,36560,1,8,0:0:0:0:
443,81,36732,1,0,0:0:0:0:
448,79,36817,1,8,0:0:0:0:
448,80,36989,1,8,0:0:0:0:
444,81,37160,1,0,0:0:0:0:
451,82,37503,1,0,0:0:0:0:
443,79,37589,1,8,0:0:0:0:
443,81,37760,1,8,0:0:0:0:
448,79,37846,1,0,0:0:0:0:
448,80,38017,1,0,0:0:0:0:
443,81,38103,1,0,0:0:0:0:
444,81,38189,1,8,0:0:0:0:
422,81,38360,1,8,0:0:0:0:
451,82,38532,1,0,0:0:0:0:
448,85,38789,1,0,0:0:0:0:
442,85,38874,1,8,0:0:0:0:
442,85,39046,1,0,0:0:0:0:
444,81,39217,1,8,0:0:0:0:
448,84,39303,1,0,0:0:0:0:
446,89,39474,1,0,0:0:0:0:
446,89,39560,1,8,0:0:0:0:
448,85,39732,1,8,0:0:0:0:
442,85,39903,1,0,0:0:0:0:
442,85,40160,1,8,0:0:0:0:
437,87,40246,1,0,0:0:0:0:
437,89,40417,1,8,0:0:0:0:
437,89,40589,1,0,0:0:0:0:
437,89,40674,1,8,0:0:0:0:
436,88,40846,1,0,0:0:0:0:
442,85,40932,1,8,0:0:0:0:
442,85,41103,1,8,0:0:0:0:
437,87,41274,1,0,0:0:0:0:
437,89,41617,1,0,0:0:0:0:
434,96,41789,1,0,0:0:0:0:
434,96,41960,1,8,0:0:0:0:
434,96,42303,1,0,0:0:0:0:
434,96,42389,1,0,0:0:0:0:
434,96,42474,1,8,0:0:0:0:
434,96,42646,1,0,0:0:0:0:
434,96,42817,1,8,0:0:0:0:
434,96,42903,1,0,0:0:0:0:
434,96,42989,1,8,0:0:0:0:
434,96,43160,1,8,0:0:0:0:
434,96,43246,1,0,0:0:0:0:
434,96,43417,1,8,0:0:0:0:
435,112,43503,1,0,0:0:0:0:
441,94,43674,1,8,0:0:0:0:
442,106,43789,1,8,0:0:0:0:
449,112,43903,1,8,0:0:0:0:
447,109,44017,1,0,0:0:0:0:
431,116,44360,1,8,0:0:0:0:
435,112,44532,1,0,0:0:0:0:
437,101,44617,1,8,0:0:0:0:
437,101,44703,1,0,0:0:0:0:
436,106,44874,1,8,0:0:0:0:
436,106,45046,1,0,0:0:0:0:
436,109,45217,1,8,0:0:0:0:
441,106,45303,1,8,0:0:0:0:
436,109,45389,1,0,0:0:0:0:
430,112,45560,1,8,0:0:0:0:
430,112,45646,1,0,0:0:0:0:
429,113,45732,1,8,0:0:0:0:
429,113,45903,1,0,0:0:0:0:
429,113,46074,1,8,0:0:0:0:
430,113,46160,1,8,0:0:0:0:
430,113,46246,1,0,0:0:0:0:
430,113,46417,1,0,0:0:0:0:
437,102,46503,1,0,0:0:0:0:
437,102,46589,1,8,0:0:0:0:
437,102,46760,1,8,0:0:0:0:
429,113,47103,1,0,0:0:0:0:
430,113,47274,1,8,0:0:0:0:
428,124,47446,1,0,0:0:0:0:
430,124,47532,1,0,0:0:0:0:
430,124,47703,1,8,0:0:0:0:
430,124,47789,1,8,0:0:0:0:
430,124,47960,1,0,0:0:0:0:
430,124,48046,1,8,0:0:0:0:
430,124,48132,1,0,0:0:0:0:
430,124,48303,1,8,0:0:0:0:
428,124,48389,1,0,0:0:0:0:
428,124,48474,1,8,0:0:0:0:
430,124,48646,1,0,0:0:0:0:
430,124,48817,1,8,0:0:0:0:
408,119,48903,1,8,0:0:0:0:
414,126,48989,1,0,0:0:0:0:
414,126,49160,1,8,0:0:0:0:
423,117,49332,1,8,0:0:0:0:
411,122,49417,1,8,0:0:0:0:
420,114,49503,1,0,0:0:0:0:
420,114,49846,1,8,0:0:0:0:
420,114,50017,1,0,0:0:0:0:
420,114,50189,1,8,0:0:0:0:
423,117,50360,1,0,0:0:0:0:
420,114,50446,1,0,0:0:0:0:
420,114,50532,1,8,0:0:0:0:
420,114,50703,1,0,0:0:0:0:
420,114,50874,1,0,0:0:0:0:
420,114,51046,1,8,0:0:0:0:
420,114,51132,1,0,0:0:0:0:
420,114,51217,1,8,0:0:0:0:
423,117,51389,1,0,0:0:0:0:
420,114,51560,1,8,0:0:0:0:
417,106,51646,1,0,0:0:0:0:
422,123,51732,1,8,0:0:0:0:
422,123,51903,1,0,0:0:0:0:
419,107,51989,1,0,0:0:0:0:
419,107,52074,1,8,0:0:0:0:
420,114,52246,1,8,0:0:0:0:
420,114,52589,1,8,0:0:0:0:
419,116,52760,1,0,0:0:0:0:
419,116,52932,1,8,0:0:0:0:
419,118,53103,1,0,0:0:0:0:
420,114,53189,1,8,0:0:0:0:
420,114,53274,1,0,0:0:0:0:
423,117,53446,1,8,0:0:0:0:
426,122,53617,1,0,0:0:0:0:
422,124,53703,1,0,0:0:0:0:
425,121,53789,1,8,0:0:0:0:
425,121,53960,1,0,0:0:0:0:
424,121,54132,1,8,0:0:0:0:
424,121,54217,1,0,0:0:0:0:
423,117,54303,1,8,0:0:0:0:
423,117,54474,1,0,0:0:0:0:
426,122,54646,1,8,0:0:0:0:
431,120,54732,1,8,0:0:0:0:
425,121,54817,1,0,0:0:0:0:
425,121,54903,1,0,0:0:0:0:
425,121,54989,1,8,0:0:0:0:
424,121,55246,1,8,0:0:0:0:
418,125,55332,1,0,0:0:0:0:
423,117,55503,1,0,0:0:0:0:
426,122,55674,1,8,0:0:0:0:
424,123,56360,1,0,0:0:0:0:
423,117,56532,1,0,0:0:0:0:
433,129,56703,1,8,0:0:0:0:
433,129,56874,1,0,0:0:0:0:
433,129,56960,1,8,0:0:0:0:
433,129,57046,1,0,0:0:0:0:
435,128,57217,1,8,0:0:0:0:
435,128,57389,1,0,0:0:0:0:
435,128,57474,1,8,0:0:0:0:
433,129,57646,1,8,0:0:0:0:
433,129,57732,1,0,0:0:0:0:
440,148,57903,1,8,0:0:0:0:
447,140,58074,1,0,0:0:0:0:
447,140,58246,1,8,0:0:0:0:
446,140,58332,1,0,0:0:0:0:
444,140,58417,1,8,0:0:0:0:
431,144,58932,1,8,0:1:0:0:
431,143,59103,1,0,0:1:0:0:
441,148,59274,1,0,0:0:0:0:
444,140,59446,1,8,0:0:0:0:
442,145,59617,1,0,0:0:0:0:
442,145,59703,1,8,0:0:0:0:
445,143,59874,1,8,0:0:0:0:
445,143,59960,1,0,0:0:0:0:
445,143,60132,1,8,0:0:0:0:
441,148,60217,1,0,0:0:0:0:
438,145,60303,1,8,0:0:0:0:
438,145,60474,1,0,0:0:0:0:
442,145,60732,1,8,0:0:0:0:
438,145,60817,1,0,0:0:0:0:
438,145,60989,1,0,0:0:0:0:
438,145,61160,1,8,0:0:0:0:
442,145,61674,1,8,0:0:0:0:
445,144,61846,1,0,0:0:0:0:
445,144,62017,1,0,0:0:0:0:
445,144,62103,1,0,0:0:0:0:
445,144,62189,1,8,0:0:0:0:
442,145,62360,1,0,0:0:0:0:
442,145,62532,1,0,0:0:0:0:
442,145,62617,1,0,0:0:0:0:
442,145,62703,1,8,0:0:0:0:
445,144,62874,1,0,0:0:0:0:
445,144,63046,1,8,0:0:0:0:
445,144,63132,1,8,0:0:0:0:
445,144,63217,1,0,0:0:0:0:
442,145,63474,1,0,0:0:0:0:
442,145,63560,1,8,0:0:0:0:
442,145,63732,1,0,0:0:0:0:
437,145,63903,1,8,0:0:0:0:
430,144,64160,1,0,0:0:0:0:
430,147,64246,1,0,0:0:0:0:
425,141,64417,1,8,0:0:0:0:
425,141,64589,1,0,0:0:0:0:
437,145,64817,1,0,0:0:0:0:
425,142,64932,1,8,0:0:0:0:
430,144,65046,1,0,0:0:0:0:
424,142,65274,1,0,0:0:0:0:
425,141,65503,1,0,0:0:0:0:
425,141,65617,1,8,0:0:0:0:
419,144,65732,1,8,0:0:0:0:
419,144,65846,1,8,0:0:0:0:
425,142,65960,1,0,0:0:0:0:
430,144,66217,1,0,0:0:0:0:
425,141,66474,1,0,0:0:0:0:
425,141,66646,1,0,0:0:0:0:
428,146,66903,1,0,0:0:0:0:
430,144,67160,1,0,0:0:0:0:
425,141,67332,1,0,0:0:0:0:
425,141,67589,1,0,0:0:0:0:
428,146,67846,1,0,0:0:0:0:
430,144,68017,1,8,0:0:0:0:
430,144,68189,1,8,0:0:0:0:
435,143,68360,1,0,0:0:0:0:
436,143,68703,1,8,0:0:0:0:
436,143,68960,1,8,0:0:0:0:
436,143,69217,1,8,0:0:0:0:
435,143,69389,1,8,0:0:0:0:
436,143,69646,1,8,0:0:0:0:
436,143,69903,1,8,0:0:0:0:
436,143,70074,1,8,0:0:0:0:
436,143,70246,1,0,0:0:0:0:
422,146,70332,1,8,0:0:0:0:
422,146,70417,1,0,0:0:0:0:
420,147,70589,1,8,0:0:0:0:
420,147,70760,1,0,0:0:0:0:
423,146,70846,1,0,0:0:0:0:
423,146,70932,1,8,0:0:0:0:
423,145,71103,1,0,0:0:0:0:
425,146,71274,1,8,0:0:0:0:
422,146,71446,1,0,0:0:0:0:
420,147,71703,1,0,0:0:0:0:
423,146,71960,1,0,0:0:0:0:
423,145,72132,1,0,0:0:0:0:
422,146,72389,1,0,0:0:0:0:
420,147,72646,1,0,0:0:0:0:
423,146,72817,1,0,0:0:0:0:
423,145,73074,1,0,0:0:0:0:
422,146,73332,1,0,0:0:0:0:
420,147,73503,1,8,0:0:0:0:
420,147,73674,1,8,0:0:0:0:
423,146,73846,1,0,0:0:0:0:
422,146,74189,1,8,0:0:0:0:
420,147,74446,1,8,0:0:0:0:
420,147,74703,1,8,0:0:0:0:
423,146,74874,1,8,0:0:0:0:
422,146,75132,1,8,0:0:0:0:
420,147,75389,1,8,0:0:0:0:
420,147,75560,1,0,0:0:0:0:
420,147,75732,1,8,0:0:0:0:
423,146,75817,1,0,0:0:0:0:
423,146,75903,1,8,0:0:0:0:
422,146,76074,1,0,0:0:0:0:
411,161,76246,1,0,0:0:0:0:
412,160,76332,1,0,0:0:0:0:
412,160,76417,1,8,0:0:0:0:
420,147,76589,1,8,0:0:0:0:
420,147,76674,1,0,0:0:0:0:
420,147,76760,1,8,0:0:0:0:
410,149,76932,1,0,0:0:0:0:
410,149,77017,1,8,0:0:0:0:
413,128,77189,1,0,0:0:0:0:
411,146,77274,1,8,0:0:0:0:
411,146,77446,1,0,0:0:0:0:
411,146,77617,1,8,0:0:0:0:
411,146,77703,1,0,0:0:0:0:
414,147,77874,1,0,0:0:0:0:
410,149,77960,1,8,0:0:0:0:
407,140,78132,1,8,0:0:0:0:
411,146,78303,1,0,0:0:0:0:
407,142,78389,1,8,0:0:0:0:
395,132,78474,1,8,0:0:0:0:
411,146,78646,1,8,0:0:0:0:
411,134,78817,1,0,0:0:0:0:
427,153,78989,1,8,0:0:0:0:
427,152,79074,1,8,0:0:0:0:
426,152,79160,1,0,0:0:0:0:
425,152,79332,1,8,0:0:0:0:
425,152,79674,1,0,0:0:0:0:
471,119,79760,1,8,0:0:0:0:
447,124,79932,1,0,0:0:0:0:
447,124,80017,1,8,0:0:0:0:
436,122,80189,1,8,0:0:0:0:
428,125,80360,1,0,0:0:0:0:
463,123,80446,1,0,0:0:0:0:
458,126,80617,1,0,0:0:0:0:
456,118,80703,1,8,0:0:0:0:
456,118,80874,1,0,0:0:0:0:
456,118,81046,1,0,0:0:0:0:
437,112,81132,1,0,0:0:0:0:
438,112,81217,1,8,0:0:0:0:
443,112,81389,1,8,0:0:0:0:
456,117,81560,1,0,0:0:0:0:
456,118,81732,1,0,0:0:0:0:
460,102,81817,1,8,0:0:0:0:
442,85,81903,1,8,0:0:0:0:
443,104,82074,1,8,0:0:0:0:
443,112,82417,1,0,0:0:0:0:
453,107,82646,1,0,0:0:0:0:
453,107,82874,1,0,0:0:0:0:
459,110,82989,1,8,0:0:0:0:
456,109,83103,1,0,0:0:0:0:
459,103,83332,1,0,0:0:0:0:
459,103,83560,1,0,0:0:0:0:
459,103,83789,1,8,0:0:0:0:
462,103,84017,1,8,0:0:0:0:
459,103,84246,1,8,0:0:0:0:
459,103,84360,1,0,0:0:0:0:
459,103,84474,1,8,0:0:0:0:
459,103,84589,1,8,0:0:0:0:
459,103,84703,1,8,0:0:0:0:
459,103,84817,1,8,0:0:0:0:
462,103,84932,1,8,0:0:0:0:
459,103,85046,1,8,0:0:0:0:
459,103,85160,1,0,0:0:0:0:
459,103,85389,1,0,0:0:0:0:
436,108,85503,1,8,0:0:0:0:
442,101,85617,1,0,0:0:0:0:
443,101,85732,1,0,0:0:0:0:
438,105,85846,1,8,0:0:0:0:
418,102,86074,1,0,0:0:0:0:
418,95,86189,1,8,0:0:0:0:
418,95,86303,1,0,0:0:0:0:
408,103,86532,1,0,0:0:0:0:
400,92,86617,1,0,0:0:0:0:
405,92,86703,1,8,0:0:0:0:
406,92,86874,1,0,0:0:0:0:
378,86,87046,1,8,0:0:0:0:
380,80,87132,1,8,0:0:0:0:
380,80,87217,1,0,0:0:0:0:
385,83,87389,1,8,0:0:0:0:
385,83,87560,1,8,0:0:0:0:
402,79,87903,1,0,0:0:0:0:
397,90,88074,1,8,0:0:0:0:
397,90,88160,1,0,0:0:0:0:
425,110,88332,1,8,0:0:0:0:
424,111,88417,1,0,0:0:0:0:
424,111,88589,1,8,0:0:0:0:
412,106,88760,1,0,0:0:0:0:
411,107,88846,1,0,0:0:0:0:
411,107,88932,1,8,0:0:0:0:
399,103,89274,1,0,0:0:0:0:
400,102,89446,1,0,0:0:0:0:
401,98,89532,1,0,0:0:0:0:
417,112,89617,1,8,0:0:0:0:
412,106,89789,1,0,0:0:0:0:
421,107,89960,1,8,0:0:0:0:
436,87,90046,1,0,0:0:0:0:
432,86,90132,1,8,0:0:0:0:
425,83,90303,1,8,0:0:0:0:
436,68,90646,1,0,0:0:0:0:
426,93,90817,1,8,0:0:0:0:
417,79,90903,1,0,0:0:0:0:
416,78,91074,1,8,0:0:0:0:
416,78,91160,1,0,0:0:0:0:
416,78,91332,1,8,0:0:0:0:
414,79,91503,1,0,0:0:0:0:
414,79,91589,1,8,0:0:0:0:
412,80,91760,1,0,0:0:0:0:
417,79,91846,1,8,0:0:0:0:
416,78,92017,1,0,0:0:0:0:
424,75,92189,1,8,0:0:0:0:
424,75,92274,1,0,0:0:0:0:
423,73,92446,1,8,0:0:0:0:
423,74,92532,1,0,0:0:0:0:
436,77,92703,1,8,0:0:0:0:
448,67,92789,1,0,0:0:0:0:
448,67,92874,1,8,0:0:0:0:
436,85,93046,1,8,0:0:0:0:
445,81,93217,1,8,0:0:0:0:
445,81,93389,1,0,0:0:0:0:
390,108,93732,1,8,0:0:0:0:
412,104,93903,1,0,0:0:0:0:
432,102,93989,1,8,0:0:0:0:
436,85,94074,1,0,0:0:0:0:
430,95,94246,1,8,0:0:0:0:
426,94,94417,1,8,0:0:0:0:
413,83,94589,1,0,0:0:0:0:
420,79,94760,1,8,0:0:0:0:
418,92,94846,1,8,0:0:0:0:
418,92,95017,1,0,0:0:0:0:
418,92,95103,1,8,0:0:0:0:
430,95,95274,1,8,0:0:0:0:
426,94,95446,1,0,0:0:0:0:
413,108,95617,1,0,0:0:0:0:
465,114,95703,1,8,0:0:0:0:
465,114,95789,1,8,0:0:0:0:
428,94,96132,1,8,0:0:0:0:
451,101,96217,1,0,0:0:0:0:
451,101,96389,1,0,0:0:0:0:
451,101,96474,1,8,0:0:0:0:
451,101,96646,1,0,0:0:0:0:
445,90,96817,1,8,0:0:0:0:
445,90,96903,1,8,0:0:0:0:
446,88,96989,1,0,0:0:0:0:
446,88,97160,1,8,0:0:0:0:
369,83,97246,1,8,0:0:0:0:
446,88,97417,1,8,0:0:0:0:
446,89,97503,1,0,0:0:0:0:
445,90,97846,1,8,0:0:0:0:
446,88,98017,1,0,0:0:0:0:
452,103,98103,1,8,0:0:0:0:
446,88,98189,1,0,0:0:0:0:
448,75,98360,1,8,0:0:0:0:
445,75,98532,1,8,0:0:0:0:
412,106,98617,1,0,0:0:0:0:
446,89,98703,1,8,0:0:0:0:
439,95,98874,1,0,0:0:0:0:
425,88,99046,1,8,0:0:0:0:
425,94,99132,1,0,0:0:0:0:
439,94,99303,1,8,0:0:0:0:
443,94,99389,1,0,0:0:0:0:
443,93,99560,1,8,0:0:0:0:
446,89,99732,1,0,0:0:0:0:
450,92,99817,1,8,0:0:0:0:
450,92,99989,1,0,0:0:0:0:
447,92,100074,1,8,0:0:0:0:
439,94,100246,1,0,0:0:0:0:
443,94,100417,1,8,0:0:0:0:
443,94,100503,1,0,0:0:0:0:
440,94,100674,1,8,0:0:0:0:
441,94,100760,1,8,0:0:0:0:
431,92,100932,1,0,0:0:0:0:
432,92,101103,1,8,0:0:0:0:
432,92,101189,1,0,0:0:0:0:
430,93,101274,1,8,0:0:0:0:
439,86,101617,1,0,0:0:0:0:
441,94,101789,1,8,0:0:0:0:
440,87,101874,1,0,0:0:0:0:
432,92,102046,1,8,0:0:0:0:
449,85,102132,1,0,0:0:0:0:
448,83,102303,1,8,0:0:0:0:
448,83,102474,1,8,0:0:0:0:
448,83,102560,1,8,0:0:0:0:
453,81,102732,1,8,0:0:0:0:
454,79,102817,1,0,0:0:0:0:
452,85,102989,1,0,0:0:0:0:
416,81,103160,1,8,0:0:0:0:
437,74,103246,1,0,0:0:0:0:
440,74,103417,1,8,0:0:0:0:
440,74,103503,1,0,0:0:0:0:
454,77,103674,1,0,0:0:0:0:
442,74,103846,1,8,0:0:0:0:
445,92,103932,1,0,0:0:0:0:
445,92,104017,1,8,0:0:0:0:
440,74,104360,1,0,0:0:0:0:
432,94,104532,1,8,0:0:0:0:
420,78,104617,1,0,0:0:0:0:
420,79,104789,1,8,0:0:0:0:
420,79,104874,1,0,0:0:0:0:
425,75,105046,1,8,0:0:0:0:
425,75,105217,1,0,0:0:0:0:
425,75,105303,1,8,0:0:0:0:
424,75,105474,1,0,0:0:0:0:
424,75,105560,1,8,0:0:0:0:
420,79,105732,1,8,0:0:0:0:
420,79,105903,1,0,0:0:0:0:
425,75,105989,1,8,0:0:0:0:
421,66,106074,1,8,0:0:0:0:
421,66,106246,1,8,0:0:0:0:
421,66,106417,1,0,0:0:0:0:
424,83,106503,1,0,0:0:0:0:
425,83,106589,1,8,0:0:0:0:
424,86,106760,1,8,0:0:0:0:
430,69,107103,1,0,0:0:0:0:
392,96,107274,1,8,0:0:0:0:
406,80,107360,1,0,0:0:0:0:
424,83,107532,1,8,0:0:0:0:
429,68,107617,1,0,0:0:0:0:
454,81,107789,1,0,0:0:0:0:
420,61,107960,1,8,0:0:0:0:
413,63,108046,1,0,0:0:0:0:
416,63,108217,1,8,0:0:0:0:
422,68,108303,1,0,0:0:0:0:
399,88,108474,1,8,0:0:0:0:
412,75,108646,1,0,0:0:0:0:
412,75,108732,1,8,0:0:0:0:
441,59,108903,1,0,0:0:0:0:
420,61,108989,1,8,0:0:0:0:
423,55,109160,1,0,0:0:0:0:
433,63,109246,1,8,0:0:0:0:
440,77,109417,1,0,0:0:0:0:
440,77,109503,1,8,0:0:0:0:
440,77,109674,1,8,0:0:0:0:
428,57,109760,1,8,0:0:0:0:
428,57,109846,1,0,0:0:0:0:
425,68,110189,1,8,0:0:0:0:
428,69,110360,1,0,0:0:0:0:
419,68,110446,1,0,0:0:0:0:
422,57,110532,1,8,0:0:0:0:
422,58,110703,1,8,0:0:0:0:
428,57,110874,1,0,0:0:0:0:
421,74,110960,1,8,0:0:0:0:
423,57,111132,1,8,0:0:0:0:
423,57,111217,1,0,0:0:0:0:
411,62,111474,1,0,0:0:0:0:
422,57,111560,1,8,0:0:0:0:
412,49,111732,1,0,0:0:0:0:
429,73,111817,1,0,0:0:0:0:
428,57,111903,1,8,0:0:0:0:
406,72,112074,1,8,0:0:0:0:
417,44,112246,1,0,0:0:0:0:
432,68,112332,1,0,0:0:0:0:
409,46,112503,1,8,0:0:0:0:
409,46,112589,1,0,0:0:0:0:
426,49,112932,1,8,0:0:0:0:
416,39,113103,1,0,0:0:0:0:
410,62,113189,1,0,0:0:0:0:
420,50,113274,1,8,0:0:0:0:
420,50,113446,1,8,0:0:0:0:
417,47,113617,1,0,0:0:0:0:
428,57,113703,1,8,0:0:0:0:
426,49,113874,1,0,0:0:0:0:
426,49,113960,1,8,0:0:0:0:
410,55,114132,1,0,0:0:0:0:
397,61,114217,1,0,0:0:0:0:
413,55,114303,1,8,0:0:0:0:
420,50,114474,1,0,0:0:0:0:
144,197,114646,2,0,L|197:185,6,35
437,36,115332,1,0,0:0:0:0:
425,42,115674,1,8,0:0:0:0:
437,61,115846,1,0,0:0:0:0:
434,78,115932,1,0,0:0:0:0:
437,61,116017,1,8,0:0:0:0:
448,54,116189,1,8,0:0:0:0:
448,54,116360,1,0,0:0:0:0:
454,64,116446,1,0,0:0:0:0:
448,55,116617,1,8,0:0:0:0:
448,55,116703,1,0,0:0:0:0:
454,76,116960,1,0,0:0:0:0:
451,54,117046,1,8,0:0:0:0:
442,47,117217,1,0,0:0:0:0:
430,50,117303,1,0,0:0:0:0:
430,50,117389,1,8,0:0:0:0:
448,55,117560,1,8,0:0:0:0:
454,49,117732,1,0,0:0:0:0:
412,65,117817,1,8,0:0:0:0:
454,49,117989,1,0,0:0:0:0:
451,54,118074,1,8,0:0:0:0:
454,50,118417,1,8,0:0:0:0:
463,35,118589,1,0,0:0:0:0:
397,81,118674,1,8,0:0:0:0:
463,45,118760,1,0,0:0:0:0:
460,43,118932,1,8,0:0:0:0:
451,54,119103,1,8,0:0:0:0:
444,52,119189,1,8,0:0:0:0:
444,52,119274,1,0,0:0:0:0:
444,52,119446,1,8,0:0:0:0:
442,54,119532,1,0,0:0:0:0:
442,54,119703,1,0,0:0:0:0:
442,54,119789,1,8,0:0:0:0:
442,54,119960,1,0,0:0:0:0:
443,52,120132,1,8,0:0:0:0:
444,52,120360,1,8,0:0:0:0:
442,54,120589,1,8,0:0:0:0:
435,61,120817,1,0,0:0:0:0:
462,46,121332,1,0,0:0:0:0:
423,70,121503,1,8,0:0:0:0:
435,61,121732,1,0,0:0:0:0:
435,61,121846,1,0,0:0:0:0:
439,60,121960,1,8,0:0:0:0:
439,56,122074,1,8,0:0:0:0:
439,56,122189,1,0,0:0:0:0:
446,61,122532,1,8,0:0:0:0:
442,51,122703,1,0,0:0:0:0:
458,44,122874,1,8,0:0:0:0:
460,49,123103,1,0,0:0:0:0:
460,49,123217,1,8,0:0:0:0:
460,49,123332,1,8,0:0:0:0:
460,49,123446,1,0,0:0:0:0:
333,96,123560,1,0,0:0:0:0:
403,68,123903,1,8,0:0:0:0:
422,71,124074,1,0,0:0:0:0:
388,85,124246,1,8,0:0:0:0:
435,67,124417,1,0,0:0:0:0:
436,66,124503,1,8,0:0:0:0:
436,66,124589,1,0,0:0:0:0:
436,66,124760,1,8,0:0:0:0:
438,58,124932,1,0,0:0:0:0:
437,58,125274,1,8,0:0:0:0:
434,52,125446,1,0,0:0:0:0:
434,52,125532,1,0,0:0:0:0:
436,52,125617,1,8,0:0:0:0:
436,52,125789,1,0,0:0:0:0:
438,58,125960,1,8,0:0:0:0:
434,47,126046,1,0,0:0:0:0:
434,47,126132,1,8,0:0:0:0:
435,47,126303,1,0,0:0:0:0:
436,52,126817,1,0,0:0:0:0:
430,49,126989,1,8,0:0:0:0:
434,47,127217,1,0,0:0:0:0:
446,45,127332,1,0,0:0:0:0:
428,44,127446,1,8,0:0:0:0:
428,44,127560,1,8,0:0:0:0:
434,39,127674,1,0,0:0:0:0:
434,40,128017,1,8,0:0:0:0:
429,39,128360,1,8,0:0:0:0:
441,41,128589,1,0,0:0:0:0:
441,41,128703,1,8,0:0:0:0:
441,41,128817,1,8,0:0:0:0:
441,41,128932,1,0,0:0:0:0:
441,41,129046,1,0,0:0:0:0:
456,39,129389,1,8,0:0:0:0:
461,38,129474,1,8,0:0:0:0:
452,33,129560,1,0,0:0:0:0:
447,35,129732,1,8,0:0:0:0:
460,52,129903,1,0,0:0:0:0:
460,51,129989,1,8,0:0:0:0:
460,51,130074,1,0,0:0:0:0:
460,51,130246,1,8,0:0:0:0:
460,51,130417,1,0,0:0:0:0:
447,50,130589,1,8,0:0:0:0:
487,67,130932,1,0,0:0:0:0:
471,72,131103,1,8,0:0:0:0:
465,69,131274,1,0,0:0:0:0:
454,72,131360,1,0,0:0:0:0:
454,67,131446,1,8,0:0:0:0:
415,62,131789,1,0,0:0:0:0:
463,60,132046,1,8,0:0:0:0:
441,61,132217,1,8,0:0:0:0:
449,58,132303,1,0,0:0:0:0:
459,58,132474,1,8,0:0:0:0:
447,57,132646,1,0,0:0:0:0:
447,57,132817,1,8,0:0:0:0:
444,62,132903,1,8,0:0:0:0:
452,56,132989,1,0,0:0:0:0:
452,56,133160,1,8,0:0:0:0:
452,56,133417,1,0,0:0:0:0:
447,57,133589,1,8,0:0:0:0:
447,57,133674,1,0,0:0:0:0:
447,57,133846,1,8,0:0:0:0:
452,56,134103,1,0,0:0:0:0:
452,56,134274,1,8,0:0:0:0:
452,56,134446,1,8,0:0:0:0:
447,57,134532,1,0,0:0:0:0:
447,57,134789,1,8,0:0:0:0:
452,56,134960,1,0,0:0:0:0:
452,56,135132,1,0,0:0:0:0:
457,45,135217,1,8,0:0:0:0:
457,45,135474,1,0,0:0:0:0:
462,41,135646,1,8,0:0:0:0:
457,45,135732,1,0,0:0:0:0:
461,52,135903,1,8,0:0:0:0:
457,34,136160,1,8,0:0:0:0:
457,45,136332,1,0,0:0:0:0:
457,45,136503,1,0,0:0:0:0:
452,41,136589,1,8,0:0:0:0:
458,33,136932,1,8,0:0:0:0:
459,38,137017,1,0,0:0:0:0:
459,38,137103,1,8,0:0:0:0:
457,45,137274,1,0,0:0:0:0:
418,94,137532,1,0,0:0:0:0:
436,79,137703,1,0,0:0:0:0:
448,61,137789,1,0,0:0:0:0:
446,56,137960,1,8,0:0:0:0:
448,52,138217,1,0,0:0:0:0:
446,55,138389,1,8,0:0:0:0:
444,56,138560,1,8,0:0:0:0:
443,57,138646,1,0,0:0:0:0:
447,61,138903,1,8,0:0:0:0:
442,60,139074,1,0,0:0:0:0:
442,60,139160,1,0,0:0:0:0:
446,55,139332,1,8,0:0:0:0:
443,57,139589,1,0,0:0:0:0:
442,60,140017,1,8,0:0:0:0:
442,60,140274,1,0,0:0:0:0:
443,57,140446,1,8,0:0:0:0:
443,57,140532,1,0,0:0:0:0:
447,61,140703,1,8,0:0:0:0:
439,57,140960,1,0,0:0:0:0:
401,94,141046,1,8,0:0:0:0:
430,66,141217,1,0,0:0:0:0:
430,53,141389,1,8,0:0:0:0:
430,53,141646,1,0,0:0:0:0:
439,57,141817,1,0,0:0:0:0:
439,57,141989,1,0,0:0:0:0:
432,54,142074,1,8,0:0:0:0:
430,53,142417,1,8,0:0:0:0:
379,75,142503,1,0,0:0:0:0:
410,54,142589,1,8,0:0:0:0:
404,58,142760,1,4,0:0:0:0:
