osu file format v14

[General]
AudioFilename: audio.mp3
AudioLeadIn: 0
PreviewTime: 87817
Countdown: 0
SampleSet: Normal
StackLeniency: 0.7
Mode: 1
LetterboxInBreaks: 0
WidescreenStoryboard: 0

[Editor]
DistanceSpacing: 0.9
BeatDivisor: 4
GridSize: 32
TimelineZoom: 2.799999

[Metadata]
Title:Serphut (Cut Ver.)
TitleUnicode:Serphut (Cut Ver.)
Artist:Kurokotei
ArtistUnicode:黒皇帝
Creator:Nifty
Version:Muzukashii
Source:
Tags:breakcore hardcore juke footwork footcore dialgadu77 taiko world cup 2021 TWC2021 tech electronic instrumental sparkle paris n-qia like a little bird artifakt serph remix sf semifinals hr1
BeatmapID:3587177
BeatmapSetID:1408888

[Difficulty]
HPDrainRate:6
CircleSize:2
OverallDifficulty:4
ApproachRate:10
SliderMultiplier:1.4
SliderTickRate:1

[Events]
//Background and Video events
0,0,"bleu.jpg",0,-20
//Break Periods
//Storyboard Layer 0 (Background)
//Storyboard Layer 1 (Fail)
//Storyboard Layer 2 (Pass)
//Storyboard Layer 3 (Foreground)
//Storyboard Layer 4 (Overlay)
//Storyboard Sound Samples

[TimingPoints]
132,342.857142857143,4,1,0,50,1,0
11103,-100,4,1,0,60,0,0
20703,-100,4,1,0,70,0,0
22246,-100,4,1,0,50,0,0
31674,-100,4,1,0,60,0,0
33046,-100,4,1,0,70,0,0
44017,-100,4,1,0,80,0,0
65960,-100,4,1,0,50,0,0
75538,-100,4,1,0,60,0,0
76246,-100,4,1,0,70,0,0
76910,-100,4,1,0,80,0,0
87903,-90.9090909090909,4,1,0,80,0,1
93389,-100,4,1,0,80,0,0
93732,-90.9090909090909,4,1,0,80,0,1
101274,-90.9090909090909,4,1,0,80,0,0
101617,-90.9090909090909,4,1,0,80,0,1
109846,-90.9090909090909,4,1,0,80,0,0
109932,-100,4,1,0,80,0,0
120817,-100,4,1,0,70,0,0

[HitObjects]
308,146,132,5,0,0:0:0:0:
354,136,817,1,8,0:0:0:0:
354,136,989,1,0,0:0:0:0:
397,98,1503,1,0,0:0:0:0:
385,107,2017,1,0,0:0:0:0:
385,107,2189,1,8,0:0:0:0:
394,107,2360,1,0,0:0:0:0:
394,107,2532,1,8,0:0:0:0:
394,107,2874,1,0,0:0:0:0:
400,101,3560,1,8,0:0:0:0:
400,101,3732,1,0,0:0:0:0:
399,93,4246,1,0,0:0:0:0:
405,88,4760,1,0,0:0:0:0:
409,89,4932,1,8,0:0:0:0:
424,81,5274,1,8,0:0:0:0:
419,82,5446,1,8,0:0:0:0:
419,82,5617,1,0,0:0:0:0:
414,97,6303,1,8,0:0:0:0:
414,97,6474,1,0,0:0:0:0:
414,97,6989,1,0,0:0:0:0:
414,97,7503,1,0,0:0:0:0:
414,97,7674,1,8,0:0:0:0:
414,97,7846,1,0,0:0:0:0:
414,97,8017,1,8,0:0:0:0:
419,92,8360,1,0,0:0:0:0:
421,90,9046,1,8,0:0:0:0:
421,89,9217,1,0,0:0:0:0:
421,90,9732,1,0,0:0:0:0:
421,89,10246,1,0,0:0:0:0:
421,90,10417,1,8,0:0:0:0:
445,95,10760,1,8,0:0:0:0:
445,81,10932,1,8,0:0:0:0:
331,109,11103,5,4,0:0:0:0:
347,113,11789,1,8,0:0:0:0:
341,117,12132,1,0,0:0:0:0:
347,113,12303,1,8,0:0:0:0:
347,113,12474,1,0,0:0:0:0:
354,111,12646,1,8,0:0:0:0:
360,112,12903,1,8,0:0:0:0:
360,112,13160,1,8,0:0:0:0:
360,112,13332,1,0,0:0:0:0:
360,112,13503,1,8,0:0:0:0:
363,95,13846,1,0,0:0:0:0:
369,97,14532,1,8,0:0:0:0:
363,95,14874,1,0,0:0:0:0:
369,97,15046,1,8,0:0:0:0:
369,97,15217,1,0,0:0:0:0:
355,100,15389,1,8,0:0:0:0:
355,103,15474,1,8,0:0:0:0:
361,101,15560,1,8,0:0:0:0:
384,113,15732,1,0,0:0:0:0:
361,106,15903,1,8,0:0:0:0:
378,135,16246,1,8,0:0:0:0:
359,124,16417,1,8,0:0:0:0:
367,122,16589,1,0,0:0:0:0:
375,120,17274,1,8,0:0:0:0:
367,122,17617,1,0,0:0:0:0:
387,133,17789,1,8,0:0:0:0:
385,133,17960,1,0,0:0:0:0:
385,133,18132,1,8,0:0:0:0:
385,133,18389,1,8,0:0:0:0:
385,132,18646,1,8,0:0:0:0:
387,133,18817,1,0,0:0:0:0:
385,133,18989,1,8,0:0:0:0:
402,120,19332,1,0,0:0:0:0:
395,118,20017,1,8,0:0:0:0:
394,119,20360,1,0,0:0:0:0:
395,118,20532,1,8,0:0:0:0:
395,118,20703,1,0,0:0:0:0:
395,118,20874,1,8,0:0:0:0:
403,116,20960,1,8,0:0:0:0:
403,116,21046,1,8,0:0:0:0:
402,120,21217,1,0,0:0:0:0:
394,119,21389,1,8,0:0:0:0:
395,118,21732,1,0,0:0:0:0:
369,96,21903,1,0,0:0:0:0:
375,81,22074,1,8,0:0:0:0:
428,97,22932,1,8,0:0:0:0:
428,97,23617,1,8,0:0:0:0:
428,97,24132,1,0,0:0:0:0:
431,105,24474,1,0,0:0:0:0:
428,97,24817,1,8,0:0:0:0:
428,97,25674,1,8,0:0:0:0:
424,90,26360,1,8,0:0:0:0:
424,90,26874,1,0,0:0:0:0:
424,90,27217,1,0,0:0:0:0:
433,89,27560,1,8,0:0:0:0:
427,82,28417,1,8,0:0:0:0:
427,82,29103,1,8,0:0:0:0:
427,82,29617,1,0,0:0:0:0:
427,82,29960,1,0,0:0:0:0:
427,82,30303,1,8,0:0:0:0:
427,82,31160,1,8,0:0:0:0:
427,82,31503,1,8,0:0:0:0:
427,82,31674,1,0,0:0:0:0:
427,82,32017,1,0,0:0:0:0:
421,85,32189,1,0,0:0:0:0:
427,82,32360,1,0,0:0:0:0:
427,82,32532,1,0,0:0:0:0:
444,88,32703,1,0,0:0:0:0:
431,74,33046,1,8,0:0:0:0:
427,82,33560,1,0,0:0:0:0:
416,87,33903,1,0,0:0:0:0:
435,79,34074,1,8,0:0:0:0:
443,90,34417,1,0,0:0:0:0:
444,90,34589,1,8,0:0:0:0:
433,79,34760,1,0,0:0:0:0:
435,79,34932,1,0,0:0:0:0:
443,80,35103,1,8,0:0:0:0:
405,93,35360,1,8,0:0:0:0:
445,78,35446,1,8,0:0:0:0:
445,78,35617,1,0,0:0:0:0:
450,78,35789,1,8,0:0:0:0:
449,89,36303,1,8,0:0:0:0:
426,83,36646,1,0,0:0:0:0:
450,78,36817,1,8,0:0:0:0:
446,80,37160,1,0,0:0:0:0:
450,79,37332,1,8,0:0:0:0:
453,81,37503,1,0,0:0:0:0:
445,78,37674,1,8,0:0:0:0:
450,78,37846,1,0,0:0:0:0:
450,79,38017,1,0,0:0:0:0:
446,80,38189,1,8,0:0:0:0:
434,76,38274,1,8,0:0:0:0:
424,80,38360,1,8,0:0:0:0:
453,81,38532,1,0,0:0:0:0:
444,84,39046,1,0,0:0:0:0:
361,85,39389,1,0,0:0:0:0:
448,88,39560,1,8,0:0:0:0:
450,84,39732,1,8,0:0:0:0:
444,84,39903,1,0,0:0:0:0:
444,84,40074,1,8,0:0:0:0:
439,88,40417,1,8,0:0:0:0:
439,88,40589,1,0,0:0:0:0:
444,84,40932,1,8,0:0:0:0:
444,84,41103,1,8,0:0:0:0:
439,86,41274,1,0,0:0:0:0:
439,88,41617,1,0,0:0:0:0:
436,95,41789,1,0,0:0:0:0:
436,95,41960,1,8,0:0:0:0:
436,95,42303,1,0,0:0:0:0:
436,95,42474,1,8,0:0:0:0:
436,95,42646,1,0,0:0:0:0:
436,95,42817,1,8,0:0:0:0:
436,95,42903,1,8,0:0:0:0:
436,95,42989,1,8,0:0:0:0:
436,95,43246,1,0,0:0:0:0:
437,111,43503,1,0,0:0:0:0:
443,93,43674,1,8,0:0:0:0:
449,108,44017,1,0,0:0:0:0:
437,111,44532,1,8,0:0:0:0:
439,100,44617,1,8,0:0:0:0:
439,100,44703,1,8,0:0:0:0:
438,105,44874,1,8,0:0:0:0:
438,105,45046,1,0,0:0:0:0:
438,108,45389,1,0,0:0:0:0:
432,111,45560,1,8,0:0:0:0:
431,112,45732,1,8,0:0:0:0:
431,112,45903,1,0,0:0:0:0:
431,112,46074,1,8,0:0:0:0:
432,112,46160,1,8,0:0:0:0:
432,112,46246,1,8,0:0:0:0:
432,112,46417,1,0,0:0:0:0:
439,101,46589,1,8,0:0:0:0:
439,101,46760,1,8,0:0:0:0:
432,112,47274,1,8,0:0:0:0:
430,123,47446,1,0,0:0:0:0:
432,123,47703,1,8,0:0:0:0:
432,123,47789,1,8,0:0:0:0:
432,123,47960,1,0,0:0:0:0:
432,123,48132,1,0,0:0:0:0:
432,123,48303,1,8,0:0:0:0:
430,123,48389,1,8,0:0:0:0:
430,123,48474,1,8,0:0:0:0:
432,123,48646,1,0,0:0:0:0:
432,123,48817,1,8,0:0:0:0:
416,125,48989,1,0,0:0:0:0:
416,125,49160,1,8,0:0:0:0:
422,113,49503,1,0,0:0:0:0:
422,113,50017,1,0,0:0:0:0:
422,113,50189,1,8,0:0:0:0:
425,116,50360,1,0,0:0:0:0:
422,113,50446,1,0,0:0:0:0:
422,113,50532,1,0,0:0:0:0:
422,113,50703,1,8,0:0:0:0:
422,113,50874,1,0,0:0:0:0:
422,113,51046,1,8,0:0:0:0:
422,113,51217,1,8,0:0:0:0:
425,116,51389,1,0,0:0:0:0:
422,113,51560,1,8,0:0:0:0:
419,105,51646,1,8,0:0:0:0:
424,122,51732,1,8,0:0:0:0:
424,122,51903,1,0,0:0:0:0:
421,106,52074,1,8,0:0:0:0:
422,113,52246,1,8,0:0:0:0:
421,115,52760,1,0,0:0:0:0:
421,115,52932,1,8,0:0:0:0:
421,117,53103,1,0,0:0:0:0:
422,113,53189,1,0,0:0:0:0:
422,113,53274,1,0,0:0:0:0:
425,116,53446,1,8,0:0:0:0:
428,121,53617,1,0,0:0:0:0:
427,120,53789,1,8,0:0:0:0:
427,120,53960,1,0,0:0:0:0:
426,120,54132,1,0,0:0:0:0:
425,116,54303,1,8,0:0:0:0:
426,120,54389,1,8,0:0:0:0:
425,116,54474,1,8,0:0:0:0:
428,121,54646,1,8,0:0:0:0:
427,120,54817,1,0,0:0:0:0:
427,120,54989,1,8,0:0:0:0:
420,124,55246,1,0,0:0:0:0:
425,116,55503,1,0,0:0:0:0:
428,121,55674,1,8,0:0:0:0:
426,122,56360,1,0,0:0:0:0:
425,116,56532,1,0,0:0:0:0:
435,128,56703,1,8,0:0:0:0:
435,128,56874,1,0,0:0:0:0:
435,128,56960,1,0,0:0:0:0:
435,128,57046,1,0,0:0:0:0:
437,127,57217,1,8,0:0:0:0:
437,127,57389,1,0,0:0:0:0:
435,128,57732,1,0,0:0:0:0:
442,147,58074,1,0,0:0:0:0:
449,139,58246,1,0,0:0:0:0:
446,139,58417,1,8,0:0:0:0:
433,142,59103,1,0,0:1:0:0:
443,147,59274,1,0,0:0:0:0:
446,139,59446,1,8,0:0:0:0:
444,144,59617,1,0,0:0:0:0:
444,144,59703,1,0,0:0:0:0:
447,142,59874,1,8,0:0:0:0:
447,142,59960,1,8,0:0:0:0:
447,142,60132,1,8,0:0:0:0:
440,144,60303,1,0,0:0:0:0:
440,144,60474,1,0,0:0:0:0:
440,144,60732,1,0,0:0:0:0:
440,144,60989,1,0,0:0:0:0:
440,144,61160,1,8,0:0:0:0:
447,143,61846,1,0,0:0:0:0:
447,143,62017,1,0,0:0:0:0:
447,143,62189,1,8,0:0:0:0:
444,144,62360,1,0,0:0:0:0:
444,144,62532,1,0,0:0:0:0:
444,144,62617,1,0,0:0:0:0:
444,144,62703,1,0,0:0:0:0:
447,143,62874,1,8,0:0:0:0:
447,143,63046,1,8,0:0:0:0:
447,143,63217,1,0,0:0:0:0:
444,144,63560,1,8,0:0:0:0:
444,144,63732,1,0,0:0:0:0:
439,144,63903,1,8,0:0:0:0:
432,146,64246,1,0,0:0:0:0:
427,140,64417,1,0,0:0:0:0:
427,140,64589,1,8,0:0:0:0:
439,144,64817,1,8,0:0:0:0:
432,143,65046,1,8,0:0:0:0:
426,141,65274,1,8,0:0:0:0:
427,140,65503,1,8,0:0:0:0:
421,143,65732,1,8,0:0:0:0:
427,141,65960,1,0,0:0:0:0:
427,140,66474,1,0,0:0:0:0:
427,140,66646,1,0,0:0:0:0:
432,143,67160,1,0,0:0:0:0:
427,140,67332,1,0,0:0:0:0:
430,145,67846,1,0,0:0:0:0:
432,143,68017,1,8,0:0:0:0:
437,142,68360,1,0,0:0:0:0:
438,142,68703,1,8,0:0:0:0:
438,142,69217,1,8,0:0:0:0:
437,142,69389,1,8,0:0:0:0:
438,142,69903,1,8,0:0:0:0:
438,142,70074,1,0,0:0:0:0:
438,142,70246,1,0,0:0:0:0:
424,145,70417,1,8,0:0:0:0:
422,146,70760,1,0,0:0:0:0:
425,145,70846,1,0,0:0:0:0:
425,145,70932,1,0,0:0:0:0:
425,144,71103,1,8,0:0:0:0:
424,145,71446,1,0,0:0:0:0:
425,145,71960,1,0,0:0:0:0:
425,144,72132,1,0,0:0:0:0:
422,146,72646,1,0,0:0:0:0:
425,145,72817,1,0,0:0:0:0:
424,145,73332,1,0,0:0:0:0:
422,146,73503,1,8,0:0:0:0:
425,145,73846,1,0,0:0:0:0:
424,145,74189,1,8,0:0:0:0:
422,146,74703,1,8,0:0:0:0:
425,145,74874,1,8,0:0:0:0:
422,146,75389,1,8,0:0:0:0:
422,146,75560,1,0,0:0:0:0:
422,146,75732,1,8,0:0:0:0:
425,145,75903,1,8,0:0:0:0:
424,145,76074,1,0,0:0:0:0:
413,160,76246,1,8,0:0:0:0:
414,159,76332,1,8,0:0:0:0:
414,159,76417,1,8,0:0:0:0:
422,146,76589,1,8,0:0:0:0:
412,148,76932,1,0,0:0:0:0:
415,127,77274,1,8,0:0:0:0:
413,145,77446,1,0,0:0:0:0:
413,145,77617,1,8,0:0:0:0:
413,145,77703,1,8,0:0:0:0:
416,146,77874,1,0,0:0:0:0:
412,148,77960,1,0,0:0:0:0:
409,139,78132,1,8,0:0:0:0:
413,145,78303,1,0,0:0:0:0:
413,145,78646,1,8,0:0:0:0:
413,133,78817,1,0,0:0:0:0:
429,152,78989,1,8,0:0:0:0:
429,151,79074,1,8,0:0:0:0:
428,151,79160,1,8,0:0:0:0:
427,151,79332,1,0,0:0:0:0:
427,151,79674,1,0,0:0:0:0:
449,123,80017,1,8,0:0:0:0:
438,121,80189,1,8,0:0:0:0:
430,124,80360,1,0,0:0:0:0:
465,122,80446,1,0,0:0:0:0:
460,125,80617,1,8,0:0:0:0:
458,117,80703,1,8,0:0:0:0:
458,117,80874,1,0,0:0:0:0:
458,117,81046,1,0,0:0:0:0:
440,111,81217,1,8,0:0:0:0:
445,111,81389,1,8,0:0:0:0:
458,116,81560,1,0,0:0:0:0:
458,117,81732,1,8,0:0:0:0:
462,101,81817,1,8,0:0:0:0:
444,84,81903,1,8,0:0:0:0:
445,103,82074,1,8,0:0:0:0:
445,111,82417,1,0,0:0:0:0:
455,106,82646,1,0,0:0:0:0:
455,106,82874,1,0,0:0:0:0:
458,108,83103,1,0,0:0:0:0:
461,102,83332,1,0,0:0:0:0:
461,102,83560,1,0,0:0:0:0:
461,102,83789,1,8,0:0:0:0:
464,102,84017,1,8,0:0:0:0:
461,102,84246,1,8,0:0:0:0:
461,102,84474,1,8,0:0:0:0:
461,102,84703,1,8,0:0:0:0:
464,102,84932,1,8,0:0:0:0:
461,102,85160,1,0,0:0:0:0:
438,107,85503,1,8,0:0:0:0:
445,100,85674,1,0,0:0:0:0:
440,104,85846,1,8,0:0:0:0:
420,94,86189,1,8,0:0:0:0:
420,94,86360,1,8,0:0:0:0:
410,102,86532,1,0,0:0:0:0:
402,91,86617,1,0,0:0:0:0:
407,91,86703,1,0,0:0:0:0:
408,91,86874,1,8,0:0:0:0:
380,85,87046,1,0,0:0:0:0:
382,79,87217,1,0,0:0:0:0:
404,78,87903,1,0,0:0:0:0:
399,89,88160,1,0,0:0:0:0:
426,110,88417,1,0,0:0:0:0:
426,110,88589,1,8,0:0:0:0:
414,105,88760,1,0,0:0:0:0:
413,106,88932,1,8,0:0:0:0:
401,102,89274,1,0,0:0:0:0:
402,101,89446,1,0,0:0:0:0:
419,111,89617,1,8,0:0:0:0:
414,105,89789,1,0,0:0:0:0:
423,106,89960,1,8,0:0:0:0:
438,86,90046,1,8,0:0:0:0:
434,85,90132,1,8,0:0:0:0:
427,82,90303,1,0,0:0:0:0:
438,67,90646,1,0,0:0:0:0:
419,78,90903,1,0,0:0:0:0:
418,77,91160,1,0,0:0:0:0:
418,77,91332,1,8,0:0:0:0:
416,78,91589,1,8,0:0:0:0:
419,78,91846,1,8,0:0:0:0:
418,77,92017,1,0,0:0:0:0:
426,74,92274,1,0,0:0:0:0:
425,73,92532,1,0,0:0:0:0:
438,76,92703,1,8,0:0:0:0:
438,84,93046,1,8,0:0:0:0:
447,80,93389,1,0,0:0:0:0:
392,107,93732,1,8,0:0:0:0:
414,103,93903,1,0,0:0:0:0:
434,101,93989,1,0,0:0:0:0:
438,84,94074,1,0,0:0:0:0:
432,94,94246,1,8,0:0:0:0:
428,93,94417,1,8,0:0:0:0:
422,78,94760,1,8,0:0:0:0:
420,91,95017,1,0,0:0:0:0:
420,91,95103,1,0,0:0:0:0:
432,94,95274,1,8,0:0:0:0:
428,93,95446,1,0,0:0:0:0:
415,107,95617,1,0,0:0:0:0:
467,113,95789,1,8,0:0:0:0:
430,93,96132,1,8,0:0:0:0:
453,100,96474,1,8,0:0:0:0:
453,100,96646,1,0,0:0:0:0:
447,89,96817,1,8,0:0:0:0:
447,89,96903,1,8,0:0:0:0:
448,87,96989,1,8,0:0:0:0:
448,87,97160,1,0,0:0:0:0:
448,88,97503,1,0,0:0:0:0:
448,87,97674,1,0,0:0:0:0:
447,89,97846,1,8,0:0:0:0:
448,87,98017,1,8,0:0:0:0:
448,87,98189,1,0,0:0:0:0:
450,74,98360,1,8,0:0:0:0:
447,74,98532,1,8,0:0:0:0:
414,105,98617,1,8,0:0:0:0:
448,88,98703,1,8,0:0:0:0:
441,94,98874,1,0,0:0:0:0:
427,93,99132,1,0,0:0:0:0:
445,93,99389,1,0,0:0:0:0:
445,92,99560,1,8,0:0:0:0:
452,91,99817,1,8,0:0:0:0:
449,91,100074,1,8,0:0:0:0:
441,93,100246,1,0,0:0:0:0:
445,93,100503,1,0,0:0:0:0:
443,93,100760,1,0,0:0:0:0:
433,91,100932,1,8,0:0:0:0:
434,91,101103,1,0,0:0:0:0:
432,92,101274,1,8,0:0:0:0:
441,85,101617,1,0,0:0:0:0:
442,86,101874,1,0,0:0:0:0:
451,84,102132,1,0,0:0:0:0:
450,82,102303,1,8,0:0:0:0:
450,82,102560,1,8,0:0:0:0:
456,78,102817,1,0,0:0:0:0:
454,84,102989,1,8,0:0:0:0:
439,73,103332,1,8,0:0:0:0:
456,76,103674,1,0,0:0:0:0:
442,73,104360,1,8,0:0:0:0:
422,77,104617,1,0,0:0:0:0:
422,78,104874,1,0,0:0:0:0:
427,74,105046,1,8,0:0:0:0:
427,74,105303,1,8,0:0:0:0:
426,74,105560,1,8,0:0:0:0:
422,78,105732,1,0,0:0:0:0:
427,74,105989,1,8,0:0:0:0:
423,65,106246,1,8,0:0:0:0:
423,65,106417,1,0,0:0:0:0:
427,82,106589,1,0,0:0:0:0:
426,85,106760,1,8,0:0:0:0:
432,68,107103,1,0,0:0:0:0:
408,79,107360,1,0,0:0:0:0:
431,67,107617,1,0,0:0:0:0:
456,80,107789,1,0,0:0:0:0:
415,62,108046,1,0,0:0:0:0:
424,67,108303,1,0,0:0:0:0:
401,87,108474,1,8,0:0:0:0:
414,74,108732,1,8,0:0:0:0:
422,60,108989,1,8,0:0:0:0:
435,62,109160,1,8,0:0:0:0:
429,72,109332,1,0,0:0:0:0:
442,76,109503,1,8,0:0:0:0:
416,61,109589,1,8,0:0:0:0:
442,76,109674,1,8,0:0:0:0:
430,56,109846,1,0,0:0:0:0:
430,68,110360,1,0,0:0:0:0:
424,56,110532,1,8,0:0:0:0:
424,57,110703,1,8,0:0:0:0:
430,56,110874,1,0,0:0:0:0:
423,73,110960,1,0,0:0:0:0:
343,73,111046,1,0,0:0:0:0:
425,56,111217,1,8,0:0:0:0:
424,56,111560,1,8,0:0:0:0:
414,48,111732,1,0,0:0:0:0:
430,56,111903,1,8,0:0:0:0:
408,71,112074,1,8,0:0:0:0:
419,43,112246,1,0,0:0:0:0:
434,67,112417,1,8,0:0:0:0:
411,45,112589,1,0,0:0:0:0:
418,38,113103,1,0,0:0:0:0:
422,49,113274,1,8,0:0:0:0:
422,49,113446,1,8,0:0:0:0:
419,46,113617,1,0,0:0:0:0:
430,56,113703,1,0,0:0:0:0:
428,48,113789,1,0,0:0:0:0:
428,48,113960,1,8,0:0:0:0:
412,54,114132,1,0,0:0:0:0:
415,54,114303,1,8,0:0:0:0:
146,196,114646,2,0,L|199:184,6,35
439,35,115332,1,0,0:0:0:0:
439,60,115846,1,0,0:0:0:0:
439,60,116017,1,8,0:0:0:0:
450,53,116189,1,8,0:0:0:0:
450,53,116360,1,0,0:0:0:0:
456,63,116446,1,0,0:0:0:0:
450,54,116532,1,0,0:0:0:0:
450,54,116703,1,8,0:0:0:0:
453,53,117046,1,8,0:0:0:0:
444,46,117217,1,0,0:0:0:0:
432,49,117389,1,8,0:0:0:0:
450,54,117560,1,8,0:0:0:0:
414,64,117732,1,8,0:0:0:0:
456,48,117903,1,0,0:0:0:0:
453,53,118074,1,8,0:0:0:0:
465,34,118589,1,0,0:0:0:0:
465,44,118760,1,8,0:0:0:0:
462,42,118932,1,0,0:0:0:0:
453,53,119103,1,8,0:0:0:0:
446,51,119189,1,8,0:0:0:0:
446,51,119274,1,8,0:0:0:0:
446,51,119446,1,8,0:0:0:0:
444,53,119617,1,0,0:0:0:0:
444,53,119789,1,8,0:0:0:0:
444,53,119960,1,0,0:0:0:0:
445,51,120132,1,8,0:0:0:0:
446,51,120360,1,8,0:0:0:0:
444,53,120589,1,8,0:0:0:0:
437,60,120817,1,0,0:0:0:0:
464,45,121332,1,0,0:0:0:0:
425,69,121503,1,8,0:0:0:0:
437,60,121846,1,8,0:0:0:0:
441,55,122017,1,8,0:0:0:0:
441,55,122189,1,0,0:0:0:0:
448,60,122532,1,8,0:0:0:0:
444,50,122703,1,0,0:0:0:0:
460,43,122874,1,8,0:0:0:0:
462,48,123217,1,8,0:0:0:0:
462,48,123332,1,8,0:0:0:0:
462,48,123446,1,8,0:0:0:0:
335,95,123560,1,0,0:0:0:0:
424,70,124074,1,0,0:0:0:0:
390,84,124246,1,8,0:0:0:0:
437,66,124417,1,0,0:0:0:0:
438,65,124589,1,0,0:0:0:0:
440,57,124932,1,0,0:0:0:0:
439,57,125274,1,8,0:0:0:0:
436,51,125446,1,0,0:0:0:0:
438,51,125617,1,8,0:0:0:0:
438,51,125789,1,0,0:0:0:0:
440,57,125960,1,8,0:0:0:0:
436,46,126046,1,8,0:0:0:0:
436,46,126132,1,8,0:0:0:0:
437,46,126303,1,0,0:0:0:0:
438,51,126817,1,0,0:0:0:0:
432,48,126989,1,8,0:0:0:0:
448,44,127332,1,0,0:0:0:0:
430,43,127503,1,8,0:0:0:0:
436,38,127674,1,0,0:0:0:0:
436,39,128017,1,8,0:0:0:0:
431,38,128360,1,0,0:0:0:0:
443,40,128703,1,8,0:0:0:0:
443,40,128817,1,8,0:0:0:0:
443,40,128932,1,8,0:0:0:0:
443,40,129046,1,0,0:0:0:0:
458,38,129389,1,8,0:0:0:0:
454,32,129560,1,0,0:0:0:0:
449,34,129732,1,8,0:0:0:0:
462,51,129903,1,0,0:0:0:0:
462,50,129989,1,0,0:0:0:0:
462,50,130074,1,0,0:0:0:0:
462,50,130246,1,8,0:0:0:0:
462,50,130417,1,0,0:0:0:0:
489,66,130932,1,0,0:0:0:0:
473,71,131103,1,8,0:0:0:0:
467,68,131274,1,0,0:0:0:0:
456,66,131446,1,8,0:0:0:0:
417,61,131789,1,0,0:0:0:0:
465,59,132046,1,8,0:0:0:0:
443,60,132217,1,8,0:0:0:0:
461,57,132474,1,8,0:0:0:0:
449,56,132732,1,0,0:0:0:0:
449,56,132903,1,8,0:0:0:0:
454,55,133160,1,8,0:0:0:0:
454,55,133417,1,0,0:0:0:0:
449,56,133589,1,0,0:0:0:0:
449,56,133846,1,8,0:0:0:0:
454,55,134103,1,0,0:0:0:0:
449,56,134532,1,0,0:0:0:0:
449,56,134789,1,8,0:0:0:0:
454,55,134960,1,0,0:0:0:0:
459,44,135217,1,8,0:0:0:0:
459,44,135474,1,0,0:0:0:0:
464,40,135646,1,0,0:0:0:0:
463,51,135903,1,8,0:0:0:0:
459,33,136160,1,8,0:0:0:0:
459,44,136332,1,0,0:0:0:0:
454,40,136589,1,8,0:0:0:0:
459,44,137274,1,0,0:0:0:0:
420,93,137532,1,0,0:0:0:0:
438,78,137703,1,0,0:0:0:0:
448,55,137960,1,8,0:0:0:0:
450,51,138217,1,0,0:0:0:0:
448,54,138389,1,8,0:0:0:0:
445,56,138646,1,0,0:0:0:0:
449,60,138903,1,8,0:0:0:0:
444,59,139074,1,0,0:0:0:0:
448,54,139332,1,8,0:0:0:0:
445,56,139589,1,0,0:0:0:0:
444,59,140017,1,8,0:0:0:0:
444,59,140274,1,0,0:0:0:0:
445,56,140446,1,8,0:0:0:0:
449,60,140703,1,8,0:0:0:0:
441,56,140960,1,0,0:0:0:0:
432,65,141132,1,0,0:0:0:0:
432,52,141389,1,8,0:0:0:0:
432,52,141646,1,0,0:0:0:0:
441,56,141817,1,0,0:0:0:0:
434,53,142074,1,8,0:0:0:0:
432,52,142417,1,8,0:0:0:0:
381,74,142503,1,8,0:0:0:0:
412,53,142589,1,8,0:0:0:0:
406,57,142760,1,4,0:0:0:0:
