osu file format v14

[General]
AudioFilename: audio.mp3
AudioLeadIn: 0
PreviewTime: -1
Countdown: 1
SampleSet: None
StackLeniency: 0.7
Mode: 1
LetterboxInBreaks: 0
WidescreenStoryboard: 1

[Editor]
DistanceSpacing: 0.7
BeatDivisor: 4
GridSize: 32
TimelineZoom: 3.299999

[Metadata]
Title:Scattered Faith
TitleUnicode:Scattered Faith
Artist:Kurokotei
ArtistUnicode:Kurokotei
Creator:driodx
Version:Final kiai
Source:
Tags:
BeatmapID:1988941
BeatmapSetID:952520

[Difficulty]
HPDrainRate:5
CircleSize:5
OverallDifficulty:5
ApproachRate:5
SliderMultiplier:1.4
SliderTickRate:1

[Events]
//Background and Video events
//Break Periods
//Storyboard Layer 0 (Background)
//Storyboard Layer 1 (Fail)
//Storyboard Layer 2 (Pass)
//Storyboard Layer 3 (Foreground)
//Storyboard Sound Samples

[TimingPoints]
381,375,4,1,0,100,1,0
79881,187.5,4,1,0,100,1,0
115881,375,4,1,0,100,1,0
129381,387.096774193548,4,1,0,100,1,0
205251,359.281437125748,4,1,0,100,1,0
206688,324.324324324324,4,1,0,100,1,0
207985,300,4,1,0,100,1,0
209185,272.727272727273,4,1,0,100,1,0
210275,260.869565217391,4,1,0,100,1,0
211318,253.164556962025,4,1,0,100,1,0
212330,230.769230769231,4,1,0,100,1,0
213253,218.181818181818,4,1,0,100,1,0
214125,206.896551724138,4,1,0,100,1,0
214952,187.5,4,1,0,100,1,0
217202,171.428571428571,4,1,0,100,1,0
217887,162.162162162162,4,1,0,100,1,0
218535,157.894736842105,4,1,0,100,1,0
219166,150,4,1,0,100,1,0
220366,142.857142857143,4,1,0,100,1,0
220937,136.363636363636,4,1,0,100,1,0
221482,130.434782608696,4,1,0,100,1,0
222525,122.448979591837,4,1,0,100,1,0
223014,120,4,1,0,100,1,0
223494,115.384615384615,4,1,0,100,1,0
227186,333.333333333333,4,1,0,100,1,0
232541,166.666666666667,4,1,0,100,1,0
296541,387.096774193548,4,1,0,100,1,0
297291,387.096774193548,4,1,0,100,1,8
321291,352.941176470588,4,1,0,100,1,0
332585,342.857142857143,4,1,0,100,1,0
338070,342.857142857143,4,1,0,100,1,0
343555,333.333333333333,4,1,0,100,1,0
366888,-66.6666666666667,4,1,0,100,0,0
367555,166.666666666667,4,1,0,100,1,1
367555,-133.333333333333,4,1,0,100,0,1
409555,-100,4,1,0,100,0,0
410221,157.894736842105,4,1,0,100,1,0
410221,-100,4,1,0,100,0,1
430431,315.789473684211,4,1,0,100,1,0

[HitObjects]
192,256,366221,5,0,0:0:0:0:
320,256,366888,1,8,0:0:0:0:
192,256,367555,1,0,0:0:0:0:
192,256,367638,1,0,0:0:0:0:
320,256,367721,1,8,0:0:0:0:
192,256,367805,1,0,0:0:0:0:
192,256,367846,1,0,0:0:0:0:
192,256,367888,1,0,0:0:0:0:
320,256,367971,1,8,0:0:0:0:
192,256,368055,1,0,0:0:0:0:
320,256,368138,1,8,0:0:0:0:
192,256,368221,1,0,0:0:0:0:
192,256,368263,1,0,0:0:0:0:
192,256,368305,1,0,0:0:0:0:
192,256,368346,1,0,0:0:0:0:
320,256,368388,1,8,0:0:0:0:
192,256,368471,1,0,0:0:0:0:
192,256,368555,1,0,0:0:0:0:
320,256,368638,1,8,0:0:0:0:
192,256,368721,1,0,0:0:0:0:
192,256,368805,1,0,0:0:0:0:
192,256,368846,1,0,0:0:0:0:
320,256,368888,1,8,0:0:0:0:
192,256,368971,1,0,0:0:0:0:
192,256,369055,1,0,0:0:0:0:
192,256,369138,1,0,0:0:0:0:
320,256,369180,1,8,0:0:0:0:
320,256,369221,1,8,0:0:0:0:
192,256,369305,1,0,0:0:0:0:
320,256,369388,1,8,0:0:0:0:
320,256,369471,1,8,0:0:0:0:
192,256,369555,1,0,0:0:0:0:
192,256,369596,1,0,0:0:0:0:
320,256,369638,1,8,0:0:0:0:
320,256,369721,1,8,0:0:0:0:
320,256,369763,1,8,0:0:0:0:
192,256,369805,1,0,0:0:0:0:
192,256,369888,1,0,0:0:0:0:
192,256,369971,1,0,0:0:0:0:
320,256,370055,1,8,0:0:0:0:
320,256,370096,1,8,0:0:0:0:
192,256,370138,1,0,0:0:0:0:
192,256,370180,1,0,0:0:0:0:
320,256,370221,1,8,0:0:0:0:
192,256,370305,1,0,0:0:0:0:
320,256,370388,1,8,0:0:0:0:
192,256,370430,1,0,0:0:0:0:
192,256,370471,1,0,0:0:0:0:
192,256,370555,1,0,0:0:0:0:
320,256,370638,1,8,0:0:0:0:
320,256,370721,1,8,0:0:0:0:
192,256,370763,1,0,0:0:0:0:
192,256,370805,1,0,0:0:0:0:
192,256,370846,1,0,0:0:0:0:
320,256,370888,1,8,0:0:0:0:
192,256,370971,1,0,0:0:0:0:
320,256,371055,1,8,0:0:0:0:
320,256,371096,1,8,0:0:0:0:
192,256,371138,1,0,0:0:0:0:
192,256,371221,1,0,0:0:0:0:
320,256,371305,1,8,0:0:0:0:
192,256,371388,1,0,0:0:0:0:
192,256,371471,1,0,0:0:0:0:
192,256,371513,1,0,0:0:0:0:
320,256,371555,1,8,0:0:0:0:
192,256,371638,1,0,0:0:0:0:
320,256,371721,1,8,0:0:0:0:
320,256,371763,1,8,0:0:0:0:
320,256,371805,1,8,0:0:0:0:
320,256,371846,1,8,0:0:0:0:
192,256,371888,1,0,0:0:0:0:
192,256,371971,1,0,0:0:0:0:
192,256,372055,1,0,0:0:0:0:
192,256,372138,1,0,0:0:0:0:
320,256,372221,1,8,0:0:0:0:
320,256,372263,1,8,0:0:0:0:
320,256,372305,1,8,0:0:0:0:
320,256,372346,1,8,0:0:0:0:
192,256,372388,1,0,0:0:0:0:
192,256,372471,1,0,0:0:0:0:
192,256,372555,1,0,0:0:0:0:
192,256,372638,1,0,0:0:0:0:
320,256,372721,1,8,0:0:0:0:
320,256,372763,1,8,0:0:0:0:
320,256,372805,1,8,0:0:0:0:
320,256,372846,1,8,0:0:0:0:
320,256,372888,1,8,0:0:0:0:
192,256,372971,1,0,0:0:0:0:
192,256,373055,1,0,0:0:0:0:
320,256,373138,1,8,0:0:0:0:
320,256,373180,1,8,0:0:0:0:
320,256,373221,1,8,0:0:0:0:
192,256,373305,1,0,0:0:0:0:
320,256,373388,1,8,0:0:0:0:
320,256,373471,1,8,0:0:0:0:
320,256,373555,1,8,0:0:0:0:
192,256,373638,1,0,0:0:0:0:
192,256,373721,1,0,0:0:0:0:
192,256,373805,1,0,0:0:0:0:
320,256,373888,1,8,0:0:0:0:
192,256,373971,1,0,0:0:0:0:
192,256,374013,1,0,0:0:0:0:
192,256,374055,1,0,0:0:0:0:
320,256,374138,1,8,0:0:0:0:
192,256,374221,1,0,0:0:0:0:
192,256,374305,1,0,0:0:0:0:
192,256,374346,1,0,0:0:0:0:
320,256,374388,1,8,0:0:0:0:
320,256,374471,1,8,0:0:0:0:
320,256,374555,1,8,0:0:0:0:
320,256,374596,1,8,0:0:0:0:
192,256,374638,1,0,0:0:0:0:
192,256,374721,1,0,0:0:0:0:
192,256,374805,1,0,0:0:0:0:
192,256,374846,1,0,0:0:0:0:
192,256,374888,1,0,0:0:0:0:
320,256,374971,1,8,0:0:0:0:
192,256,375055,1,0,0:0:0:0:
192,256,375096,1,0,0:0:0:0:
192,256,375138,1,0,0:0:0:0:
192,256,375221,1,0,0:0:0:0:
192,256,375305,1,0,0:0:0:0:
192,256,375346,1,0,0:0:0:0:
320,256,375388,1,8,0:0:0:0:
192,256,375471,1,0,0:0:0:0:
320,256,375555,1,8,0:0:0:0:
192,256,375638,1,0,0:0:0:0:
192,256,375721,1,0,0:0:0:0:
192,256,375763,1,0,0:0:0:0:
320,256,375805,1,8,0:0:0:0:
320,256,375888,1,8,0:0:0:0:
192,256,375971,1,0,0:0:0:0:
320,256,376055,1,8,0:0:0:0:
320,256,376096,1,8,0:0:0:0:
192,256,376138,1,0,0:0:0:0:
192,256,376221,1,0,0:0:0:0:
320,256,376305,1,8,0:0:0:0:
192,256,376388,1,0,0:0:0:0:
192,256,376430,1,0,0:0:0:0:
192,256,376471,1,0,0:0:0:0:
320,256,376555,1,8,0:0:0:0:
192,256,376638,1,0,0:0:0:0:
192,256,376721,1,0,0:0:0:0:
192,256,376763,1,0,0:0:0:0:
320,256,376805,1,8,0:0:0:0:
320,256,376888,1,8,0:0:0:0:
192,256,376971,1,0,0:0:0:0:
320,256,377055,1,8,0:0:0:0:
320,256,377096,1,8,0:0:0:0:
320,256,377138,1,8,0:0:0:0:
320,256,377180,1,8,0:0:0:0:
192,256,377221,1,0,0:0:0:0:
320,256,377305,1,8,0:0:0:0:
192,256,377388,1,0,0:0:0:0:
192,256,377471,1,0,0:0:0:0:
320,256,377555,1,8,0:0:0:0:
320,256,377596,1,8,0:0:0:0:
320,256,377638,1,8,0:0:0:0:
320,256,377680,1,8,0:0:0:0:
192,256,377721,1,0,0:0:0:0:
320,256,377805,1,8,0:0:0:0:
320,256,377888,1,8,0:0:0:0:
192,256,377971,1,0,0:0:0:0:
192,256,378055,1,0,0:0:0:0:
192,256,378138,1,0,0:0:0:0:
320,128,378221,1,12,0:0:0:0:
192,256,378305,1,0,0:0:0:0:
192,256,378346,1,0,0:0:0:0:
320,256,378388,1,8,0:0:0:0:
192,256,378471,1,0,0:0:0:0:
320,256,378555,1,8,0:0:0:0:
320,256,378638,1,8,0:0:0:0:
320,256,378680,1,8,0:0:0:0:
192,256,378721,1,0,0:0:0:0:
192,256,378805,1,0,0:0:0:0:
320,256,378888,1,8,0:0:0:0:
192,256,378971,1,0,0:0:0:0:
192,256,379055,1,0,0:0:0:0:
192,256,379096,1,0,0:0:0:0:
320,256,379138,1,8,0:0:0:0:
320,256,379221,1,8,0:0:0:0:
192,256,379305,1,0,0:0:0:0:
192,256,379388,1,0,0:0:0:0:
192,256,379430,1,0,0:0:0:0:
192,256,379471,1,0,0:0:0:0:
192,256,379555,1,0,0:0:0:0:
320,256,379638,1,8,0:0:0:0:
192,256,379721,1,0,0:0:0:0:
192,256,379763,1,0,0:0:0:0:
320,256,379805,1,8,0:0:0:0:
320,256,379888,1,8,0:0:0:0:
320,256,379971,1,8,0:0:0:0:
192,256,380013,1,0,0:0:0:0:
192,256,380055,1,0,0:0:0:0:
192,256,380138,1,0,0:0:0:0:
192,256,380221,1,0,0:0:0:0:
320,256,380305,1,8,0:0:0:0:
192,256,380388,1,0,0:0:0:0:
192,256,380430,1,0,0:0:0:0:
320,256,380471,1,8,0:0:0:0:
192,256,380555,1,0,0:0:0:0:
192,256,380638,1,0,0:0:0:0:
320,256,380721,1,8,0:0:0:0:
192,256,380805,1,0,0:0:0:0:
192,256,380846,1,0,0:0:0:0:
320,256,380888,1,8,0:0:0:0:
192,256,380971,1,0,0:0:0:0:
192,256,381013,1,0,0:0:0:0:
320,256,381055,1,8,0:0:0:0:
192,256,381138,1,0,0:0:0:0:
192,256,381221,1,0,0:0:0:0:
320,256,381305,1,8,0:0:0:0:
192,256,381346,1,0,0:0:0:0:
320,256,381388,1,8,0:0:0:0:
192,256,381471,1,0,0:0:0:0:
192,256,381555,1,0,0:0:0:0:
192,256,381596,1,0,0:0:0:0:
320,256,381638,1,8,0:0:0:0:
320,256,381680,1,8,0:0:0:0:
192,256,381721,1,0,0:0:0:0:
320,256,381805,1,8,0:0:0:0:
192,256,381888,1,0,0:0:0:0:
320,256,381971,1,8,0:0:0:0:
320,256,382055,1,8,0:0:0:0:
192,256,382096,1,0,0:0:0:0:
192,256,382138,1,0,0:0:0:0:
320,256,382221,1,8,0:0:0:0:
192,256,382305,1,0,0:0:0:0:
192,256,382346,1,0,0:0:0:0:
320,256,382388,1,8,0:0:0:0:
192,256,382471,1,0,0:0:0:0:
320,256,382555,1,8,0:0:0:0:
320,256,382596,1,8,0:0:0:0:
320,256,382638,1,8,0:0:0:0:
320,256,382680,1,8,0:0:0:0:
192,256,382721,1,0,0:0:0:0:
192,256,382805,1,0,0:0:0:0:
192,256,382888,1,0,0:0:0:0:
192,256,382930,1,0,0:0:0:0:
192,256,382971,1,0,0:0:0:0:
192,256,383055,1,0,0:0:0:0:
320,256,383138,1,8,0:0:0:0:
192,256,383180,1,0,0:0:0:0:
192,256,383221,1,0,0:0:0:0:
192,256,383305,1,0,0:0:0:0:
192,256,383346,1,0,0:0:0:0:
320,256,383388,1,8,0:0:0:0:
192,256,383471,1,0,0:0:0:0:
320,128,383555,1,12,0:0:0:0:
192,256,383638,1,0,0:0:0:0:
320,256,383721,1,8,0:0:0:0:
192,256,383805,1,0,0:0:0:0:
192,256,383846,1,0,0:0:0:0:
320,256,383888,1,8,0:0:0:0:
320,256,383971,1,8,0:0:0:0:
320,256,384055,1,8,0:0:0:0:
320,256,384096,1,8,0:0:0:0:
192,256,384138,1,0,0:0:0:0:
192,256,384221,1,0,0:0:0:0:
320,256,384305,1,8,0:0:0:0:
192,256,384388,1,0,0:0:0:0:
192,256,384430,1,0,0:0:0:0:
320,256,384471,1,8,0:0:0:0:
192,256,384555,1,0,0:0:0:0:
192,256,384638,1,0,0:0:0:0:
192,256,384721,1,0,0:0:0:0:
320,256,384763,1,8,0:0:0:0:
320,256,384805,1,8,0:0:0:0:
320,256,384888,1,8,0:0:0:0:
192,256,384971,1,0,0:0:0:0:
320,256,385055,1,8,0:0:0:0:
320,256,385096,1,8,0:0:0:0:
192,256,385138,1,0,0:0:0:0:
192,256,385221,1,0,0:0:0:0:
320,256,385305,1,8,0:0:0:0:
192,256,385388,1,0,0:0:0:0:
192,256,385430,1,0,0:0:0:0:
320,256,385471,1,8,0:0:0:0:
320,256,385555,1,8,0:0:0:0:
192,256,385638,1,0,0:0:0:0:
320,256,385721,1,8,0:0:0:0:
192,256,385763,1,0,0:0:0:0:
192,256,385805,1,0,0:0:0:0:
192,256,385888,1,0,0:0:0:0:
192,256,385971,1,0,0:0:0:0:
192,256,386013,1,0,0:0:0:0:
320,256,386055,1,8,0:0:0:0:
192,256,386138,1,0,0:0:0:0:
192,256,386221,1,0,0:0:0:0:
192,256,386305,1,0,0:0:0:0:
320,256,386388,1,8,0:0:0:0:
192,256,386471,1,0,0:0:0:0:
192,256,386513,1,0,0:0:0:0:
320,256,386555,1,8,0:0:0:0:
320,256,386638,1,8,0:0:0:0:
192,256,386721,1,0,0:0:0:0:
192,256,386763,1,0,0:0:0:0:
192,256,386805,1,0,0:0:0:0:
320,256,386888,1,8,0:0:0:0:
192,256,386971,1,0,0:0:0:0:
192,256,387013,1,0,0:0:0:0:
320,256,387055,1,8,0:0:0:0:
320,256,387138,1,8,0:0:0:0:
192,256,387221,1,0,0:0:0:0:
192,256,387263,1,0,0:0:0:0:
192,256,387305,1,0,0:0:0:0:
320,256,387388,1,8,0:0:0:0:
192,256,387471,1,0,0:0:0:0:
192,256,387513,1,0,0:0:0:0:
320,256,387555,1,8,0:0:0:0:
320,256,387638,1,8,0:0:0:0:
192,256,387721,1,0,0:0:0:0:
192,256,387763,1,0,0:0:0:0:
192,256,387805,1,0,0:0:0:0:
192,256,387888,1,0,0:0:0:0:
320,256,387971,1,8,0:0:0:0:
320,256,388013,1,8,0:0:0:0:
320,256,388055,1,8,0:0:0:0:
320,256,388138,1,8,0:0:0:0:
192,256,388221,1,0,0:0:0:0:
192,256,388305,1,0,0:0:0:0:
192,256,388388,1,0,0:0:0:0:
192,256,388471,1,0,0:0:0:0:
320,256,388555,1,8,0:0:0:0:
192,256,388596,1,0,0:0:0:0:
192,256,388638,1,0,0:0:0:0:
192,256,388680,1,0,0:0:0:0:
320,256,388721,1,8,0:0:0:0:
192,256,388805,1,0,0:0:0:0:
320,128,388888,1,12,0:0:0:0:
192,256,388971,1,0,0:0:0:0:
192,256,389055,1,0,0:0:0:0:
192,256,389096,1,0,0:0:0:0:
320,256,389138,1,8,0:0:0:0:
320,256,389221,1,8,0:0:0:0:
192,256,389305,1,0,0:0:0:0:
192,256,389388,1,0,0:0:0:0:
192,256,389430,1,0,0:0:0:0:
320,256,389471,1,8,0:0:0:0:
320,256,389555,1,8,0:0:0:0:
320,256,389638,1,8,0:0:0:0:
320,256,389680,1,8,0:0:0:0:
192,256,389721,1,0,0:0:0:0:
192,256,389805,1,0,0:0:0:0:
192,256,389888,1,0,0:0:0:0:
192,256,389971,1,0,0:0:0:0:
192,256,390013,1,0,0:0:0:0:
320,256,390055,1,8,0:0:0:0:
320,256,390138,1,8,0:0:0:0:
320,256,390221,1,8,0:0:0:0:
192,256,390305,1,0,0:0:0:0:
320,256,390388,1,8,0:0:0:0:
192,256,390430,1,0,0:0:0:0:
192,256,390471,1,0,0:0:0:0:
192,256,390555,1,0,0:0:0:0:
320,256,390638,1,8,0:0:0:0:
192,256,390679,1,0,0:0:0:0:
192,256,390721,1,0,0:0:0:0:
192,256,390805,1,0,0:0:0:0:
192,256,390888,1,0,0:0:0:0:
320,256,390971,1,8,0:0:0:0:
320,256,391013,1,8,0:0:0:0:
192,256,391055,1,0,0:0:0:0:
320,256,391138,1,8,0:0:0:0:
192,256,391221,1,0,0:0:0:0:
192,256,391263,1,0,0:0:0:0:
320,256,391305,1,8,0:0:0:0:
192,256,391346,1,0,0:0:0:0:
192,256,391388,1,0,0:0:0:0:
320,256,391471,1,8,0:0:0:0:
320,256,391555,1,8,0:0:0:0:
192,256,391638,1,0,0:0:0:0:
192,256,391680,1,0,0:0:0:0:
192,256,391721,1,0,0:0:0:0:
320,256,391805,1,8,0:0:0:0:
192,256,391888,1,0,0:0:0:0:
192,256,391930,1,0,0:0:0:0:
192,256,391971,1,0,0:0:0:0:
320,256,392055,1,8,0:0:0:0:
192,256,392138,1,0,0:0:0:0:
320,256,392221,1,8,0:0:0:0:
192,256,392305,1,0,0:0:0:0:
192,256,392346,1,0,0:0:0:0:
320,256,392388,1,8,0:0:0:0:
192,256,392471,1,0,0:0:0:0:
192,256,392555,1,0,0:0:0:0:
320,256,392596,1,8,0:0:0:0:
320,256,392638,1,8,0:0:0:0:
192,256,392721,1,0,0:0:0:0:
320,256,392805,1,8,0:0:0:0:
192,256,392846,1,0,0:0:0:0:
192,256,392888,1,0,0:0:0:0:
192,256,392971,1,0,0:0:0:0:
320,256,393055,1,8,0:0:0:0:
320,256,393096,1,8,0:0:0:0:
320,256,393138,1,8,0:0:0:0:
320,256,393180,1,8,0:0:0:0:
192,256,393221,1,0,0:0:0:0:
192,256,393305,1,0,0:0:0:0:
192,256,393388,1,0,0:0:0:0:
320,256,393471,1,8,0:0:0:0:
320,256,393555,1,8,0:0:0:0:
320,256,393596,1,8,0:0:0:0:
320,256,393638,1,8,0:0:0:0:
320,256,393680,1,8,0:0:0:0:
192,256,393721,1,0,0:0:0:0:
192,256,393805,1,0,0:0:0:0:
192,256,393888,1,0,0:0:0:0:
192,256,393971,1,0,0:0:0:0:
320,256,394055,1,8,0:0:0:0:
320,256,394096,1,8,0:0:0:0:
320,256,394138,1,8,0:0:0:0:
320,256,394180,1,8,0:0:0:0:
320,256,394221,1,8,0:0:0:0:
192,256,394305,1,0,0:0:0:0:
192,256,394388,1,0,0:0:0:0:
192,256,394471,1,0,0:0:0:0:
320,256,394555,1,8,0:0:0:0:
192,256,394596,1,0,0:0:0:0:
192,256,394638,1,0,0:0:0:0:
192,256,394721,1,0,0:0:0:0:
192,256,394763,1,0,0:0:0:0:
320,256,394805,1,8,0:0:0:0:
320,256,394888,1,8,0:0:0:0:
192,256,394971,1,0,0:0:0:0:
192,256,395055,1,0,0:0:0:0:
192,256,395096,1,0,0:0:0:0:
320,256,395138,1,8,0:0:0:0:
192,256,395180,1,0,0:0:0:0:
192,256,395221,1,0,0:0:0:0:
192,256,395305,1,0,0:0:0:0:
320,256,395388,1,8,0:0:0:0:
320,256,395471,1,8,0:0:0:0:
192,256,395555,1,0,0:0:0:0:
192,256,395596,1,0,0:0:0:0:
192,256,395638,1,0,0:0:0:0:
320,256,395721,1,8,0:0:0:0:
192,256,395805,1,0,0:0:0:0:
320,256,395888,1,8,0:0:0:0:
192,256,395930,1,0,0:0:0:0:
192,256,395971,1,0,0:0:0:0:
192,256,396055,1,0,0:0:0:0:
320,256,396138,1,8,0:0:0:0:
192,256,396221,1,0,0:0:0:0:
192,256,396263,1,0,0:0:0:0:
192,256,396305,1,0,0:0:0:0:
320,256,396388,1,8,0:0:0:0:
192,256,396471,1,0,0:0:0:0:
320,256,396555,1,8,0:0:0:0:
192,256,396638,1,0,0:0:0:0:
320,256,396721,1,8,0:0:0:0:
192,256,396763,1,0,0:0:0:0:
320,256,396805,1,8,0:0:0:0:
192,256,396846,1,0,0:0:0:0:
320,256,396888,1,8,0:0:0:0:
192,256,396971,1,0,0:0:0:0:
320,256,397055,1,8,0:0:0:0:
320,256,398388,1,8,0:0:0:0:
320,256,398430,1,8,0:0:0:0:
320,256,398471,1,8,0:0:0:0:
320,256,398513,1,8,0:0:0:0:
192,256,398555,1,0,0:0:0:0:
320,256,398888,1,8,0:0:0:0:
320,256,398930,1,8,0:0:0:0:
320,256,398971,1,8,0:0:0:0:
320,256,399013,1,8,0:0:0:0:
192,256,399055,1,0,0:0:0:0:
