osu file format v14

[General]
AudioFilename: audio.mp3
AudioLeadIn: 0
PreviewTime: 231097
Countdown: 0
SampleSet: None
StackLeniency: 0.2
Mode: 1
LetterboxInBreaks: 0
WidescreenStoryboard: 0

[Editor]
Bookmarks: 24294,79794,85794,91794,97794,103794,106794,109794,112794,115794,120294,141681,154068,178842,203616,213133,232430,253763,275096,280430,285763,291096,296430,321204,351469,367468,388801,410134,415186,420239,425291,430344
DistanceSpacing: 1
BeatDivisor: 2
GridSize: 32
TimelineZoom: 3.200003

[Metadata]
Title:Scattered Faith
TitleUnicode:Scattered Faith
Artist:Kurokotei
ArtistUnicode:黒皇帝
Creator:Vulkin
Version:easier edit
Source:東方星蓮船 ~ Undefined Fantastic Object.
Tags:touhou project speedcore hijiri byakuren emotional skyscraper cosmic mind dialgadu77 Sayaka- marathon Kurokoutei rsi axer
BeatmapID:3652815
BeatmapSetID:924008

[Difficulty]
HPDrainRate:3
CircleSize:7
OverallDifficulty:9
ApproachRate:10
SliderMultiplier:1.4
SliderTickRate:1

[Events]
//Background and Video events
0,0,"bg.jpg",0,0
//Break Periods
2,36494,41844
2,42494,47844
2,60119,65094
2,129494,152069
2,179042,184585
2,185235,190779
//Storyboard Layer 0 (Background)
//Storyboard Layer 1 (Fail)
//Storyboard Layer 2 (Pass)
//Storyboard Layer 3 (Foreground)
//Storyboard Layer 4 (Overlay)
//Storyboard Sound Samples

[TimingPoints]
294,750,4,1,0,40,1,0
23731,-83.3333333333333,4,1,0,40,0,0
23919,-76.9230769230769,4,1,0,40,0,0
24106,-71.4285714285714,4,1,0,40,0,0
24294,-66.6666666666667,4,1,0,40,0,0
35919,-65.7894736842105,4,1,0,40,0,0
36012,-64.9350649350649,4,1,0,40,0,0
36106,-64.1025641025641,4,1,0,40,0,0
36200,-63.2911392405063,4,1,0,40,0,0
36294,-62.5,4,1,0,40,0,0
42294,-58.8235294117647,4,1,0,40,0,0
48294,-55.5555555555556,4,1,0,40,0,0
51294,-54.054054054054,4,1,0,40,0,0
54294,-52.6315789473684,4,1,0,40,0,0
55794,-51.9480519480519,4,1,0,40,0,0
57294,-51.2820512820513,4,1,0,40,0,0
58794,-50.6329113924051,4,1,0,40,0,0
60294,-50,4,1,0,40,0,0
63294,750,4,1,0,40,1,8
65544,-25,4,1,0,40,0,0
66294,375,4,1,0,50,1,0
67700,-100,4,1,0,55,0,0
69200,-100,4,1,0,60,0,0
70700,-100,4,1,0,65,0,0
72247,-100,4,1,0,70,0,0
73747,-100,4,1,0,75,0,0
75247,-100,4,1,0,80,0,0
76747,-100,4,1,0,85,0,0
78247,-100,4,1,0,90,0,0
78950,-90.9090909090909,4,1,0,90,0,0
79044,-83.3333333333333,4,1,0,90,0,0
79137,-76.9230769230769,4,1,0,90,0,0
79231,-71.4285714285714,4,1,0,90,0,0
79325,-66.6666666666667,4,1,0,90,0,0
79419,-62.5,4,1,0,90,0,0
79512,-58.8235294117647,4,1,0,90,0,0
79606,-55.5555555555556,4,1,0,90,0,0
79653,-54.054054054054,4,1,0,90,0,0
79700,-52.6315789473684,4,1,0,90,0,0
79747,-51.2820512820513,4,1,0,90,0,0
79794,187.5,4,1,0,95,1,0
103794,-100,4,1,0,95,0,1
115794,-100,4,1,0,95,0,0
129294,774.193548387097,4,1,0,95,1,0
129294,-25,4,1,0,95,0,0
129487,-100,4,1,0,95,0,0
201100,-95.2380952380952,4,1,0,95,0,0
201294,-90.9090909090909,4,1,0,95,0,0
201681,-80,4,1,0,95,0,0
202068,-71.4285714285714,4,1,0,95,0,0
202197,-68.9655172413793,4,1,0,95,0,0
202326,-66.6666666666667,4,1,0,95,0,0
202455,-64.5161290322581,4,1,0,95,0,0
202584,-62.5,4,1,0,95,0,0
202713,-60.6060606060606,4,1,0,95,0,0
202842,-58.8235294117647,4,1,0,95,0,0
202971,-57.1428571428571,4,1,0,95,0,0
203100,-55.5555555555556,4,1,0,95,0,0
203229,-54.054054054054,4,1,0,95,0,0
203358,-52.6315789473684,4,1,0,95,0,0
203487,-51.2820512820513,4,1,0,95,0,0
203616,387.096774193548,4,1,0,100,1,0
205164,352.941176470588,4,1,0,100,1,0
205164,-103.949044585987,4,1,0,100,0,0
206575,324.324324324324,4,1,0,100,1,0
206575,-107.506053268765,4,1,0,100,0,0
207872,300,4,1,0,100,1,0
207872,-110.726643598616,4,1,0,100,0,0
209072,279.06976744186,4,1,0,100,1,0
209072,-113.656387665198,4,1,0,100,0,0
210188,260.869565217391,4,1,0,100,1,0
210188,-116.332982086407,4,1,0,100,0,0
211231,244.897959183673,4,1,0,100,1,0
211231,-118.787878787879,4,1,0,100,0,0
212210,230.769230769231,4,1,0,100,1,0
212210,-121.047526673133,4,1,0,100,0,0
213133,218.181818181818,4,1,0,100,1,0
213133,-123.134328358209,4,1,0,100,0,0
214005,206.896551724138,4,1,0,100,1,0
214005,-125.067385444744,4,1,0,100,0,0
214832,196.72131147541,4,1,0,100,1,0
214832,-126.86308492201,4,1,0,100,0,0
215618,187.5,4,1,0,100,1,0
215618,-128.535564853557,4,1,0,100,0,0
216368,179.10447761194,4,1,0,100,1,0
216368,-130.097087378641,4,1,0,100,0,0
217084,171.428571428571,4,1,0,100,1,0
217084,-131.558339859045,4,1,0,100,0,0
217769,164.383561643836,4,1,0,100,1,0
217769,-132.928679817906,4,1,0,100,0,0
218426,157.894736842105,4,1,0,100,1,0
218426,-134.216335540839,4,1,0,100,0,0
219057,151.898734177215,4,1,0,100,1,0
219057,-135.428571428571,4,1,0,100,0,0
219664,146.341463414634,4,1,0,100,1,0
219664,-136.571825121443,4,1,0,100,0,0
220249,141.176470588235,4,1,0,100,1,0
220249,-137.651821862348,4,1,0,100,0,0
220813,136.363636363636,4,1,0,100,1,0
220813,-138.673670387393,4,1,0,100,0,0
221358,131.868131868132,4,1,0,100,1,0
221358,-139.641943734015,4,1,0,100,0,0
221885,127.659574468085,4,1,0,100,1,0
221885,-140.560747663551,4,1,0,100,0,0
222395,123.711340206186,4,1,0,100,1,0
222395,-141.433778857837,4,1,0,100,0,0
222889,120,4,1,0,100,1,0
222889,-142.26437462952,4,1,0,100,0,0
223369,116.504854368932,4,1,0,100,1,0
223369,-143.055555555555,4,1,0,100,0,0
227097,666.666666666667,4,1,0,100,1,0
227097,-25,4,1,0,100,0,0
227180,-25,4,1,0,30,0,0
227430,-100,4,1,0,30,0,0
230763,-100,4,1,0,80,0,0
232430,166.666666666667,4,1,0,90,1,1
253763,-100,4,1,0,90,0,0
275096,-100,4,1,0,90,0,1
296430,387.096774193548,4,1,0,90,1,0
296430,-43.0555555555556,4,1,0,90,0,0
297204,-66.6666666666667,4,1,0,40,0,0
297591,-71.4285714285714,4,1,0,40,0,0
297784,-74.0740740740741,4,1,0,40,0,0
297978,-76.9230769230769,4,1,0,40,0,0
298365,-83.3333333333333,4,1,0,40,0,0
298752,-90.9090909090909,4,1,0,40,0,0
299139,-100,4,1,0,40,0,0
319462,-100,4,1,0,10,0,0
320623,-100,4,1,0,40,0,0
321204,352.941176470588,4,1,0,90,1,0
332145,-99.4152046783626,4,1,0,90,0,0
332233,-98.8372093023256,4,1,0,90,0,0
332321,-98.2658959537572,4,1,0,90,0,0
332409,-97.7011494252874,4,1,0,90,0,0
332498,342.857142857143,4,1,0,90,1,0
343126,-99.4318181818182,4,1,0,90,0,0
343212,-98.8700564971751,4,1,0,90,0,0
343298,-98.314606741573,4,1,0,90,0,0
343383,-97.7653631284916,4,1,0,90,0,0
343469,333.333333333333,4,1,0,90,1,0
362135,666.666666666667,4,1,0,90,1,0
362135,-50,4,1,0,90,0,0
362218,-50,4,1,0,30,0,0
362468,-100,4,1,0,30,0,0
365801,-100,4,1,0,80,0,0
367468,166.666666666667,4,1,0,90,1,1
388801,-100,4,1,0,90,0,0
409759,-99.502487562189,4,1,0,90,0,0
409801,-99.009900990099,4,1,0,90,0,0
409843,-98.5221674876847,4,1,0,90,0,0
409884,-98.0392156862745,4,1,0,90,0,0
409926,-97.5609756097561,4,1,0,90,0,0
409968,-97.0873786407767,4,1,0,90,0,0
410009,-96.6183574879227,4,1,0,90,0,0
410051,-96.1538461538461,4,1,0,90,0,0
410093,-95.6937799043062,4,1,0,90,0,0
410134,157.894736842105,4,1,0,90,1,1
430344,-100,4,1,0,90,0,0
430818,-111.111111111111,4,1,0,90,0,0
450712,-114.285714285714,4,1,0,83,0,0
470923,-133.333333333333,4,1,0,75,0,0
481028,-160,4,1,0,72,0,0
481976,-160,4,1,0,70,0,0
483081,-160,4,1,0,69,0,0
483239,-160,4,1,0,67,0,0
483397,-160,4,1,0,66,0,0
483555,-160,4,1,0,65,0,0
483712,-160,4,1,0,64,0,0
483870,-160,4,1,0,62,0,0
484028,-160,4,1,0,60,0,0
489555,-160,4,1,0,20,0,0

[HitObjects]
256,192,294,5,0,0:0:0:0:
256,192,1794,5,8,0:0:0:0:
256,192,2544,5,8,0:0:0:0:
256,192,3294,5,0,0:0:0:0:
256,192,4606,5,0,0:0:0:0:
256,192,4700,5,0,0:0:0:0:
256,192,4794,5,8,0:0:0:0:
256,192,4981,5,0,0:0:0:0:
256,192,5356,5,0,0:0:0:0:
256,192,5731,5,8,0:0:0:0:
256,192,6106,5,0,0:0:0:0:
256,192,6294,5,8,0:0:0:0:
256,192,7794,5,8,0:0:0:0:
256,192,8544,5,8,0:0:0:0:
256,192,9294,5,0,0:0:0:0:
256,192,10606,5,0,0:0:0:0:
256,192,10700,5,0,0:0:0:0:
256,192,10794,5,8,0:0:0:0:
256,192,10981,5,0,0:0:0:0:
256,192,11356,5,0,0:0:0:0:
256,192,11731,5,8,0:0:0:0:
256,192,12106,5,8,0:0:0:0:
256,192,12294,5,0,0:0:0:0:
256,192,13044,5,8,0:0:0:0:
256,192,13419,5,0,0:0:0:0:
256,192,13794,5,8,0:0:0:0:
256,192,14356,5,8,0:0:0:0:
256,192,14544,5,8,0:0:0:0:
256,192,14919,5,0,0:0:0:0:
256,192,15294,5,8,0:0:0:0:
256,192,15669,5,0,0:0:0:0:
256,192,16044,5,8,0:0:0:0:
256,192,16419,5,0,0:0:0:0:
256,192,16794,5,8,0:0:0:0:
256,192,17169,5,8,0:0:0:0:
256,192,17356,5,8,0:0:0:0:
256,192,17544,5,0,0:0:0:0:
256,192,17919,5,0,0:0:0:0:
256,192,18294,5,8,0:0:0:0:
256,192,18856,5,8,0:0:0:0:
256,192,19044,5,8,0:0:0:0:
256,192,19231,5,0,0:0:0:0:
256,192,19606,5,8,0:0:0:0:
256,192,19794,5,8,0:0:0:0:
256,192,20356,5,0,0:0:0:0:
256,192,20544,5,8,0:0:0:0:
256,192,20731,5,0,0:0:0:0:
256,192,21106,5,8,0:0:0:0:
256,192,21294,5,0,0:0:0:0:
256,192,21856,5,0,0:0:0:0:
256,192,22606,5,8,0:0:0:0:
256,192,22794,5,8,0:0:0:0:
256,192,22981,5,0,0:0:0:0:
256,192,23356,5,8,0:0:0:0:
256,192,23731,5,0,0:0:0:0:
256,192,24106,5,8,0:0:0:0:
256,192,24294,5,0,0:0:0:0:
256,192,24669,5,0,0:0:0:0:
256,192,25044,5,8,0:0:0:0:
256,192,25419,5,0,0:0:0:0:
256,192,25606,5,8,0:0:0:0:
256,192,25794,5,0,0:0:0:0:
256,192,25981,5,8,0:0:0:0:
256,192,26169,5,0,0:0:0:0:
256,192,26544,5,8,0:0:0:0:
256,192,26919,5,0,0:0:0:0:
256,192,27106,5,8,0:0:0:0:
256,192,27294,5,0,0:0:0:0:
256,192,27669,5,0,0:0:0:0:
256,192,28044,5,8,0:0:0:0:
256,192,28419,5,0,0:0:0:0:
256,192,28606,5,8,0:0:0:0:
256,192,28794,5,0,0:0:0:0:
256,192,28981,5,8,0:0:0:0:
256,192,29169,5,0,0:0:0:0:
256,192,29544,5,8,0:0:0:0:
256,192,29919,5,8,0:0:0:0:
256,192,30106,5,8,0:0:0:0:
256,192,30294,5,0,0:0:0:0:
256,192,30669,5,0,0:0:0:0:
256,192,31044,5,8,0:0:0:0:
256,192,31419,5,0,0:0:0:0:
256,192,31606,5,8,0:0:0:0:
256,192,31794,5,0,0:0:0:0:
256,192,31981,5,8,0:0:0:0:
256,192,32169,5,0,0:0:0:0:
256,192,32544,5,8,0:0:0:0:
256,192,32919,5,0,0:0:0:0:
256,192,33106,5,8,0:0:0:0:
256,192,33294,5,0,0:0:0:0:
256,192,33669,5,0,0:0:0:0:
256,192,34044,5,8,0:0:0:0:
256,192,34419,5,0,0:0:0:0:
256,192,34606,5,8,0:0:0:0:
256,192,34794,5,0,0:0:0:0:
256,192,34981,5,8,0:0:0:0:
256,192,35169,5,0,0:0:0:0:
256,192,35544,5,8,0:0:0:0:
256,192,35731,5,8,0:0:0:0:
256,192,35919,5,0,0:0:0:0:
256,192,36012,5,0,0:0:0:0:
256,192,36106,5,0,0:0:0:0:
256,192,36200,5,0,0:0:0:0:
256,192,36294,5,12,0:0:0:0:
256,192,42294,5,12,0:0:0:0:
256,192,48294,5,12,0:0:0:0:
256,192,51294,5,12,0:0:0:0:
256,192,54294,5,12,0:0:0:0:
256,192,55794,5,12,0:0:0:0:
256,192,57294,5,12,0:0:0:0:
256,192,58044,5,12,0:0:0:0:
256,192,58794,5,12,0:0:0:0:
256,192,59169,5,12,0:0:0:0:
256,192,59544,5,12,0:0:0:0:
256,192,59919,5,12,0:0:0:0:
256,192,65544,12,0,66106,0:0:0:0:
256,192,66294,5,4,0:0:0:0:
256,192,66669,5,8,0:0:0:0:
256,192,67231,5,0,0:0:0:0:
256,192,67419,5,8,0:0:0:0:
256,192,67794,5,0,0:0:0:0:
256,192,68169,5,8,0:0:0:0:
256,192,68731,5,8,0:0:0:0:
256,192,68919,5,8,0:0:0:0:
256,192,69294,5,0,0:0:0:0:
256,192,69669,5,8,0:0:0:0:
256,192,70044,5,0,0:0:0:0:
256,192,70231,5,8,0:0:0:0:
256,192,70325,5,0,0:0:0:0:
256,192,70419,5,8,0:0:0:0:
256,192,70606,5,8,0:0:0:0:
256,192,70794,5,0,0:0:0:0:
256,192,70981,5,0,0:0:0:0:
256,192,71169,5,8,0:0:0:0:
256,192,71544,5,8,0:0:0:0:
256,192,71731,5,0,0:0:0:0:
256,192,71919,5,8,0:0:0:0:
256,192,72106,5,0,0:0:0:0:
256,192,72200,5,0,0:0:0:0:
256,192,72294,5,0,0:0:0:0:
256,192,72669,5,8,0:0:0:0:
256,192,73044,5,8,0:0:0:0:
256,192,73231,5,0,0:0:0:0:
256,192,73419,5,8,0:0:0:0:
256,192,73606,5,0,0:0:0:0:
256,192,73700,5,8,0:0:0:0:
256,192,73794,5,0,0:0:0:0:
256,192,73981,5,0,0:0:0:0:
256,192,74169,5,8,0:0:0:0:
256,192,74356,5,0,0:0:0:0:
256,192,74450,5,0,0:0:0:0:
256,192,74544,5,8,0:0:0:0:
256,192,74731,5,0,0:0:0:0:
256,192,74919,5,8,0:0:0:0:
256,192,75012,5,8,0:0:0:0:
256,192,75106,5,0,0:0:0:0:
256,192,75200,5,0,0:0:0:0:
256,192,75294,5,8,0:0:0:0:
256,192,75481,5,0,0:0:0:0:
256,192,75669,5,8,0:0:0:0:
256,192,75856,5,0,0:0:0:0:
256,192,75950,5,8,0:0:0:0:
256,192,76044,5,0,0:0:0:0:
256,192,76231,5,0,0:0:0:0:
256,192,76419,5,8,0:0:0:0:
256,192,76606,5,8,0:0:0:0:
256,192,76700,5,8,0:0:0:0:
256,192,76794,5,8,0:0:0:0:
256,192,76981,5,0,0:0:0:0:
256,192,77169,5,8,0:0:0:0:
256,192,77356,5,8,0:0:0:0:
256,192,77450,5,0,0:0:0:0:
256,192,77544,5,8,0:0:0:0:
256,192,77637,5,8,0:0:0:0:
256,192,77731,5,0,0:0:0:0:
256,192,77919,5,8,0:0:0:0:
256,192,78106,5,0,0:0:0:0:
256,192,78200,5,0,0:0:0:0:
256,192,78294,5,8,0:0:0:0:
256,192,78481,5,0,0:0:0:0:
256,192,78669,5,8,0:0:0:0:
256,192,78856,5,8,0:0:0:0:
256,192,78950,5,8,0:0:0:0:
256,192,79044,5,0,0:0:0:0:
256,192,79137,5,8,0:0:0:0:
256,192,79231,5,0,0:0:0:0:
256,192,79325,5,0,0:0:0:0:
256,192,79419,5,8,0:0:0:0:
256,192,79512,5,0,0:0:0:0:
256,192,79606,5,8,0:0:0:0:
256,192,79653,5,8,0:0:0:0:
256,192,79700,5,0,0:0:0:0:
256,192,79747,5,0,0:0:0:0:
256,192,79794,5,12,0:0:0:0:
256,192,79887,5,0,0:0:0:0:
256,192,79934,5,0,0:0:0:0:
256,192,79981,5,8,0:0:0:0:
256,192,80075,5,0,0:0:0:0:
256,192,80169,5,8,0:0:0:0:
256,192,80262,5,0,0:0:0:0:
256,192,80356,5,8,0:0:0:0:
256,192,80450,5,8,0:0:0:0:
256,192,80497,5,8,0:0:0:0:
256,192,80544,5,0,0:0:0:0:
256,192,80637,5,0,0:0:0:0:
256,192,80684,5,0,0:0:0:0:
256,192,80731,5,8,0:0:0:0:
256,192,80825,5,0,0:0:0:0:
256,192,80919,5,8,0:0:0:0:
256,192,81012,5,0,0:0:0:0:
256,192,81106,5,8,0:0:0:0:
256,192,81153,5,0,0:0:0:0:
256,192,81200,5,8,0:0:0:0:
256,192,81247,5,8,0:0:0:0:
256,192,81294,5,0,0:0:0:0:
256,192,81387,5,0,0:0:0:0:
256,192,81434,5,0,0:0:0:0:
256,192,81481,5,8,0:0:0:0:
256,192,81575,5,0,0:0:0:0:
256,192,81669,5,8,0:0:0:0:
256,192,81762,5,0,0:0:0:0:
256,192,81856,5,8,0:0:0:0:
256,192,81950,5,8,0:0:0:0:
256,192,81997,5,8,0:0:0:0:
256,192,82044,5,0,0:0:0:0:
256,192,82137,5,0,0:0:0:0:
256,192,82184,5,0,0:0:0:0:
256,192,82231,5,8,0:0:0:0:
256,192,82325,5,0,0:0:0:0:
256,192,82419,5,8,0:0:0:0:
256,192,82465,5,8,0:0:0:0:
256,192,82512,5,0,0:0:0:0:
256,192,82559,5,0,0:0:0:0:
256,192,82606,5,8,0:0:0:0:
256,192,82700,5,8,0:0:0:0:
256,192,82794,5,0,0:0:0:0:
256,192,82887,5,0,0:0:0:0:
256,192,82934,5,0,0:0:0:0:
256,192,82981,5,8,0:0:0:0:
256,192,83075,5,0,0:0:0:0:
256,192,83169,5,8,0:0:0:0:
256,192,83262,5,0,0:0:0:0:
256,192,83356,5,8,0:0:0:0:
256,192,83450,5,8,0:0:0:0:
256,192,83497,5,8,0:0:0:0:
256,192,83544,5,0,0:0:0:0:
256,192,83637,5,0,0:0:0:0:
256,192,83684,5,0,0:0:0:0:
256,192,83731,5,8,0:0:0:0:
256,192,83825,5,0,0:0:0:0:
256,192,83919,5,8,0:0:0:0:
256,192,84012,5,0,0:0:0:0:
256,192,84106,5,8,0:0:0:0:
256,192,84153,5,0,0:0:0:0:
256,192,84200,5,8,0:0:0:0:
256,192,84247,5,8,0:0:0:0:
256,192,84294,5,0,0:0:0:0:
256,192,84387,5,0,0:0:0:0:
256,192,84434,5,0,0:0:0:0:
256,192,84481,5,8,0:0:0:0:
256,192,84575,5,0,0:0:0:0:
256,192,84669,5,8,0:0:0:0:
256,192,84762,5,0,0:0:0:0:
256,192,84856,5,8,0:0:0:0:
256,192,84950,5,8,0:0:0:0:
256,192,84997,5,8,0:0:0:0:
256,192,85044,5,0,0:0:0:0:
256,192,85137,5,0,0:0:0:0:
256,192,85184,5,0,0:0:0:0:
256,192,85231,5,8,0:0:0:0:
256,192,85325,5,0,0:0:0:0:
256,192,85419,5,8,0:0:0:0:
256,192,85450,5,8,0:0:0:0:
256,192,85481,5,8,0:0:0:0:
256,192,85512,5,8,0:0:0:0:
256,192,85606,5,0,0:0:0:0:
256,192,85637,5,0,0:0:0:0:
256,192,85669,5,0,0:0:0:0:
256,192,85700,5,0,0:0:0:0:
256,192,85794,5,12,0:0:0:0:
256,192,85887,5,0,0:0:0:0:
256,192,85934,5,0,0:0:0:0:
256,192,85981,5,8,0:0:0:0:
256,192,86075,5,0,0:0:0:0:
256,192,86169,5,8,0:0:0:0:
256,192,86262,5,0,0:0:0:0:
256,192,86356,5,8,0:0:0:0:
256,192,86450,5,8,0:0:0:0:
256,192,86497,5,8,0:0:0:0:
256,192,86544,5,0,0:0:0:0:
256,192,86637,5,0,0:0:0:0:
256,192,86684,5,0,0:0:0:0:
256,192,86731,5,8,0:0:0:0:
256,192,86825,5,0,0:0:0:0:
256,192,86919,5,8,0:0:0:0:
256,192,87012,5,0,0:0:0:0:
256,192,87106,5,8,0:0:0:0:
256,192,87153,5,0,0:0:0:0:
256,192,87200,5,8,0:0:0:0:
256,192,87247,5,8,0:0:0:0:
256,192,87294,5,0,0:0:0:0:
256,192,87387,5,0,0:0:0:0:
256,192,87434,5,0,0:0:0:0:
256,192,87481,5,8,0:0:0:0:
256,192,87575,5,0,0:0:0:0:
256,192,87669,5,8,0:0:0:0:
256,192,87762,5,0,0:0:0:0:
256,192,87856,5,8,0:0:0:0:
256,192,87950,5,8,0:0:0:0:
256,192,87997,5,8,0:0:0:0:
256,192,88044,5,0,0:0:0:0:
256,192,88137,5,0,0:0:0:0:
256,192,88184,5,0,0:0:0:0:
256,192,88231,5,8,0:0:0:0:
256,192,88325,5,0,0:0:0:0:
256,192,88419,5,8,0:0:0:0:
256,192,88465,5,8,0:0:0:0:
256,192,88512,5,0,0:0:0:0:
256,192,88559,5,0,0:0:0:0:
256,192,88606,5,8,0:0:0:0:
256,192,88700,5,8,0:0:0:0:
256,192,88794,5,0,0:0:0:0:
256,192,88887,5,0,0:0:0:0:
256,192,88934,5,0,0:0:0:0:
256,192,88981,5,8,0:0:0:0:
256,192,89075,5,0,0:0:0:0:
256,192,89169,5,8,0:0:0:0:
256,192,89262,5,0,0:0:0:0:
256,192,89356,5,8,0:0:0:0:
256,192,89450,5,8,0:0:0:0:
256,192,89497,5,8,0:0:0:0:
256,192,89544,5,0,0:0:0:0:
256,192,89637,5,0,0:0:0:0:
256,192,89684,5,0,0:0:0:0:
256,192,89731,5,8,0:0:0:0:
256,192,89825,5,0,0:0:0:0:
256,192,89919,5,8,0:0:0:0:
256,192,90012,5,0,0:0:0:0:
256,192,90106,5,8,0:0:0:0:
256,192,90153,5,0,0:0:0:0:
256,192,90200,5,8,0:0:0:0:
256,192,90247,5,8,0:0:0:0:
256,192,90294,5,0,0:0:0:0:
256,192,90387,5,0,0:0:0:0:
256,192,90434,5,0,0:0:0:0:
256,192,90481,5,8,0:0:0:0:
256,192,90575,5,0,0:0:0:0:
256,192,90669,5,8,0:0:0:0:
256,192,90762,5,0,0:0:0:0:
256,192,90856,5,8,0:0:0:0:
256,192,90950,5,8,0:0:0:0:
256,192,90997,5,8,0:0:0:0:
256,192,91044,5,0,0:0:0:0:
256,192,91137,5,0,0:0:0:0:
256,192,91184,5,0,0:0:0:0:
256,192,91231,5,8,0:0:0:0:
256,192,91325,5,0,0:0:0:0:
256,192,91419,5,8,0:0:0:0:
256,192,91450,5,8,0:0:0:0:
256,192,91481,5,8,0:0:0:0:
256,192,91512,5,0,0:0:0:0:
256,192,91606,5,8,0:0:0:0:
256,192,91700,5,0,0:0:0:0:
256,192,91794,5,12,0:0:0:0:
256,192,91887,5,0,0:0:0:0:
256,192,91934,5,0,0:0:0:0:
256,192,91981,5,8,0:0:0:0:
256,192,92075,5,0,0:0:0:0:
256,192,92169,5,8,0:0:0:0:
256,192,92262,5,0,0:0:0:0:
256,192,92356,5,8,0:0:0:0:
256,192,92450,5,8,0:0:0:0:
256,192,92497,5,8,0:0:0:0:
256,192,92544,5,0,0:0:0:0:
256,192,92637,5,0,0:0:0:0:
256,192,92684,5,0,0:0:0:0:
256,192,92731,5,8,0:0:0:0:
256,192,92825,5,0,0:0:0:0:
256,192,92919,5,8,0:0:0:0:
256,192,93012,5,0,0:0:0:0:
256,192,93106,5,8,0:0:0:0:
256,192,93153,5,0,0:0:0:0:
256,192,93200,5,8,0:0:0:0:
256,192,93247,5,8,0:0:0:0:
256,192,93294,5,0,0:0:0:0:
256,192,93387,5,0,0:0:0:0:
256,192,93434,5,0,0:0:0:0:
256,192,93481,5,8,0:0:0:0:
256,192,93575,5,0,0:0:0:0:
256,192,93669,5,8,0:0:0:0:
256,192,93762,5,0,0:0:0:0:
256,192,93856,5,8,0:0:0:0:
256,192,93950,5,8,0:0:0:0:
256,192,93997,5,8,0:0:0:0:
256,192,94044,5,0,0:0:0:0:
256,192,94137,5,0,0:0:0:0:
256,192,94184,5,0,0:0:0:0:
256,192,94231,5,8,0:0:0:0:
256,192,94325,5,0,0:0:0:0:
256,192,94419,5,8,0:0:0:0:
256,192,94465,5,8,0:0:0:0:
256,192,94512,5,0,0:0:0:0:
256,192,94559,5,0,0:0:0:0:
256,192,94606,5,8,0:0:0:0:
256,192,94700,5,8,0:0:0:0:
256,192,94794,5,0,0:0:0:0:
256,192,94887,5,0,0:0:0:0:
256,192,94934,5,0,0:0:0:0:
256,192,94981,5,8,0:0:0:0:
256,192,95075,5,0,0:0:0:0:
256,192,95169,5,8,0:0:0:0:
256,192,95262,5,0,0:0:0:0:
256,192,95356,5,8,0:0:0:0:
256,192,95450,5,8,0:0:0:0:
256,192,95497,5,8,0:0:0:0:
256,192,95544,5,0,0:0:0:0:
256,192,95637,5,0,0:0:0:0:
256,192,95684,5,0,0:0:0:0:
256,192,95731,5,8,0:0:0:0:
256,192,95825,5,0,0:0:0:0:
256,192,95919,5,8,0:0:0:0:
256,192,96012,5,0,0:0:0:0:
256,192,96106,5,8,0:0:0:0:
256,192,96153,5,0,0:0:0:0:
256,192,96200,5,8,0:0:0:0:
256,192,96247,5,8,0:0:0:0:
256,192,96294,5,0,0:0:0:0:
256,192,96387,5,0,0:0:0:0:
256,192,96434,5,0,0:0:0:0:
256,192,96481,5,8,0:0:0:0:
256,192,96575,5,0,0:0:0:0:
256,192,96669,5,8,0:0:0:0:
256,192,96762,5,0,0:0:0:0:
256,192,96856,5,8,0:0:0:0:
256,192,96950,5,8,0:0:0:0:
256,192,96997,5,8,0:0:0:0:
256,192,97044,5,0,0:0:0:0:
256,192,97137,5,0,0:0:0:0:
256,192,97184,5,0,0:0:0:0:
256,192,97231,5,8,0:0:0:0:
256,192,97325,5,0,0:0:0:0:
256,192,97419,5,8,0:0:0:0:
256,192,97450,5,8,0:0:0:0:
256,192,97481,5,8,0:0:0:0:
256,192,97512,5,8,0:0:0:0:
256,192,97606,5,0,0:0:0:0:
256,192,97637,5,0,0:0:0:0:
256,192,97669,5,0,0:0:0:0:
256,192,97700,5,0,0:0:0:0:
256,192,97794,5,12,0:0:0:0:
256,192,97887,5,0,0:0:0:0:
256,192,97934,5,0,0:0:0:0:
256,192,97981,5,8,0:0:0:0:
256,192,98075,5,0,0:0:0:0:
256,192,98169,5,8,0:0:0:0:
256,192,98262,5,0,0:0:0:0:
256,192,98356,5,8,0:0:0:0:
256,192,98450,5,8,0:0:0:0:
256,192,98497,5,8,0:0:0:0:
256,192,98544,5,0,0:0:0:0:
256,192,98637,5,0,0:0:0:0:
256,192,98684,5,0,0:0:0:0:
256,192,98731,5,8,0:0:0:0:
256,192,98825,5,0,0:0:0:0:
256,192,98919,5,8,0:0:0:0:
256,192,99012,5,0,0:0:0:0:
256,192,99106,5,8,0:0:0:0:
256,192,99153,5,0,0:0:0:0:
256,192,99200,5,8,0:0:0:0:
256,192,99247,5,8,0:0:0:0:
256,192,99294,5,0,0:0:0:0:
256,192,99387,5,0,0:0:0:0:
256,192,99434,5,0,0:0:0:0:
256,192,99481,5,8,0:0:0:0:
256,192,99575,5,0,0:0:0:0:
256,192,99669,5,8,0:0:0:0:
256,192,99762,5,0,0:0:0:0:
256,192,99856,5,8,0:0:0:0:
256,192,99950,5,8,0:0:0:0:
256,192,99997,5,8,0:0:0:0:
256,192,100044,5,0,0:0:0:0:
256,192,100137,5,0,0:0:0:0:
256,192,100184,5,0,0:0:0:0:
256,192,100231,5,8,0:0:0:0:
256,192,100325,5,0,0:0:0:0:
256,192,100419,5,8,0:0:0:0:
256,192,100465,5,8,0:0:0:0:
256,192,100512,5,0,0:0:0:0:
256,192,100559,5,0,0:0:0:0:
256,192,100606,5,8,0:0:0:0:
256,192,100700,5,0,0:0:0:0:
256,192,100794,5,8,0:0:0:0:
256,192,100840,5,8,0:0:0:0:
256,192,100887,5,0,0:0:0:0:
256,192,100981,5,8,0:0:0:0:
256,192,101075,5,0,0:0:0:0:
256,192,101122,5,0,0:0:0:0:
256,192,101169,5,8,0:0:0:0:
256,192,101215,5,8,0:0:0:0:
256,192,101262,5,0,0:0:0:0:
256,192,101356,5,8,0:0:0:0:
256,192,101403,5,0,0:0:0:0:
256,192,101450,5,8,0:0:0:0:
256,192,101544,5,8,0:0:0:0:
256,192,101590,5,8,0:0:0:0:
256,192,101637,5,0,0:0:0:0:
256,192,101731,5,8,0:0:0:0:
256,192,101825,5,0,0:0:0:0:
256,192,101872,5,0,0:0:0:0:
256,192,101919,5,8,0:0:0:0:
256,192,101965,5,8,0:0:0:0:
256,192,102012,5,0,0:0:0:0:
256,192,102106,5,8,0:0:0:0:
256,192,102153,5,0,0:0:0:0:
256,192,102200,5,8,0:0:0:0:
256,192,102294,5,0,0:0:0:0:
256,192,102340,5,0,0:0:0:0:
256,192,102387,5,8,0:0:0:0:
256,192,102434,5,8,0:0:0:0:
256,192,102481,5,0,0:0:0:0:
256,192,102528,5,0,0:0:0:0:
256,192,102575,5,8,0:0:0:0:
256,192,102622,5,8,0:0:0:0:
256,192,102669,5,0,0:0:0:0:
256,192,102715,5,0,0:0:0:0:
256,192,102762,5,8,0:0:0:0:
256,192,102809,5,8,0:0:0:0:
256,192,102856,5,0,0:0:0:0:
256,192,102903,5,0,0:0:0:0:
256,192,102950,5,8,0:0:0:0:
256,192,102997,5,8,0:0:0:0:
256,192,103044,5,0,0:0:0:0:
256,192,103091,5,8,0:0:0:0:
256,192,103138,5,0,0:0:0:0:
256,192,103184,5,8,0:0:0:0:
256,192,103231,5,0,0:0:0:0:
256,192,103278,5,8,0:0:0:0:
256,192,103325,5,0,0:0:0:0:
256,192,103372,5,8,0:0:0:0:
256,192,103419,5,0,0:0:0:0:
256,192,103465,5,8,0:0:0:0:
256,192,103512,5,0,0:0:0:0:
256,192,103559,5,8,0:0:0:0:
256,192,103606,5,0,0:0:0:0:
256,192,103653,5,8,0:0:0:0:
256,192,103700,5,0,0:0:0:0:
256,192,103747,5,8,0:0:0:0:
256,192,103794,5,4,0:0:0:0:
256,192,103887,5,0,0:0:0:0:
256,192,103934,5,0,0:0:0:0:
256,192,103981,5,8,0:0:0:0:
256,192,104075,5,0,0:0:0:0:
256,192,104169,5,8,0:0:0:0:
256,192,104215,5,8,0:0:0:0:
256,192,104262,5,0,0:0:0:0:
256,192,104356,5,8,0:0:0:0:
256,192,104450,5,0,0:0:0:0:
256,192,104497,5,0,0:0:0:0:
256,192,104544,5,0,0:0:0:0:
256,192,104637,5,0,0:0:0:0:
256,192,104731,5,8,0:0:0:0:
256,192,104825,5,0,0:0:0:0:
256,192,104872,5,0,0:0:0:0:
256,192,104919,5,8,0:0:0:0:
256,192,104965,5,8,0:0:0:0:
256,192,105012,5,0,0:0:0:0:
256,192,105106,5,8,0:0:0:0:
256,192,105200,5,0,0:0:0:0:
256,192,105247,5,0,0:0:0:0:
256,192,105294,5,8,0:0:0:0:
256,192,105387,5,0,0:0:0:0:
256,192,105481,5,8,0:0:0:0:
256,192,105575,5,0,0:0:0:0:
256,192,105622,5,0,0:0:0:0:
256,192,105669,5,8,0:0:0:0:
256,192,105715,5,0,0:0:0:0:
256,192,105762,5,8,0:0:0:0:
256,192,105856,5,0,0:0:0:0:
256,192,105950,5,8,0:0:0:0:
256,192,105997,5,8,0:0:0:0:
256,192,106044,5,0,0:0:0:0:
256,192,106090,5,0,0:0:0:0:
256,192,106137,5,8,0:0:0:0:
256,192,106184,5,8,0:0:0:0:
256,192,106231,5,0,0:0:0:0:
256,192,106278,5,0,0:0:0:0:
256,192,106325,5,0,0:0:0:0:
256,192,106372,5,0,0:0:0:0:
256,192,106419,5,8,0:0:0:0:
256,192,106512,5,0,0:0:0:0:
256,192,106606,5,8,0:0:0:0:
256,192,106653,5,8,0:0:0:0:
256,192,106700,5,0,0:0:0:0:
256,192,106747,5,8,0:0:0:0:
256,192,106794,5,0,0:0:0:0:
256,192,106887,5,0,0:0:0:0:
256,192,106934,5,0,0:0:0:0:
256,192,106981,5,8,0:0:0:0:
256,192,107075,5,0,0:0:0:0:
256,192,107169,5,8,0:0:0:0:
256,192,107215,5,8,0:0:0:0:
256,192,107262,5,0,0:0:0:0:
256,192,107356,5,8,0:0:0:0:
256,192,107450,5,0,0:0:0:0:
256,192,107497,5,0,0:0:0:0:
256,192,107544,5,0,0:0:0:0:
256,192,107637,5,0,0:0:0:0:
256,192,107731,5,8,0:0:0:0:
256,192,107825,5,0,0:0:0:0:
256,192,107872,5,0,0:0:0:0:
256,192,107919,5,8,0:0:0:0:
256,192,107965,5,8,0:0:0:0:
256,192,108012,5,0,0:0:0:0:
256,192,108106,5,8,0:0:0:0:
256,192,108200,5,0,0:0:0:0:
256,192,108247,5,0,0:0:0:0:
256,192,108294,5,8,0:0:0:0:
256,192,108387,5,0,0:0:0:0:
256,192,108481,5,8,0:0:0:0:
256,192,108575,5,0,0:0:0:0:
256,192,108622,5,0,0:0:0:0:
256,192,108669,5,8,0:0:0:0:
256,192,108715,5,8,0:0:0:0:
256,192,108762,5,0,0:0:0:0:
256,192,108809,5,8,0:0:0:0:
256,192,108856,5,0,0:0:0:0:
256,192,108950,5,8,0:0:0:0:
256,192,108997,5,8,0:0:0:0:
256,192,109044,5,0,0:0:0:0:
256,192,109090,5,0,0:0:0:0:
256,192,109137,5,8,0:0:0:0:
256,192,109184,5,0,0:0:0:0:
256,192,109231,5,8,0:0:0:0:
256,192,109278,5,8,0:0:0:0:
256,192,109325,5,8,0:0:0:0:
256,192,109372,5,8,0:0:0:0:
256,192,109419,5,0,0:0:0:0:
256,192,109512,5,8,0:0:0:0:
256,192,109559,5,0,0:0:0:0:
256,192,109606,5,8,0:0:0:0:
256,192,109700,5,0,0:0:0:0:
256,192,109794,5,12,0:0:0:0:
256,192,109887,5,0,0:0:0:0:
256,192,109934,5,0,0:0:0:0:
256,192,109981,5,8,0:0:0:0:
256,192,110075,5,0,0:0:0:0:
256,192,110169,5,8,0:0:0:0:
256,192,110215,5,8,0:0:0:0:
256,192,110262,5,0,0:0:0:0:
256,192,110309,5,8,0:0:0:0:
256,192,110356,5,0,0:0:0:0:
256,192,110450,5,8,0:0:0:0:
256,192,110497,5,8,0:0:0:0:
256,192,110544,5,0,0:0:0:0:
256,192,110637,5,0,0:0:0:0:
256,192,110684,5,0,0:0:0:0:
256,192,110731,5,8,0:0:0:0:
256,192,110825,5,0,0:0:0:0:
256,192,110919,5,8,0:0:0:0:
256,192,110965,5,0,0:0:0:0:
256,192,111012,5,8,0:0:0:0:
256,192,111059,5,8,0:0:0:0:
256,192,111106,5,0,0:0:0:0:
256,192,111200,5,8,0:0:0:0:
256,192,111294,5,0,0:0:0:0:
256,192,111387,5,0,0:0:0:0:
256,192,111434,5,0,0:0:0:0:
256,192,111481,5,8,0:0:0:0:
256,192,111575,5,8,0:0:0:0:
256,192,111669,5,0,0:0:0:0:
256,192,111715,5,0,0:0:0:0:
256,192,111762,5,8,0:0:0:0:
256,192,111809,5,8,0:0:0:0:
256,192,111856,5,0,0:0:0:0:
256,192,111950,5,8,0:0:0:0:
256,192,111997,5,8,0:0:0:0:
256,192,112044,5,0,0:0:0:0:
256,192,112090,5,0,0:0:0:0:
256,192,112137,5,8,0:0:0:0:
256,192,112184,5,0,0:0:0:0:
256,192,112231,5,8,0:0:0:0:
256,192,112278,5,8,0:0:0:0:
256,192,112325,5,8,0:0:0:0:
256,192,112372,5,8,0:0:0:0:
256,192,112419,5,0,0:0:0:0:
256,192,112512,5,0,0:0:0:0:
256,192,112559,5,0,0:0:0:0:
256,192,112606,5,8,0:0:0:0:
256,192,112700,5,8,0:0:0:0:
256,192,112794,5,0,0:0:0:0:
256,192,112887,5,0,0:0:0:0:
256,192,112934,5,0,0:0:0:0:
256,192,112981,5,8,0:0:0:0:
256,192,113075,5,0,0:0:0:0:
256,192,113169,5,8,0:0:0:0:
256,192,113215,5,8,0:0:0:0:
256,192,113262,5,0,0:0:0:0:
256,192,113309,5,8,0:0:0:0:
256,192,113356,5,0,0:0:0:0:
256,192,113450,5,8,0:0:0:0:
256,192,113544,5,0,0:0:0:0:
256,192,113637,5,0,0:0:0:0:
256,192,113684,5,0,0:0:0:0:
256,192,113731,5,8,0:0:0:0:
256,192,113825,5,0,0:0:0:0:
256,192,113919,5,8,0:0:0:0:
256,192,113965,5,0,0:0:0:0:
256,192,114012,5,8,0:0:0:0:
256,192,114059,5,8,0:0:0:0:
256,192,114106,5,0,0:0:0:0:
256,192,114200,5,8,0:0:0:0:
256,192,114247,5,8,0:0:0:0:
256,192,114294,5,0,0:0:0:0:
256,192,114340,5,0,0:0:0:0:
256,192,114387,5,8,0:0:0:0:
256,192,114434,5,0,0:0:0:0:
256,192,114481,5,8,0:0:0:0:
256,192,114528,5,8,0:0:0:0:
256,192,114575,5,0,0:0:0:0:
256,192,114669,5,8,0:0:0:0:
256,192,114715,5,8,0:0:0:0:
256,192,114762,5,0,0:0:0:0:
256,192,114809,5,8,0:0:0:0:
256,192,114856,5,0,0:0:0:0:
256,192,114903,5,0,0:0:0:0:
256,192,114950,5,8,0:0:0:0:
256,192,115044,5,0,0:0:0:0:
256,192,115090,5,0,0:0:0:0:
256,192,115137,5,8,0:0:0:0:
256,192,115184,5,8,0:0:0:0:
256,192,115231,5,0,0:0:0:0:
256,192,115278,5,0,0:0:0:0:
256,192,115325,5,8,0:0:0:0:
256,192,115372,5,8,0:0:0:0:
256,192,115419,5,0,0:0:0:0:
256,192,115465,5,8,0:0:0:0:
256,192,115512,5,0,0:0:0:0:
256,192,115559,5,8,0:0:0:0:
256,192,115606,5,0,0:0:0:0:
256,192,115653,5,8,0:0:0:0:
256,192,115700,5,0,0:0:0:0:
256,192,115747,5,8,0:0:0:0:
256,192,115794,5,4,0:0:0:0:
256,192,116169,5,8,0:0:0:0:
256,192,116356,5,8,0:0:0:0:
256,192,116544,5,0,0:0:0:0:
256,192,116731,5,0,0:0:0:0:
256,192,116919,5,8,0:0:0:0:
256,192,117294,5,0,0:0:0:0:
256,192,117669,5,8,0:0:0:0:
256,192,117856,5,0,0:0:0:0:
256,192,117950,5,8,0:0:0:0:
256,192,118044,5,0,0:0:0:0:
256,192,118106,5,8,0:0:0:0:
256,192,118169,5,8,0:0:0:0:
256,192,118231,5,0,0:0:0:0:
256,192,118294,5,0,0:0:0:0:
256,192,118356,5,0,0:0:0:0:
256,192,118419,5,8,0:0:0:0:
256,192,118606,5,8,0:0:0:0:
256,192,118794,5,0,0:0:0:0:
256,192,119169,5,8,0:0:0:0:
256,192,119356,5,8,0:0:0:0:
256,192,119544,5,8,0:0:0:0:
256,192,119731,5,0,0:0:0:0:
256,192,119919,5,8,0:0:0:0:
256,192,120106,5,0,0:0:0:0:
256,192,120200,5,0,0:0:0:0:
256,192,120247,5,0,0:0:0:0:
256,192,120294,5,12,0:0:0:0:
256,192,120387,5,0,0:0:0:0:
256,192,120481,5,0,0:0:0:0:
256,192,120575,5,8,0:0:0:0:
256,192,120669,5,0,0:0:0:0:
256,192,120762,5,8,0:0:0:0:
256,192,120950,5,8,0:0:0:0:
256,192,120997,5,8,0:0:0:0:
256,192,121044,5,8,0:0:0:0:
256,192,121137,5,8,0:0:0:0:
256,192,121231,5,0,0:0:0:0:
256,192,121325,5,8,0:0:0:0:
256,192,121419,5,0,0:0:0:0:
256,192,121512,5,8,0:0:0:0:
256,192,121700,5,0,0:0:0:0:
256,192,121747,5,0,0:0:0:0:
256,192,121794,5,12,0:0:0:0:
256,192,121887,5,0,0:0:0:0:
256,192,121981,5,0,0:0:0:0:
256,192,122075,5,8,0:0:0:0:
256,192,122169,5,0,0:0:0:0:
256,192,122262,5,8,0:0:0:0:
256,192,122450,5,8,0:0:0:0:
256,192,122497,5,8,0:0:0:0:
256,192,122544,5,8,0:0:0:0:
256,192,122637,5,8,0:0:0:0:
256,192,122731,5,0,0:0:0:0:
256,192,122825,5,8,0:0:0:0:
256,192,122919,5,0,0:0:0:0:
256,192,123012,5,8,0:0:0:0:
256,192,123106,5,0,0:0:0:0:
256,192,123153,5,0,0:0:0:0:
256,192,123200,5,0,0:0:0:0:
256,192,123247,5,0,0:0:0:0:
256,192,123294,5,12,0:0:0:0:
256,192,123387,5,0,0:0:0:0:
256,192,123481,5,0,0:0:0:0:
256,192,123575,5,8,0:0:0:0:
256,192,123622,5,8,0:0:0:0:
256,192,123669,5,0,0:0:0:0:
256,192,123762,5,8,0:0:0:0:
256,192,123856,5,0,0:0:0:0:
256,192,123950,5,8,0:0:0:0:
256,192,123997,5,0,0:0:0:0:
256,192,124044,5,12,0:0:0:0:
256,192,124137,5,0,0:0:0:0:
256,192,124231,5,0,0:0:0:0:
256,192,124325,5,8,0:0:0:0:
256,192,124372,5,8,0:0:0:0:
256,192,124419,5,0,0:0:0:0:
256,192,124512,5,8,0:0:0:0:
256,192,124606,5,0,0:0:0:0:
256,192,124653,5,0,0:0:0:0:
256,192,124700,5,0,0:0:0:0:
256,192,124747,5,0,0:0:0:0:
256,192,124794,5,12,0:0:0:0:
256,192,124887,5,0,0:0:0:0:
256,192,124934,5,0,0:0:0:0:
256,192,124981,5,0,0:0:0:0:
256,192,125075,5,8,0:0:0:0:
256,192,125122,5,8,0:0:0:0:
256,192,125169,5,4,0:0:0:0:
256,192,125262,5,8,0:0:0:0:
256,192,125356,5,0,0:0:0:0:
256,192,125450,5,0,0:0:0:0:
256,192,125497,5,0,0:0:0:0:
256,192,125544,5,8,0:0:0:0:
256,192,125590,5,8,0:0:0:0:
256,192,125637,5,8,0:0:0:0:
256,192,125684,5,8,0:0:0:0:
256,192,125731,5,0,0:0:0:0:
256,192,125778,5,0,0:0:0:0:
256,192,125825,5,8,0:0:0:0:
256,192,125872,5,8,0:0:0:0:
256,192,125919,5,8,0:0:0:0:
256,192,126012,5,0,0:0:0:0:
256,192,126106,5,8,0:0:0:0:
256,192,126153,5,8,0:0:0:0:
256,192,126200,5,0,0:0:0:0:
256,192,126294,5,12,0:0:0:0:
256,192,126387,12,0,128450,0:0:0:0:
256,192,128731,5,4,0:0:0:0:
256,192,129294,5,12,0:0:0:0:
256,192,152519,5,0,0:0:0:0:
256,192,153294,5,8,0:0:0:0:
256,192,154068,5,4,0:0:0:0:
256,192,154455,5,0,0:0:0:0:
256,192,154842,5,8,0:0:0:0:
256,192,155229,5,0,0:0:0:0:
256,192,155423,5,8,0:0:0:0:
256,192,155616,5,0,0:0:0:0:
256,192,155810,5,8,0:0:0:0:
256,192,156003,5,0,0:0:0:0:
256,192,156390,5,8,0:0:0:0:
256,192,156777,5,0,0:0:0:0:
256,192,156971,5,0,0:0:0:0:
256,192,157164,5,8,0:0:0:0:
256,192,157552,5,0,0:0:0:0:
256,192,157745,5,8,0:0:0:0:
256,192,157939,5,8,0:0:0:0:
256,192,158326,5,0,0:0:0:0:
256,192,158519,5,8,0:0:0:0:
256,192,158713,5,0,0:0:0:0:
256,192,158906,5,8,0:0:0:0:
256,192,159100,5,0,0:0:0:0:
256,192,159487,5,8,0:0:0:0:
256,192,159874,5,8,0:0:0:0:
256,192,160261,5,0,0:0:0:0:
256,192,160648,5,0,0:0:0:0:
256,192,161035,5,8,0:0:0:0:
256,192,161423,5,0,0:0:0:0:
256,192,161616,5,8,0:0:0:0:
256,192,161810,5,0,0:0:0:0:
256,192,162003,5,8,0:0:0:0:
256,192,162197,5,0,0:0:0:0:
256,192,162390,5,8,0:0:0:0:
256,192,162584,5,8,0:0:0:0:
256,192,162777,5,8,0:0:0:0:
256,192,162971,5,0,0:0:0:0:
256,192,163164,5,8,0:0:0:0:
256,192,163358,5,0,0:0:0:0:
256,192,163745,5,0,0:0:0:0:
256,192,164132,5,8,0:0:0:0:
256,192,164519,5,0,0:0:0:0:
256,192,164713,5,8,0:0:0:0:
256,192,164906,5,0,0:0:0:0:
256,192,165100,5,8,0:0:0:0:
256,192,165294,5,0,0:0:0:0:
256,192,165681,5,8,0:0:0:0:
256,192,165874,5,0,0:0:0:0:
256,192,166068,5,8,0:0:0:0:
256,192,166455,5,0,0:0:0:0:
256,192,166842,5,0,0:0:0:0:
256,192,167229,5,8,0:0:0:0:
256,192,167616,5,8,0:0:0:0:
256,192,167810,5,8,0:0:0:0:
256,192,168003,5,0,0:0:0:0:
256,192,168197,5,8,0:0:0:0:
256,192,168390,5,0,0:0:0:0:
256,192,168584,5,0,0:0:0:0:
256,192,168777,5,8,0:0:0:0:
256,192,169164,5,8,0:0:0:0:
256,192,169358,5,8,0:0:0:0:
256,192,169552,5,0,0:0:0:0:
256,192,169939,5,0,0:0:0:0:
256,192,170132,5,8,0:0:0:0:
256,192,170326,5,8,0:0:0:0:
256,192,170713,5,0,0:0:0:0:
256,192,170906,5,8,0:0:0:0:
256,192,171100,5,0,0:0:0:0:
256,192,171294,5,8,0:0:0:0:
256,192,171487,5,0,0:0:0:0:
256,192,171874,5,8,0:0:0:0:
256,192,172068,5,8,0:0:0:0:
256,192,172261,5,0,0:0:0:0:
256,192,172455,5,8,0:0:0:0:
256,192,172648,5,0,0:0:0:0:
256,192,173035,5,0,0:0:0:0:
256,192,173423,5,8,0:0:0:0:
256,192,173810,5,0,0:0:0:0:
256,192,174003,5,8,0:0:0:0:
256,192,174197,5,0,0:0:0:0:
256,192,174390,5,8,0:0:0:0:
256,192,174584,5,0,0:0:0:0:
256,192,174971,5,8,0:0:0:0:
256,192,175358,5,0,0:0:0:0:
256,192,175745,5,8,0:0:0:0:
256,192,176132,5,8,0:0:0:0:
256,192,176326,5,0,0:0:0:0:
256,192,176519,5,8,0:0:0:0:
256,192,176906,5,0,0:0:0:0:
256,192,177100,5,8,0:0:0:0:
256,192,177294,5,0,0:0:0:0:
256,192,177487,5,8,0:0:0:0:
256,192,177681,5,0,0:0:0:0:
256,192,178068,5,8,0:0:0:0:
256,192,178261,5,0,0:0:0:0:
256,192,178455,5,0,0:0:0:0:
256,192,178552,5,0,0:0:0:0:
256,192,178648,5,0,0:0:0:0:
256,192,178745,5,0,0:0:0:0:
256,192,178842,5,12,0:0:0:0:
256,192,185035,5,12,0:0:0:0:
256,192,191229,5,12,0:0:0:0:
256,192,194326,5,12,0:0:0:0:
256,192,197423,5,12,0:0:0:0:
256,192,198971,5,12,0:0:0:0:
256,192,200519,5,12,0:0:0:0:
256,192,201294,5,4,0:0:0:0:
256,192,202068,5,12,0:0:0:0:
256,192,202197,5,0,0:0:0:0:
256,192,202326,5,0,0:0:0:0:
256,192,202455,5,12,0:0:0:0:
256,192,202584,5,0,0:0:0:0:
256,192,202713,5,0,0:0:0:0:
256,192,202842,5,12,0:0:0:0:
256,192,202971,5,8,0:0:0:0:
256,192,203100,5,0,0:0:0:0:
256,192,203229,5,12,0:0:0:0:
256,192,203358,5,0,0:0:0:0:
256,192,203487,5,0,0:0:0:0:
256,192,203616,5,12,0:0:0:0:
256,192,204390,5,8,0:0:0:0:
256,192,204777,5,0,0:0:0:0:
256,192,204970,5,0,0:0:0:0:
256,192,205164,5,12,0:0:0:0:
256,192,205869,5,8,0:0:0:0:
256,192,206222,5,0,0:0:0:0:
256,192,206399,5,0,0:0:0:0:
256,192,206575,5,12,0:0:0:0:
256,192,207223,5,8,0:0:0:0:
256,192,207547,5,0,0:0:0:0:
256,192,207710,5,0,0:0:0:0:
256,192,207872,5,12,0:0:0:0:
256,192,208472,5,8,0:0:0:0:
256,192,208772,5,0,0:0:0:0:
256,192,208922,5,0,0:0:0:0:
256,192,209072,5,12,0:0:0:0:
256,192,209630,5,8,0:0:0:0:
256,192,209909,5,0,0:0:0:0:
256,192,210048,5,0,0:0:0:0:
256,192,210188,5,12,0:0:0:0:
256,192,210709,5,8,0:0:0:0:
256,192,210970,5,0,0:0:0:0:
256,192,211101,5,0,0:0:0:0:
256,192,211231,5,12,0:0:0:0:
256,192,211720,5,8,0:0:0:0:
256,192,211965,5,0,0:0:0:0:
256,192,212088,5,0,0:0:0:0:
256,192,212210,5,12,0:0:0:0:
256,192,212671,5,8,0:0:0:0:
256,192,212902,5,0,0:0:0:0:
256,192,213017,5,0,0:0:0:0:
256,192,213133,5,12,0:0:0:0:
256,192,213351,5,0,0:0:0:0:
256,192,213569,5,8,0:0:0:0:
256,192,213787,5,0,0:0:0:0:
256,192,213896,5,0,0:0:0:0:
256,192,214005,5,12,0:0:0:0:
256,192,214211,5,0,0:0:0:0:
256,192,214418,5,8,0:0:0:0:
256,192,214522,5,8,0:0:0:0:
256,192,214625,5,0,0:0:0:0:
256,192,214729,5,0,0:0:0:0:
256,192,214832,5,12,0:0:0:0:
256,192,215028,5,0,0:0:0:0:
256,192,215225,5,8,0:0:0:0:
256,192,215422,5,0,0:0:0:0:
256,192,215520,5,0,0:0:0:0:
256,192,215618,5,12,0:0:0:0:
256,192,215805,5,0,0:0:0:0:
256,192,215993,5,8,0:0:0:0:
256,192,216086,5,8,0:0:0:0:
256,192,216180,5,0,0:0:0:0:
256,192,216274,5,0,0:0:0:0:
256,192,216368,5,12,0:0:0:0:
256,192,216547,5,0,0:0:0:0:
256,192,216726,5,8,0:0:0:0:
256,192,216905,5,0,0:0:0:0:
256,192,216994,5,0,0:0:0:0:
256,192,217084,5,12,0:0:0:0:
256,192,217255,5,0,0:0:0:0:
256,192,217426,5,8,0:0:0:0:
256,192,217512,5,8,0:0:0:0:
256,192,217598,5,0,0:0:0:0:
256,192,217684,5,0,0:0:0:0:
256,192,217769,5,12,0:0:0:0:
256,192,217933,5,0,0:0:0:0:
256,192,218097,5,8,0:0:0:0:
256,192,218262,5,0,0:0:0:0:
256,192,218344,5,0,0:0:0:0:
256,192,218426,5,12,0:0:0:0:
256,192,218583,5,0,0:0:0:0:
256,192,218741,5,8,0:0:0:0:
256,192,218820,5,8,0:0:0:0:
256,192,218899,5,0,0:0:0:0:
256,192,218978,5,0,0:0:0:0:
256,192,219057,5,12,0:0:0:0:
256,192,219208,5,0,0:0:0:0:
256,192,219360,5,8,0:0:0:0:
256,192,219512,5,0,0:0:0:0:
256,192,219588,5,0,0:0:0:0:
256,192,219664,5,12,0:0:0:0:
256,192,219810,5,0,0:0:0:0:
256,192,219956,5,8,0:0:0:0:
256,192,220029,5,8,0:0:0:0:
256,192,220103,5,0,0:0:0:0:
256,192,220176,5,0,0:0:0:0:
256,192,220249,5,12,0:0:0:0:
256,192,220390,5,0,0:0:0:0:
256,192,220531,5,8,0:0:0:0:
256,192,220672,5,0,0:0:0:0:
256,192,220743,5,0,0:0:0:0:
256,192,220813,5,12,0:0:0:0:
256,192,220949,5,0,0:0:0:0:
256,192,221085,5,8,0:0:0:0:
256,192,221153,5,8,0:0:0:0:
256,192,221222,5,0,0:0:0:0:
256,192,221290,5,0,0:0:0:0:
256,192,221358,5,12,0:0:0:0:
256,192,221489,5,0,0:0:0:0:
256,192,221621,5,8,0:0:0:0:
256,192,221753,5,0,0:0:0:0:
256,192,221819,5,0,0:0:0:0:
256,192,221885,5,12,0:0:0:0:
256,192,222012,5,0,0:0:0:0:
256,192,222140,5,8,0:0:0:0:
256,192,222204,5,8,0:0:0:0:
256,192,222267,5,0,0:0:0:0:
256,192,222331,5,0,0:0:0:0:
256,192,222395,5,12,0:0:0:0:
256,192,222518,5,0,0:0:0:0:
256,192,222642,5,8,0:0:0:0:
256,192,222766,5,0,0:0:0:0:
256,192,222827,5,0,0:0:0:0:
256,192,222889,5,12,0:0:0:0:
256,192,223009,5,0,0:0:0:0:
256,192,223129,5,8,0:0:0:0:
256,192,223189,5,8,0:0:0:0:
256,192,223249,5,0,0:0:0:0:
256,192,223309,5,0,0:0:0:0:
256,192,223369,5,12,0:0:0:0:
256,192,223485,5,0,0:0:0:0:
256,192,223543,5,0,0:0:0:0:
256,192,223602,5,0,0:0:0:0:
256,192,223718,5,0,0:0:0:0:
256,192,223835,5,8,0:0:0:0:
256,192,223893,5,8,0:0:0:0:
256,192,223951,5,0,0:0:0:0:
256,192,224009,5,0,0:0:0:0:
256,192,224068,5,8,0:0:0:0:
256,192,224184,5,0,0:0:0:0:
256,192,224301,5,8,0:0:0:0:
256,192,224417,5,0,0:0:0:0:
256,192,224475,5,0,0:0:0:0:
256,192,224534,5,0,0:0:0:0:
256,192,224650,5,0,0:0:0:0:
256,192,224767,5,8,0:0:0:0:
256,192,224825,5,8,0:0:0:0:
256,192,224883,5,0,0:0:0:0:
256,192,224941,5,0,0:0:0:0:
256,192,225000,5,8,0:0:0:0:
256,192,225116,5,0,0:0:0:0:
256,192,225233,5,8,0:0:0:0:
256,192,225291,5,0,0:0:0:0:
256,192,225349,5,8,0:0:0:0:
256,192,225407,5,8,0:0:0:0:
256,192,225466,5,0,0:0:0:0:
256,192,225582,5,8,0:0:0:0:
256,192,225699,5,0,0:0:0:0:
256,192,225757,5,0,0:0:0:0:
256,192,225815,5,8,0:0:0:0:
256,192,225873,5,8,0:0:0:0:
256,192,225932,5,0,0:0:0:0:
256,192,226048,5,8,0:0:0:0:
256,192,226165,5,0,0:0:0:0:
256,192,226223,5,0,0:0:0:0:
256,192,226281,5,8,0:0:0:0:
256,192,226339,5,0,0:0:0:0:
256,192,226398,5,8,0:0:0:0:
256,192,226456,5,8,0:0:0:0:
256,192,226514,5,0,0:0:0:0:
256,192,226572,5,8,0:0:0:0:
256,192,226631,5,0,0:0:0:0:
256,192,226689,5,0,0:0:0:0:
256,192,226747,5,8,0:0:0:0:
256,192,226805,5,0,0:0:0:0:
256,192,226864,5,8,0:0:0:0:
256,192,226922,5,8,0:0:0:0:
256,192,226980,5,0,0:0:0:0:
256,192,227038,5,0,0:0:0:0:
256,192,227097,5,12,0:0:0:0:
256,192,227263,12,0,230430,0:0:0:0:
256,192,231097,5,0,0:0:0:0:
256,192,231763,5,8,0:0:0:0:
256,192,232430,5,4,0:0:0:0:
256,192,232513,5,0,0:0:0:0:
256,192,232555,5,0,0:0:0:0:
256,192,232596,5,8,0:0:0:0:
256,192,232680,5,8,0:0:0:0:
256,192,232763,5,0,0:0:0:0:
256,192,232846,5,0,0:0:0:0:
256,192,232930,5,8,0:0:0:0:
256,192,233013,5,8,0:0:0:0:
256,192,233096,5,0,0:0:0:0:
256,192,233180,5,0,0:0:0:0:
256,192,233221,5,0,0:0:0:0:
256,192,233263,5,8,0:0:0:0:
256,192,233346,5,8,0:0:0:0:
256,192,233430,5,0,0:0:0:0:
256,192,233471,5,0,0:0:0:0:
256,192,233513,5,8,0:0:0:0:
256,192,233555,5,8,0:0:0:0:
256,192,233596,5,0,0:0:0:0:
256,192,233680,5,8,0:0:0:0:
256,192,233763,5,0,0:0:0:0:
256,192,233846,5,0,0:0:0:0:
256,192,233888,5,0,0:0:0:0:
256,192,233930,5,8,0:0:0:0:
256,192,234013,5,8,0:0:0:0:
256,192,234096,5,0,0:0:0:0:
256,192,234180,5,8,0:0:0:0:
256,192,234263,5,8,0:0:0:0:
256,192,234346,5,8,0:0:0:0:
256,192,234430,5,0,0:0:0:0:
256,192,234513,5,0,0:0:0:0:
256,192,234555,5,0,0:0:0:0:
256,192,234596,5,8,0:0:0:0:
256,192,234680,5,8,0:0:0:0:
256,192,234763,5,0,0:0:0:0:
256,192,234805,5,0,0:0:0:0:
256,192,234846,5,8,0:0:0:0:
256,192,234888,5,8,0:0:0:0:
256,192,234930,5,0,0:0:0:0:
256,192,235013,5,8,0:0:0:0:
256,192,235096,5,0,0:0:0:0:
256,192,235180,5,0,0:0:0:0:
256,192,235221,5,0,0:0:0:0:
256,192,235263,5,8,0:0:0:0:
256,192,235346,5,8,0:0:0:0:
256,192,235430,5,0,0:0:0:0:
256,192,235513,5,0,0:0:0:0:
256,192,235596,5,8,0:0:0:0:
256,192,235638,5,8,0:0:0:0:
256,192,235680,5,0,0:0:0:0:
256,192,235721,5,0,0:0:0:0:
256,192,235763,5,8,0:0:0:0:
256,192,235846,5,0,0:0:0:0:
256,192,235930,5,8,0:0:0:0:
256,192,236013,5,8,0:0:0:0:
256,192,236055,5,8,0:0:0:0:
256,192,236096,5,0,0:0:0:0:
256,192,236180,5,8,0:0:0:0:
256,192,236263,5,0,0:0:0:0:
256,192,236305,5,0,0:0:0:0:
256,192,236346,5,8,0:0:0:0:
256,192,236388,5,8,0:0:0:0:
256,192,236430,5,0,0:0:0:0:
256,192,236596,5,8,0:0:0:0:
256,192,236638,5,8,0:0:0:0:
256,192,236680,5,0,0:0:0:0:
256,192,236721,5,0,0:0:0:0:
256,192,236763,5,8,0:0:0:0:
256,192,236846,5,0,0:0:0:0:
256,192,236930,5,0,0:0:0:0:
256,192,237096,5,8,0:0:0:0:
256,192,237138,5,8,0:0:0:0:
256,192,237180,5,8,0:0:0:0:
256,192,237221,5,8,0:0:0:0:
256,192,237263,5,0,0:0:0:0:
256,192,237346,5,8,0:0:0:0:
256,192,237430,5,0,0:0:0:0:
256,192,237596,5,8,0:0:0:0:
256,192,237624,5,8,0:0:0:0:
256,192,237652,5,8,0:0:0:0:
256,192,237680,5,8,0:0:0:0:
256,192,237763,5,4,0:0:0:0:
256,192,237846,5,0,0:0:0:0:
256,192,237888,5,0,0:0:0:0:
256,192,237930,5,8,0:0:0:0:
256,192,238013,5,8,0:0:0:0:
256,192,238096,5,0,0:0:0:0:
256,192,238180,5,0,0:0:0:0:
256,192,238263,5,8,0:0:0:0:
256,192,238346,5,8,0:0:0:0:
256,192,238430,5,0,0:0:0:0:
256,192,238513,5,0,0:0:0:0:
256,192,238555,5,0,0:0:0:0:
256,192,238596,5,8,0:0:0:0:
256,192,238680,5,8,0:0:0:0:
256,192,238763,5,0,0:0:0:0:
256,192,238846,5,8,0:0:0:0:
256,192,238930,5,8,0:0:0:0:
256,192,239013,5,8,0:0:0:0:
256,192,239096,5,0,0:0:0:0:
256,192,239138,5,0,0:0:0:0:
256,192,239180,5,8,0:0:0:0:
256,192,239222,5,8,0:0:0:0:
256,192,239264,5,0,0:0:0:0:
256,192,239346,5,0,0:0:0:0:
256,192,239430,5,8,0:0:0:0:
256,192,239471,5,8,0:0:0:0:
256,192,239513,5,0,0:0:0:0:
256,192,239555,5,0,0:0:0:0:
256,192,239596,5,8,0:0:0:0:
256,192,239680,5,0,0:0:0:0:
256,192,239763,5,8,0:0:0:0:
256,192,239805,5,8,0:0:0:0:
256,192,239846,5,0,0:0:0:0:
256,192,239930,5,0,0:0:0:0:
256,192,240013,5,8,0:0:0:0:
256,192,240054,5,0,0:0:0:0:
256,192,240096,5,0,0:0:0:0:
256,192,240180,5,0,0:0:0:0:
256,192,240263,5,8,0:0:0:0:
256,192,240305,5,0,0:0:0:0:
256,192,240346,5,8,0:0:0:0:
256,192,240388,5,8,0:0:0:0:
256,192,240430,5,0,0:0:0:0:
256,192,240513,5,0,0:0:0:0:
256,192,240555,5,0,0:0:0:0:
256,192,240596,5,8,0:0:0:0:
256,192,240680,5,8,0:0:0:0:
256,192,240763,5,0,0:0:0:0:
256,192,240846,5,0,0:0:0:0:
256,192,240930,5,8,0:0:0:0:
256,192,241013,5,8,0:0:0:0:
256,192,241096,5,0,0:0:0:0:
256,192,241180,5,0,0:0:0:0:
256,192,241221,5,0,0:0:0:0:
256,192,241263,5,8,0:0:0:0:
256,192,241346,5,8,0:0:0:0:
256,192,241430,5,0,0:0:0:0:
256,192,241513,5,0,0:0:0:0:
256,192,241596,5,8,0:0:0:0:
256,192,241680,5,8,0:0:0:0:
256,192,241763,5,0,0:0:0:0:
256,192,241930,5,8,0:0:0:0:
256,192,241971,5,8,0:0:0:0:
256,192,242013,5,0,0:0:0:0:
256,192,242096,5,0,0:0:0:0:
256,192,242263,5,0,0:0:0:0:
256,192,242346,5,0,0:0:0:0:
256,192,242430,5,8,0:0:0:0:
256,192,242471,5,8,0:0:0:0:
256,192,242513,5,0,0:0:0:0:
256,192,242555,5,0,0:0:0:0:
256,192,242596,5,8,0:0:0:0:
256,192,242680,5,8,0:0:0:0:
256,192,242763,5,0,0:0:0:0:
256,192,242791,5,0,0:0:0:0:
256,192,242818,5,0,0:0:0:0:
256,192,242846,5,0,0:0:0:0:
256,192,242930,5,8,0:0:0:0:
256,192,242957,5,8,0:0:0:0:
256,192,242985,5,8,0:0:0:0:
256,192,243013,5,8,0:0:0:0:
256,192,243096,5,4,0:0:0:0:
256,192,243180,5,0,0:0:0:0:
256,192,243221,5,0,0:0:0:0:
256,192,243263,5,8,0:0:0:0:
256,192,243346,5,8,0:0:0:0:
256,192,243430,5,0,0:0:0:0:
256,192,243513,5,0,0:0:0:0:
256,192,243596,5,8,0:0:0:0:
256,192,243680,5,8,0:0:0:0:
256,192,243763,5,0,0:0:0:0:
256,192,243846,5,0,0:0:0:0:
256,192,243888,5,0,0:0:0:0:
256,192,243930,5,8,0:0:0:0:
256,192,244013,5,0,0:0:0:0:
256,192,244096,5,8,0:0:0:0:
256,192,244138,5,8,0:0:0:0:
256,192,244180,5,8,0:0:0:0:
256,192,244221,5,8,0:0:0:0:
256,192,244263,5,0,0:0:0:0:
256,192,244346,5,8,0:0:0:0:
256,192,244430,5,0,0:0:0:0:
256,192,244513,5,0,0:0:0:0:
256,192,244555,5,0,0:0:0:0:
256,192,244596,5,8,0:0:0:0:
256,192,244680,5,8,0:0:0:0:
256,192,244763,5,0,0:0:0:0:
256,192,244846,5,0,0:0:0:0:
256,192,244930,5,8,0:0:0:0:
256,192,244971,5,8,0:0:0:0:
256,192,245013,5,0,0:0:0:0:
256,192,245096,5,8,0:0:0:0:
256,192,245180,5,8,0:0:0:0:
256,192,245263,5,0,0:0:0:0:
256,192,245346,5,8,0:0:0:0:
256,192,245430,5,0,0:0:0:0:
256,192,245471,5,0,0:0:0:0:
256,192,245513,5,8,0:0:0:0:
256,192,245555,5,0,0:0:0:0:
256,192,245596,5,8,0:0:0:0:
256,192,245680,5,8,0:0:0:0:
256,192,245763,5,0,0:0:0:0:
256,192,245805,5,0,0:0:0:0:
256,192,245846,5,8,0:0:0:0:
256,192,245930,5,8,0:0:0:0:
256,192,246013,5,8,0:0:0:0:
256,192,246096,5,0,0:0:0:0:
256,192,246180,5,0,0:0:0:0:
256,192,246263,5,8,0:0:0:0:
256,192,246305,5,8,0:0:0:0:
256,192,246346,5,0,0:0:0:0:
256,192,246430,5,8,0:0:0:0:
256,192,246513,5,8,0:0:0:0:
256,192,246596,5,0,0:0:0:0:
256,192,246680,5,8,0:0:0:0:
256,192,246763,5,0,0:0:0:0:
256,192,246846,5,0,0:0:0:0:
256,192,246930,5,8,0:0:0:0:
256,192,246971,5,8,0:0:0:0:
256,192,247013,5,0,0:0:0:0:
256,192,247055,5,0,0:0:0:0:
256,192,247096,5,8,0:0:0:0:
256,192,247263,5,8,0:0:0:0:
256,192,247346,5,0,0:0:0:0:
256,192,247430,5,8,0:0:0:0:
256,192,247471,5,8,0:0:0:0:
256,192,247513,5,8,0:0:0:0:
256,192,247555,5,8,0:0:0:0:
256,192,247596,5,0,0:0:0:0:
256,192,247763,5,0,0:0:0:0:
256,192,247846,5,0,0:0:0:0:
256,192,247888,5,0,0:0:0:0:
256,192,247930,5,8,0:0:0:0:
256,192,248013,5,8,0:0:0:0:
256,192,248096,5,0,0:0:0:0:
256,192,248124,5,0,0:0:0:0:
256,192,248152,5,0,0:0:0:0:
256,192,248180,5,0,0:0:0:0:
256,192,248263,5,8,0:0:0:0:
256,192,248291,5,8,0:0:0:0:
256,192,248318,5,8,0:0:0:0:
256,192,248346,5,8,0:0:0:0:
256,192,248430,5,4,0:0:0:0:
256,192,248513,5,0,0:0:0:0:
256,192,248555,5,0,0:0:0:0:
256,192,248596,5,8,0:0:0:0:
256,192,248680,5,8,0:0:0:0:
256,192,248763,5,0,0:0:0:0:
256,192,248846,5,0,0:0:0:0:
256,192,248930,5,8,0:0:0:0:
256,192,249013,5,8,0:0:0:0:
256,192,249096,5,0,0:0:0:0:
256,192,249180,5,0,0:0:0:0:
256,192,249221,5,0,0:0:0:0:
256,192,249263,5,8,0:0:0:0:
256,192,249346,5,8,0:0:0:0:
256,192,249430,5,0,0:0:0:0:
256,192,249471,5,0,0:0:0:0:
256,192,249513,5,8,0:0:0:0:
256,192,249555,5,8,0:0:0:0:
256,192,249596,5,0,0:0:0:0:
256,192,249680,5,8,0:0:0:0:
256,192,249763,5,0,0:0:0:0:
256,192,249846,5,0,0:0:0:0:
256,192,249888,5,0,0:0:0:0:
256,192,249930,5,8,0:0:0:0:
256,192,250013,5,8,0:0:0:0:
256,192,250096,5,0,0:0:0:0:
256,192,250180,5,8,0:0:0:0:
256,192,250263,5,8,0:0:0:0:
256,192,250346,5,8,0:0:0:0:
256,192,250430,5,0,0:0:0:0:
256,192,250513,5,0,0:0:0:0:
256,192,250555,5,0,0:0:0:0:
256,192,250596,5,8,0:0:0:0:
256,192,250680,5,0,0:0:0:0:
256,192,250763,5,8,0:0:0:0:
256,192,250805,5,8,0:0:0:0:
256,192,250846,5,0,0:0:0:0:
256,192,250888,5,0,0:0:0:0:
256,192,250930,5,8,0:0:0:0:
256,192,251013,5,0,0:0:0:0:
256,192,251096,5,8,0:0:0:0:
256,192,251138,5,8,0:0:0:0:
256,192,251180,5,0,0:0:0:0:
256,192,251263,5,0,0:0:0:0:
256,192,251346,5,8,0:0:0:0:
256,192,251430,5,0,0:0:0:0:
256,192,251513,5,0,0:0:0:0:
256,192,251596,5,8,0:0:0:0:
256,192,251638,5,8,0:0:0:0:
256,192,251680,5,0,0:0:0:0:
256,192,251763,5,0,0:0:0:0:
256,192,251846,5,8,0:0:0:0:
256,192,251930,5,0,0:0:0:0:
256,192,252013,5,0,0:0:0:0:
256,192,252096,5,8,0:0:0:0:
256,192,252138,5,8,0:0:0:0:
256,192,252180,5,0,0:0:0:0:
256,192,252263,5,8,0:0:0:0:
256,192,252346,5,8,0:0:0:0:
256,192,252430,5,0,0:0:0:0:
256,192,252471,5,0,0:0:0:0:
256,192,252513,5,8,0:0:0:0:
256,192,252596,5,0,0:0:0:0:
256,192,252680,5,0,0:0:0:0:
256,192,252763,5,8,0:0:0:0:
256,192,252805,5,8,0:0:0:0:
256,192,252846,5,0,0:0:0:0:
256,192,252930,5,8,0:0:0:0:
256,192,253013,5,8,0:0:0:0:
256,192,253096,5,0,0:0:0:0:
256,192,253138,5,0,0:0:0:0:
256,192,253180,5,8,0:0:0:0:
256,192,253263,5,0,0:0:0:0:
256,192,253346,5,8,0:0:0:0:
256,192,253430,5,0,0:0:0:0:
256,192,253457,5,0,0:0:0:0:
256,192,253485,5,8,0:0:0:0:
256,192,253513,5,8,0:0:0:0:
256,192,253596,5,0,0:0:0:0:
256,192,253624,5,0,0:0:0:0:
256,192,253652,5,8,0:0:0:0:
256,192,253680,5,8,0:0:0:0:
256,192,253763,5,4,0:0:0:0:
256,192,253846,5,0,0:0:0:0:
256,192,253888,5,0,0:0:0:0:
256,192,253929,5,8,0:0:0:0:
256,192,254013,5,8,0:0:0:0:
256,192,254096,5,0,0:0:0:0:
256,192,254179,5,0,0:0:0:0:
256,192,254263,5,8,0:0:0:0:
256,192,254346,5,8,0:0:0:0:
256,192,254429,5,0,0:0:0:0:
256,192,254513,5,0,0:0:0:0:
256,192,254554,5,0,0:0:0:0:
256,192,254596,5,8,0:0:0:0:
256,192,254679,5,8,0:0:0:0:
256,192,254763,5,0,0:0:0:0:
256,192,254804,5,0,0:0:0:0:
256,192,254846,5,8,0:0:0:0:
256,192,254888,5,8,0:0:0:0:
256,192,254929,5,0,0:0:0:0:
256,192,255013,5,8,0:0:0:0:
256,192,255096,5,0,0:0:0:0:
256,192,255263,5,8,0:0:0:0:
256,192,255346,5,8,0:0:0:0:
256,192,255429,5,0,0:0:0:0:
256,192,255513,5,0,0:0:0:0:
256,192,255596,5,8,0:0:0:0:
256,192,255679,5,8,0:0:0:0:
256,192,255763,5,0,0:0:0:0:
256,192,255846,5,0,0:0:0:0:
256,192,255888,5,0,0:0:0:0:
256,192,255929,5,8,0:0:0:0:
256,192,256013,5,0,0:0:0:0:
256,192,256096,5,8,0:0:0:0:
256,192,256138,5,0,0:0:0:0:
256,192,256179,5,8,0:0:0:0:
256,192,256221,5,8,0:0:0:0:
256,192,256263,5,0,0:0:0:0:
256,192,256346,5,8,0:0:0:0:
256,192,256429,5,0,0:0:0:0:
256,192,256596,5,8,0:0:0:0:
256,192,256679,5,8,0:0:0:0:
256,192,256763,5,0,0:0:0:0:
256,192,256846,5,0,0:0:0:0:
256,192,256929,5,8,0:0:0:0:
256,192,256971,5,8,0:0:0:0:
256,192,257013,5,0,0:0:0:0:
256,192,257054,5,0,0:0:0:0:
256,192,257096,5,8,0:0:0:0:
256,192,257179,5,0,0:0:0:0:
256,192,257263,5,8,0:0:0:0:
256,192,257346,5,8,0:0:0:0:
256,192,257388,5,8,0:0:0:0:
256,192,257429,5,0,0:0:0:0:
256,192,257513,5,8,0:0:0:0:
256,192,257596,5,0,0:0:0:0:
256,192,257638,5,0,0:0:0:0:
256,192,257679,5,8,0:0:0:0:
256,192,257721,5,8,0:0:0:0:
256,192,257763,5,0,0:0:0:0:
256,192,257929,5,8,0:0:0:0:
256,192,257971,5,8,0:0:0:0:
256,192,258013,5,0,0:0:0:0:
256,192,258054,5,0,0:0:0:0:
256,192,258096,5,8,0:0:0:0:
256,192,258179,5,0,0:0:0:0:
256,192,258263,5,0,0:0:0:0:
256,192,258429,5,0,0:0:0:0:
256,192,258471,5,0,0:0:0:0:
256,192,258513,5,8,0:0:0:0:
256,192,258554,5,8,0:0:0:0:
256,192,258596,5,0,0:0:0:0:
256,192,258679,5,0,0:0:0:0:
256,192,258763,5,8,0:0:0:0:
256,192,258846,5,0,0:0:0:0:
256,192,258929,5,8,0:0:0:0:
256,192,258957,5,8,0:0:0:0:
256,192,258985,5,8,0:0:0:0:
256,192,259013,5,8,0:0:0:0:
256,192,259096,5,4,0:0:0:0:
256,192,259179,5,0,0:0:0:0:
256,192,259221,5,0,0:0:0:0:
256,192,259263,5,8,0:0:0:0:
256,192,259346,5,8,0:0:0:0:
256,192,259429,5,0,0:0:0:0:
256,192,259513,5,0,0:0:0:0:
256,192,259596,5,8,0:0:0:0:
256,192,259679,5,8,0:0:0:0:
256,192,259763,5,0,0:0:0:0:
256,192,259846,5,0,0:0:0:0:
256,192,259888,5,0,0:0:0:0:
256,192,259929,5,8,0:0:0:0:
256,192,260013,5,8,0:0:0:0:
256,192,260096,5,0,0:0:0:0:
256,192,260179,5,8,0:0:0:0:
256,192,260263,5,8,0:0:0:0:
256,192,260346,5,8,0:0:0:0:
256,192,260430,5,0,0:0:0:0:
256,192,260597,5,8,0:0:0:0:
256,192,260639,5,8,0:0:0:0:
256,192,260680,5,0,0:0:0:0:
256,192,260764,5,8,0:0:0:0:
256,192,260805,5,8,0:0:0:0:
256,192,260847,5,0,0:0:0:0:
256,192,260889,5,0,0:0:0:0:
256,192,260930,5,8,0:0:0:0:
256,192,261014,5,0,0:0:0:0:
256,192,261096,5,8,0:0:0:0:
256,192,261138,5,8,0:0:0:0:
256,192,261180,5,0,0:0:0:0:
256,192,261264,5,0,0:0:0:0:
256,192,261346,5,8,0:0:0:0:
256,192,261388,5,0,0:0:0:0:
256,192,261430,5,0,0:0:0:0:
256,192,261513,5,0,0:0:0:0:
256,192,261597,5,8,0:0:0:0:
256,192,261680,5,8,0:0:0:0:
256,192,261763,5,0,0:0:0:0:
256,192,261846,5,0,0:0:0:0:
256,192,261888,5,0,0:0:0:0:
256,192,261929,5,8,0:0:0:0:
256,192,262013,5,8,0:0:0:0:
256,192,262096,5,0,0:0:0:0:
256,192,262179,5,0,0:0:0:0:
256,192,262263,5,8,0:0:0:0:
256,192,262346,5,8,0:0:0:0:
256,192,262429,5,0,0:0:0:0:
256,192,262513,5,0,0:0:0:0:
256,192,262554,5,0,0:0:0:0:
256,192,262596,5,8,0:0:0:0:
256,192,262679,5,8,0:0:0:0:
256,192,262763,5,0,0:0:0:0:
256,192,262846,5,8,0:0:0:0:
256,192,262929,5,0,0:0:0:0:
256,192,263013,5,8,0:0:0:0:
256,192,263096,5,0,0:0:0:0:
256,192,263263,5,8,0:0:0:0:
256,192,263304,5,8,0:0:0:0:
256,192,263346,5,0,0:0:0:0:
256,192,263429,5,0,0:0:0:0:
256,192,263596,5,0,0:0:0:0:
256,192,263679,5,0,0:0:0:0:
256,192,263763,5,8,0:0:0:0:
256,192,263804,5,8,0:0:0:0:
256,192,263846,5,0,0:0:0:0:
256,192,263888,5,0,0:0:0:0:
256,192,263929,5,8,0:0:0:0:
256,192,264013,5,0,0:0:0:0:
256,192,264096,5,8,0:0:0:0:
256,192,264124,5,8,0:0:0:0:
256,192,264151,5,8,0:0:0:0:
256,192,264179,5,8,0:0:0:0:
256,192,264263,5,0,0:0:0:0:
256,192,264290,5,0,0:0:0:0:
256,192,264318,5,0,0:0:0:0:
256,192,264346,5,0,0:0:0:0:
256,192,264429,5,12,0:0:0:0:
256,192,264513,5,0,0:0:0:0:
256,192,264554,5,0,0:0:0:0:
256,192,264596,5,8,0:0:0:0:
256,192,264679,5,8,0:0:0:0:
256,192,264763,5,0,0:0:0:0:
256,192,264846,5,0,0:0:0:0:
256,192,264929,5,8,0:0:0:0:
256,192,265013,5,8,0:0:0:0:
256,192,265096,5,0,0:0:0:0:
256,192,265179,5,0,0:0:0:0:
256,192,265221,5,0,0:0:0:0:
256,192,265263,5,8,0:0:0:0:
256,192,265346,5,0,0:0:0:0:
256,192,265429,5,8,0:0:0:0:
256,192,265471,5,0,0:0:0:0:
256,192,265513,5,8,0:0:0:0:
256,192,265554,5,8,0:0:0:0:
256,192,265596,5,0,0:0:0:0:
256,192,265679,5,8,0:0:0:0:
256,192,265763,5,0,0:0:0:0:
256,192,265929,5,8,0:0:0:0:
256,192,266013,5,8,0:0:0:0:
256,192,266096,5,0,0:0:0:0:
256,192,266179,5,0,0:0:0:0:
256,192,266263,5,8,0:0:0:0:
256,192,266346,5,8,0:0:0:0:
256,192,266429,5,0,0:0:0:0:
256,192,266513,5,8,0:0:0:0:
256,192,266554,5,8,0:0:0:0:
256,192,266596,5,0,0:0:0:0:
256,192,266679,5,8,0:0:0:0:
256,192,266763,5,0,0:0:0:0:
256,192,266804,5,0,0:0:0:0:
256,192,266846,5,8,0:0:0:0:
256,192,266888,5,0,0:0:0:0:
256,192,266929,5,8,0:0:0:0:
256,192,267013,5,0,0:0:0:0:
256,192,267096,5,8,0:0:0:0:
256,192,267263,5,0,0:0:0:0:
256,192,267346,5,8,0:0:0:0:
256,192,267429,5,0,0:0:0:0:
256,192,267513,5,0,0:0:0:0:
256,192,267596,5,8,0:0:0:0:
256,192,267638,5,8,0:0:0:0:
256,192,267679,5,0,0:0:0:0:
256,192,267763,5,8,0:0:0:0:
256,192,267846,5,8,0:0:0:0:
256,192,267930,5,0,0:0:0:0:
256,192,268013,5,8,0:0:0:0:
256,192,268096,5,0,0:0:0:0:
256,192,268179,5,0,0:0:0:0:
256,192,268263,5,8,0:0:0:0:
256,192,268304,5,8,0:0:0:0:
256,192,268346,5,0,0:0:0:0:
256,192,268388,5,0,0:0:0:0:
256,192,268429,5,8,0:0:0:0:
256,192,268596,5,0,0:0:0:0:
256,192,268679,5,0,0:0:0:0:
256,192,268721,5,0,0:0:0:0:
256,192,268763,5,8,0:0:0:0:
256,192,268804,5,8,0:0:0:0:
256,192,268846,5,8,0:0:0:0:
256,192,268888,5,8,0:0:0:0:
256,192,268929,5,0,0:0:0:0:
256,192,269096,5,0,0:0:0:0:
256,192,269179,5,0,0:0:0:0:
256,192,269221,5,0,0:0:0:0:
256,192,269263,5,8,0:0:0:0:
256,192,269346,5,0,0:0:0:0:
256,192,269429,5,8,0:0:0:0:
256,192,269457,5,8,0:0:0:0:
256,192,269485,5,8,0:0:0:0:
256,192,269513,5,8,0:0:0:0:
256,192,269596,5,0,0:0:0:0:
256,192,269624,5,0,0:0:0:0:
256,192,269651,5,0,0:0:0:0:
256,192,269679,5,0,0:0:0:0:
256,192,269763,5,12,0:0:0:0:
256,192,269846,5,0,0:0:0:0:
256,192,269888,5,0,0:0:0:0:
256,192,269929,5,8,0:0:0:0:
256,192,270013,5,8,0:0:0:0:
256,192,270096,5,0,0:0:0:0:
256,192,270179,5,0,0:0:0:0:
256,192,270263,5,8,0:0:0:0:
256,192,270346,5,8,0:0:0:0:
256,192,270429,5,0,0:0:0:0:
256,192,270513,5,0,0:0:0:0:
256,192,270554,5,0,0:0:0:0:
256,192,270596,5,8,0:0:0:0:
256,192,270679,5,8,0:0:0:0:
256,192,270763,5,0,0:0:0:0:
256,192,270846,5,8,0:0:0:0:
256,192,270929,5,0,0:0:0:0:
256,192,271013,5,8,0:0:0:0:
256,192,271096,5,0,0:0:0:0:
256,192,271263,5,8,0:0:0:0:
256,192,271346,5,8,0:0:0:0:
256,192,271429,5,0,0:0:0:0:
256,192,271513,5,0,0:0:0:0:
256,192,271596,5,8,0:0:0:0:
256,192,271679,5,8,0:0:0:0:
256,192,271763,5,0,0:0:0:0:
256,192,271846,5,0,0:0:0:0:
256,192,271888,5,0,0:0:0:0:
256,192,271929,5,8,0:0:0:0:
256,192,272013,5,0,0:0:0:0:
256,192,272096,5,8,0:0:0:0:
256,192,272138,5,8,0:0:0:0:
256,192,272179,5,0,0:0:0:0:
256,192,272221,5,0,0:0:0:0:
256,192,272263,5,8,0:0:0:0:
256,192,272346,5,0,0:0:0:0:
256,192,272430,5,8,0:0:0:0:
256,192,272471,5,8,0:0:0:0:
256,192,272513,5,0,0:0:0:0:
256,192,272596,5,0,0:0:0:0:
256,192,272680,5,8,0:0:0:0:
256,192,272721,5,8,0:0:0:0:
256,192,272763,5,0,0:0:0:0:
256,192,272846,5,0,0:0:0:0:
256,192,272930,5,8,0:0:0:0:
256,192,272971,5,8,0:0:0:0:
256,192,273013,5,0,0:0:0:0:
256,192,273055,5,0,0:0:0:0:
256,192,273096,5,8,0:0:0:0:
256,192,273138,5,8,0:0:0:0:
256,192,273180,5,0,0:0:0:0:
256,192,273263,5,0,0:0:0:0:
256,192,273346,5,8,0:0:0:0:
256,192,273388,5,8,0:0:0:0:
256,192,273430,5,0,0:0:0:0:
256,192,273513,5,0,0:0:0:0:
256,192,273596,5,8,0:0:0:0:
256,192,273638,5,8,0:0:0:0:
256,192,273680,5,8,0:0:0:0:
256,192,273763,5,0,0:0:0:0:
256,192,273805,5,0,0:0:0:0:
256,192,273846,5,8,0:0:0:0:
256,192,273888,5,8,0:0:0:0:
256,192,273930,5,0,0:0:0:0:
256,192,273971,5,0,0:0:0:0:
256,192,274013,5,8,0:0:0:0:
256,192,274055,5,8,0:0:0:0:
256,192,274096,5,0,0:0:0:0:
256,192,274138,5,0,0:0:0:0:
256,192,274180,5,8,0:0:0:0:
256,192,274221,5,8,0:0:0:0:
256,192,274263,5,0,0:0:0:0:
256,192,274305,5,0,0:0:0:0:
256,192,274346,5,8,0:0:0:0:
256,192,274388,5,8,0:0:0:0:
256,192,274430,5,0,0:0:0:0:
256,192,274471,5,8,0:0:0:0:
256,192,274513,5,0,0:0:0:0:
256,192,274555,5,8,0:0:0:0:
256,192,274596,5,0,0:0:0:0:
256,192,274638,5,8,0:0:0:0:
256,192,274680,5,0,0:0:0:0:
256,192,274721,5,8,0:0:0:0:
256,192,274763,5,0,0:0:0:0:
256,192,274805,5,8,0:0:0:0:
256,192,274846,5,0,0:0:0:0:
256,192,274888,5,8,0:0:0:0:
256,192,274930,5,0,0:0:0:0:
256,192,274971,5,8,0:0:0:0:
256,192,275013,5,0,0:0:0:0:
256,192,275055,5,8,0:0:0:0:
256,192,275096,5,4,0:0:0:0:
256,192,275180,5,0,0:0:0:0:
256,192,275221,5,0,0:0:0:0:
256,192,275263,5,8,0:0:0:0:
256,192,275346,5,0,0:0:0:0:
256,192,275430,5,8,0:0:0:0:
256,192,275471,5,8,0:0:0:0:
256,192,275513,5,0,0:0:0:0:
256,192,275555,5,0,0:0:0:0:
256,192,275596,5,8,0:0:0:0:
256,192,275680,5,0,0:0:0:0:
256,192,275763,5,8,0:0:0:0:
256,192,275846,5,0,0:0:0:0:
256,192,275888,5,0,0:0:0:0:
256,192,275930,5,8,0:0:0:0:
256,192,276013,5,0,0:0:0:0:
256,192,276096,5,8,0:0:0:0:
256,192,276138,5,0,0:0:0:0:
256,192,276180,5,8,0:0:0:0:
256,192,276221,5,8,0:0:0:0:
256,192,276263,5,0,0:0:0:0:
256,192,276346,5,8,0:0:0:0:
256,192,276388,5,8,0:0:0:0:
256,192,276430,5,0,0:0:0:0:
256,192,276513,5,0,0:0:0:0:
256,192,276555,5,0,0:0:0:0:
256,192,276596,5,8,0:0:0:0:
256,192,276680,5,0,0:0:0:0:
256,192,276763,5,8,0:0:0:0:
256,192,276805,5,8,0:0:0:0:
256,192,276846,5,0,0:0:0:0:
256,192,276888,5,0,0:0:0:0:
256,192,276930,5,8,0:0:0:0:
256,192,277013,5,0,0:0:0:0:
256,192,277096,5,8,0:0:0:0:
256,192,277180,5,0,0:0:0:0:
256,192,277221,5,0,0:0:0:0:
256,192,277263,5,8,0:0:0:0:
256,192,277346,5,0,0:0:0:0:
256,192,277430,5,8,0:0:0:0:
256,192,277471,5,0,0:0:0:0:
256,192,277513,5,8,0:0:0:0:
256,192,277596,5,0,0:0:0:0:
256,192,277638,5,0,0:0:0:0:
256,192,277680,5,8,0:0:0:0:
256,192,277721,5,8,0:0:0:0:
256,192,277763,5,0,0:0:0:0:
256,192,277846,5,0,0:0:0:0:
256,192,277888,5,0,0:0:0:0:
256,192,277930,5,8,0:0:0:0:
256,192,278013,5,0,0:0:0:0:
256,192,278096,5,8,0:0:0:0:
256,192,278138,5,8,0:0:0:0:
256,192,278180,5,0,0:0:0:0:
256,192,278263,5,8,0:0:0:0:
256,192,278305,5,0,0:0:0:0:
256,192,278346,5,8,0:0:0:0:
256,192,278388,5,8,0:0:0:0:
256,192,278430,5,0,0:0:0:0:
256,192,278513,5,8,0:0:0:0:
256,192,278555,5,8,0:0:0:0:
256,192,278596,5,0,0:0:0:0:
256,192,278680,5,8,0:0:0:0:
256,192,278763,5,0,0:0:0:0:
256,192,278805,5,0,0:0:0:0:
256,192,278846,5,8,0:0:0:0:
256,192,278888,5,8,0:0:0:0:
256,192,278930,5,0,0:0:0:0:
256,192,279013,5,8,0:0:0:0:
256,192,279055,5,8,0:0:0:0:
256,192,279096,5,0,0:0:0:0:
256,192,279180,5,8,0:0:0:0:
256,192,279221,5,0,0:0:0:0:
256,192,279263,5,0,0:0:0:0:
256,192,279346,5,0,0:0:0:0:
256,192,279430,5,8,0:0:0:0:
256,192,279471,5,8,0:0:0:0:
256,192,279513,5,0,0:0:0:0:
256,192,279555,5,0,0:0:0:0:
256,192,279596,5,8,0:0:0:0:
256,192,279680,5,8,0:0:0:0:
256,192,279763,5,0,0:0:0:0:
256,192,279846,5,8,0:0:0:0:
256,192,279888,5,8,0:0:0:0:
256,192,279930,5,0,0:0:0:0:
256,192,280013,5,0,0:0:0:0:
256,192,280096,5,8,0:0:0:0:
256,192,280124,5,8,0:0:0:0:
256,192,280152,5,8,0:0:0:0:
256,192,280180,5,8,0:0:0:0:
256,192,280263,5,0,0:0:0:0:
256,192,280291,5,0,0:0:0:0:
256,192,280318,5,0,0:0:0:0:
256,192,280346,5,0,0:0:0:0:
256,192,280430,5,12,0:0:0:0:
256,192,280513,5,0,0:0:0:0:
256,192,280555,5,0,0:0:0:0:
256,192,280596,5,8,0:0:0:0:
256,192,280680,5,0,0:0:0:0:
256,192,280763,5,8,0:0:0:0:
256,192,280805,5,8,0:0:0:0:
256,192,280846,5,0,0:0:0:0:
256,192,280888,5,0,0:0:0:0:
256,192,280930,5,8,0:0:0:0:
256,192,281013,5,0,0:0:0:0:
256,192,281096,5,8,0:0:0:0:
256,192,281180,5,0,0:0:0:0:
256,192,281221,5,0,0:0:0:0:
256,192,281263,5,8,0:0:0:0:
256,192,281346,5,0,0:0:0:0:
256,192,281430,5,8,0:0:0:0:
256,192,281471,5,8,0:0:0:0:
256,192,281513,5,0,0:0:0:0:
256,192,281596,5,8,0:0:0:0:
256,192,281680,5,0,0:0:0:0:
256,192,281721,5,0,0:0:0:0:
256,192,281763,5,8,0:0:0:0:
256,192,281805,5,8,0:0:0:0:
256,192,281846,5,0,0:0:0:0:
256,192,281930,5,8,0:0:0:0:
256,192,281971,5,0,0:0:0:0:
256,192,282013,5,8,0:0:0:0:
256,192,282055,5,0,0:0:0:0:
256,192,282096,5,8,0:0:0:0:
256,192,282138,5,8,0:0:0:0:
256,192,282180,5,0,0:0:0:0:
256,192,282263,5,8,0:0:0:0:
256,192,282346,5,0,0:0:0:0:
256,192,282430,5,8,0:0:0:0:
256,192,282471,5,8,0:0:0:0:
256,192,282513,5,0,0:0:0:0:
256,192,282596,5,0,0:0:0:0:
256,192,282680,5,8,0:0:0:0:
256,192,282721,5,0,0:0:0:0:
256,192,282763,5,0,0:0:0:0:
256,192,282846,5,0,0:0:0:0:
256,192,282930,5,8,0:0:0:0:
256,192,282971,5,8,0:0:0:0:
256,192,283013,5,8,0:0:0:0:
256,192,283055,5,8,0:0:0:0:
256,192,283096,5,0,0:0:0:0:
256,192,283180,5,0,0:0:0:0:
256,192,283221,5,0,0:0:0:0:
256,192,283263,5,8,0:0:0:0:
256,192,283346,5,0,0:0:0:0:
256,192,283430,5,8,0:0:0:0:
256,192,283471,5,8,0:0:0:0:
256,192,283513,5,0,0:0:0:0:
256,192,283555,5,0,0:0:0:0:
256,192,283596,5,8,0:0:0:0:
256,192,283680,5,0,0:0:0:0:
256,192,283763,5,8,0:0:0:0:
256,192,283846,5,0,0:0:0:0:
256,192,283888,5,0,0:0:0:0:
256,192,283930,5,8,0:0:0:0:
256,192,284013,5,0,0:0:0:0:
256,192,284096,5,8,0:0:0:0:
256,192,284138,5,8,0:0:0:0:
256,192,284180,5,0,0:0:0:0:
256,192,284221,5,0,0:0:0:0:
256,192,284263,5,8,0:0:0:0:
256,192,284346,5,8,0:0:0:0:
256,192,284430,5,0,0:0:0:0:
256,192,284457,5,0,0:0:0:0:
256,192,284485,5,8,0:0:0:0:
256,192,284513,5,8,0:0:0:0:
256,192,284596,5,8,0:0:0:0:
256,192,284680,5,0,0:0:0:0:
256,192,284707,5,0,0:0:0:0:
256,192,284735,5,8,0:0:0:0:
256,192,284763,5,8,0:0:0:0:
256,192,284846,5,8,0:0:0:0:
256,192,284930,5,0,0:0:0:0:
256,192,284957,5,0,0:0:0:0:
256,192,284985,5,8,0:0:0:0:
256,192,285013,5,8,0:0:0:0:
256,192,285096,5,0,0:0:0:0:
256,192,285180,5,0,0:0:0:0:
256,192,285221,5,0,0:0:0:0:
256,192,285263,5,8,0:0:0:0:
256,192,285346,5,0,0:0:0:0:
256,192,285430,5,8,0:0:0:0:
256,192,285457,5,8,0:0:0:0:
256,192,285485,5,0,0:0:0:0:
256,192,285513,5,0,0:0:0:0:
256,192,285596,5,8,0:0:0:0:
256,192,285624,5,8,0:0:0:0:
256,192,285652,5,0,0:0:0:0:
256,192,285679,5,0,0:0:0:0:
256,192,285763,5,12,0:0:0:0:
256,192,285846,5,0,0:0:0:0:
256,192,285888,5,0,0:0:0:0:
256,192,285930,5,8,0:0:0:0:
256,192,286013,5,0,0:0:0:0:
256,192,286096,5,8,0:0:0:0:
256,192,286138,5,8,0:0:0:0:
256,192,286180,5,0,0:0:0:0:
256,192,286221,5,0,0:0:0:0:
256,192,286263,5,8,0:0:0:0:
256,192,286346,5,0,0:0:0:0:
256,192,286430,5,8,0:0:0:0:
256,192,286513,5,0,0:0:0:0:
256,192,286555,5,0,0:0:0:0:
256,192,286596,5,8,0:0:0:0:
256,192,286680,5,0,0:0:0:0:
256,192,286763,5,8,0:0:0:0:
256,192,286805,5,0,0:0:0:0:
256,192,286846,5,8,0:0:0:0:
256,192,286888,5,8,0:0:0:0:
256,192,286930,5,0,0:0:0:0:
256,192,287013,5,8,0:0:0:0:
256,192,287055,5,8,0:0:0:0:
256,192,287096,5,0,0:0:0:0:
256,192,287180,5,0,0:0:0:0:
256,192,287221,5,0,0:0:0:0:
256,192,287263,5,8,0:0:0:0:
256,192,287346,5,0,0:0:0:0:
256,192,287430,5,8,0:0:0:0:
256,192,287471,5,8,0:0:0:0:
256,192,287513,5,0,0:0:0:0:
256,192,287555,5,0,0:0:0:0:
256,192,287596,5,8,0:0:0:0:
256,192,287680,5,8,0:0:0:0:
256,192,287763,5,0,0:0:0:0:
256,192,287846,5,8,0:0:0:0:
256,192,287888,5,8,0:0:0:0:
256,192,287930,5,0,0:0:0:0:
256,192,288013,5,8,0:0:0:0:
256,192,288096,5,0,0:0:0:0:
256,192,288138,5,0,0:0:0:0:
256,192,288180,5,8,0:0:0:0:
256,192,288221,5,0,0:0:0:0:
256,192,288263,5,8,0:0:0:0:
256,192,288305,5,8,0:0:0:0:
256,192,288346,5,0,0:0:0:0:
256,192,288388,5,0,0:0:0:0:
256,192,288430,5,12,0:0:0:0:
256,192,288513,5,0,0:0:0:0:
256,192,288555,5,0,0:0:0:0:
256,192,288596,5,8,0:0:0:0:
256,192,288680,5,0,0:0:0:0:
256,192,288763,5,8,0:0:0:0:
256,192,288805,5,8,0:0:0:0:
256,192,288846,5,0,0:0:0:0:
256,192,288888,5,0,0:0:0:0:
256,192,288930,5,8,0:0:0:0:
256,192,289013,5,0,0:0:0:0:
256,192,289096,5,8,0:0:0:0:
256,192,289180,5,8,0:0:0:0:
256,192,289221,5,8,0:0:0:0:
256,192,289263,5,0,0:0:0:0:
256,192,289346,5,8,0:0:0:0:
256,192,289430,5,0,0:0:0:0:
256,192,289471,5,0,0:0:0:0:
256,192,289513,5,8,0:0:0:0:
256,192,289555,5,8,0:0:0:0:
256,192,289596,5,0,0:0:0:0:
256,192,289680,5,8,0:0:0:0:
256,192,289721,5,8,0:0:0:0:
256,192,289763,5,0,0:0:0:0:
256,192,289846,5,8,0:0:0:0:
256,192,289888,5,0,0:0:0:0:
256,192,289930,5,0,0:0:0:0:
256,192,290013,5,0,0:0:0:0:
256,192,290096,5,8,0:0:0:0:
256,192,290138,5,8,0:0:0:0:
256,192,290180,5,0,0:0:0:0:
256,192,290221,5,0,0:0:0:0:
256,192,290263,5,8,0:0:0:0:
256,192,290346,5,8,0:0:0:0:
256,192,290430,5,0,0:0:0:0:
256,192,290513,5,8,0:0:0:0:
256,192,290555,5,8,0:0:0:0:
256,192,290596,5,0,0:0:0:0:
256,192,290680,5,0,0:0:0:0:
256,192,290763,5,8,0:0:0:0:
256,192,290791,5,8,0:0:0:0:
256,192,290819,5,8,0:0:0:0:
256,192,290846,5,8,0:0:0:0:
256,192,290930,5,0,0:0:0:0:
256,192,290958,5,0,0:0:0:0:
256,192,290985,5,0,0:0:0:0:
256,192,291013,5,0,0:0:0:0:
256,192,291096,5,12,0:0:0:0:
256,192,291180,5,0,0:0:0:0:
256,192,291221,5,0,0:0:0:0:
256,192,291263,5,8,0:0:0:0:
256,192,291346,5,0,0:0:0:0:
256,192,291430,5,8,0:0:0:0:
256,192,291471,5,8,0:0:0:0:
256,192,291513,5,0,0:0:0:0:
256,192,291555,5,0,0:0:0:0:
256,192,291596,5,8,0:0:0:0:
256,192,291680,5,0,0:0:0:0:
256,192,291763,5,8,0:0:0:0:
256,192,291846,5,0,0:0:0:0:
256,192,291888,5,0,0:0:0:0:
256,192,291930,5,8,0:0:0:0:
256,192,292013,5,0,0:0:0:0:
256,192,292096,5,8,0:0:0:0:
256,192,292138,5,0,0:0:0:0:
256,192,292180,5,8,0:0:0:0:
256,192,292221,5,8,0:0:0:0:
256,192,292263,5,0,0:0:0:0:
256,192,292346,5,8,0:0:0:0:
256,192,292388,5,8,0:0:0:0:
256,192,292430,5,4,0:0:0:0:
256,192,292513,5,0,0:0:0:0:
256,192,292555,5,0,0:0:0:0:
256,192,292596,5,8,0:0:0:0:
256,192,292680,5,0,0:0:0:0:
256,192,292763,5,8,0:0:0:0:
256,192,292805,5,8,0:0:0:0:
256,192,292846,5,0,0:0:0:0:
256,192,292888,5,0,0:0:0:0:
256,192,292930,5,8,0:0:0:0:
256,192,293013,5,0,0:0:0:0:
256,192,293096,5,8,0:0:0:0:
256,192,293180,5,0,0:0:0:0:
256,192,293221,5,0,0:0:0:0:
256,192,293263,5,8,0:0:0:0:
256,192,293346,5,0,0:0:0:0:
256,192,293430,5,8,0:0:0:0:
256,192,293471,5,0,0:0:0:0:
256,192,293513,5,0,0:0:0:0:
256,192,293596,5,8,0:0:0:0:
256,192,293638,5,8,0:0:0:0:
256,192,293680,5,0,0:0:0:0:
256,192,293721,5,0,0:0:0:0:
256,192,293763,5,8,0:0:0:0:
256,192,293804,5,8,0:0:0:0:
256,192,293846,5,8,0:0:0:0:
256,192,293888,5,8,0:0:0:0:
256,192,293929,5,0,0:0:0:0:
256,192,294013,5,8,0:0:0:0:
256,192,294054,5,8,0:0:0:0:
256,192,294096,5,0,0:0:0:0:
256,192,294180,5,0,0:0:0:0:
256,192,294263,5,8,0:0:0:0:
256,192,294304,5,8,0:0:0:0:
256,192,294346,5,8,0:0:0:0:
256,192,294388,5,8,0:0:0:0:
256,192,294429,5,0,0:0:0:0:
256,192,294513,5,8,0:0:0:0:
256,192,294554,5,8,0:0:0:0:
256,192,294596,5,0,0:0:0:0:
256,192,294679,5,0,0:0:0:0:
256,192,294763,5,8,0:0:0:0:
256,192,294805,5,8,0:0:0:0:
256,192,294846,5,8,0:0:0:0:
256,192,294888,5,8,0:0:0:0:
256,192,294929,5,0,0:0:0:0:
256,192,295013,5,8,0:0:0:0:
256,192,295096,5,0,0:0:0:0:
256,192,295138,5,0,0:0:0:0:
256,192,295179,5,8,0:0:0:0:
256,192,295221,5,8,0:0:0:0:
256,192,295263,5,0,0:0:0:0:
256,192,295304,5,0,0:0:0:0:
256,192,295346,5,8,0:0:0:0:
256,192,295388,5,8,0:0:0:0:
256,192,295429,5,0,0:0:0:0:
256,192,295471,5,0,0:0:0:0:
256,192,295513,5,8,0:0:0:0:
256,192,295554,5,8,0:0:0:0:
256,192,295596,5,0,0:0:0:0:
256,192,295638,5,0,0:0:0:0:
256,192,295679,5,8,0:0:0:0:
256,192,295721,5,8,0:0:0:0:
256,192,295763,5,0,0:0:0:0:
256,192,295804,5,8,0:0:0:0:
256,192,295846,5,0,0:0:0:0:
256,192,295888,5,8,0:0:0:0:
256,192,295929,5,0,0:0:0:0:
256,192,295971,5,8,0:0:0:0:
256,192,296013,5,0,0:0:0:0:
256,192,296054,5,8,0:0:0:0:
256,192,296096,5,0,0:0:0:0:
256,192,296138,5,8,0:0:0:0:
256,192,296179,5,0,0:0:0:0:
256,192,296221,5,8,0:0:0:0:
256,192,296263,5,0,0:0:0:0:
256,192,296304,5,8,0:0:0:0:
256,192,296346,5,0,0:0:0:0:
256,192,296388,5,8,0:0:0:0:
256,192,296429,5,4,0:0:0:0:
256,192,296478,12,0,296817,0:0:0:0:
256,192,297204,5,12,0:0:0:0:
256,192,297591,5,0,0:0:0:0:
256,192,297784,5,0,0:0:0:0:
256,192,297978,5,8,0:0:0:0:
256,192,298365,5,0,0:0:0:0:
256,192,298752,5,0,0:0:0:0:
256,192,299139,5,8,0:0:0:0:
256,192,299204,5,0,0:0:0:0:
256,192,299268,5,0,0:0:0:0:
256,192,299333,5,0,0:0:0:0:
256,192,299397,5,0,0:0:0:0:
256,192,299462,5,0,0:0:0:0:
256,192,299526,5,8,0:0:0:0:
256,192,299913,5,0,0:0:0:0:
256,192,300107,5,8,0:0:0:0:
256,192,300300,5,8,0:0:0:0:
256,192,300688,5,8,0:0:0:0:
256,192,301075,5,0,0:0:0:0:
256,192,301462,5,0,0:0:0:0:
256,192,301849,5,8,0:0:0:0:
256,192,302042,5,0,0:0:0:0:
256,192,302236,5,8,0:0:0:0:
256,192,302623,5,8,0:0:0:0:
256,192,303010,5,0,0:0:0:0:
256,192,303397,5,8,0:0:0:0:
256,192,303591,5,0,0:0:0:0:
256,192,303784,5,8,0:0:0:0:
256,192,303849,5,0,0:0:0:0:
256,192,303913,5,0,0:0:0:0:
256,192,303978,5,8,0:0:0:0:
256,192,304042,5,8,0:0:0:0:
256,192,304107,5,8,0:0:0:0:
256,192,304171,5,0,0:0:0:0:
256,192,304365,5,8,0:0:0:0:
256,192,304559,5,0,0:0:0:0:
256,192,304752,5,8,0:0:0:0:
256,192,304946,5,8,0:0:0:0:
256,192,305139,5,0,0:0:0:0:
256,192,305526,5,8,0:0:0:0:
256,192,305720,5,0,0:0:0:0:
256,192,306107,5,0,0:0:0:0:
256,192,306300,5,8,0:0:0:0:
256,192,306397,5,8,0:0:0:0:
256,192,306688,5,0,0:0:0:0:
256,192,306881,5,8,0:0:0:0:
256,192,307268,5,0,0:0:0:0:
256,192,307462,5,8,0:0:0:0:
256,192,307655,5,0,0:0:0:0:
256,192,307849,5,0,0:0:0:0:
256,192,308042,5,8,0:0:0:0:
256,192,308430,5,8,0:0:0:0:
256,192,308817,5,0,0:0:0:0:
256,192,309204,5,0,0:0:0:0:
256,192,309591,5,8,0:0:0:0:
256,192,309784,5,0,0:0:0:0:
256,192,309978,5,8,0:0:0:0:
256,192,310042,5,0,0:0:0:0:
256,192,310107,5,0,0:0:0:0:
256,192,310171,5,0,0:0:0:0:
256,192,310236,5,0,0:0:0:0:
256,192,310300,5,0,0:0:0:0:
256,192,310365,5,8,0:0:0:0:
256,192,310752,5,0,0:0:0:0:
256,192,310946,5,8,0:0:0:0:
256,192,311333,5,0,0:0:0:0:
256,192,311526,5,8,0:0:0:0:
256,192,311720,5,0,0:0:0:0:
256,192,311913,5,8,0:0:0:0:
256,192,312300,5,8,0:0:0:0:
256,192,312494,5,0,0:0:0:0:
256,192,312881,5,0,0:0:0:0:
256,192,313075,5,8,0:0:0:0:
256,192,313268,5,0,0:0:0:0:
256,192,313655,5,0,0:0:0:0:
256,192,313849,5,8,0:0:0:0:
256,192,314042,5,0,0:0:0:0:
256,192,314236,5,8,0:0:0:0:
256,192,314430,5,8,0:0:0:0:
256,192,314817,5,8,0:0:0:0:
256,192,315010,5,0,0:0:0:0:
256,192,315397,5,0,0:0:0:0:
256,192,315591,5,0,0:0:0:0:
256,192,315784,5,8,0:0:0:0:
256,192,316171,5,8,0:0:0:0:
256,192,316365,5,0,0:0:0:0:
256,192,316559,5,8,0:0:0:0:
256,192,316946,5,8,0:0:0:0:
256,192,317010,5,0,0:0:0:0:
256,192,317075,5,0,0:0:0:0:
256,192,317139,5,8,0:0:0:0:
256,192,317204,5,8,0:0:0:0:
256,192,317268,5,8,0:0:0:0:
256,192,317333,5,0,0:0:0:0:
256,192,317720,5,8,0:0:0:0:
256,192,317913,5,0,0:0:0:0:
256,192,318107,5,8,0:0:0:0:
256,192,318494,5,8,0:0:0:0:
256,192,318688,5,0,0:0:0:0:
256,192,319075,5,0,0:0:0:0:
256,192,319268,5,8,0:0:0:0:
256,192,319655,12,0,320623,0:0:0:0:
256,192,320817,5,0,0:0:0:0:
256,192,321204,5,12,0:0:0:0:
256,192,321380,5,0,0:0:0:0:
256,192,321556,5,8,0:0:0:0:
256,192,321733,5,0,0:0:0:0:
256,192,321821,5,0,0:0:0:0:
256,192,321909,5,8,0:0:0:0:
256,192,322086,5,8,0:0:0:0:
256,192,322262,5,0,0:0:0:0:
256,192,322439,5,8,0:0:0:0:
256,192,322792,5,0,0:0:0:0:
256,192,322968,5,8,0:0:0:0:
256,192,323145,5,8,0:0:0:0:
256,192,323233,5,0,0:0:0:0:
256,192,323321,5,8,0:0:0:0:
256,192,323498,5,8,0:0:0:0:
256,192,323674,5,0,0:0:0:0:
256,192,323851,5,8,0:0:0:0:
256,192,324027,5,8,0:0:0:0:
256,192,324204,5,0,0:0:0:0:
256,192,324380,5,8,0:0:0:0:
256,192,324556,5,0,0:0:0:0:
256,192,324645,5,0,0:0:0:0:
256,192,324733,5,8,0:0:0:0:
256,192,324909,5,8,0:0:0:0:
256,192,325086,5,0,0:0:0:0:
256,192,325262,5,8,0:0:0:0:
256,192,325439,5,0,0:0:0:0:
256,192,325792,5,8,0:0:0:0:
256,192,325968,5,0,0:0:0:0:
256,192,326056,5,0,0:0:0:0:
256,192,326145,5,0,0:0:0:0:
256,192,326321,5,0,0:0:0:0:
256,192,326498,5,8,0:0:0:0:
256,192,326851,5,8,0:0:0:0:
256,192,327027,5,0,0:0:0:0:
256,192,327204,5,8,0:0:0:0:
256,192,327380,5,0,0:0:0:0:
256,192,327468,5,0,0:0:0:0:
256,192,327556,5,8,0:0:0:0:
256,192,327733,5,8,0:0:0:0:
256,192,327909,5,0,0:0:0:0:
256,192,328086,5,8,0:0:0:0:
256,192,328439,5,0,0:0:0:0:
256,192,328615,5,8,0:0:0:0:
256,192,328792,5,8,0:0:0:0:
256,192,328880,5,0,0:0:0:0:
256,192,328968,5,8,0:0:0:0:
256,192,329145,5,8,0:0:0:0:
256,192,329321,5,0,0:0:0:0:
256,192,329498,5,8,0:0:0:0:
256,192,329586,5,8,0:0:0:0:
256,192,329674,5,0,0:0:0:0:
256,192,329851,5,0,0:0:0:0:
256,192,330027,5,8,0:0:0:0:
256,192,330204,5,0,0:0:0:0:
256,192,330292,5,0,0:0:0:0:
256,192,330380,5,8,0:0:0:0:
256,192,330556,5,8,0:0:0:0:
256,192,330645,5,0,0:0:0:0:
256,192,330821,5,0,0:0:0:0:
256,192,330909,5,8,0:0:0:0:
256,192,331086,5,0,0:0:0:0:
256,192,331439,5,8,0:0:0:0:
256,192,331615,5,0,0:0:0:0:
256,192,331968,5,0,0:0:0:0:
256,192,332145,5,8,0:0:0:0:
256,192,332233,5,8,0:0:0:0:
256,192,332321,5,0,0:0:0:0:
256,192,332409,5,0,0:0:0:0:
256,192,332498,5,12,0:0:0:0:
256,192,332669,5,0,0:0:0:0:
256,192,332840,5,8,0:0:0:0:
256,192,333012,5,0,0:0:0:0:
256,192,333098,5,0,0:0:0:0:
256,192,333183,5,8,0:0:0:0:
256,192,333355,5,8,0:0:0:0:
256,192,333526,5,0,0:0:0:0:
256,192,333698,5,8,0:0:0:0:
256,192,334040,5,0,0:0:0:0:
256,192,334212,5,8,0:0:0:0:
256,192,334383,5,8,0:0:0:0:
256,192,334469,5,0,0:0:0:0:
256,192,334555,5,8,0:0:0:0:
256,192,334726,5,8,0:0:0:0:
256,192,334898,5,0,0:0:0:0:
256,192,335069,5,8,0:0:0:0:
256,192,335155,5,8,0:0:0:0:
256,192,335240,5,8,0:0:0:0:
256,192,335412,5,0,0:0:0:0:
256,192,335583,5,8,0:0:0:0:
256,192,335755,5,8,0:0:0:0:
256,192,335840,5,8,0:0:0:0:
256,192,335926,5,0,0:0:0:0:
256,192,336012,5,0,0:0:0:0:
256,192,336098,5,8,0:0:0:0:
256,192,336269,5,0,0:0:0:0:
256,192,336440,5,8,0:0:0:0:
256,192,336612,5,0,0:0:0:0:
256,192,336955,5,8,0:0:0:0:
256,192,337126,5,0,0:0:0:0:
256,192,337469,5,0,0:0:0:0:
256,192,337640,5,8,0:0:0:0:
256,192,337812,5,8,0:0:0:0:
256,192,337898,5,8,0:0:0:0:
256,192,337983,5,4,0:0:0:0:
256,192,338155,5,0,0:0:0:0:
256,192,338326,5,8,0:0:0:0:
256,192,338498,5,0,0:0:0:0:
256,192,338583,5,0,0:0:0:0:
256,192,338669,5,8,0:0:0:0:
256,192,338840,5,8,0:0:0:0:
256,192,339012,5,0,0:0:0:0:
256,192,339183,5,8,0:0:0:0:
256,192,339355,5,4,0:0:0:0:
256,192,339698,5,8,0:0:0:0:
256,192,339869,5,8,0:0:0:0:
256,192,339955,5,8,0:0:0:0:
256,192,340040,5,0,0:0:0:0:
256,192,340126,5,0,0:0:0:0:
256,192,340212,5,8,0:0:0:0:
256,192,340383,5,0,0:0:0:0:
256,192,340555,5,8,0:0:0:0:
256,192,340640,5,8,0:0:0:0:
256,192,340726,5,4,0:0:0:0:
256,192,340898,5,0,0:0:0:0:
256,192,341069,5,8,0:0:0:0:
256,192,341240,5,0,0:0:0:0:
256,192,341326,5,8,0:0:0:0:
256,192,341412,5,4,0:0:0:0:
256,192,341583,5,0,0:0:0:0:
256,192,341755,5,8,0:0:0:0:
256,192,341840,5,0,0:0:0:0:
256,192,341926,5,8,0:0:0:0:
256,192,342012,5,8,0:0:0:0:
256,192,342098,5,4,0:0:0:0:
256,192,342269,5,0,0:0:0:0:
256,192,342440,5,12,0:0:0:0:
256,192,342612,5,0,0:0:0:0:
256,192,342783,5,0,0:0:0:0:
256,192,342869,5,0,0:0:0:0:
256,192,342955,5,0,0:0:0:0:
256,192,343040,5,0,0:0:0:0:
256,192,343126,5,8,0:0:0:0:
256,192,343212,5,0,0:0:0:0:
256,192,343298,5,8,0:0:0:0:
256,192,343383,5,8,0:0:0:0:
256,192,343469,5,4,0:0:0:0:
256,192,343802,5,8,0:0:0:0:
256,192,344135,5,0,0:0:0:0:
256,192,344246,5,0,0:0:0:0:
256,192,344357,5,0,0:0:0:0:
256,192,344469,5,8,0:0:0:0:
256,192,344802,5,8,0:0:0:0:
256,192,344913,5,0,0:0:0:0:
256,192,345024,5,0,0:0:0:0:
256,192,345135,5,8,0:0:0:0:
256,192,345302,5,8,0:0:0:0:
256,192,345469,5,0,0:0:0:0:
256,192,345691,5,8,0:0:0:0:
256,192,346024,5,8,0:0:0:0:
256,192,346135,5,0,0:0:0:0:
256,192,346246,5,0,0:0:0:0:
256,192,346357,5,0,0:0:0:0:
256,192,346469,5,8,0:0:0:0:
256,192,346691,5,0,0:0:0:0:
256,192,346802,5,8,0:0:0:0:
256,192,347052,5,0,0:0:0:0:
256,192,347135,5,8,0:0:0:0:
256,192,347302,5,8,0:0:0:0:
256,192,347469,5,0,0:0:0:0:
256,192,347635,5,0,0:0:0:0:
256,192,347719,5,8,0:0:0:0:
256,192,347802,5,0,0:0:0:0:
256,192,347969,5,0,0:0:0:0:
256,192,348135,5,8,0:0:0:0:
256,192,348357,5,8,0:0:0:0:
256,192,348802,5,0,0:0:0:0:
256,192,349135,5,0,0:0:0:0:
256,192,349469,5,8,0:0:0:0:
256,192,349580,5,0,0:0:0:0:
256,192,349691,5,0,0:0:0:0:
256,192,349802,5,8,0:0:0:0:
256,192,350135,5,0,0:0:0:0:
256,192,350469,5,0,0:0:0:0:
256,192,350635,5,0,0:0:0:0:
256,192,350719,5,0,0:0:0:0:
256,192,350802,5,8,0:0:0:0:
256,192,350969,5,0,0:0:0:0:
256,192,351135,5,8,0:0:0:0:
256,192,351219,5,8,0:0:0:0:
256,192,351302,5,0,0:0:0:0:
256,192,351385,5,0,0:0:0:0:
256,192,351469,5,12,0:0:0:0:
256,192,351635,5,0,0:0:0:0:
256,192,351802,5,8,0:0:0:0:
256,192,351969,5,8,0:0:0:0:
256,192,352052,5,8,0:0:0:0:
256,192,352135,5,0,0:0:0:0:
256,192,352302,5,0,0:0:0:0:
256,192,352469,5,8,0:0:0:0:
256,192,352635,5,0,0:0:0:0:
256,192,352719,5,8,0:0:0:0:
256,192,352802,5,8,0:0:0:0:
256,192,352969,5,8,0:0:0:0:
256,192,353135,5,0,0:0:0:0:
256,192,353302,5,8,0:0:0:0:
256,192,353385,5,8,0:0:0:0:
256,192,353469,5,0,0:0:0:0:
256,192,353635,5,0,0:0:0:0:
256,192,353802,5,8,0:0:0:0:
256,192,353969,5,0,0:0:0:0:
256,192,354052,5,0,0:0:0:0:
256,192,354135,5,8,0:0:0:0:
256,192,354302,5,0,0:0:0:0:
256,192,354469,5,8,0:0:0:0:
256,192,354635,5,8,0:0:0:0:
256,192,354719,5,8,0:0:0:0:
256,192,354802,5,0,0:0:0:0:
256,192,354969,5,0,0:0:0:0:
256,192,355135,5,8,0:0:0:0:
256,192,355302,5,0,0:0:0:0:
256,192,355385,5,8,0:0:0:0:
256,192,355469,5,8,0:0:0:0:
256,192,355635,5,8,0:0:0:0:
256,192,355802,5,0,0:0:0:0:
256,192,355969,5,8,0:0:0:0:
256,192,356052,5,8,0:0:0:0:
256,192,356135,5,0,0:0:0:0:
256,192,356302,5,8,0:0:0:0:
256,192,356469,5,0,0:0:0:0:
256,192,356552,5,0,0:0:0:0:
256,192,356635,5,0,0:0:0:0:
256,192,356719,5,0,0:0:0:0:
256,192,356802,5,12,0:0:0:0:
256,192,356969,5,0,0:0:0:0:
256,192,357135,5,8,0:0:0:0:
256,192,357302,5,8,0:0:0:0:
256,192,357385,5,8,0:0:0:0:
256,192,357469,5,0,0:0:0:0:
256,192,357635,5,8,0:0:0:0:
256,192,357802,5,0,0:0:0:0:
256,192,357969,5,8,0:0:0:0:
256,192,358052,5,0,0:0:0:0:
256,192,358135,5,12,0:0:0:0:
256,192,358302,5,8,0:0:0:0:
256,192,358469,5,0,0:0:0:0:
256,192,358635,5,8,0:0:0:0:
256,192,358719,5,8,0:0:0:0:
256,192,358802,5,0,0:0:0:0:
256,192,358969,5,8,0:0:0:0:
256,192,359135,5,0,0:0:0:0:
256,192,359302,5,0,0:0:0:0:
256,192,359385,5,0,0:0:0:0:
256,192,359469,5,12,0:0:0:0:
256,192,359635,5,8,0:0:0:0:
256,192,359802,5,0,0:0:0:0:
256,192,359969,5,8,0:0:0:0:
256,192,360052,5,8,0:0:0:0:
256,192,360135,5,4,0:0:0:0:
256,192,360302,5,0,0:0:0:0:
256,192,360469,5,8,0:0:0:0:
256,192,360552,5,0,0:0:0:0:
256,192,360635,5,8,0:0:0:0:
256,192,360719,5,8,0:0:0:0:
256,192,360802,5,0,0:0:0:0:
256,192,360969,5,8,0:0:0:0:
256,192,361052,5,8,0:0:0:0:
256,192,361135,5,0,0:0:0:0:
256,192,361219,5,8,0:0:0:0:
256,192,361302,5,0,0:0:0:0:
256,192,361385,5,0,0:0:0:0:
256,192,361469,5,8,0:0:0:0:
256,192,361552,5,0,0:0:0:0:
256,192,361635,5,8,0:0:0:0:
256,192,361719,5,8,0:0:0:0:
256,192,361802,5,0,0:0:0:0:
256,192,361885,5,0,0:0:0:0:
256,192,361969,5,0,0:0:0:0:
256,192,362052,5,0,0:0:0:0:
256,192,362135,5,12,0:0:0:0:
256,192,362301,12,0,365468,0:0:0:0:
256,192,366135,5,0,0:0:0:0:
256,192,366801,5,8,0:0:0:0:
256,192,367468,5,4,0:0:0:0:
256,192,367551,5,0,0:0:0:0:
256,192,367593,5,0,0:0:0:0:
256,192,367634,5,8,0:0:0:0:
256,192,367718,5,8,0:0:0:0:
256,192,367801,5,0,0:0:0:0:
256,192,367884,5,0,0:0:0:0:
256,192,367968,5,8,0:0:0:0:
256,192,368051,5,8,0:0:0:0:
256,192,368134,5,0,0:0:0:0:
256,192,368218,5,0,0:0:0:0:
256,192,368259,5,0,0:0:0:0:
256,192,368301,5,8,0:0:0:0:
256,192,368384,5,8,0:0:0:0:
256,192,368468,5,0,0:0:0:0:
256,192,368509,5,0,0:0:0:0:
256,192,368551,5,8,0:0:0:0:
256,192,368593,5,8,0:0:0:0:
256,192,368634,5,0,0:0:0:0:
256,192,368718,5,8,0:0:0:0:
256,192,368801,5,0,0:0:0:0:
256,192,368884,5,0,0:0:0:0:
256,192,368926,5,0,0:0:0:0:
256,192,368968,5,8,0:0:0:0:
256,192,369051,5,8,0:0:0:0:
256,192,369134,5,0,0:0:0:0:
256,192,369218,5,8,0:0:0:0:
256,192,369301,5,8,0:0:0:0:
256,192,369384,5,8,0:0:0:0:
256,192,369468,5,0,0:0:0:0:
256,192,369551,5,0,0:0:0:0:
256,192,369593,5,0,0:0:0:0:
256,192,369634,5,8,0:0:0:0:
256,192,369718,5,8,0:0:0:0:
256,192,369801,5,0,0:0:0:0:
256,192,369843,5,0,0:0:0:0:
256,192,369884,5,8,0:0:0:0:
256,192,369926,5,8,0:0:0:0:
256,192,369968,5,0,0:0:0:0:
256,192,370051,5,8,0:0:0:0:
256,192,370134,5,0,0:0:0:0:
256,192,370218,5,0,0:0:0:0:
256,192,370259,5,0,0:0:0:0:
256,192,370301,5,8,0:0:0:0:
256,192,370384,5,8,0:0:0:0:
256,192,370468,5,0,0:0:0:0:
256,192,370551,5,0,0:0:0:0:
256,192,370634,5,8,0:0:0:0:
256,192,370676,5,8,0:0:0:0:
256,192,370718,5,0,0:0:0:0:
256,192,370759,5,0,0:0:0:0:
256,192,370801,5,8,0:0:0:0:
256,192,370884,5,0,0:0:0:0:
256,192,370968,5,8,0:0:0:0:
256,192,371051,5,8,0:0:0:0:
256,192,371093,5,8,0:0:0:0:
256,192,371134,5,0,0:0:0:0:
256,192,371218,5,8,0:0:0:0:
256,192,371301,5,0,0:0:0:0:
256,192,371343,5,0,0:0:0:0:
256,192,371384,5,8,0:0:0:0:
256,192,371426,5,8,0:0:0:0:
256,192,371468,5,0,0:0:0:0:
256,192,371634,5,8,0:0:0:0:
256,192,371676,5,8,0:0:0:0:
256,192,371718,5,0,0:0:0:0:
256,192,371759,5,0,0:0:0:0:
256,192,371801,5,8,0:0:0:0:
256,192,371884,5,0,0:0:0:0:
256,192,371968,5,0,0:0:0:0:
256,192,372134,5,8,0:0:0:0:
256,192,372176,5,8,0:0:0:0:
256,192,372218,5,8,0:0:0:0:
256,192,372259,5,8,0:0:0:0:
256,192,372301,5,0,0:0:0:0:
256,192,372384,5,8,0:0:0:0:
256,192,372468,5,0,0:0:0:0:
256,192,372634,5,8,0:0:0:0:
256,192,372662,5,8,0:0:0:0:
256,192,372690,5,8,0:0:0:0:
256,192,372718,5,8,0:0:0:0:
256,192,372801,5,4,0:0:0:0:
256,192,372884,5,0,0:0:0:0:
256,192,372926,5,0,0:0:0:0:
256,192,372968,5,8,0:0:0:0:
256,192,373051,5,8,0:0:0:0:
256,192,373134,5,0,0:0:0:0:
256,192,373218,5,0,0:0:0:0:
256,192,373301,5,8,0:0:0:0:
256,192,373384,5,8,0:0:0:0:
256,192,373468,5,0,0:0:0:0:
256,192,373551,5,0,0:0:0:0:
256,192,373593,5,0,0:0:0:0:
256,192,373634,5,8,0:0:0:0:
256,192,373718,5,8,0:0:0:0:
256,192,373801,5,0,0:0:0:0:
256,192,373884,5,8,0:0:0:0:
256,192,373968,5,8,0:0:0:0:
256,192,374051,5,8,0:0:0:0:
256,192,374134,5,0,0:0:0:0:
256,192,374176,5,0,0:0:0:0:
256,192,374218,5,8,0:0:0:0:
256,192,374260,5,8,0:0:0:0:
256,192,374302,5,0,0:0:0:0:
256,192,374384,5,0,0:0:0:0:
256,192,374468,5,8,0:0:0:0:
256,192,374509,5,8,0:0:0:0:
256,192,374551,5,0,0:0:0:0:
256,192,374593,5,0,0:0:0:0:
256,192,374634,5,8,0:0:0:0:
256,192,374718,5,0,0:0:0:0:
256,192,374801,5,8,0:0:0:0:
256,192,374843,5,8,0:0:0:0:
256,192,374884,5,0,0:0:0:0:
256,192,374968,5,0,0:0:0:0:
256,192,375051,5,8,0:0:0:0:
256,192,375092,5,0,0:0:0:0:
256,192,375134,5,0,0:0:0:0:
256,192,375218,5,0,0:0:0:0:
256,192,375301,5,8,0:0:0:0:
256,192,375343,5,0,0:0:0:0:
256,192,375384,5,8,0:0:0:0:
256,192,375426,5,8,0:0:0:0:
256,192,375468,5,0,0:0:0:0:
256,192,375551,5,0,0:0:0:0:
256,192,375593,5,0,0:0:0:0:
256,192,375634,5,8,0:0:0:0:
256,192,375718,5,8,0:0:0:0:
256,192,375801,5,0,0:0:0:0:
256,192,375884,5,0,0:0:0:0:
256,192,375968,5,8,0:0:0:0:
256,192,376051,5,8,0:0:0:0:
256,192,376134,5,0,0:0:0:0:
256,192,376218,5,0,0:0:0:0:
256,192,376259,5,0,0:0:0:0:
256,192,376301,5,8,0:0:0:0:
256,192,376384,5,8,0:0:0:0:
256,192,376468,5,0,0:0:0:0:
256,192,376551,5,0,0:0:0:0:
256,192,376634,5,8,0:0:0:0:
256,192,376718,5,8,0:0:0:0:
256,192,376801,5,0,0:0:0:0:
256,192,376968,5,8,0:0:0:0:
256,192,377009,5,8,0:0:0:0:
256,192,377051,5,0,0:0:0:0:
256,192,377134,5,0,0:0:0:0:
256,192,377301,5,0,0:0:0:0:
256,192,377384,5,0,0:0:0:0:
256,192,377468,5,8,0:0:0:0:
256,192,377509,5,8,0:0:0:0:
256,192,377551,5,0,0:0:0:0:
256,192,377593,5,0,0:0:0:0:
256,192,377634,5,8,0:0:0:0:
256,192,377718,5,8,0:0:0:0:
256,192,377801,5,0,0:0:0:0:
256,192,377829,5,0,0:0:0:0:
256,192,377856,5,0,0:0:0:0:
256,192,377884,5,0,0:0:0:0:
256,192,377968,5,8,0:0:0:0:
256,192,377995,5,8,0:0:0:0:
256,192,378023,5,8,0:0:0:0:
256,192,378051,5,8,0:0:0:0:
256,192,378134,5,4,0:0:0:0:
256,192,378218,5,0,0:0:0:0:
256,192,378259,5,0,0:0:0:0:
256,192,378301,5,8,0:0:0:0:
256,192,378384,5,8,0:0:0:0:
256,192,378468,5,0,0:0:0:0:
256,192,378551,5,0,0:0:0:0:
256,192,378634,5,8,0:0:0:0:
256,192,378718,5,8,0:0:0:0:
256,192,378801,5,0,0:0:0:0:
256,192,378884,5,0,0:0:0:0:
256,192,378926,5,0,0:0:0:0:
256,192,378968,5,8,0:0:0:0:
256,192,379051,5,0,0:0:0:0:
256,192,379134,5,8,0:0:0:0:
256,192,379176,5,8,0:0:0:0:
256,192,379218,5,8,0:0:0:0:
256,192,379259,5,8,0:0:0:0:
256,192,379301,5,0,0:0:0:0:
256,192,379384,5,8,0:0:0:0:
256,192,379468,5,0,0:0:0:0:
256,192,379551,5,0,0:0:0:0:
256,192,379593,5,0,0:0:0:0:
256,192,379634,5,8,0:0:0:0:
256,192,379718,5,8,0:0:0:0:
256,192,379801,5,0,0:0:0:0:
256,192,379884,5,0,0:0:0:0:
256,192,379968,5,8,0:0:0:0:
256,192,380009,5,8,0:0:0:0:
256,192,380051,5,0,0:0:0:0:
256,192,380134,5,8,0:0:0:0:
256,192,380218,5,8,0:0:0:0:
256,192,380301,5,0,0:0:0:0:
256,192,380384,5,8,0:0:0:0:
256,192,380468,5,0,0:0:0:0:
256,192,380509,5,0,0:0:0:0:
256,192,380551,5,8,0:0:0:0:
256,192,380593,5,0,0:0:0:0:
256,192,380634,5,8,0:0:0:0:
256,192,380718,5,8,0:0:0:0:
256,192,380801,5,0,0:0:0:0:
256,192,380843,5,0,0:0:0:0:
256,192,380884,5,8,0:0:0:0:
256,192,380968,5,8,0:0:0:0:
256,192,381051,5,8,0:0:0:0:
256,192,381134,5,0,0:0:0:0:
256,192,381218,5,0,0:0:0:0:
256,192,381301,5,8,0:0:0:0:
256,192,381343,5,8,0:0:0:0:
256,192,381384,5,0,0:0:0:0:
256,192,381468,5,8,0:0:0:0:
256,192,381551,5,8,0:0:0:0:
256,192,381634,5,0,0:0:0:0:
256,192,381718,5,8,0:0:0:0:
256,192,381801,5,0,0:0:0:0:
256,192,381884,5,0,0:0:0:0:
256,192,381968,5,8,0:0:0:0:
256,192,382009,5,8,0:0:0:0:
256,192,382051,5,0,0:0:0:0:
256,192,382093,5,0,0:0:0:0:
256,192,382134,5,8,0:0:0:0:
256,192,382301,5,8,0:0:0:0:
256,192,382384,5,0,0:0:0:0:
256,192,382468,5,8,0:0:0:0:
256,192,382509,5,8,0:0:0:0:
256,192,382551,5,8,0:0:0:0:
256,192,382593,5,8,0:0:0:0:
256,192,382634,5,0,0:0:0:0:
256,192,382801,5,0,0:0:0:0:
256,192,382884,5,0,0:0:0:0:
256,192,382926,5,0,0:0:0:0:
256,192,382968,5,8,0:0:0:0:
256,192,383051,5,8,0:0:0:0:
256,192,383134,5,0,0:0:0:0:
256,192,383162,5,0,0:0:0:0:
256,192,383190,5,0,0:0:0:0:
256,192,383218,5,0,0:0:0:0:
256,192,383301,5,8,0:0:0:0:
256,192,383329,5,8,0:0:0:0:
256,192,383356,5,8,0:0:0:0:
256,192,383384,5,8,0:0:0:0:
256,192,383468,5,4,0:0:0:0:
256,192,383551,5,0,0:0:0:0:
256,192,383593,5,0,0:0:0:0:
256,192,383634,5,8,0:0:0:0:
256,192,383718,5,8,0:0:0:0:
256,192,383801,5,0,0:0:0:0:
256,192,383884,5,0,0:0:0:0:
256,192,383968,5,8,0:0:0:0:
256,192,384051,5,8,0:0:0:0:
256,192,384134,5,0,0:0:0:0:
256,192,384218,5,0,0:0:0:0:
256,192,384259,5,0,0:0:0:0:
256,192,384301,5,8,0:0:0:0:
256,192,384384,5,8,0:0:0:0:
256,192,384468,5,0,0:0:0:0:
256,192,384509,5,0,0:0:0:0:
256,192,384551,5,8,0:0:0:0:
256,192,384593,5,8,0:0:0:0:
256,192,384634,5,0,0:0:0:0:
256,192,384718,5,8,0:0:0:0:
256,192,384801,5,0,0:0:0:0:
256,192,384884,5,0,0:0:0:0:
256,192,384926,5,0,0:0:0:0:
256,192,384968,5,8,0:0:0:0:
256,192,385051,5,8,0:0:0:0:
256,192,385134,5,0,0:0:0:0:
256,192,385218,5,8,0:0:0:0:
256,192,385301,5,8,0:0:0:0:
256,192,385384,5,8,0:0:0:0:
256,192,385468,5,0,0:0:0:0:
256,192,385551,5,0,0:0:0:0:
256,192,385593,5,0,0:0:0:0:
256,192,385634,5,8,0:0:0:0:
256,192,385718,5,0,0:0:0:0:
256,192,385801,5,8,0:0:0:0:
256,192,385843,5,8,0:0:0:0:
256,192,385884,5,0,0:0:0:0:
256,192,385926,5,0,0:0:0:0:
256,192,385968,5,8,0:0:0:0:
256,192,386051,5,0,0:0:0:0:
256,192,386134,5,8,0:0:0:0:
256,192,386176,5,8,0:0:0:0:
256,192,386218,5,0,0:0:0:0:
256,192,386301,5,0,0:0:0:0:
256,192,386384,5,8,0:0:0:0:
256,192,386468,5,0,0:0:0:0:
256,192,386551,5,0,0:0:0:0:
256,192,386634,5,8,0:0:0:0:
256,192,386676,5,8,0:0:0:0:
256,192,386718,5,0,0:0:0:0:
256,192,386801,5,0,0:0:0:0:
256,192,386884,5,8,0:0:0:0:
256,192,386968,5,0,0:0:0:0:
256,192,387051,5,0,0:0:0:0:
256,192,387134,5,8,0:0:0:0:
256,192,387176,5,8,0:0:0:0:
256,192,387218,5,0,0:0:0:0:
256,192,387301,5,8,0:0:0:0:
256,192,387384,5,8,0:0:0:0:
256,192,387468,5,0,0:0:0:0:
256,192,387509,5,0,0:0:0:0:
256,192,387551,5,8,0:0:0:0:
256,192,387634,5,0,0:0:0:0:
256,192,387718,5,0,0:0:0:0:
256,192,387801,5,8,0:0:0:0:
256,192,387843,5,8,0:0:0:0:
256,192,387884,5,0,0:0:0:0:
256,192,387968,5,8,0:0:0:0:
256,192,388051,5,8,0:0:0:0:
256,192,388134,5,0,0:0:0:0:
256,192,388176,5,0,0:0:0:0:
256,192,388218,5,8,0:0:0:0:
256,192,388301,5,0,0:0:0:0:
256,192,388384,5,8,0:0:0:0:
256,192,388468,5,0,0:0:0:0:
256,192,388495,5,0,0:0:0:0:
256,192,388523,5,8,0:0:0:0:
256,192,388551,5,8,0:0:0:0:
256,192,388634,5,0,0:0:0:0:
256,192,388662,5,0,0:0:0:0:
256,192,388690,5,8,0:0:0:0:
256,192,388718,5,8,0:0:0:0:
256,192,388801,5,4,0:0:0:0:
256,192,388884,5,0,0:0:0:0:
256,192,388926,5,0,0:0:0:0:
256,192,388967,5,8,0:0:0:0:
256,192,389051,5,8,0:0:0:0:
256,192,389134,5,0,0:0:0:0:
256,192,389217,5,0,0:0:0:0:
256,192,389301,5,8,0:0:0:0:
256,192,389384,5,8,0:0:0:0:
256,192,389467,5,0,0:0:0:0:
256,192,389551,5,0,0:0:0:0:
256,192,389592,5,0,0:0:0:0:
256,192,389634,5,8,0:0:0:0:
256,192,389717,5,8,0:0:0:0:
256,192,389801,5,0,0:0:0:0:
256,192,389842,5,0,0:0:0:0:
256,192,389884,5,8,0:0:0:0:
256,192,389926,5,8,0:0:0:0:
256,192,389967,5,0,0:0:0:0:
256,192,390051,5,8,0:0:0:0:
256,192,390134,5,0,0:0:0:0:
256,192,390301,5,8,0:0:0:0:
256,192,390384,5,8,0:0:0:0:
256,192,390467,5,0,0:0:0:0:
256,192,390551,5,0,0:0:0:0:
256,192,390634,5,8,0:0:0:0:
256,192,390717,5,8,0:0:0:0:
256,192,390801,5,0,0:0:0:0:
256,192,390884,5,0,0:0:0:0:
256,192,390926,5,0,0:0:0:0:
256,192,390967,5,8,0:0:0:0:
256,192,391051,5,0,0:0:0:0:
256,192,391134,5,8,0:0:0:0:
256,192,391176,5,0,0:0:0:0:
256,192,391217,5,8,0:0:0:0:
256,192,391259,5,8,0:0:0:0:
256,192,391301,5,0,0:0:0:0:
256,192,391384,5,8,0:0:0:0:
256,192,391467,5,0,0:0:0:0:
256,192,391634,5,8,0:0:0:0:
256,192,391717,5,8,0:0:0:0:
256,192,391801,5,0,0:0:0:0:
256,192,391884,5,0,0:0:0:0:
256,192,391967,5,8,0:0:0:0:
256,192,392009,5,8,0:0:0:0:
256,192,392051,5,0,0:0:0:0:
256,192,392092,5,0,0:0:0:0:
256,192,392134,5,8,0:0:0:0:
256,192,392217,5,0,0:0:0:0:
256,192,392301,5,8,0:0:0:0:
256,192,392384,5,8,0:0:0:0:
256,192,392426,5,8,0:0:0:0:
256,192,392467,5,0,0:0:0:0:
256,192,392551,5,8,0:0:0:0:
256,192,392634,5,0,0:0:0:0:
256,192,392676,5,0,0:0:0:0:
256,192,392717,5,8,0:0:0:0:
256,192,392759,5,8,0:0:0:0:
256,192,392801,5,0,0:0:0:0:
256,192,392967,5,8,0:0:0:0:
256,192,393009,5,8,0:0:0:0:
256,192,393051,5,0,0:0:0:0:
256,192,393092,5,0,0:0:0:0:
256,192,393134,5,8,0:0:0:0:
256,192,393217,5,0,0:0:0:0:
256,192,393301,5,0,0:0:0:0:
256,192,393467,5,0,0:0:0:0:
256,192,393509,5,0,0:0:0:0:
256,192,393551,5,8,0:0:0:0:
256,192,393592,5,8,0:0:0:0:
256,192,393634,5,0,0:0:0:0:
256,192,393717,5,0,0:0:0:0:
256,192,393801,5,8,0:0:0:0:
256,192,393884,5,0,0:0:0:0:
256,192,393967,5,8,0:0:0:0:
256,192,393995,5,8,0:0:0:0:
256,192,394023,5,8,0:0:0:0:
256,192,394051,5,8,0:0:0:0:
256,192,394134,5,4,0:0:0:0:
256,192,394217,5,0,0:0:0:0:
256,192,394259,5,0,0:0:0:0:
256,192,394301,5,8,0:0:0:0:
256,192,394384,5,8,0:0:0:0:
256,192,394467,5,0,0:0:0:0:
256,192,394551,5,0,0:0:0:0:
256,192,394634,5,8,0:0:0:0:
256,192,394717,5,8,0:0:0:0:
256,192,394801,5,0,0:0:0:0:
256,192,394884,5,0,0:0:0:0:
256,192,394926,5,0,0:0:0:0:
256,192,394967,5,8,0:0:0:0:
256,192,395051,5,8,0:0:0:0:
256,192,395134,5,0,0:0:0:0:
256,192,395217,5,8,0:0:0:0:
256,192,395301,5,8,0:0:0:0:
256,192,395384,5,8,0:0:0:0:
256,192,395468,5,0,0:0:0:0:
256,192,395635,5,8,0:0:0:0:
256,192,395677,5,8,0:0:0:0:
256,192,395718,5,0,0:0:0:0:
256,192,395802,5,8,0:0:0:0:
256,192,395843,5,8,0:0:0:0:
256,192,395885,5,0,0:0:0:0:
256,192,395927,5,0,0:0:0:0:
256,192,395968,5,8,0:0:0:0:
256,192,396052,5,0,0:0:0:0:
256,192,396134,5,8,0:0:0:0:
256,192,396176,5,8,0:0:0:0:
256,192,396218,5,0,0:0:0:0:
256,192,396302,5,0,0:0:0:0:
256,192,396384,5,8,0:0:0:0:
256,192,396426,5,0,0:0:0:0:
256,192,396468,5,0,0:0:0:0:
256,192,396551,5,0,0:0:0:0:
256,192,396635,5,8,0:0:0:0:
256,192,396718,5,8,0:0:0:0:
256,192,396801,5,0,0:0:0:0:
256,192,396884,5,0,0:0:0:0:
256,192,396926,5,0,0:0:0:0:
256,192,396967,5,8,0:0:0:0:
256,192,397051,5,8,0:0:0:0:
256,192,397134,5,0,0:0:0:0:
256,192,397217,5,0,0:0:0:0:
256,192,397301,5,8,0:0:0:0:
256,192,397384,5,8,0:0:0:0:
256,192,397467,5,0,0:0:0:0:
256,192,397551,5,0,0:0:0:0:
256,192,397592,5,0,0:0:0:0:
256,192,397634,5,8,0:0:0:0:
256,192,397717,5,8,0:0:0:0:
256,192,397801,5,0,0:0:0:0:
256,192,397884,5,8,0:0:0:0:
256,192,397967,5,0,0:0:0:0:
256,192,398051,5,8,0:0:0:0:
256,192,398134,5,0,0:0:0:0:
256,192,398301,5,8,0:0:0:0:
256,192,398342,5,8,0:0:0:0:
256,192,398384,5,0,0:0:0:0:
256,192,398467,5,0,0:0:0:0:
256,192,398634,5,0,0:0:0:0:
256,192,398717,5,0,0:0:0:0:
256,192,398801,5,8,0:0:0:0:
256,192,398842,5,8,0:0:0:0:
256,192,398884,5,0,0:0:0:0:
256,192,398926,5,0,0:0:0:0:
256,192,398967,5,8,0:0:0:0:
256,192,399051,5,0,0:0:0:0:
256,192,399134,5,8,0:0:0:0:
256,192,399162,5,8,0:0:0:0:
256,192,399189,5,8,0:0:0:0:
256,192,399217,5,8,0:0:0:0:
256,192,399301,5,0,0:0:0:0:
256,192,399328,5,0,0:0:0:0:
256,192,399356,5,0,0:0:0:0:
256,192,399384,5,0,0:0:0:0:
256,192,399467,5,12,0:0:0:0:
256,192,399551,5,0,0:0:0:0:
256,192,399592,5,0,0:0:0:0:
256,192,399634,5,8,0:0:0:0:
256,192,399717,5,8,0:0:0:0:
256,192,399801,5,0,0:0:0:0:
256,192,399884,5,0,0:0:0:0:
256,192,399967,5,8,0:0:0:0:
256,192,400051,5,8,0:0:0:0:
256,192,400134,5,0,0:0:0:0:
256,192,400217,5,0,0:0:0:0:
256,192,400259,5,0,0:0:0:0:
256,192,400301,5,8,0:0:0:0:
256,192,400384,5,0,0:0:0:0:
256,192,400467,5,8,0:0:0:0:
256,192,400509,5,0,0:0:0:0:
256,192,400551,5,8,0:0:0:0:
256,192,400592,5,8,0:0:0:0:
256,192,400634,5,0,0:0:0:0:
256,192,400717,5,8,0:0:0:0:
256,192,400801,5,0,0:0:0:0:
256,192,400967,5,8,0:0:0:0:
256,192,401051,5,8,0:0:0:0:
256,192,401134,5,0,0:0:0:0:
256,192,401217,5,0,0:0:0:0:
256,192,401301,5,8,0:0:0:0:
256,192,401384,5,8,0:0:0:0:
256,192,401467,5,0,0:0:0:0:
256,192,401551,5,8,0:0:0:0:
256,192,401592,5,8,0:0:0:0:
256,192,401634,5,0,0:0:0:0:
256,192,401717,5,8,0:0:0:0:
256,192,401801,5,0,0:0:0:0:
256,192,401842,5,0,0:0:0:0:
256,192,401884,5,8,0:0:0:0:
256,192,401926,5,0,0:0:0:0:
256,192,401967,5,8,0:0:0:0:
256,192,402051,5,0,0:0:0:0:
256,192,402134,5,8,0:0:0:0:
256,192,402301,5,0,0:0:0:0:
256,192,402384,5,8,0:0:0:0:
256,192,402467,5,0,0:0:0:0:
256,192,402551,5,0,0:0:0:0:
256,192,402634,5,8,0:0:0:0:
256,192,402676,5,8,0:0:0:0:
256,192,402717,5,0,0:0:0:0:
256,192,402801,5,8,0:0:0:0:
256,192,402884,5,8,0:0:0:0:
256,192,402968,5,0,0:0:0:0:
256,192,403051,5,8,0:0:0:0:
256,192,403134,5,0,0:0:0:0:
256,192,403217,5,0,0:0:0:0:
256,192,403301,5,8,0:0:0:0:
256,192,403342,5,8,0:0:0:0:
256,192,403384,5,0,0:0:0:0:
256,192,403426,5,0,0:0:0:0:
256,192,403467,5,8,0:0:0:0:
256,192,403634,5,0,0:0:0:0:
256,192,403717,5,0,0:0:0:0:
256,192,403759,5,0,0:0:0:0:
256,192,403801,5,8,0:0:0:0:
256,192,403842,5,8,0:0:0:0:
256,192,403884,5,8,0:0:0:0:
256,192,403926,5,8,0:0:0:0:
256,192,403967,5,0,0:0:0:0:
256,192,404134,5,0,0:0:0:0:
256,192,404217,5,0,0:0:0:0:
256,192,404259,5,0,0:0:0:0:
256,192,404301,5,8,0:0:0:0:
256,192,404384,5,0,0:0:0:0:
256,192,404467,5,8,0:0:0:0:
256,192,404495,5,8,0:0:0:0:
256,192,404523,5,8,0:0:0:0:
256,192,404551,5,8,0:0:0:0:
256,192,404634,5,0,0:0:0:0:
256,192,404662,5,0,0:0:0:0:
256,192,404689,5,0,0:0:0:0:
256,192,404717,5,0,0:0:0:0:
256,192,404801,5,12,0:0:0:0:
256,192,404884,5,0,0:0:0:0:
256,192,404926,5,0,0:0:0:0:
256,192,404967,5,8,0:0:0:0:
256,192,405051,5,8,0:0:0:0:
256,192,405134,5,0,0:0:0:0:
256,192,405217,5,0,0:0:0:0:
256,192,405301,5,8,0:0:0:0:
256,192,405384,5,8,0:0:0:0:
256,192,405467,5,0,0:0:0:0:
256,192,405551,5,0,0:0:0:0:
256,192,405592,5,0,0:0:0:0:
256,192,405634,5,8,0:0:0:0:
256,192,405717,5,8,0:0:0:0:
256,192,405801,5,0,0:0:0:0:
256,192,405884,5,8,0:0:0:0:
256,192,405967,5,0,0:0:0:0:
256,192,406051,5,8,0:0:0:0:
256,192,406134,5,0,0:0:0:0:
256,192,406301,5,8,0:0:0:0:
256,192,406384,5,8,0:0:0:0:
256,192,406467,5,0,0:0:0:0:
256,192,406551,5,0,0:0:0:0:
256,192,406634,5,8,0:0:0:0:
256,192,406717,5,8,0:0:0:0:
256,192,406801,5,0,0:0:0:0:
256,192,406884,5,0,0:0:0:0:
256,192,406926,5,0,0:0:0:0:
256,192,406967,5,8,0:0:0:0:
256,192,407051,5,0,0:0:0:0:
256,192,407134,5,8,0:0:0:0:
256,192,407176,5,8,0:0:0:0:
256,192,407217,5,0,0:0:0:0:
256,192,407259,5,0,0:0:0:0:
256,192,407301,5,8,0:0:0:0:
256,192,407384,5,0,0:0:0:0:
256,192,407468,5,8,0:0:0:0:
256,192,407509,5,8,0:0:0:0:
256,192,407551,5,0,0:0:0:0:
256,192,407634,5,0,0:0:0:0:
256,192,407718,5,8,0:0:0:0:
256,192,407759,5,8,0:0:0:0:
256,192,407801,5,0,0:0:0:0:
256,192,407884,5,0,0:0:0:0:
256,192,407968,5,8,0:0:0:0:
256,192,408009,5,8,0:0:0:0:
256,192,408051,5,0,0:0:0:0:
256,192,408093,5,0,0:0:0:0:
256,192,408134,5,8,0:0:0:0:
256,192,408176,5,8,0:0:0:0:
256,192,408218,5,0,0:0:0:0:
256,192,408301,5,0,0:0:0:0:
256,192,408384,5,8,0:0:0:0:
256,192,408426,5,8,0:0:0:0:
256,192,408468,5,0,0:0:0:0:
256,192,408551,5,0,0:0:0:0:
256,192,408634,5,8,0:0:0:0:
256,192,408676,5,8,0:0:0:0:
256,192,408718,5,8,0:0:0:0:
256,192,408801,5,0,0:0:0:0:
256,192,408843,5,0,0:0:0:0:
256,192,408884,5,8,0:0:0:0:
256,192,408926,5,8,0:0:0:0:
256,192,408968,5,0,0:0:0:0:
256,192,409009,5,0,0:0:0:0:
256,192,409051,5,8,0:0:0:0:
256,192,409093,5,8,0:0:0:0:
256,192,409134,5,0,0:0:0:0:
256,192,409176,5,0,0:0:0:0:
256,192,409218,5,8,0:0:0:0:
256,192,409259,5,8,0:0:0:0:
256,192,409301,5,0,0:0:0:0:
256,192,409343,5,0,0:0:0:0:
256,192,409384,5,8,0:0:0:0:
256,192,409426,5,8,0:0:0:0:
256,192,409468,5,0,0:0:0:0:
256,192,409509,5,8,0:0:0:0:
256,192,409551,5,0,0:0:0:0:
256,192,409593,5,8,0:0:0:0:
256,192,409634,5,0,0:0:0:0:
256,192,409676,5,8,0:0:0:0:
256,192,409718,5,0,0:0:0:0:
256,192,409759,5,8,0:0:0:0:
256,192,409801,5,0,0:0:0:0:
256,192,409843,5,8,0:0:0:0:
256,192,409884,5,0,0:0:0:0:
256,192,409926,5,8,0:0:0:0:
256,192,409968,5,0,0:0:0:0:
256,192,410009,5,8,0:0:0:0:
256,192,410051,5,0,0:0:0:0:
256,192,410093,5,8,0:0:0:0:
256,192,410134,5,4,0:0:0:0:
256,192,410212,5,0,0:0:0:0:
256,192,410291,5,8,0:0:0:0:
256,192,410370,5,0,0:0:0:0:
256,192,410410,5,0,0:0:0:0:
256,192,410449,5,8,0:0:0:0:
256,192,410528,5,0,0:0:0:0:
256,192,410607,5,8,0:0:0:0:
256,192,410647,5,8,0:0:0:0:
256,192,410686,5,0,0:0:0:0:
256,192,410726,5,0,0:0:0:0:
256,192,410765,5,8,0:0:0:0:
256,192,410844,5,0,0:0:0:0:
256,192,410923,5,8,0:0:0:0:
256,192,411002,5,0,0:0:0:0:
256,192,411041,5,0,0:0:0:0:
256,192,411081,5,8,0:0:0:0:
256,192,411160,5,0,0:0:0:0:
256,192,411239,5,8,0:0:0:0:
256,192,411278,5,8,0:0:0:0:
256,192,411318,5,8,0:0:0:0:
256,192,411357,5,8,0:0:0:0:
256,192,411397,5,0,0:0:0:0:
256,192,411476,5,0,0:0:0:0:
256,192,411555,5,8,0:0:0:0:
256,192,411634,5,0,0:0:0:0:
256,192,411673,5,0,0:0:0:0:
256,192,411712,5,8,0:0:0:0:
256,192,411791,5,0,0:0:0:0:
256,192,411870,5,8,0:0:0:0:
256,192,411910,5,8,0:0:0:0:
256,192,411949,5,0,0:0:0:0:
256,192,411989,5,0,0:0:0:0:
256,192,412028,5,8,0:0:0:0:
256,192,412107,5,0,0:0:0:0:
256,192,412186,5,8,0:0:0:0:
256,192,412265,5,0,0:0:0:0:
256,192,412305,5,0,0:0:0:0:
256,192,412344,5,8,0:0:0:0:
256,192,412423,5,0,0:0:0:0:
256,192,412502,5,8,0:0:0:0:
256,192,412541,5,8,0:0:0:0:
256,192,412581,5,8,0:0:0:0:
256,192,412620,5,8,0:0:0:0:
256,192,412660,5,0,0:0:0:0:
256,192,412739,5,0,0:0:0:0:
256,192,412818,5,8,0:0:0:0:
256,192,412897,5,0,0:0:0:0:
256,192,412936,5,0,0:0:0:0:
256,192,412976,5,8,0:0:0:0:
256,192,413055,5,8,0:0:0:0:
256,192,413134,5,0,0:0:0:0:
256,192,413173,5,0,0:0:0:0:
256,192,413212,5,8,0:0:0:0:
256,192,413252,5,8,0:0:0:0:
256,192,413291,5,0,0:0:0:0:
256,192,413370,5,0,0:0:0:0:
256,192,413449,5,8,0:0:0:0:
256,192,413528,5,0,0:0:0:0:
256,192,413568,5,0,0:0:0:0:
256,192,413607,5,8,0:0:0:0:
256,192,413686,5,0,0:0:0:0:
256,192,413765,5,8,0:0:0:0:
256,192,413844,5,8,0:0:0:0:
256,192,413884,5,8,0:0:0:0:
256,192,413923,5,0,0:0:0:0:
256,192,414002,5,8,0:0:0:0:
256,192,414041,5,0,0:0:0:0:
256,192,414081,5,0,0:0:0:0:
256,192,414160,5,0,0:0:0:0:
256,192,414239,5,8,0:0:0:0:
256,192,414278,5,8,0:0:0:0:
256,192,414318,5,8,0:0:0:0:
256,192,414357,5,8,0:0:0:0:
256,192,414397,5,0,0:0:0:0:
256,192,414476,5,8,0:0:0:0:
256,192,414555,5,0,0:0:0:0:
256,192,414634,5,0,0:0:0:0:
256,192,414673,5,0,0:0:0:0:
256,192,414712,5,8,0:0:0:0:
256,192,414791,5,0,0:0:0:0:
256,192,414870,5,8,0:0:0:0:
256,192,414897,5,8,0:0:0:0:
256,192,414923,5,8,0:0:0:0:
256,192,414949,5,8,0:0:0:0:
256,192,415028,5,0,0:0:0:0:
256,192,415055,5,0,0:0:0:0:
256,192,415081,5,0,0:0:0:0:
256,192,415107,5,0,0:0:0:0:
256,192,415186,5,12,0:0:0:0:
256,192,415265,5,0,0:0:0:0:
256,192,415344,5,8,0:0:0:0:
256,192,415423,5,0,0:0:0:0:
256,192,415462,5,0,0:0:0:0:
256,192,415502,5,8,0:0:0:0:
256,192,415581,5,0,0:0:0:0:
256,192,415660,5,8,0:0:0:0:
256,192,415699,5,8,0:0:0:0:
256,192,415739,5,0,0:0:0:0:
256,192,415778,5,0,0:0:0:0:
256,192,415818,5,8,0:0:0:0:
256,192,415897,5,0,0:0:0:0:
256,192,415976,5,8,0:0:0:0:
256,192,416055,5,0,0:0:0:0:
256,192,416094,5,0,0:0:0:0:
256,192,416134,5,8,0:0:0:0:
256,192,416212,5,8,0:0:0:0:
256,192,416291,5,0,0:0:0:0:
256,192,416331,5,0,0:0:0:0:
256,192,416370,5,8,0:0:0:0:
256,192,416410,5,8,0:0:0:0:
256,192,416449,5,0,0:0:0:0:
256,192,416528,5,0,0:0:0:0:
256,192,416568,5,0,0:0:0:0:
256,192,416607,5,8,0:0:0:0:
256,192,416686,5,0,0:0:0:0:
256,192,416765,5,8,0:0:0:0:
256,192,416805,5,8,0:0:0:0:
256,192,416844,5,0,0:0:0:0:
256,192,416884,5,0,0:0:0:0:
256,192,416923,5,8,0:0:0:0:
256,192,417002,5,0,0:0:0:0:
256,192,417081,5,8,0:0:0:0:
256,192,417120,5,8,0:0:0:0:
256,192,417160,5,0,0:0:0:0:
256,192,417239,5,0,0:0:0:0:
256,192,417318,5,8,0:0:0:0:
256,192,417357,5,0,0:0:0:0:
256,192,417397,5,0,0:0:0:0:
256,192,417476,5,0,0:0:0:0:
256,192,417555,5,8,0:0:0:0:
256,192,417594,5,8,0:0:0:0:
256,192,417634,5,8,0:0:0:0:
256,192,417673,5,8,0:0:0:0:
256,192,417712,5,0,0:0:0:0:
256,192,417791,5,0,0:0:0:0:
256,192,417870,5,8,0:0:0:0:
256,192,417949,5,0,0:0:0:0:
256,192,417989,5,0,0:0:0:0:
256,192,418028,5,8,0:0:0:0:
256,192,418107,5,0,0:0:0:0:
256,192,418186,5,8,0:0:0:0:
256,192,418226,5,8,0:0:0:0:
256,192,418265,5,0,0:0:0:0:
256,192,418305,5,0,0:0:0:0:
256,192,418344,5,8,0:0:0:0:
256,192,418423,5,0,0:0:0:0:
256,192,418502,5,8,0:0:0:0:
256,192,418581,5,0,0:0:0:0:
256,192,418620,5,0,0:0:0:0:
256,192,418660,5,8,0:0:0:0:
256,192,418739,5,8,0:0:0:0:
256,192,418818,5,0,0:0:0:0:
256,192,418897,5,8,0:0:0:0:
256,192,418936,5,8,0:0:0:0:
256,192,418976,5,0,0:0:0:0:
256,192,419002,5,0,0:0:0:0:
256,192,419028,5,8,0:0:0:0:
256,192,419055,5,8,0:0:0:0:
256,192,419134,5,8,0:0:0:0:
256,192,419212,5,0,0:0:0:0:
256,192,419239,5,0,0:0:0:0:
256,192,419265,5,8,0:0:0:0:
256,192,419291,5,8,0:0:0:0:
256,192,419370,5,8,0:0:0:0:
256,192,419449,5,0,0:0:0:0:
256,192,419476,5,0,0:0:0:0:
256,192,419502,5,8,0:0:0:0:
256,192,419528,5,8,0:0:0:0:
256,192,419607,5,8,0:0:0:0:
256,192,419686,5,0,0:0:0:0:
256,192,419726,5,0,0:0:0:0:
256,192,419765,5,8,0:0:0:0:
256,192,419844,5,0,0:0:0:0:
256,192,419923,5,8,0:0:0:0:
256,192,419949,5,8,0:0:0:0:
256,192,419976,5,0,0:0:0:0:
256,192,420002,5,0,0:0:0:0:
256,192,420081,5,8,0:0:0:0:
256,192,420107,5,8,0:0:0:0:
256,192,420134,5,0,0:0:0:0:
256,192,420160,5,0,0:0:0:0:
256,192,420239,5,12,0:0:0:0:
256,192,420318,5,0,0:0:0:0:
256,192,420397,5,8,0:0:0:0:
256,192,420476,5,0,0:0:0:0:
256,192,420515,5,0,0:0:0:0:
256,192,420555,5,8,0:0:0:0:
256,192,420634,5,0,0:0:0:0:
256,192,420712,5,8,0:0:0:0:
256,192,420752,5,8,0:0:0:0:
256,192,420791,5,0,0:0:0:0:
256,192,420831,5,0,0:0:0:0:
256,192,420870,5,8,0:0:0:0:
256,192,420949,5,0,0:0:0:0:
256,192,421028,5,8,0:0:0:0:
256,192,421107,5,0,0:0:0:0:
256,192,421147,5,0,0:0:0:0:
256,192,421186,5,8,0:0:0:0:
256,192,421265,5,8,0:0:0:0:
256,192,421344,5,0,0:0:0:0:
256,192,421384,5,0,0:0:0:0:
256,192,421423,5,8,0:0:0:0:
256,192,421462,5,8,0:0:0:0:
256,192,421502,5,0,0:0:0:0:
256,192,421581,5,0,0:0:0:0:
256,192,421660,5,8,0:0:0:0:
256,192,421739,5,0,0:0:0:0:
256,192,421778,5,0,0:0:0:0:
256,192,421818,5,8,0:0:0:0:
256,192,421897,5,0,0:0:0:0:
256,192,421976,5,8,0:0:0:0:
256,192,422015,5,8,0:0:0:0:
256,192,422055,5,8,0:0:0:0:
256,192,422094,5,8,0:0:0:0:
256,192,422134,5,0,0:0:0:0:
256,192,422212,5,0,0:0:0:0:
256,192,422291,5,8,0:0:0:0:
256,192,422370,5,0,0:0:0:0:
256,192,422410,5,0,0:0:0:0:
256,192,422449,5,8,0:0:0:0:
256,192,422528,5,0,0:0:0:0:
256,192,422607,5,8,0:0:0:0:
256,192,422647,5,8,0:0:0:0:
256,192,422686,5,0,0:0:0:0:
256,192,422726,5,0,0:0:0:0:
256,192,422765,5,8,0:0:0:0:
256,192,422844,5,0,0:0:0:0:
256,192,422923,5,8,0:0:0:0:
256,192,423002,5,0,0:0:0:0:
256,192,423041,5,0,0:0:0:0:
256,192,423081,5,8,0:0:0:0:
256,192,423160,5,0,0:0:0:0:
256,192,423239,5,8,0:0:0:0:
256,192,423278,5,8,0:0:0:0:
256,192,423318,5,0,0:0:0:0:
256,192,423397,5,8,0:0:0:0:
256,192,423476,5,0,0:0:0:0:
256,192,423515,5,0,0:0:0:0:
256,192,423555,5,8,0:0:0:0:
256,192,423634,5,0,0:0:0:0:
256,192,423712,5,8,0:0:0:0:
256,192,423752,5,0,0:0:0:0:
256,192,423791,5,0,0:0:0:0:
256,192,423870,5,8,0:0:0:0:
256,192,423910,5,8,0:0:0:0:
256,192,423949,5,8,0:0:0:0:
256,192,423989,5,8,0:0:0:0:
256,192,424028,5,0,0:0:0:0:
256,192,424107,5,8,0:0:0:0:
256,192,424147,5,8,0:0:0:0:
256,192,424186,5,0,0:0:0:0:
256,192,424265,5,0,0:0:0:0:
256,192,424344,5,8,0:0:0:0:
256,192,424384,5,8,0:0:0:0:
256,192,424423,5,0,0:0:0:0:
256,192,424462,5,0,0:0:0:0:
256,192,424502,5,8,0:0:0:0:
256,192,424581,5,0,0:0:0:0:
256,192,424660,5,8,0:0:0:0:
256,192,424739,5,0,0:0:0:0:
256,192,424778,5,0,0:0:0:0:
256,192,424818,5,8,0:0:0:0:
256,192,424897,5,0,0:0:0:0:
256,192,424976,5,8,0:0:0:0:
256,192,425002,5,8,0:0:0:0:
256,192,425028,5,8,0:0:0:0:
256,192,425055,5,8,0:0:0:0:
256,192,425134,5,0,0:0:0:0:
256,192,425160,5,0,0:0:0:0:
256,192,425186,5,0,0:0:0:0:
256,192,425212,5,0,0:0:0:0:
256,192,425291,5,8,0:0:0:0:
256,192,425370,5,0,0:0:0:0:
256,192,425449,5,8,0:0:0:0:
256,192,425528,5,0,0:0:0:0:
256,192,425568,5,0,0:0:0:0:
256,192,425607,5,8,0:0:0:0:
256,192,425686,5,0,0:0:0:0:
256,192,425765,5,8,0:0:0:0:
256,192,425805,5,8,0:0:0:0:
256,192,425844,5,0,0:0:0:0:
256,192,425884,5,0,0:0:0:0:
256,192,425923,5,8,0:0:0:0:
256,192,426002,5,0,0:0:0:0:
256,192,426081,5,8,0:0:0:0:
256,192,426160,5,0,0:0:0:0:
256,192,426199,5,0,0:0:0:0:
256,192,426239,5,8,0:0:0:0:
256,192,426318,5,0,0:0:0:0:
256,192,426397,5,8,0:0:0:0:
256,192,426436,5,8,0:0:0:0:
256,192,426476,5,8,0:0:0:0:
256,192,426515,5,8,0:0:0:0:
256,192,426555,5,0,0:0:0:0:
256,192,426634,5,0,0:0:0:0:
256,192,426712,5,8,0:0:0:0:
256,192,426791,5,0,0:0:0:0:
256,192,426831,5,0,0:0:0:0:
256,192,426870,5,8,0:0:0:0:
256,192,426949,5,0,0:0:0:0:
256,192,427028,5,8,0:0:0:0:
256,192,427068,5,8,0:0:0:0:
256,192,427107,5,0,0:0:0:0:
256,192,427147,5,0,0:0:0:0:
256,192,427186,5,8,0:0:0:0:
256,192,427265,5,0,0:0:0:0:
256,192,427344,5,8,0:0:0:0:
256,192,427423,5,0,0:0:0:0:
256,192,427462,5,0,0:0:0:0:
256,192,427502,5,8,0:0:0:0:
256,192,427581,5,0,0:0:0:0:
256,192,427660,5,8,0:0:0:0:
256,192,427699,5,8,0:0:0:0:
256,192,427739,5,0,0:0:0:0:
256,192,427778,5,0,0:0:0:0:
256,192,427818,5,8,0:0:0:0:
256,192,427857,5,8,0:0:0:0:
256,192,427897,5,8,0:0:0:0:
256,192,427936,5,8,0:0:0:0:
256,192,427976,5,0,0:0:0:0:
256,192,428055,5,8,0:0:0:0:
256,192,428094,5,8,0:0:0:0:
256,192,428134,5,0,0:0:0:0:
256,192,428212,5,0,0:0:0:0:
256,192,428291,5,8,0:0:0:0:
256,192,428331,5,8,0:0:0:0:
256,192,428370,5,8,0:0:0:0:
256,192,428410,5,8,0:0:0:0:
256,192,428449,5,0,0:0:0:0:
256,192,428528,5,8,0:0:0:0:
256,192,428568,5,8,0:0:0:0:
256,192,428607,5,0,0:0:0:0:
256,192,428686,5,0,0:0:0:0:
256,192,428766,5,8,0:0:0:0:
256,192,428805,5,8,0:0:0:0:
256,192,428845,5,8,0:0:0:0:
256,192,428884,5,8,0:0:0:0:
256,192,428923,5,0,0:0:0:0:
256,192,429002,5,8,0:0:0:0:
256,192,429081,5,0,0:0:0:0:
256,192,429120,5,0,0:0:0:0:
256,192,429160,5,8,0:0:0:0:
256,192,429200,5,8,0:0:0:0:
256,192,429239,5,0,0:0:0:0:
256,192,429278,5,0,0:0:0:0:
256,192,429318,5,8,0:0:0:0:
256,192,429357,5,8,0:0:0:0:
256,192,429397,5,0,0:0:0:0:
256,192,429436,5,0,0:0:0:0:
256,192,429476,5,8,0:0:0:0:
256,192,429515,5,8,0:0:0:0:
256,192,429555,5,0,0:0:0:0:
256,192,429595,5,0,0:0:0:0:
256,192,429633,5,8,0:0:0:0:
256,192,429673,5,8,0:0:0:0:
256,192,429712,5,0,0:0:0:0:
256,192,429752,5,8,0:0:0:0:
256,192,429791,5,0,0:0:0:0:
256,192,429831,5,8,0:0:0:0:
256,192,429869,5,0,0:0:0:0:
256,192,429910,5,8,0:0:0:0:
256,192,429949,5,0,0:0:0:0:
256,192,429989,5,8,0:0:0:0:
256,192,430029,5,0,0:0:0:0:
256,192,430068,5,8,0:0:0:0:
256,192,430107,5,0,0:0:0:0:
256,192,430147,5,8,0:0:0:0:
256,192,430186,5,0,0:0:0:0:
256,192,430226,5,8,0:0:0:0:
256,192,430265,5,0,0:0:0:0:
256,192,430305,5,8,0:0:0:0:
256,192,430344,5,4,0:0:0:0:
256,192,430423,12,0,430818,0:0:0:0:
256,192,430976,5,12,0:0:0:0:
256,192,431291,5,0,0:0:0:0:
256,192,431449,5,0,0:0:0:0:
256,192,431607,5,8,0:0:0:0:
256,192,432555,5,0,0:0:0:0:
256,192,432712,5,0,0:0:0:0:
256,192,432870,5,8,0:0:0:0:
256,192,433344,5,8,0:0:0:0:
256,192,433502,5,8,0:0:0:0:
256,192,434765,5,8,0:0:0:0:
256,192,435081,5,8,0:0:0:0:
256,192,435397,5,8,0:0:0:0:
256,192,436660,5,8,0:0:0:0:
256,192,436818,5,8,0:0:0:0:
256,192,436976,5,0,0:0:0:0:
256,192,437133,5,8,0:0:0:0:
256,192,437291,5,0,0:0:0:0:
256,192,437528,5,8,0:0:0:0:
256,192,437765,5,8,0:0:0:0:
256,192,437923,5,0,0:0:0:0:
256,192,439818,5,8,0:0:0:0:
256,192,440133,5,8,0:0:0:0:
256,192,440449,5,4,0:0:0:0:
256,192,441397,5,8,0:0:0:0:
256,192,441712,5,0,0:0:0:0:
256,192,442186,5,8,0:0:0:0:
256,192,442660,5,0,0:0:0:0:
256,192,442818,5,0,0:0:0:0:
256,192,442976,5,8,0:0:0:0:
256,192,443133,5,8,0:0:0:0:
256,192,443291,5,0,0:0:0:0:
256,192,443449,5,8,0:0:0:0:
256,192,443607,5,0,0:0:0:0:
256,192,443765,5,0,0:0:0:0:
256,192,444081,5,8,0:0:0:0:
256,192,444397,5,8,0:0:0:0:
256,192,444555,5,0,0:0:0:0:
256,192,444712,5,0,0:0:0:0:
256,192,444870,5,8,0:0:0:0:
256,192,445028,5,0,0:0:0:0:
256,192,445344,5,8,0:0:0:0:
256,192,445502,5,0,0:0:0:0:
256,192,446449,5,0,0:0:0:0:
256,192,446607,5,0,0:0:0:0:
256,192,446765,5,8,0:0:0:0:
256,192,447712,5,0,0:0:0:0:
256,192,448028,5,8,0:0:0:0:
256,192,448502,5,8,0:0:0:0:
256,192,448976,5,0,0:0:0:0:
256,192,449923,5,0,0:0:0:0:
256,192,450239,5,8,0:0:0:0:
256,192,450555,5,4,0:0:0:0:
256,192,451502,5,0,0:0:0:0:
256,192,451660,5,0,0:0:0:0:
256,192,451818,5,8,0:0:0:0:
256,192,452766,5,0,0:0:0:0:
256,192,452923,5,0,0:0:0:0:
256,192,453081,5,8,0:0:0:0:
256,192,453555,5,8,0:0:0:0:
256,192,453713,5,8,0:0:0:0:
256,192,454976,5,8,0:0:0:0:
256,192,455292,5,8,0:0:0:0:
256,192,455608,5,8,0:0:0:0:
256,192,456871,5,8,0:0:0:0:
256,192,457029,5,8,0:0:0:0:
256,192,457187,5,0,0:0:0:0:
256,192,457344,5,8,0:0:0:0:
256,192,457502,5,0,0:0:0:0:
256,192,457739,5,8,0:0:0:0:
256,192,457976,5,8,0:0:0:0:
256,192,458134,5,0,0:0:0:0:
256,192,460029,5,8,0:0:0:0:
256,192,460344,5,8,0:0:0:0:
256,192,460660,5,4,0:0:0:0:
256,192,461608,5,8,0:0:0:0:
256,192,461923,5,0,0:0:0:0:
256,192,462397,5,8,0:0:0:0:
256,192,462871,5,0,0:0:0:0:
256,192,463029,5,0,0:0:0:0:
256,192,463187,5,8,0:0:0:0:
256,192,463344,5,8,0:0:0:0:
256,192,463502,5,0,0:0:0:0:
256,192,463660,5,8,0:0:0:0:
256,192,463818,5,0,0:0:0:0:
256,192,463976,5,0,0:0:0:0:
256,192,464292,5,8,0:0:0:0:
256,192,464608,5,8,0:0:0:0:
256,192,464766,5,0,0:0:0:0:
256,192,464923,5,0,0:0:0:0:
256,192,465081,5,8,0:0:0:0:
256,192,465239,5,0,0:0:0:0:
256,192,465555,5,8,0:0:0:0:
256,192,465713,5,0,0:0:0:0:
256,192,466660,5,0,0:0:0:0:
256,192,466818,5,0,0:0:0:0:
256,192,466976,5,8,0:0:0:0:
256,192,467923,5,0,0:0:0:0:
256,192,468239,5,8,0:0:0:0:
256,192,468713,5,8,0:0:0:0:
256,192,469187,5,0,0:0:0:0:
256,192,470134,5,0,0:0:0:0:
256,192,470450,5,8,0:0:0:0:
256,192,470766,5,4,0:0:0:0:
256,192,471712,5,0,0:0:0:0:
256,192,471870,5,0,0:0:0:0:
256,192,472028,5,8,0:0:0:0:
256,192,472976,5,0,0:0:0:0:
256,192,473133,5,0,0:0:0:0:
256,192,473291,5,8,0:0:0:0:
256,192,473765,5,8,0:0:0:0:
256,192,473923,5,8,0:0:0:0:
256,192,475186,5,8,0:0:0:0:
256,192,475502,5,8,0:0:0:0:
256,192,475818,5,8,0:0:0:0:
256,192,477081,5,8,0:0:0:0:
256,192,477239,5,8,0:0:0:0:
256,192,477397,5,0,0:0:0:0:
256,192,477554,5,8,0:0:0:0:
256,192,477712,5,0,0:0:0:0:
256,192,477949,5,8,0:0:0:0:
256,192,478186,5,8,0:0:0:0:
256,192,478344,5,0,0:0:0:0:
256,192,480239,5,8,0:0:0:0:
256,192,480554,5,8,0:0:0:0:
256,192,480870,5,4,0:0:0:0:
256,192,481818,5,8,0:0:0:0:
256,192,482133,5,0,0:0:0:0:
256,192,482607,5,8,0:0:0:0:
256,192,483081,5,0,0:0:0:0:
256,192,483239,5,0,0:0:0:0:
256,192,483397,5,8,0:0:0:0:
256,192,483554,5,8,0:0:0:0:
256,192,483712,5,0,0:0:0:0:
256,192,483870,5,8,0:0:0:0:
256,192,484028,5,0,0:0:0:0:
256,192,484186,5,0,0:0:0:0:
256,192,484502,5,8,0:0:0:0:
256,192,484818,5,8,0:0:0:0:
256,192,484976,5,0,0:0:0:0:
256,192,485133,5,0,0:0:0:0:
256,192,485291,5,8,0:0:0:0:
256,192,485449,5,0,0:0:0:0:
256,192,485765,5,8,0:0:0:0:
256,192,485923,5,0,0:0:0:0:
256,192,486870,5,0,0:0:0:0:
256,192,487028,5,0,0:0:0:0:
256,192,487186,5,8,0:0:0:0:
256,192,488133,5,0,0:0:0:0:
256,192,488449,5,8,0:0:0:0:
256,192,488923,5,8,0:0:0:0:
256,192,489397,5,0,0:0:0:0:
256,192,490344,5,0,0:0:0:0:
256,192,490660,5,0,0:0:0:0:
256,192,491607,5,8,0:0:0:0:
