osu file format v14

[General]
AudioFilename: audio.mp3
AudioLeadIn: 0
PreviewTime: 231097
Countdown: 0
SampleSet: Normal
StackLeniency: 0.2
Mode: 1
LetterboxInBreaks: 0
WidescreenStoryboard: 0

[Editor]
Bookmarks: 24294,79794,85794,91794,97794,103794,115794,141681,178842,232430,253763,275096,280430,285763,291096,351469,388801,410134,415186,420239,425291
DistanceSpacing: 1
BeatDivisor: 4
GridSize: 32
TimelineZoom: 4.200001

[Metadata]
Title:Scattered Faith
TitleUnicode:Scattered Faith
Artist:Kurokotei
ArtistUnicode:黒皇帝
Creator:Vulkin
Version:Antinomia of the Powerful
Source:東方星蓮船 ~ Undefined Fantastic Object.
Tags:touhou project speedcore hijiri byakuren emotional skyscraper cosmic mind dialgadu77 Sayaka- marathon Kurokoutei rsi axer
BeatmapID:1929582
BeatmapSetID:924008

[Difficulty]
HPDrainRate:3
CircleSize:7
OverallDifficulty:9
ApproachRate:10
SliderMultiplier:1.4
SliderTickRate:1

[Events]
//Background and Video events
0,0,"bg.jpg",0,0
//Break Periods
2,36494,41844
2,42494,47844
2,60119,65094
2,129494,141231
2,179042,184585
2,185235,190779
//Storyboard Layer 0 (Background)
//Storyboard Layer 1 (Fail)
//Storyboard Layer 2 (Pass)
//Storyboard Layer 3 (Foreground)
//Storyboard Layer 4 (Overlay)
//Storyboard Sound Samples

[TimingPoints]
294,750,4,1,0,40,1,0
23731,-83.3333333333333,4,1,0,40,0,0
23919,-76.9230769230769,4,1,0,40,0,0
24106,-71.4285714285714,4,1,0,40,0,0
24294,-66.6666666666667,4,1,0,40,0,0
35919,-65.7894736842105,4,1,0,40,0,0
36012,-64.9350649350649,4,1,0,40,0,0
36106,-64.1025641025641,4,1,0,40,0,0
36200,-63.2911392405063,4,1,0,40,0,0
36294,-62.5,4,1,0,40,0,0
42294,-58.8235294117647,4,1,0,40,0,0
48294,-55.5555555555556,4,1,0,40,0,0
51294,-54.054054054054,4,1,0,40,0,0
54294,-52.6315789473684,4,1,0,40,0,0
55794,-51.9480519480519,4,1,0,40,0,0
57294,-51.2820512820513,4,1,0,40,0,0
58794,-50.6329113924051,4,1,0,40,0,0
60294,-50,4,1,0,40,0,0
63294,750,4,1,0,40,1,8
65544,-25,4,1,0,40,0,0
66294,375,4,1,0,50,1,0
67700,-100,4,1,0,55,0,0
69200,-100,4,1,0,60,0,0
70700,-100,4,1,0,65,0,0
72247,-100,4,1,0,70,0,0
73747,-100,4,1,0,75,0,0
75247,-100,4,1,0,80,0,0
76747,-100,4,1,0,85,0,0
78247,-100,4,1,0,90,0,0
78950,-90.9090909090909,4,1,0,90,0,0
79044,-83.3333333333333,4,1,0,90,0,0
79137,-76.9230769230769,4,1,0,90,0,0
79231,-71.4285714285714,4,1,0,90,0,0
79325,-66.6666666666667,4,1,0,90,0,0
79419,-62.5,4,1,0,90,0,0
79512,-58.8235294117647,4,1,0,90,0,0
79606,-55.5555555555556,4,1,0,90,0,0
79653,-54.054054054054,4,1,0,90,0,0
79700,-52.6315789473684,4,1,0,90,0,0
79747,-51.2820512820513,4,1,0,90,0,0
79794,187.5,4,1,0,95,1,0
103794,-100,4,1,0,95,0,1
115794,-100,4,1,0,95,0,0
115981,-105.263157894737,4,1,0,95,0,0
116169,-111.111111111111,4,1,0,95,0,0
116356,-117.647058823529,4,1,0,95,0,0
116450,-121.212121212121,4,1,0,95,0,0
116544,-125,4,1,0,95,0,0
116731,-133.333333333333,4,1,0,95,0,0
116919,-142.857142857143,4,1,0,95,0,0
120294,-133.333333333333,4,1,0,95,0,0
120950,-128.205128205128,4,1,0,95,0,0
120997,-126.582278481013,4,1,0,95,0,0
121044,-125,4,1,0,95,0,0
121700,-120.481927710843,4,1,0,95,0,0
121747,-119.047619047619,4,1,0,95,0,0
121794,-117.647058823529,4,1,0,95,0,0
122450,-113.636363636364,4,1,0,95,0,0
122497,-112.359550561798,4,1,0,95,0,0
122544,-111.111111111111,4,1,0,95,0,0
123106,-109.89010989011,4,1,0,95,0,0
123153,-108.695652173913,4,1,0,95,0,0
123200,-107.52688172043,4,1,0,95,0,0
123247,-106.382978723404,4,1,0,95,0,0
123294,-105.263157894737,4,1,0,95,0,0
123950,-102.040816326531,4,1,0,95,0,0
123997,-101.010101010101,4,1,0,95,0,0
124044,-100,4,1,0,95,0,0
124606,-99.009900990099,4,1,0,95,0,0
124653,-98.0392156862745,4,1,0,95,0,0
124700,-97.0873786407767,4,1,0,95,0,0
124747,-96.1538461538461,4,1,0,95,0,0
124794,-95.2380952380952,4,1,0,95,0,0
126387,-50,4,1,0,95,0,0
126481,-100,4,1,0,95,0,0
128731,-25,4,1,0,95,0,0
129294,774.193548387097,4,1,0,95,1,0
129294,-25,4,1,0,95,0,0
129487,-100,4,1,0,95,0,0
201100,-95.2380952380952,4,1,0,95,0,0
201294,-90.9090909090909,4,1,0,95,0,0
201681,-80,4,1,0,95,0,0
202068,-71.4285714285714,4,1,0,95,0,0
202197,-68.9655172413793,4,1,0,95,0,0
202326,-66.6666666666667,4,1,0,95,0,0
202455,-64.5161290322581,4,1,0,95,0,0
202584,-62.5,4,1,0,95,0,0
202713,-60.6060606060606,4,1,0,95,0,0
202842,-58.8235294117647,4,1,0,95,0,0
202971,-57.1428571428571,4,1,0,95,0,0
203100,-55.5555555555556,4,1,0,95,0,0
203229,-54.054054054054,4,1,0,95,0,0
203358,-52.6315789473684,4,1,0,95,0,0
203487,-51.2820512820513,4,1,0,95,0,0
203616,387.096774193548,4,1,0,100,1,0
205164,352.941176470588,4,1,0,100,1,0
205164,-103.949044585987,4,1,0,100,0,0
206575,324.324324324324,4,1,0,100,1,0
206575,-107.506053268765,4,1,0,100,0,0
207872,300,4,1,0,100,1,0
207872,-110.726643598616,4,1,0,100,0,0
209072,279.06976744186,4,1,0,100,1,0
209072,-113.656387665198,4,1,0,100,0,0
210188,260.869565217391,4,1,0,100,1,0
210188,-116.332982086407,4,1,0,100,0,0
211231,244.897959183673,4,1,0,100,1,0
211231,-118.787878787879,4,1,0,100,0,0
212210,230.769230769231,4,1,0,100,1,0
212210,-121.047526673133,4,1,0,100,0,0
213133,218.181818181818,4,1,0,100,1,0
213133,-123.134328358209,4,1,0,100,0,0
214005,206.896551724138,4,1,0,100,1,0
214005,-125.067385444744,4,1,0,100,0,0
214832,196.72131147541,4,1,0,100,1,0
214832,-126.86308492201,4,1,0,100,0,0
215618,187.5,4,1,0,100,1,0
215618,-128.535564853557,4,1,0,100,0,0
216368,179.10447761194,4,1,0,100,1,0
216368,-130.097087378641,4,1,0,100,0,0
217084,171.428571428571,4,1,0,100,1,0
217084,-131.558339859045,4,1,0,100,0,0
217769,164.383561643836,4,1,0,100,1,0
217769,-132.928679817906,4,1,0,100,0,0
218426,157.894736842105,4,1,0,100,1,0
218426,-134.216335540839,4,1,0,100,0,0
219057,151.898734177215,4,1,0,100,1,0
219057,-135.428571428571,4,1,0,100,0,0
219664,146.341463414634,4,1,0,100,1,0
219664,-136.571825121443,4,1,0,100,0,0
220249,141.176470588235,4,1,0,100,1,0
220249,-137.651821862348,4,1,0,100,0,0
220813,136.363636363636,4,1,0,100,1,0
220813,-138.673670387393,4,1,0,100,0,0
221358,131.868131868132,4,1,0,100,1,0
221358,-139.641943734015,4,1,0,100,0,0
221885,127.659574468085,4,1,0,100,1,0
221885,-140.560747663551,4,1,0,100,0,0
222395,123.711340206186,4,1,0,100,1,0
222395,-141.433778857837,4,1,0,100,0,0
222889,120,4,1,0,100,1,0
222889,-142.26437462952,4,1,0,100,0,0
223369,116.504854368932,4,1,0,100,1,0
223369,-143.055555555555,4,1,0,100,0,0
227097,666.666666666667,4,1,0,100,1,0
227097,-25,4,1,0,100,0,0
227180,-25,4,1,0,30,0,0
227430,-100,4,1,0,30,0,0
230763,-100,4,1,0,80,0,0
232430,166.666666666667,4,1,0,90,1,1
253763,-100,4,1,0,90,0,0
275096,-100,4,1,0,90,0,1
296430,387.096774193548,4,1,0,90,1,0
296430,-43.0555555555556,4,1,0,90,0,0
297204,-66.6666666666667,4,1,0,40,0,0
297591,-71.4285714285714,4,1,0,40,0,0
297784,-74.0740740740741,4,1,0,40,0,0
297978,-76.9230769230769,4,1,0,40,0,0
298365,-83.3333333333333,4,1,0,40,0,0
298752,-90.9090909090909,4,1,0,40,0,0
299139,-100,4,1,0,40,0,0
319462,-100,4,1,0,10,0,0
320623,-100,4,1,0,40,0,0
321204,352.941176470588,4,1,0,90,1,0
332145,-99.4152046783626,4,1,0,90,0,0
332233,-98.8372093023256,4,1,0,90,0,0
332321,-98.2658959537572,4,1,0,90,0,0
332409,-97.7011494252874,4,1,0,90,0,0
332498,342.857142857143,4,1,0,90,1,0
343126,-99.4318181818182,4,1,0,90,0,0
343212,-98.8700564971751,4,1,0,90,0,0
343298,-98.314606741573,4,1,0,90,0,0
343383,-97.7653631284916,4,1,0,90,0,0
343469,333.333333333333,4,1,0,90,1,0
362135,666.666666666667,4,1,0,90,1,0
362135,-50,4,1,0,90,0,0
362218,-50,4,1,0,30,0,0
362468,-100,4,1,0,30,0,0
365801,-100,4,1,0,80,0,0
367468,166.666666666667,4,1,0,90,1,1
388801,-100,4,1,0,90,0,0
409759,-99.502487562189,4,1,0,90,0,0
409801,-99.009900990099,4,1,0,90,0,0
409843,-98.5221674876847,4,1,0,90,0,0
409884,-98.0392156862745,4,1,0,90,0,0
409926,-97.5609756097561,4,1,0,90,0,0
409968,-97.0873786407767,4,1,0,90,0,0
410009,-96.6183574879227,4,1,0,90,0,0
410051,-96.1538461538461,4,1,0,90,0,0
410093,-95.6937799043062,4,1,0,90,0,0
410134,157.894736842105,4,1,0,90,1,1
430344,-100,4,1,0,90,0,0
430818,-111.111111111111,4,1,0,90,0,0
450712,-114.285714285714,4,1,0,83,0,0
470923,-133.333333333333,4,1,0,75,0,0
481028,-160,4,1,0,72,0,0
481976,-160,4,1,0,70,0,0
483081,-160,4,1,0,69,0,0
483239,-160,4,1,0,67,0,0
483397,-160,4,1,0,66,0,0
483555,-160,4,1,0,65,0,0
483712,-160,4,1,0,64,0,0
483870,-160,4,1,0,62,0,0
484028,-160,4,1,0,60,0,0
489555,-160,4,1,0,20,0,0

[HitObjects]
256,192,294,5,0,0:0:0:0:
256,192,1794,1,8,0:0:0:0:
256,192,2544,1,8,0:0:0:0:
256,192,3294,1,0,0:0:0:0:
256,192,4606,1,0,0:0:0:0:
256,192,4700,1,0,0:0:0:0:
256,192,4794,1,8,0:0:0:0:
256,192,4981,1,0,0:0:0:0:
256,192,5356,1,0,0:0:0:0:
256,192,5731,1,8,0:0:0:0:
256,192,6106,1,0,0:0:0:0:
256,192,6294,1,8,0:0:0:0:
256,192,7794,1,8,0:0:0:0:
256,192,8544,1,8,0:0:0:0:
256,192,9294,1,0,0:0:0:0:
256,192,10606,1,0,0:0:0:0:
256,192,10700,1,0,0:0:0:0:
256,192,10794,1,8,0:0:0:0:
256,192,10981,1,0,0:0:0:0:
256,192,11356,1,0,0:0:0:0:
256,192,11731,1,8,0:0:0:0:
256,192,12106,1,8,0:0:0:0:
256,192,12294,1,0,0:0:0:0:
256,192,12669,1,0,0:0:0:0:
256,192,13044,1,8,0:0:0:0:
256,192,13419,1,0,0:0:0:0:
256,192,13794,1,8,0:0:0:0:
256,192,14356,1,8,0:0:0:0:
256,192,14544,1,8,0:0:0:0:
256,192,14919,1,0,0:0:0:0:
256,192,15294,1,8,0:0:0:0:
256,192,15856,1,0,0:0:0:0:
256,192,16044,1,8,0:0:0:0:
256,192,16419,1,0,0:0:0:0:
256,192,16794,1,8,0:0:0:0:
256,192,17169,1,8,0:0:0:0:
256,192,17356,1,8,0:0:0:0:
256,192,17544,1,0,0:0:0:0:
256,192,17919,1,0,0:0:0:0:
256,192,18294,1,8,0:0:0:0:
256,192,18856,1,8,0:0:0:0:
256,192,18950,1,0,0:0:0:0:
256,192,19044,1,8,0:0:0:0:
256,192,19137,1,8,0:0:0:0:
256,192,19231,1,0,0:0:0:0:
256,192,19419,1,0,0:0:0:0:
256,192,19606,1,8,0:0:0:0:
256,192,19700,1,8,0:0:0:0:
256,192,19794,1,8,0:0:0:0:
256,192,20356,1,0,0:0:0:0:
256,192,20450,1,0,0:0:0:0:
256,192,20544,1,8,0:0:0:0:
256,192,20637,1,8,0:0:0:0:
256,192,20731,1,0,0:0:0:0:
256,192,20919,1,0,0:0:0:0:
256,192,21106,1,8,0:0:0:0:
256,192,21294,1,0,0:0:0:0:
256,192,21669,1,8,0:0:0:0:
256,192,21856,1,0,0:0:0:0:
256,192,22419,1,0,0:0:0:0:
256,192,22606,1,8,0:0:0:0:
256,192,22700,1,0,0:0:0:0:
256,192,22794,1,8,0:0:0:0:
256,192,22887,1,8,0:0:0:0:
256,192,22981,1,0,0:0:0:0:
256,192,23169,1,0,0:0:0:0:
256,192,23356,1,8,0:0:0:0:
256,192,23450,1,8,0:0:0:0:
256,192,23544,1,0,0:0:0:0:
256,192,23731,1,0,0:0:0:0:
256,192,23919,1,8,0:0:0:0:
256,192,24106,1,8,0:0:0:0:
256,192,24294,1,0,0:0:0:0:
256,192,24669,1,0,0:0:0:0:
256,192,25044,1,8,0:0:0:0:
256,192,25419,1,0,0:0:0:0:
256,192,25606,1,8,0:0:0:0:
256,192,25794,1,0,0:0:0:0:
256,192,25981,1,8,0:0:0:0:
256,192,26169,1,0,0:0:0:0:
256,192,26356,1,8,0:0:0:0:
256,192,26450,1,0,0:0:0:0:
256,192,26544,1,8,0:0:0:0:
256,192,26637,1,8,0:0:0:0:
256,192,26731,1,0,0:0:0:0:
256,192,26919,1,0,0:0:0:0:
256,192,27106,1,8,0:0:0:0:
256,192,27294,1,0,0:0:0:0:
256,192,27669,1,0,0:0:0:0:
256,192,28044,1,8,0:0:0:0:
256,192,28419,1,0,0:0:0:0:
256,192,28606,1,8,0:0:0:0:
256,192,28700,1,8,0:0:0:0:
256,192,28794,1,0,0:0:0:0:
256,192,28981,1,8,0:0:0:0:
256,192,29169,1,0,0:0:0:0:
256,192,29356,1,0,0:0:0:0:
256,192,29450,1,0,0:0:0:0:
256,192,29544,1,8,0:0:0:0:
256,192,29731,1,8,0:0:0:0:
256,192,29919,1,0,0:0:0:0:
256,192,30106,1,8,0:0:0:0:
256,192,30294,1,0,0:0:0:0:
256,192,30669,1,0,0:0:0:0:
256,192,31044,1,8,0:0:0:0:
256,192,31419,1,0,0:0:0:0:
256,192,31606,1,8,0:0:0:0:
256,192,31794,1,0,0:0:0:0:
256,192,31981,1,8,0:0:0:0:
256,192,32169,1,0,0:0:0:0:
256,192,32544,1,8,0:0:0:0:
256,192,32919,1,0,0:0:0:0:
256,192,33106,1,8,0:0:0:0:
256,192,33294,1,0,0:0:0:0:
256,192,33669,1,0,0:0:0:0:
256,192,34044,1,8,0:0:0:0:
256,192,34419,1,0,0:0:0:0:
256,192,34606,1,8,0:0:0:0:
256,192,34700,1,8,0:0:0:0:
256,192,34794,1,0,0:0:0:0:
256,192,34981,1,8,0:0:0:0:
256,192,35169,1,0,0:0:0:0:
256,192,35356,1,0,0:0:0:0:
256,192,35450,1,0,0:0:0:0:
256,192,35544,1,8,0:0:0:0:
256,192,35731,1,8,0:0:0:0:
256,192,35919,1,0,0:0:0:0:
256,192,36012,1,0,0:0:0:0:
256,192,36106,1,0,0:0:0:0:
256,192,36200,1,0,0:0:0:0:
256,192,36294,1,12,0:0:0:0:
256,192,42294,5,12,0:0:0:0:
256,192,48294,5,12,0:0:0:0:
256,192,51294,1,12,0:0:0:0:
256,192,54294,1,12,0:0:0:0:
256,192,55794,1,12,0:0:0:0:
256,192,57294,1,12,0:0:0:0:
256,192,58044,1,12,0:0:0:0:
256,192,58794,1,12,0:0:0:0:
256,192,59169,1,12,0:0:0:0:
256,192,59544,1,12,0:0:0:0:
256,192,59919,1,12,0:0:0:0:
256,192,65544,12,0,66106,0:0:0:0:
256,192,66294,5,4,0:0:0:0:
256,192,66669,1,8,0:0:0:0:
256,192,67231,1,0,0:0:0:0:
256,192,67419,1,8,0:0:0:0:
256,192,67606,1,8,0:0:0:0:
256,192,67794,1,0,0:0:0:0:
256,192,68169,1,8,0:0:0:0:
256,192,68731,1,0,0:0:0:0:
256,192,68919,1,8,0:0:0:0:
256,192,69294,1,0,0:0:0:0:
256,192,69669,1,8,0:0:0:0:
256,192,70044,1,8,0:0:0:0:
256,192,70325,1,0,0:0:0:0:
256,192,70419,1,8,0:0:0:0:
256,192,70606,1,8,0:0:0:0:
256,192,70794,1,0,0:0:0:0:
256,192,70981,1,0,0:0:0:0:
256,192,71169,1,8,0:0:0:0:
256,192,71544,1,0,0:0:0:0:
256,192,71731,1,0,0:0:0:0:
256,192,71919,1,8,0:0:0:0:
256,192,72106,1,0,0:0:0:0:
256,192,72200,1,0,0:0:0:0:
256,192,72294,1,0,0:0:0:0:
256,192,72481,1,0,0:0:0:0:
256,192,72669,1,8,0:0:0:0:
256,192,73044,1,0,0:0:0:0:
256,192,73231,1,0,0:0:0:0:
256,192,73419,1,8,0:0:0:0:
256,192,73606,1,0,0:0:0:0:
256,192,73700,1,0,0:0:0:0:
256,192,73794,1,0,0:0:0:0:
256,192,73981,1,0,0:0:0:0:
256,192,74169,1,8,0:0:0:0:
256,192,74356,1,0,0:0:0:0:
256,192,74450,1,0,0:0:0:0:
256,192,74544,1,8,0:0:0:0:
256,192,74731,1,0,0:0:0:0:
256,192,74919,1,8,0:0:0:0:
256,192,75012,1,8,0:0:0:0:
256,192,75106,1,0,0:0:0:0:
256,192,75200,1,0,0:0:0:0:
256,192,75294,1,8,0:0:0:0:
256,192,75481,1,0,0:0:0:0:
256,192,75575,1,0,0:0:0:0:
256,192,75669,1,8,0:0:0:0:
256,192,75856,1,8,0:0:0:0:
256,192,75950,1,0,0:0:0:0:
256,192,76044,1,0,0:0:0:0:
256,192,76137,1,8,0:0:0:0:
256,192,76231,1,0,0:0:0:0:
256,192,76419,1,0,0:0:0:0:
256,192,76606,1,8,0:0:0:0:
256,192,76700,1,0,0:0:0:0:
256,192,76794,1,8,0:0:0:0:
256,192,76981,1,0,0:0:0:0:
256,192,77169,1,8,0:0:0:0:
256,192,77356,1,8,0:0:0:0:
256,192,77450,1,8,0:0:0:0:
256,192,77544,1,0,0:0:0:0:
256,192,77637,1,8,0:0:0:0:
256,192,77731,1,0,0:0:0:0:
256,192,77919,1,8,0:0:0:0:
256,192,78106,1,0,0:0:0:0:
256,192,78200,1,0,0:0:0:0:
256,192,78294,1,8,0:0:0:0:
256,192,78481,1,0,0:0:0:0:
256,192,78669,1,8,0:0:0:0:
256,192,78856,1,8,0:0:0:0:
256,192,78950,1,8,0:0:0:0:
256,192,79044,1,0,0:0:0:0:
256,192,79137,1,8,0:0:0:0:
256,192,79231,1,0,0:0:0:0:
256,192,79325,1,0,0:0:0:0:
256,192,79419,1,8,0:0:0:0:
256,192,79512,1,0,0:0:0:0:
256,192,79606,1,8,0:0:0:0:
256,192,79653,1,8,0:0:0:0:
256,192,79700,1,0,0:0:0:0:
256,192,79747,1,0,0:0:0:0:
256,192,79794,1,12,0:0:0:0:
256,192,79887,1,0,0:0:0:0:
256,192,79934,1,0,0:0:0:0:
256,192,79981,1,8,0:0:0:0:
256,192,80075,1,0,0:0:0:0:
256,192,80169,1,8,0:0:0:0:
256,192,80262,1,0,0:0:0:0:
256,192,80356,1,8,0:0:0:0:
256,192,80450,1,8,0:0:0:0:
256,192,80497,1,8,0:0:0:0:
256,192,80544,1,0,0:0:0:0:
256,192,80637,1,0,0:0:0:0:
256,192,80684,1,0,0:0:0:0:
256,192,80731,1,8,0:0:0:0:
256,192,80825,1,0,0:0:0:0:
256,192,80919,1,8,0:0:0:0:
256,192,81012,1,0,0:0:0:0:
256,192,81106,1,8,0:0:0:0:
256,192,81153,1,0,0:0:0:0:
256,192,81200,1,8,0:0:0:0:
256,192,81247,1,8,0:0:0:0:
256,192,81294,1,0,0:0:0:0:
256,192,81387,1,0,0:0:0:0:
256,192,81434,1,0,0:0:0:0:
256,192,81481,1,8,0:0:0:0:
256,192,81575,1,0,0:0:0:0:
256,192,81669,1,8,0:0:0:0:
256,192,81762,1,0,0:0:0:0:
256,192,81856,1,8,0:0:0:0:
256,192,81950,1,8,0:0:0:0:
256,192,81997,1,8,0:0:0:0:
256,192,82044,1,0,0:0:0:0:
256,192,82137,1,0,0:0:0:0:
256,192,82184,1,0,0:0:0:0:
256,192,82231,1,8,0:0:0:0:
256,192,82325,1,0,0:0:0:0:
256,192,82419,1,8,0:0:0:0:
256,192,82465,1,8,0:0:0:0:
256,192,82512,1,0,0:0:0:0:
256,192,82559,1,0,0:0:0:0:
256,192,82606,1,8,0:0:0:0:
256,192,82700,1,8,0:0:0:0:
256,192,82794,1,0,0:0:0:0:
256,192,82887,1,0,0:0:0:0:
256,192,82934,1,0,0:0:0:0:
256,192,82981,1,8,0:0:0:0:
256,192,83075,1,0,0:0:0:0:
256,192,83169,1,8,0:0:0:0:
256,192,83262,1,0,0:0:0:0:
256,192,83356,1,8,0:0:0:0:
256,192,83450,1,8,0:0:0:0:
256,192,83497,1,8,0:0:0:0:
256,192,83544,1,0,0:0:0:0:
256,192,83637,1,0,0:0:0:0:
256,192,83684,1,0,0:0:0:0:
256,192,83731,1,8,0:0:0:0:
256,192,83825,1,0,0:0:0:0:
256,192,83919,1,8,0:0:0:0:
256,192,84012,1,0,0:0:0:0:
256,192,84106,1,8,0:0:0:0:
256,192,84153,1,0,0:0:0:0:
256,192,84200,1,8,0:0:0:0:
256,192,84247,1,8,0:0:0:0:
256,192,84294,1,0,0:0:0:0:
256,192,84387,1,0,0:0:0:0:
256,192,84434,1,0,0:0:0:0:
256,192,84481,1,8,0:0:0:0:
256,192,84575,1,0,0:0:0:0:
256,192,84669,1,8,0:0:0:0:
256,192,84762,1,0,0:0:0:0:
256,192,84856,1,8,0:0:0:0:
256,192,84950,1,8,0:0:0:0:
256,192,84997,1,8,0:0:0:0:
256,192,85044,1,0,0:0:0:0:
256,192,85137,1,0,0:0:0:0:
256,192,85184,1,0,0:0:0:0:
256,192,85231,1,8,0:0:0:0:
256,192,85325,1,0,0:0:0:0:
256,192,85419,1,8,0:0:0:0:
256,192,85450,1,8,0:0:0:0:
256,192,85481,1,8,0:0:0:0:
256,192,85512,1,8,0:0:0:0:
256,192,85606,1,0,0:0:0:0:
256,192,85637,1,0,0:0:0:0:
256,192,85669,1,0,0:0:0:0:
256,192,85700,1,0,0:0:0:0:
256,192,85794,1,12,0:0:0:0:
256,192,85887,1,0,0:0:0:0:
256,192,85934,1,0,0:0:0:0:
256,192,85981,1,8,0:0:0:0:
256,192,86075,1,0,0:0:0:0:
256,192,86169,1,8,0:0:0:0:
256,192,86262,1,0,0:0:0:0:
256,192,86356,1,8,0:0:0:0:
256,192,86450,1,8,0:0:0:0:
256,192,86497,1,8,0:0:0:0:
256,192,86544,1,0,0:0:0:0:
256,192,86637,1,0,0:0:0:0:
256,192,86684,1,0,0:0:0:0:
256,192,86731,1,8,0:0:0:0:
256,192,86825,1,0,0:0:0:0:
256,192,86919,1,8,0:0:0:0:
256,192,87012,1,0,0:0:0:0:
256,192,87106,1,8,0:0:0:0:
256,192,87153,1,0,0:0:0:0:
256,192,87200,1,8,0:0:0:0:
256,192,87247,1,8,0:0:0:0:
256,192,87294,1,0,0:0:0:0:
256,192,87387,1,0,0:0:0:0:
256,192,87434,1,0,0:0:0:0:
256,192,87481,1,8,0:0:0:0:
256,192,87575,1,0,0:0:0:0:
256,192,87669,1,8,0:0:0:0:
256,192,87762,1,0,0:0:0:0:
256,192,87856,1,8,0:0:0:0:
256,192,87950,1,8,0:0:0:0:
256,192,87997,1,8,0:0:0:0:
256,192,88044,1,0,0:0:0:0:
256,192,88137,1,0,0:0:0:0:
256,192,88184,1,0,0:0:0:0:
256,192,88231,1,8,0:0:0:0:
256,192,88325,1,0,0:0:0:0:
256,192,88419,1,8,0:0:0:0:
256,192,88465,1,8,0:0:0:0:
256,192,88512,1,0,0:0:0:0:
256,192,88559,1,0,0:0:0:0:
256,192,88606,1,8,0:0:0:0:
256,192,88700,1,8,0:0:0:0:
256,192,88794,1,0,0:0:0:0:
256,192,88887,1,0,0:0:0:0:
256,192,88934,1,0,0:0:0:0:
256,192,88981,1,8,0:0:0:0:
256,192,89075,1,0,0:0:0:0:
256,192,89169,1,8,0:0:0:0:
256,192,89262,1,0,0:0:0:0:
256,192,89356,1,8,0:0:0:0:
256,192,89450,1,8,0:0:0:0:
256,192,89497,1,8,0:0:0:0:
256,192,89544,1,0,0:0:0:0:
256,192,89637,1,0,0:0:0:0:
256,192,89684,1,0,0:0:0:0:
256,192,89731,1,8,0:0:0:0:
256,192,89825,1,0,0:0:0:0:
256,192,89919,1,8,0:0:0:0:
256,192,90012,1,0,0:0:0:0:
256,192,90106,1,8,0:0:0:0:
256,192,90153,1,0,0:0:0:0:
256,192,90200,1,8,0:0:0:0:
256,192,90247,1,8,0:0:0:0:
256,192,90294,1,0,0:0:0:0:
256,192,90387,1,0,0:0:0:0:
256,192,90434,1,0,0:0:0:0:
256,192,90481,1,8,0:0:0:0:
256,192,90575,1,0,0:0:0:0:
256,192,90669,1,8,0:0:0:0:
256,192,90762,1,0,0:0:0:0:
256,192,90856,1,8,0:0:0:0:
256,192,90950,1,8,0:0:0:0:
256,192,90997,1,8,0:0:0:0:
256,192,91044,1,0,0:0:0:0:
256,192,91137,1,0,0:0:0:0:
256,192,91184,1,0,0:0:0:0:
256,192,91231,1,8,0:0:0:0:
256,192,91278,1,8,0:0:0:0:
256,192,91325,1,0,0:0:0:0:
256,192,91419,1,8,0:0:0:0:
256,192,91450,1,8,0:0:0:0:
256,192,91481,1,8,0:0:0:0:
256,192,91512,1,0,0:0:0:0:
256,192,91559,1,0,0:0:0:0:
256,192,91606,1,8,0:0:0:0:
256,192,91700,1,0,0:0:0:0:
256,192,91794,1,12,0:0:0:0:
256,192,91887,1,0,0:0:0:0:
256,192,91934,1,0,0:0:0:0:
256,192,91981,1,8,0:0:0:0:
256,192,92075,1,0,0:0:0:0:
256,192,92169,1,8,0:0:0:0:
256,192,92262,1,0,0:0:0:0:
256,192,92356,1,8,0:0:0:0:
256,192,92450,1,8,0:0:0:0:
256,192,92497,1,8,0:0:0:0:
256,192,92544,1,0,0:0:0:0:
256,192,92637,1,0,0:0:0:0:
256,192,92684,1,0,0:0:0:0:
256,192,92731,1,8,0:0:0:0:
256,192,92825,1,0,0:0:0:0:
256,192,92919,1,8,0:0:0:0:
256,192,93012,1,0,0:0:0:0:
256,192,93106,1,8,0:0:0:0:
256,192,93153,1,0,0:0:0:0:
256,192,93200,1,8,0:0:0:0:
256,192,93247,1,8,0:0:0:0:
256,192,93294,1,0,0:0:0:0:
256,192,93387,1,0,0:0:0:0:
256,192,93434,1,0,0:0:0:0:
256,192,93481,1,8,0:0:0:0:
256,192,93575,1,0,0:0:0:0:
256,192,93669,1,8,0:0:0:0:
256,192,93762,1,0,0:0:0:0:
256,192,93856,1,8,0:0:0:0:
256,192,93950,1,8,0:0:0:0:
256,192,93997,1,8,0:0:0:0:
256,192,94044,1,0,0:0:0:0:
256,192,94137,1,0,0:0:0:0:
256,192,94184,1,0,0:0:0:0:
256,192,94231,1,8,0:0:0:0:
256,192,94325,1,0,0:0:0:0:
256,192,94419,1,8,0:0:0:0:
256,192,94465,1,8,0:0:0:0:
256,192,94512,1,0,0:0:0:0:
256,192,94559,1,0,0:0:0:0:
256,192,94606,1,8,0:0:0:0:
256,192,94700,1,8,0:0:0:0:
256,192,94794,1,0,0:0:0:0:
256,192,94887,1,0,0:0:0:0:
256,192,94934,1,0,0:0:0:0:
256,192,94981,1,8,0:0:0:0:
256,192,95075,1,0,0:0:0:0:
256,192,95169,1,8,0:0:0:0:
256,192,95262,1,0,0:0:0:0:
256,192,95356,1,8,0:0:0:0:
256,192,95450,1,8,0:0:0:0:
256,192,95497,1,8,0:0:0:0:
256,192,95544,1,0,0:0:0:0:
256,192,95637,1,0,0:0:0:0:
256,192,95684,1,0,0:0:0:0:
256,192,95731,1,8,0:0:0:0:
256,192,95825,1,0,0:0:0:0:
256,192,95919,1,8,0:0:0:0:
256,192,96012,1,0,0:0:0:0:
256,192,96106,1,8,0:0:0:0:
256,192,96153,1,0,0:0:0:0:
256,192,96200,1,8,0:0:0:0:
256,192,96247,1,8,0:0:0:0:
256,192,96294,1,0,0:0:0:0:
256,192,96387,1,0,0:0:0:0:
256,192,96434,1,0,0:0:0:0:
256,192,96481,1,8,0:0:0:0:
256,192,96575,1,0,0:0:0:0:
256,192,96669,1,8,0:0:0:0:
256,192,96762,1,0,0:0:0:0:
256,192,96856,1,8,0:0:0:0:
256,192,96950,1,8,0:0:0:0:
256,192,96997,1,8,0:0:0:0:
256,192,97044,1,0,0:0:0:0:
256,192,97137,1,0,0:0:0:0:
256,192,97184,1,0,0:0:0:0:
256,192,97231,1,8,0:0:0:0:
256,192,97278,1,8,0:0:0:0:
256,192,97325,1,0,0:0:0:0:
256,192,97419,1,8,0:0:0:0:
256,192,97450,1,8,0:0:0:0:
256,192,97481,1,8,0:0:0:0:
256,192,97512,1,8,0:0:0:0:
256,192,97606,1,0,0:0:0:0:
256,192,97637,1,0,0:0:0:0:
256,192,97669,1,0,0:0:0:0:
256,192,97700,1,0,0:0:0:0:
256,192,97794,1,12,0:0:0:0:
256,192,97887,1,0,0:0:0:0:
256,192,97934,1,0,0:0:0:0:
256,192,97981,1,8,0:0:0:0:
256,192,98075,1,0,0:0:0:0:
256,192,98169,1,8,0:0:0:0:
256,192,98262,1,0,0:0:0:0:
256,192,98356,1,8,0:0:0:0:
256,192,98450,1,8,0:0:0:0:
256,192,98497,1,8,0:0:0:0:
256,192,98544,1,0,0:0:0:0:
256,192,98637,1,0,0:0:0:0:
256,192,98684,1,0,0:0:0:0:
256,192,98731,1,8,0:0:0:0:
256,192,98825,1,0,0:0:0:0:
256,192,98919,1,8,0:0:0:0:
256,192,99012,1,0,0:0:0:0:
256,192,99106,1,8,0:0:0:0:
256,192,99153,1,0,0:0:0:0:
256,192,99200,1,8,0:0:0:0:
256,192,99247,1,8,0:0:0:0:
256,192,99294,1,0,0:0:0:0:
256,192,99387,1,0,0:0:0:0:
256,192,99434,1,0,0:0:0:0:
256,192,99481,1,8,0:0:0:0:
256,192,99575,1,0,0:0:0:0:
256,192,99669,1,8,0:0:0:0:
256,192,99762,1,0,0:0:0:0:
256,192,99856,1,8,0:0:0:0:
256,192,99950,1,8,0:0:0:0:
256,192,99997,1,8,0:0:0:0:
256,192,100044,1,0,0:0:0:0:
256,192,100137,1,0,0:0:0:0:
256,192,100184,1,0,0:0:0:0:
256,192,100231,1,8,0:0:0:0:
256,192,100325,1,0,0:0:0:0:
256,192,100419,1,8,0:0:0:0:
256,192,100465,1,8,0:0:0:0:
256,192,100512,1,0,0:0:0:0:
256,192,100559,1,0,0:0:0:0:
256,192,100606,1,8,0:0:0:0:
256,192,100700,1,0,0:0:0:0:
256,192,100794,1,8,0:0:0:0:
256,192,100840,1,8,0:0:0:0:
256,192,100887,1,0,0:0:0:0:
256,192,100934,1,0,0:0:0:0:
256,192,100981,1,8,0:0:0:0:
256,192,101028,1,0,0:0:0:0:
256,192,101075,1,8,0:0:0:0:
256,192,101122,1,0,0:0:0:0:
256,192,101169,1,8,0:0:0:0:
256,192,101215,1,8,0:0:0:0:
256,192,101262,1,0,0:0:0:0:
256,192,101309,1,8,0:0:0:0:
256,192,101356,1,0,0:0:0:0:
256,192,101403,1,0,0:0:0:0:
256,192,101450,1,8,0:0:0:0:
256,192,101497,1,0,0:0:0:0:
256,192,101544,1,8,0:0:0:0:
256,192,101590,1,8,0:0:0:0:
256,192,101637,1,0,0:0:0:0:
256,192,101684,1,0,0:0:0:0:
256,192,101731,1,8,0:0:0:0:
256,192,101778,1,0,0:0:0:0:
256,192,101825,1,8,0:0:0:0:
256,192,101872,1,0,0:0:0:0:
256,192,101919,1,8,0:0:0:0:
256,192,101965,1,8,0:0:0:0:
256,192,102012,1,0,0:0:0:0:
256,192,102059,1,8,0:0:0:0:
256,192,102106,1,0,0:0:0:0:
256,192,102153,1,0,0:0:0:0:
256,192,102200,1,8,0:0:0:0:
256,192,102247,1,8,0:0:0:0:
256,192,102294,1,0,0:0:0:0:
256,192,102340,1,0,0:0:0:0:
256,192,102387,1,0,0:0:0:0:
256,192,102434,1,0,0:0:0:0:
256,192,102481,1,8,0:0:0:0:
256,192,102528,1,8,0:0:0:0:
256,192,102575,1,8,0:0:0:0:
256,192,102622,1,8,0:0:0:0:
256,192,102669,1,0,0:0:0:0:
256,192,102715,1,0,0:0:0:0:
256,192,102762,1,0,0:0:0:0:
256,192,102809,1,0,0:0:0:0:
256,192,102856,1,8,0:0:0:0:
256,192,102903,1,8,0:0:0:0:
256,192,102950,1,8,0:0:0:0:
256,192,102997,1,8,0:0:0:0:
256,192,103044,1,0,0:0:0:0:
256,192,103090,1,0,0:0:0:0:
256,192,103137,1,8,0:0:0:0:
256,192,103184,1,8,0:0:0:0:
256,192,103231,1,0,0:0:0:0:
256,192,103278,1,0,0:0:0:0:
256,192,103325,1,8,0:0:0:0:
256,192,103372,1,8,0:0:0:0:
256,192,103419,1,0,0:0:0:0:
256,192,103465,1,0,0:0:0:0:
256,192,103512,1,0,0:0:0:0:
256,192,103559,1,0,0:0:0:0:
256,192,103606,1,8,0:0:0:0:
256,192,103653,1,8,0:0:0:0:
256,192,103700,1,8,0:0:0:0:
256,192,103747,1,8,0:0:0:0:
256,192,103794,1,4,0:0:0:0:
256,192,103887,1,0,0:0:0:0:
256,192,103934,1,0,0:0:0:0:
256,192,103981,1,8,0:0:0:0:
256,192,104075,1,0,0:0:0:0:
256,192,104169,1,8,0:0:0:0:
256,192,104215,1,8,0:0:0:0:
256,192,104262,1,0,0:0:0:0:
256,192,104309,1,0,0:0:0:0:
256,192,104356,1,8,0:0:0:0:
256,192,104450,1,8,0:0:0:0:
256,192,104544,1,0,0:0:0:0:
256,192,104637,1,0,0:0:0:0:
256,192,104684,1,0,0:0:0:0:
256,192,104731,1,8,0:0:0:0:
256,192,104825,1,0,0:0:0:0:
256,192,104919,1,8,0:0:0:0:
256,192,104965,1,8,0:0:0:0:
256,192,105012,1,0,0:0:0:0:
256,192,105059,1,0,0:0:0:0:
256,192,105106,1,8,0:0:0:0:
256,192,105200,1,8,0:0:0:0:
256,192,105294,1,0,0:0:0:0:
256,192,105387,1,0,0:0:0:0:
256,192,105434,1,0,0:0:0:0:
256,192,105481,1,8,0:0:0:0:
256,192,105575,1,0,0:0:0:0:
256,192,105669,1,8,0:0:0:0:
256,192,105715,1,8,0:0:0:0:
256,192,105762,1,0,0:0:0:0:
256,192,105809,1,8,0:0:0:0:
256,192,105856,1,0,0:0:0:0:
256,192,105950,1,8,0:0:0:0:
256,192,105997,1,8,0:0:0:0:
256,192,106044,1,0,0:0:0:0:
256,192,106090,1,0,0:0:0:0:
256,192,106137,1,8,0:0:0:0:
256,192,106184,1,0,0:0:0:0:
256,192,106231,1,8,0:0:0:0:
256,192,106325,1,0,0:0:0:0:
256,192,106372,1,0,0:0:0:0:
256,192,106419,1,8,0:0:0:0:
256,192,106465,1,8,0:0:0:0:
256,192,106512,1,0,0:0:0:0:
256,192,106606,1,8,0:0:0:0:
256,192,106653,1,8,0:0:0:0:
256,192,106700,1,8,0:0:0:0:
256,192,106747,1,8,0:0:0:0:
256,192,106794,1,0,0:0:0:0:
256,192,106887,1,0,0:0:0:0:
256,192,106934,1,0,0:0:0:0:
256,192,106981,1,8,0:0:0:0:
256,192,107075,1,0,0:0:0:0:
256,192,107169,1,8,0:0:0:0:
256,192,107215,1,8,0:0:0:0:
256,192,107262,1,0,0:0:0:0:
256,192,107309,1,0,0:0:0:0:
256,192,107356,1,8,0:0:0:0:
256,192,107450,1,8,0:0:0:0:
256,192,107544,1,0,0:0:0:0:
256,192,107637,1,0,0:0:0:0:
256,192,107684,1,0,0:0:0:0:
256,192,107731,1,8,0:0:0:0:
256,192,107825,1,0,0:0:0:0:
256,192,107919,1,8,0:0:0:0:
256,192,107965,1,8,0:0:0:0:
256,192,108012,1,0,0:0:0:0:
256,192,108059,1,0,0:0:0:0:
256,192,108106,1,8,0:0:0:0:
256,192,108200,1,0,0:0:0:0:
256,192,108247,1,0,0:0:0:0:
256,192,108294,1,8,0:0:0:0:
256,192,108387,1,0,0:0:0:0:
256,192,108481,1,8,0:0:0:0:
256,192,108575,1,8,0:0:0:0:
256,192,108622,1,8,0:0:0:0:
256,192,108669,1,0,0:0:0:0:
256,192,108762,1,8,0:0:0:0:
256,192,108856,1,0,0:0:0:0:
256,192,108903,1,0,0:0:0:0:
256,192,108950,1,8,0:0:0:0:
256,192,109044,1,0,0:0:0:0:
256,192,109137,1,8,0:0:0:0:
256,192,109184,1,0,0:0:0:0:
256,192,109231,1,8,0:0:0:0:
256,192,109325,1,0,0:0:0:0:
256,192,109372,1,0,0:0:0:0:
256,192,109419,1,8,0:0:0:0:
256,192,109465,1,8,0:0:0:0:
256,192,109512,1,0,0:0:0:0:
256,192,109559,1,0,0:0:0:0:
256,192,109606,1,8,0:0:0:0:
256,192,109700,1,0,0:0:0:0:
256,192,109794,1,12,0:0:0:0:
256,192,109887,1,0,0:0:0:0:
256,192,109934,1,0,0:0:0:0:
256,192,109981,1,8,0:0:0:0:
256,192,110075,1,0,0:0:0:0:
256,192,110169,1,8,0:0:0:0:
256,192,110215,1,8,0:0:0:0:
256,192,110262,1,0,0:0:0:0:
256,192,110309,1,0,0:0:0:0:
256,192,110356,1,8,0:0:0:0:
256,192,110450,1,8,0:0:0:0:
256,192,110544,1,0,0:0:0:0:
256,192,110637,1,0,0:0:0:0:
256,192,110684,1,0,0:0:0:0:
256,192,110731,1,8,0:0:0:0:
256,192,110825,1,0,0:0:0:0:
256,192,110919,1,8,0:0:0:0:
256,192,110965,1,8,0:0:0:0:
256,192,111012,1,0,0:0:0:0:
256,192,111059,1,0,0:0:0:0:
256,192,111106,1,8,0:0:0:0:
256,192,111200,1,8,0:0:0:0:
256,192,111294,1,0,0:0:0:0:
256,192,111387,1,0,0:0:0:0:
256,192,111434,1,0,0:0:0:0:
256,192,111481,1,8,0:0:0:0:
256,192,111575,1,0,0:0:0:0:
256,192,111669,1,8,0:0:0:0:
256,192,111715,1,0,0:0:0:0:
256,192,111762,1,8,0:0:0:0:
256,192,111809,1,8,0:0:0:0:
256,192,111856,1,0,0:0:0:0:
256,192,111950,1,8,0:0:0:0:
256,192,111997,1,8,0:0:0:0:
256,192,112044,1,8,0:0:0:0:
256,192,112137,1,8,0:0:0:0:
256,192,112231,1,0,0:0:0:0:
256,192,112325,1,0,0:0:0:0:
256,192,112372,1,0,0:0:0:0:
256,192,112419,1,8,0:0:0:0:
256,192,112465,1,8,0:0:0:0:
256,192,112512,1,0,0:0:0:0:
256,192,112606,1,8,0:0:0:0:
256,192,112700,1,8,0:0:0:0:
256,192,112794,1,0,0:0:0:0:
256,192,112887,1,0,0:0:0:0:
256,192,112934,1,0,0:0:0:0:
256,192,112981,1,8,0:0:0:0:
256,192,113075,1,0,0:0:0:0:
256,192,113169,1,8,0:0:0:0:
256,192,113215,1,8,0:0:0:0:
256,192,113262,1,0,0:0:0:0:
256,192,113309,1,0,0:0:0:0:
256,192,113356,1,8,0:0:0:0:
256,192,113450,1,8,0:0:0:0:
256,192,113544,1,0,0:0:0:0:
256,192,113637,1,0,0:0:0:0:
256,192,113684,1,0,0:0:0:0:
256,192,113731,1,8,0:0:0:0:
256,192,113825,1,0,0:0:0:0:
256,192,113919,1,8,0:0:0:0:
256,192,113965,1,8,0:0:0:0:
256,192,114012,1,0,0:0:0:0:
256,192,114059,1,0,0:0:0:0:
256,192,114106,1,8,0:0:0:0:
256,192,114200,1,8,0:0:0:0:
256,192,114294,1,0,0:0:0:0:
256,192,114340,1,0,0:0:0:0:
256,192,114387,1,8,0:0:0:0:
256,192,114434,1,8,0:0:0:0:
256,192,114481,1,0,0:0:0:0:
256,192,114528,1,0,0:0:0:0:
256,192,114575,1,8,0:0:0:0:
256,192,114622,1,0,0:0:0:0:
256,192,114669,1,8,0:0:0:0:
256,192,114715,1,8,0:0:0:0:
256,192,114762,1,0,0:0:0:0:
256,192,114809,1,8,0:0:0:0:
256,192,114856,1,0,0:0:0:0:
256,192,114903,1,0,0:0:0:0:
256,192,114950,1,8,0:0:0:0:
256,192,114997,1,8,0:0:0:0:
256,192,115044,1,0,0:0:0:0:
256,192,115090,1,0,0:0:0:0:
256,192,115137,1,0,0:0:0:0:
256,192,115184,1,0,0:0:0:0:
256,192,115231,1,8,0:0:0:0:
256,192,115278,1,8,0:0:0:0:
256,192,115325,1,0,0:0:0:0:
256,192,115372,1,0,0:0:0:0:
256,192,115419,1,8,0:0:0:0:
256,192,115465,1,8,0:0:0:0:
256,192,115512,1,8,0:0:0:0:
256,192,115559,1,8,0:0:0:0:
256,192,115606,1,0,0:0:0:0:
256,192,115653,1,0,0:0:0:0:
256,192,115700,1,8,0:0:0:0:
256,192,115747,1,8,0:0:0:0:
256,192,115794,1,4,0:0:0:0:
256,192,115981,1,0,0:0:0:0:
256,192,116169,1,8,0:0:0:0:
256,192,116356,1,0,0:0:0:0:
256,192,116450,1,0,0:0:0:0:
256,192,116544,1,0,0:0:0:0:
256,192,116731,1,0,0:0:0:0:
256,192,116919,1,8,0:0:0:0:
256,192,117294,1,0,0:0:0:0:
256,192,117481,1,0,0:0:0:0:
256,192,117669,1,8,0:0:0:0:
256,192,117856,1,0,0:0:0:0:
256,192,117950,1,0,0:0:0:0:
256,192,118044,1,0,0:0:0:0:
256,192,118137,1,8,0:0:0:0:
256,192,118231,1,0,0:0:0:0:
256,192,118419,1,8,0:0:0:0:
256,192,118606,1,8,0:0:0:0:
256,192,118700,1,8,0:0:0:0:
256,192,118794,1,0,0:0:0:0:
256,192,118919,1,0,0:0:0:0:
256,192,119044,1,0,0:0:0:0:
256,192,119169,1,8,0:0:0:0:
256,192,119294,1,0,0:0:0:0:
256,192,119419,1,0,0:0:0:0:
256,192,119544,1,8,0:0:0:0:
256,192,119669,1,8,0:0:0:0:
256,192,119794,1,0,0:0:0:0:
256,192,119919,1,8,0:0:0:0:
256,192,120106,1,0,0:0:0:0:
256,192,120294,1,12,0:0:0:0:
256,192,120387,1,0,0:0:0:0:
256,192,120434,1,0,0:0:0:0:
256,192,120481,1,0,0:0:0:0:
256,192,120575,1,8,0:0:0:0:
256,192,120669,1,0,0:0:0:0:
256,192,120762,1,8,0:0:0:0:
256,192,120950,1,8,0:0:0:0:
256,192,120997,1,0,0:0:0:0:
256,192,121044,1,8,0:0:0:0:
256,192,121137,1,8,0:0:0:0:
256,192,121231,1,0,0:0:0:0:
256,192,121325,1,8,0:0:0:0:
256,192,121372,1,8,0:0:0:0:
256,192,121419,1,0,0:0:0:0:
256,192,121512,1,8,0:0:0:0:
256,192,121606,1,0,0:0:0:0:
256,192,121700,1,0,0:0:0:0:
256,192,121747,1,0,0:0:0:0:
256,192,121794,1,12,0:0:0:0:
256,192,121887,1,0,0:0:0:0:
256,192,121981,1,0,0:0:0:0:
256,192,122075,1,8,0:0:0:0:
256,192,122122,1,8,0:0:0:0:
256,192,122169,1,0,0:0:0:0:
256,192,122262,1,8,0:0:0:0:
256,192,122450,1,8,0:0:0:0:
256,192,122497,1,8,0:0:0:0:
256,192,122544,1,8,0:0:0:0:
256,192,122637,1,8,0:0:0:0:
256,192,122731,1,0,0:0:0:0:
256,192,122825,1,8,0:0:0:0:
256,192,122872,1,8,0:0:0:0:
256,192,122919,1,0,0:0:0:0:
256,192,123012,1,8,0:0:0:0:
256,192,123106,1,0,0:0:0:0:
256,192,123153,1,0,0:0:0:0:
256,192,123200,1,0,0:0:0:0:
256,192,123247,1,0,0:0:0:0:
256,192,123294,1,12,0:0:0:0:
256,192,123387,1,0,0:0:0:0:
256,192,123434,1,0,0:0:0:0:
256,192,123481,1,0,0:0:0:0:
256,192,123575,1,8,0:0:0:0:
256,192,123622,1,8,0:0:0:0:
256,192,123669,1,0,0:0:0:0:
256,192,123762,1,8,0:0:0:0:
256,192,123856,1,0,0:0:0:0:
256,192,123950,1,8,0:0:0:0:
256,192,123997,1,0,0:0:0:0:
256,192,124044,1,12,0:0:0:0:
256,192,124137,1,0,0:0:0:0:
256,192,124184,1,0,0:0:0:0:
256,192,124231,1,0,0:0:0:0:
256,192,124325,1,8,0:0:0:0:
256,192,124372,1,8,0:0:0:0:
256,192,124419,1,0,0:0:0:0:
256,192,124512,1,8,0:0:0:0:
256,192,124606,1,0,0:0:0:0:
256,192,124653,1,0,0:0:0:0:
256,192,124700,1,8,0:0:0:0:
256,192,124747,1,0,0:0:0:0:
256,192,124794,1,12,0:0:0:0:
256,192,124887,1,0,0:0:0:0:
256,192,124934,1,0,0:0:0:0:
256,192,124981,1,0,0:0:0:0:
256,192,125075,1,8,0:0:0:0:
256,192,125122,1,8,0:0:0:0:
256,192,125169,1,0,0:0:0:0:
256,192,125215,1,0,0:0:0:0:
256,192,125262,1,8,0:0:0:0:
256,192,125356,1,8,0:0:0:0:
256,192,125450,1,0,0:0:0:0:
256,192,125497,1,0,0:0:0:0:
256,192,125544,1,8,0:0:0:0:
256,192,125590,1,8,0:0:0:0:
256,192,125637,1,8,0:0:0:0:
256,192,125684,1,8,0:0:0:0:
256,192,125731,1,0,0:0:0:0:
256,192,125778,1,0,0:0:0:0:
256,192,125825,1,8,0:0:0:0:
256,192,125872,1,8,0:0:0:0:
256,192,125919,1,0,0:0:0:0:
256,192,125965,1,0,0:0:0:0:
256,192,126012,1,0,0:0:0:0:
256,192,126059,1,0,0:0:0:0:
256,192,126106,1,8,0:0:0:0:
256,192,126153,1,8,0:0:0:0:
256,192,126200,1,0,0:0:0:0:
256,192,126247,1,0,0:0:0:0:
256,192,126294,1,12,0:0:0:0:
256,192,126387,8,0,128450,0:0:0:0:
256,192,128731,8,0,129200,0:0:0:0:
256,192,129294,5,12,0:0:0:0:
256,192,141681,5,8,0:0:0:0:
256,192,142261,1,8,0:0:0:0:
256,192,142842,1,0,0:0:0:0:
256,192,143229,1,8,0:0:0:0:
256,192,143616,1,0,0:0:0:0:
256,192,143810,1,0,0:0:0:0:
256,192,144003,1,8,0:0:0:0:
256,192,144390,1,8,0:0:0:0:
256,192,144584,1,0,0:0:0:0:
256,192,144777,1,8,0:0:0:0:
256,192,145358,1,8,0:0:0:0:
256,192,145939,1,0,0:0:0:0:
256,192,146326,1,8,0:0:0:0:
256,192,146713,1,0,0:0:0:0:
256,192,146906,1,8,0:0:0:0:
256,192,147100,1,0,0:0:0:0:
256,192,147487,1,0,0:0:0:0:
256,192,147874,1,8,0:0:0:0:
256,192,148455,1,8,0:0:0:0:
256,192,149035,1,0,0:0:0:0:
256,192,149229,1,0,0:0:0:0:
256,192,149423,1,8,0:0:0:0:
256,192,149810,1,0,0:0:0:0:
256,192,150197,1,8,0:0:0:0:
256,192,150584,1,0,0:0:0:0:
256,192,150777,1,8,0:0:0:0:
256,192,150971,1,0,0:0:0:0:
256,192,151358,1,0,0:0:0:0:
256,192,151745,1,8,0:0:0:0:
256,192,152132,1,8,0:0:0:0:
256,192,152326,1,8,0:0:0:0:
256,192,152519,1,0,0:0:0:0:
256,192,152906,1,0,0:0:0:0:
256,192,153294,1,8,0:0:0:0:
256,192,153681,1,8,0:0:0:0:
256,192,154068,1,4,0:0:0:0:
256,192,154455,1,0,0:0:0:0:
256,192,154842,1,8,0:0:0:0:
256,192,155229,1,0,0:0:0:0:
256,192,155423,1,8,0:0:0:0:
256,192,155616,1,0,0:0:0:0:
256,192,155810,1,8,0:0:0:0:
256,192,156003,1,0,0:0:0:0:
256,192,156390,1,8,0:0:0:0:
256,192,156777,1,0,0:0:0:0:
256,192,156971,1,0,0:0:0:0:
256,192,157164,1,8,0:0:0:0:
256,192,157552,1,0,0:0:0:0:
256,192,157939,1,8,0:0:0:0:
256,192,158326,1,0,0:0:0:0:
256,192,158519,1,8,0:0:0:0:
256,192,158713,1,0,0:0:0:0:
256,192,158906,1,8,0:0:0:0:
256,192,159100,1,0,0:0:0:0:
256,192,159487,1,8,0:0:0:0:
256,192,159681,1,0,0:0:0:0:
256,192,159874,1,8,0:0:0:0:
256,192,160068,1,8,0:0:0:0:
256,192,160261,1,0,0:0:0:0:
256,192,160648,1,0,0:0:0:0:
256,192,161035,1,8,0:0:0:0:
256,192,161423,1,0,0:0:0:0:
256,192,161616,1,8,0:0:0:0:
256,192,161810,1,0,0:0:0:0:
256,192,162003,1,8,0:0:0:0:
256,192,162197,1,0,0:0:0:0:
256,192,162584,1,8,0:0:0:0:
256,192,162971,1,8,0:0:0:0:
256,192,163164,1,8,0:0:0:0:
256,192,163358,1,0,0:0:0:0:
256,192,163745,1,0,0:0:0:0:
256,192,164132,1,8,0:0:0:0:
256,192,164519,1,0,0:0:0:0:
256,192,164713,1,8,0:0:0:0:
256,192,164906,1,0,0:0:0:0:
256,192,165100,1,8,0:0:0:0:
256,192,165294,1,0,0:0:0:0:
256,192,165681,1,8,0:0:0:0:
256,192,165874,1,0,0:0:0:0:
256,192,166068,1,8,0:0:0:0:
256,192,166261,1,8,0:0:0:0:
256,192,166455,1,0,0:0:0:0:
256,192,166842,1,0,0:0:0:0:
256,192,167229,1,8,0:0:0:0:
256,192,167616,1,0,0:0:0:0:
256,192,167810,1,0,0:0:0:0:
256,192,168003,1,0,0:0:0:0:
256,192,168197,1,8,0:0:0:0:
256,192,168390,1,0,0:0:0:0:
256,192,168777,1,8,0:0:0:0:
256,192,169164,1,8,0:0:0:0:
256,192,169358,1,8,0:0:0:0:
256,192,169552,1,0,0:0:0:0:
256,192,169939,1,0,0:0:0:0:
256,192,170132,1,8,0:0:0:0:
256,192,170326,1,8,0:0:0:0:
256,192,170519,1,8,0:0:0:0:
256,192,170713,1,0,0:0:0:0:
256,192,170906,1,8,0:0:0:0:
256,192,171100,1,0,0:0:0:0:
256,192,171294,1,8,0:0:0:0:
256,192,171487,1,0,0:0:0:0:
256,192,171874,1,8,0:0:0:0:
256,192,172068,1,0,0:0:0:0:
256,192,172261,1,8,0:0:0:0:
256,192,172455,1,8,0:0:0:0:
256,192,172648,1,0,0:0:0:0:
256,192,173035,1,0,0:0:0:0:
256,192,173423,1,8,0:0:0:0:
256,192,173810,1,0,0:0:0:0:
256,192,174003,1,8,0:0:0:0:
256,192,174197,1,0,0:0:0:0:
256,192,174390,1,8,0:0:0:0:
256,192,174584,1,0,0:0:0:0:
256,192,174971,1,8,0:0:0:0:
256,192,175164,1,8,0:0:0:0:
256,192,175358,1,0,0:0:0:0:
256,192,175552,1,0,0:0:0:0:
256,192,175745,1,8,0:0:0:0:
256,192,176132,1,0,0:0:0:0:
256,192,176326,1,0,0:0:0:0:
256,192,176519,1,8,0:0:0:0:
256,192,176713,1,8,0:0:0:0:
256,192,176906,1,0,0:0:0:0:
256,192,177100,1,8,0:0:0:0:
256,192,177294,1,0,0:0:0:0:
256,192,177487,1,8,0:0:0:0:
256,192,177681,1,0,0:0:0:0:
256,192,178068,1,8,0:0:0:0:
256,192,178261,1,0,0:0:0:0:
256,192,178455,1,8,0:0:0:0:
256,192,178552,1,0,0:0:0:0:
256,192,178648,1,0,0:0:0:0:
256,192,178745,1,0,0:0:0:0:
256,192,178842,1,12,0:0:0:0:
256,192,185035,5,12,0:0:0:0:
256,192,191229,5,12,0:0:0:0:
256,192,193552,1,0,0:0:0:0:
256,192,194326,1,12,0:0:0:0:
256,192,195487,1,0,0:0:0:0:
256,192,195874,1,0,0:0:0:0:
256,192,196648,1,0,0:0:0:0:
256,192,197423,1,12,0:0:0:0:
256,192,198584,1,0,0:0:0:0:
256,192,198971,1,12,0:0:0:0:
256,192,200132,1,0,0:0:0:0:
256,192,200519,1,12,0:0:0:0:
256,192,200906,1,0,0:0:0:0:
256,192,201100,1,8,0:0:0:0:
256,192,201294,1,4,0:0:0:0:
256,192,201681,1,0,0:0:0:0:
256,192,202068,1,12,0:0:0:0:
256,192,202197,1,0,0:0:0:0:
256,192,202326,1,0,0:0:0:0:
256,192,202455,1,12,0:0:0:0:
256,192,202584,1,8,0:0:0:0:
256,192,202713,1,8,0:0:0:0:
256,192,202842,1,4,0:0:0:0:
256,192,202971,1,0,0:0:0:0:
256,192,203100,1,8,0:0:0:0:
256,192,203229,1,4,0:0:0:0:
256,192,203358,1,0,0:0:0:0:
256,192,203487,1,0,0:0:0:0:
256,192,203616,1,12,0:0:0:0:
256,192,204390,1,8,0:0:0:0:
256,192,204777,1,0,0:0:0:0:
256,192,204970,1,0,0:0:0:0:
256,192,205164,1,12,0:0:0:0:
256,192,205869,1,8,0:0:0:0:
256,192,206222,1,0,0:0:0:0:
256,192,206399,1,0,0:0:0:0:
256,192,206575,1,12,0:0:0:0:
256,192,207223,1,8,0:0:0:0:
256,192,207547,1,0,0:0:0:0:
256,192,207710,1,0,0:0:0:0:
256,192,207872,1,12,0:0:0:0:
256,192,208472,1,8,0:0:0:0:
256,192,208772,1,0,0:0:0:0:
256,192,208922,1,0,0:0:0:0:
256,192,209072,1,12,0:0:0:0:
256,192,209630,1,8,0:0:0:0:
256,192,209909,1,0,0:0:0:0:
256,192,210048,1,0,0:0:0:0:
256,192,210188,1,12,0:0:0:0:
256,192,210709,1,8,0:0:0:0:
256,192,210970,1,0,0:0:0:0:
256,192,211101,1,0,0:0:0:0:
256,192,211231,1,12,0:0:0:0:
256,192,211720,1,8,0:0:0:0:
256,192,211965,1,0,0:0:0:0:
256,192,212088,1,0,0:0:0:0:
256,192,212210,1,12,0:0:0:0:
256,192,212671,1,8,0:0:0:0:
256,192,212902,1,0,0:0:0:0:
256,192,213017,1,0,0:0:0:0:
256,192,213133,1,12,0:0:0:0:
256,192,213351,1,0,0:0:0:0:
256,192,213569,1,8,0:0:0:0:
256,192,213787,1,0,0:0:0:0:
256,192,213896,1,0,0:0:0:0:
256,192,214005,1,12,0:0:0:0:
256,192,214211,1,0,0:0:0:0:
256,192,214418,1,8,0:0:0:0:
256,192,214522,1,8,0:0:0:0:
256,192,214625,1,0,0:0:0:0:
256,192,214729,1,0,0:0:0:0:
256,192,214832,1,12,0:0:0:0:
256,192,215028,1,0,0:0:0:0:
256,192,215225,1,8,0:0:0:0:
256,192,215422,1,0,0:0:0:0:
256,192,215520,1,0,0:0:0:0:
256,192,215618,1,12,0:0:0:0:
256,192,215805,1,0,0:0:0:0:
256,192,215993,1,8,0:0:0:0:
256,192,216086,1,8,0:0:0:0:
256,192,216180,1,0,0:0:0:0:
256,192,216274,1,0,0:0:0:0:
256,192,216368,1,12,0:0:0:0:
256,192,216547,1,0,0:0:0:0:
256,192,216726,1,8,0:0:0:0:
256,192,216905,1,0,0:0:0:0:
256,192,216994,1,0,0:0:0:0:
256,192,217084,1,12,0:0:0:0:
256,192,217255,1,0,0:0:0:0:
256,192,217426,1,8,0:0:0:0:
256,192,217512,1,8,0:0:0:0:
256,192,217598,1,0,0:0:0:0:
256,192,217684,1,0,0:0:0:0:
256,192,217769,1,12,0:0:0:0:
256,192,217933,1,0,0:0:0:0:
256,192,218097,1,8,0:0:0:0:
256,192,218262,1,0,0:0:0:0:
256,192,218344,1,0,0:0:0:0:
256,192,218426,1,12,0:0:0:0:
256,192,218583,1,0,0:0:0:0:
256,192,218741,1,8,0:0:0:0:
256,192,218820,1,8,0:0:0:0:
256,192,218899,1,0,0:0:0:0:
256,192,218978,1,0,0:0:0:0:
256,192,219057,1,12,0:0:0:0:
256,192,219208,1,0,0:0:0:0:
256,192,219360,1,8,0:0:0:0:
256,192,219512,1,0,0:0:0:0:
256,192,219588,1,0,0:0:0:0:
256,192,219664,1,12,0:0:0:0:
256,192,219810,1,0,0:0:0:0:
256,192,219956,1,8,0:0:0:0:
256,192,220029,1,8,0:0:0:0:
256,192,220103,1,0,0:0:0:0:
256,192,220176,1,0,0:0:0:0:
256,192,220249,1,12,0:0:0:0:
256,192,220390,1,0,0:0:0:0:
256,192,220531,1,8,0:0:0:0:
256,192,220672,1,0,0:0:0:0:
256,192,220743,1,0,0:0:0:0:
256,192,220813,1,12,0:0:0:0:
256,192,220949,1,0,0:0:0:0:
256,192,221085,1,8,0:0:0:0:
256,192,221153,1,8,0:0:0:0:
256,192,221222,1,0,0:0:0:0:
256,192,221290,1,0,0:0:0:0:
256,192,221358,1,12,0:0:0:0:
256,192,221489,1,0,0:0:0:0:
256,192,221621,1,8,0:0:0:0:
256,192,221753,1,0,0:0:0:0:
256,192,221819,1,0,0:0:0:0:
256,192,221885,1,12,0:0:0:0:
256,192,222012,1,0,0:0:0:0:
256,192,222140,1,8,0:0:0:0:
256,192,222204,1,8,0:0:0:0:
256,192,222267,1,0,0:0:0:0:
256,192,222331,1,0,0:0:0:0:
256,192,222395,1,12,0:0:0:0:
256,192,222518,1,0,0:0:0:0:
256,192,222642,1,8,0:0:0:0:
256,192,222766,1,0,0:0:0:0:
256,192,222827,1,0,0:0:0:0:
256,192,222889,1,12,0:0:0:0:
256,192,223009,1,0,0:0:0:0:
256,192,223129,1,8,0:0:0:0:
256,192,223189,1,8,0:0:0:0:
256,192,223249,1,0,0:0:0:0:
256,192,223309,1,0,0:0:0:0:
256,192,223369,1,12,0:0:0:0:
256,192,223485,1,0,0:0:0:0:
256,192,223543,1,0,0:0:0:0:
256,192,223602,1,0,0:0:0:0:
256,192,223718,1,0,0:0:0:0:
256,192,223835,1,8,0:0:0:0:
256,192,223893,1,8,0:0:0:0:
256,192,223951,1,0,0:0:0:0:
256,192,224009,1,0,0:0:0:0:
256,192,224068,1,8,0:0:0:0:
256,192,224184,1,0,0:0:0:0:
256,192,224301,1,8,0:0:0:0:
256,192,224417,1,0,0:0:0:0:
256,192,224475,1,0,0:0:0:0:
256,192,224534,1,0,0:0:0:0:
256,192,224650,1,0,0:0:0:0:
256,192,224767,1,8,0:0:0:0:
256,192,224825,1,8,0:0:0:0:
256,192,224883,1,0,0:0:0:0:
256,192,224941,1,0,0:0:0:0:
256,192,225000,1,8,0:0:0:0:
256,192,225116,1,0,0:0:0:0:
256,192,225233,1,8,0:0:0:0:
256,192,225291,1,0,0:0:0:0:
256,192,225349,1,8,0:0:0:0:
256,192,225407,1,8,0:0:0:0:
256,192,225466,1,0,0:0:0:0:
256,192,225582,1,8,0:0:0:0:
256,192,225699,1,0,0:0:0:0:
256,192,225757,1,0,0:0:0:0:
256,192,225815,1,8,0:0:0:0:
256,192,225873,1,8,0:0:0:0:
256,192,225932,1,0,0:0:0:0:
256,192,226048,1,8,0:0:0:0:
256,192,226165,1,0,0:0:0:0:
256,192,226223,1,0,0:0:0:0:
256,192,226281,1,8,0:0:0:0:
256,192,226339,1,0,0:0:0:0:
256,192,226398,1,8,0:0:0:0:
256,192,226456,1,8,0:0:0:0:
256,192,226514,1,0,0:0:0:0:
256,192,226572,1,8,0:0:0:0:
256,192,226631,1,0,0:0:0:0:
256,192,226689,1,0,0:0:0:0:
256,192,226747,1,8,0:0:0:0:
256,192,226805,1,0,0:0:0:0:
256,192,226864,1,8,0:0:0:0:
256,192,226922,1,8,0:0:0:0:
256,192,226980,1,0,0:0:0:0:
256,192,227038,1,0,0:0:0:0:
256,192,227097,1,12,0:0:0:0:
256,192,227263,8,0,230430,0:0:0:0:
256,192,231097,5,0,0:0:0:0:
256,192,231763,1,8,0:0:0:0:
256,192,232430,1,4,0:0:0:0:
256,192,232513,1,0,0:0:0:0:
256,192,232555,1,0,0:0:0:0:
256,192,232596,1,8,0:0:0:0:
256,192,232680,1,8,0:0:0:0:
256,192,232763,1,0,0:0:0:0:
256,192,232846,1,0,0:0:0:0:
256,192,232888,1,0,0:0:0:0:
256,192,232930,1,8,0:0:0:0:
256,192,233013,1,8,0:0:0:0:
256,192,233096,1,0,0:0:0:0:
256,192,233180,1,0,0:0:0:0:
256,192,233221,1,0,0:0:0:0:
256,192,233263,1,8,0:0:0:0:
256,192,233346,1,8,0:0:0:0:
256,192,233430,1,0,0:0:0:0:
256,192,233471,1,0,0:0:0:0:
256,192,233513,1,8,0:0:0:0:
256,192,233555,1,8,0:0:0:0:
256,192,233596,1,0,0:0:0:0:
256,192,233680,1,8,0:0:0:0:
256,192,233763,1,0,0:0:0:0:
256,192,233846,1,0,0:0:0:0:
256,192,233888,1,0,0:0:0:0:
256,192,233930,1,8,0:0:0:0:
256,192,234013,1,8,0:0:0:0:
256,192,234096,1,0,0:0:0:0:
256,192,234180,1,0,0:0:0:0:
256,192,234263,1,8,0:0:0:0:
256,192,234346,1,8,0:0:0:0:
256,192,234430,1,0,0:0:0:0:
256,192,234513,1,0,0:0:0:0:
256,192,234555,1,0,0:0:0:0:
256,192,234596,1,8,0:0:0:0:
256,192,234680,1,0,0:0:0:0:
256,192,234763,1,8,0:0:0:0:
256,192,234805,1,0,0:0:0:0:
256,192,234846,1,8,0:0:0:0:
256,192,234888,1,8,0:0:0:0:
256,192,234930,1,0,0:0:0:0:
256,192,235013,1,8,0:0:0:0:
256,192,235096,1,0,0:0:0:0:
256,192,235180,1,0,0:0:0:0:
256,192,235221,1,0,0:0:0:0:
256,192,235263,1,8,0:0:0:0:
256,192,235346,1,8,0:0:0:0:
256,192,235430,1,0,0:0:0:0:
256,192,235513,1,0,0:0:0:0:
256,192,235596,1,8,0:0:0:0:
256,192,235638,1,8,0:0:0:0:
256,192,235680,1,0,0:0:0:0:
256,192,235721,1,0,0:0:0:0:
256,192,235763,1,8,0:0:0:0:
256,192,235846,1,0,0:0:0:0:
256,192,235930,1,8,0:0:0:0:
256,192,236013,1,8,0:0:0:0:
256,192,236055,1,8,0:0:0:0:
256,192,236096,1,0,0:0:0:0:
256,192,236180,1,8,0:0:0:0:
256,192,236263,1,0,0:0:0:0:
256,192,236305,1,0,0:0:0:0:
256,192,236346,1,8,0:0:0:0:
256,192,236388,1,8,0:0:0:0:
256,192,236430,1,0,0:0:0:0:
256,192,236596,1,8,0:0:0:0:
256,192,236638,1,8,0:0:0:0:
256,192,236680,1,0,0:0:0:0:
256,192,236721,1,0,0:0:0:0:
256,192,236763,1,8,0:0:0:0:
256,192,236846,1,0,0:0:0:0:
256,192,236930,1,0,0:0:0:0:
256,192,237096,1,0,0:0:0:0:
256,192,237138,1,0,0:0:0:0:
256,192,237180,1,8,0:0:0:0:
256,192,237221,1,8,0:0:0:0:
256,192,237263,1,0,0:0:0:0:
256,192,237346,1,0,0:0:0:0:
256,192,237430,1,8,0:0:0:0:
256,192,237513,1,0,0:0:0:0:
256,192,237596,1,8,0:0:0:0:
256,192,237624,1,8,0:0:0:0:
256,192,237652,1,8,0:0:0:0:
256,192,237680,1,8,0:0:0:0:
256,192,237763,1,4,0:0:0:0:
256,192,237846,1,0,0:0:0:0:
256,192,237888,1,0,0:0:0:0:
256,192,237930,1,8,0:0:0:0:
256,192,238013,1,8,0:0:0:0:
256,192,238096,1,0,0:0:0:0:
256,192,238180,1,0,0:0:0:0:
256,192,238263,1,8,0:0:0:0:
256,192,238346,1,8,0:0:0:0:
256,192,238430,1,0,0:0:0:0:
256,192,238513,1,0,0:0:0:0:
256,192,238555,1,0,0:0:0:0:
256,192,238596,1,8,0:0:0:0:
256,192,238680,1,8,0:0:0:0:
256,192,238763,1,0,0:0:0:0:
256,192,238846,1,0,0:0:0:0:
256,192,238930,1,8,0:0:0:0:
256,192,239013,1,8,0:0:0:0:
256,192,239096,1,0,0:0:0:0:
256,192,239180,1,0,0:0:0:0:
256,192,239221,1,0,0:0:0:0:
256,192,239263,1,8,0:0:0:0:
256,192,239305,1,8,0:0:0:0:
256,192,239346,1,0,0:0:0:0:
256,192,239430,1,8,0:0:0:0:
256,192,239471,1,8,0:0:0:0:
256,192,239513,1,0,0:0:0:0:
256,192,239555,1,0,0:0:0:0:
256,192,239596,1,8,0:0:0:0:
256,192,239638,1,0,0:0:0:0:
256,192,239680,1,8,0:0:0:0:
256,192,239763,1,0,0:0:0:0:
256,192,239846,1,0,0:0:0:0:
256,192,239888,1,0,0:0:0:0:
256,192,239930,1,8,0:0:0:0:
256,192,240013,1,0,0:0:0:0:
256,192,240096,1,8,0:0:0:0:
256,192,240138,1,8,0:0:0:0:
256,192,240180,1,0,0:0:0:0:
256,192,240221,1,0,0:0:0:0:
256,192,240263,1,8,0:0:0:0:
256,192,240346,1,8,0:0:0:0:
256,192,240430,1,0,0:0:0:0:
256,192,240513,1,0,0:0:0:0:
256,192,240555,1,0,0:0:0:0:
256,192,240596,1,8,0:0:0:0:
256,192,240680,1,8,0:0:0:0:
256,192,240763,1,0,0:0:0:0:
256,192,240846,1,0,0:0:0:0:
256,192,240930,1,8,0:0:0:0:
256,192,241013,1,8,0:0:0:0:
256,192,241096,1,0,0:0:0:0:
256,192,241180,1,0,0:0:0:0:
256,192,241221,1,0,0:0:0:0:
256,192,241263,1,8,0:0:0:0:
256,192,241346,1,8,0:0:0:0:
256,192,241430,1,0,0:0:0:0:
256,192,241513,1,0,0:0:0:0:
256,192,241596,1,8,0:0:0:0:
256,192,241680,1,8,0:0:0:0:
256,192,241763,1,0,0:0:0:0:
256,192,241930,1,8,0:0:0:0:
256,192,241971,1,8,0:0:0:0:
256,192,242013,1,0,0:0:0:0:
256,192,242096,1,0,0:0:0:0:
256,192,242263,1,0,0:0:0:0:
256,192,242346,1,0,0:0:0:0:
256,192,242430,1,8,0:0:0:0:
256,192,242471,1,8,0:0:0:0:
256,192,242513,1,0,0:0:0:0:
256,192,242555,1,0,0:0:0:0:
256,192,242596,1,8,0:0:0:0:
256,192,242680,1,0,0:0:0:0:
256,192,242763,1,8,0:0:0:0:
256,192,242791,1,8,0:0:0:0:
256,192,242818,1,8,0:0:0:0:
256,192,242846,1,8,0:0:0:0:
256,192,242930,1,0,0:0:0:0:
256,192,242957,1,0,0:0:0:0:
256,192,242985,1,0,0:0:0:0:
256,192,243013,1,0,0:0:0:0:
256,192,243096,1,12,0:0:0:0:
256,192,243180,1,0,0:0:0:0:
256,192,243221,1,0,0:0:0:0:
256,192,243263,1,8,0:0:0:0:
256,192,243346,1,8,0:0:0:0:
256,192,243430,1,0,0:0:0:0:
256,192,243513,1,0,0:0:0:0:
256,192,243596,1,8,0:0:0:0:
256,192,243680,1,8,0:0:0:0:
256,192,243763,1,0,0:0:0:0:
256,192,243846,1,0,0:0:0:0:
256,192,243888,1,0,0:0:0:0:
256,192,243930,1,8,0:0:0:0:
256,192,244013,1,0,0:0:0:0:
256,192,244096,1,8,0:0:0:0:
256,192,244138,1,0,0:0:0:0:
256,192,244180,1,8,0:0:0:0:
256,192,244221,1,8,0:0:0:0:
256,192,244263,1,0,0:0:0:0:
256,192,244346,1,8,0:0:0:0:
256,192,244430,1,0,0:0:0:0:
256,192,244513,1,0,0:0:0:0:
256,192,244555,1,0,0:0:0:0:
256,192,244596,1,8,0:0:0:0:
256,192,244680,1,8,0:0:0:0:
256,192,244763,1,0,0:0:0:0:
256,192,244846,1,0,0:0:0:0:
256,192,244930,1,8,0:0:0:0:
256,192,245013,1,8,0:0:0:0:
256,192,245096,1,0,0:0:0:0:
256,192,245180,1,8,0:0:0:0:
256,192,245221,1,8,0:0:0:0:
256,192,245263,1,0,0:0:0:0:
256,192,245346,1,8,0:0:0:0:
256,192,245430,1,0,0:0:0:0:
256,192,245471,1,0,0:0:0:0:
256,192,245513,1,8,0:0:0:0:
256,192,245555,1,0,0:0:0:0:
256,192,245596,1,8,0:0:0:0:
256,192,245680,1,0,0:0:0:0:
256,192,245763,1,8,0:0:0:0:
256,192,245846,1,8,0:0:0:0:
256,192,245888,1,8,0:0:0:0:
256,192,245930,1,0,0:0:0:0:
256,192,246013,1,8,0:0:0:0:
256,192,246096,1,0,0:0:0:0:
256,192,246180,1,0,0:0:0:0:
256,192,246263,1,8,0:0:0:0:
256,192,246346,1,0,0:0:0:0:
256,192,246430,1,8,0:0:0:0:
256,192,246513,1,8,0:0:0:0:
256,192,246555,1,8,0:0:0:0:
256,192,246596,1,0,0:0:0:0:
256,192,246680,1,8,0:0:0:0:
256,192,246763,1,0,0:0:0:0:
256,192,246846,1,0,0:0:0:0:
256,192,246930,1,8,0:0:0:0:
256,192,246971,1,8,0:0:0:0:
256,192,247013,1,0,0:0:0:0:
256,192,247055,1,0,0:0:0:0:
256,192,247096,1,8,0:0:0:0:
256,192,247263,1,8,0:0:0:0:
256,192,247346,1,0,0:0:0:0:
256,192,247430,1,8,0:0:0:0:
256,192,247471,1,8,0:0:0:0:
256,192,247513,1,8,0:0:0:0:
256,192,247555,1,8,0:0:0:0:
256,192,247596,1,0,0:0:0:0:
256,192,247763,1,0,0:0:0:0:
256,192,247846,1,0,0:0:0:0:
256,192,247888,1,0,0:0:0:0:
256,192,247930,1,8,0:0:0:0:
256,192,248013,1,0,0:0:0:0:
256,192,248096,1,8,0:0:0:0:
256,192,248124,1,8,0:0:0:0:
256,192,248152,1,8,0:0:0:0:
256,192,248180,1,8,0:0:0:0:
256,192,248263,1,0,0:0:0:0:
256,192,248291,1,0,0:0:0:0:
256,192,248318,1,0,0:0:0:0:
256,192,248346,1,0,0:0:0:0:
256,192,248430,1,12,0:0:0:0:
256,192,248513,1,0,0:0:0:0:
256,192,248555,1,0,0:0:0:0:
256,192,248596,1,8,0:0:0:0:
256,192,248680,1,8,0:0:0:0:
256,192,248763,1,0,0:0:0:0:
256,192,248846,1,0,0:0:0:0:
256,192,248930,1,8,0:0:0:0:
256,192,249013,1,8,0:0:0:0:
256,192,249096,1,0,0:0:0:0:
256,192,249180,1,0,0:0:0:0:
256,192,249221,1,0,0:0:0:0:
256,192,249263,1,8,0:0:0:0:
256,192,249346,1,8,0:0:0:0:
256,192,249430,1,0,0:0:0:0:
256,192,249513,1,8,0:0:0:0:
256,192,249596,1,0,0:0:0:0:
256,192,249680,1,8,0:0:0:0:
256,192,249763,1,0,0:0:0:0:
256,192,249846,1,0,0:0:0:0:
256,192,249888,1,0,0:0:0:0:
256,192,249930,1,8,0:0:0:0:
256,192,250013,1,8,0:0:0:0:
256,192,250096,1,0,0:0:0:0:
256,192,250180,1,0,0:0:0:0:
256,192,250263,1,8,0:0:0:0:
256,192,250346,1,8,0:0:0:0:
256,192,250430,1,0,0:0:0:0:
256,192,250513,1,0,0:0:0:0:
256,192,250555,1,0,0:0:0:0:
256,192,250596,1,8,0:0:0:0:
256,192,250680,1,0,0:0:0:0:
256,192,250763,1,8,0:0:0:0:
256,192,250805,1,8,0:0:0:0:
256,192,250846,1,0,0:0:0:0:
256,192,250888,1,0,0:0:0:0:
256,192,250930,1,8,0:0:0:0:
256,192,251013,1,0,0:0:0:0:
256,192,251096,1,8,0:0:0:0:
256,192,251138,1,8,0:0:0:0:
256,192,251180,1,0,0:0:0:0:
256,192,251263,1,0,0:0:0:0:
256,192,251346,1,8,0:0:0:0:
256,192,251430,1,0,0:0:0:0:
256,192,251596,1,8,0:0:0:0:
256,192,251638,1,8,0:0:0:0:
256,192,251680,1,0,0:0:0:0:
256,192,251763,1,0,0:0:0:0:
256,192,251846,1,8,0:0:0:0:
256,192,251930,1,0,0:0:0:0:
256,192,252096,1,8,0:0:0:0:
256,192,252138,1,8,0:0:0:0:
256,192,252180,1,8,0:0:0:0:
256,192,252263,1,0,0:0:0:0:
256,192,252346,1,8,0:0:0:0:
256,192,252430,1,0,0:0:0:0:
256,192,252471,1,0,0:0:0:0:
256,192,252513,1,0,0:0:0:0:
256,192,252596,1,8,0:0:0:0:
256,192,252680,1,0,0:0:0:0:
256,192,252763,1,0,0:0:0:0:
256,192,252930,1,0,0:0:0:0:
256,192,253013,1,8,0:0:0:0:
256,192,253096,1,0,0:0:0:0:
256,192,253138,1,0,0:0:0:0:
256,192,253180,1,8,0:0:0:0:
256,192,253221,1,0,0:0:0:0:
256,192,253263,1,8,0:0:0:0:
256,192,253346,1,8,0:0:0:0:
256,192,253430,1,0,0:0:0:0:
256,192,253457,1,0,0:0:0:0:
256,192,253485,1,0,0:0:0:0:
256,192,253513,1,0,0:0:0:0:
256,192,253596,1,8,0:0:0:0:
256,192,253624,1,8,0:0:0:0:
256,192,253652,1,8,0:0:0:0:
256,192,253680,1,8,0:0:0:0:
256,192,253763,1,4,0:0:0:0:
256,192,253846,1,0,0:0:0:0:
256,192,253888,1,0,0:0:0:0:
256,192,253929,1,8,0:0:0:0:
256,192,254013,1,8,0:0:0:0:
256,192,254096,1,0,0:0:0:0:
256,192,254179,1,0,0:0:0:0:
256,192,254263,1,8,0:0:0:0:
256,192,254346,1,8,0:0:0:0:
256,192,254429,1,0,0:0:0:0:
256,192,254513,1,0,0:0:0:0:
256,192,254554,1,0,0:0:0:0:
256,192,254596,1,8,0:0:0:0:
256,192,254679,1,8,0:0:0:0:
256,192,254763,1,0,0:0:0:0:
256,192,254804,1,0,0:0:0:0:
256,192,254846,1,8,0:0:0:0:
256,192,254888,1,8,0:0:0:0:
256,192,254929,1,0,0:0:0:0:
256,192,255013,1,8,0:0:0:0:
256,192,255096,1,0,0:0:0:0:
256,192,255263,1,8,0:0:0:0:
256,192,255346,1,8,0:0:0:0:
256,192,255429,1,0,0:0:0:0:
256,192,255513,1,0,0:0:0:0:
256,192,255596,1,8,0:0:0:0:
256,192,255679,1,8,0:0:0:0:
256,192,255763,1,0,0:0:0:0:
256,192,255846,1,0,0:0:0:0:
256,192,255888,1,0,0:0:0:0:
256,192,255929,1,8,0:0:0:0:
256,192,256013,1,0,0:0:0:0:
256,192,256096,1,8,0:0:0:0:
256,192,256138,1,0,0:0:0:0:
256,192,256179,1,8,0:0:0:0:
256,192,256221,1,8,0:0:0:0:
256,192,256263,1,0,0:0:0:0:
256,192,256346,1,8,0:0:0:0:
256,192,256429,1,0,0:0:0:0:
256,192,256596,1,8,0:0:0:0:
256,192,256679,1,8,0:0:0:0:
256,192,256763,1,0,0:0:0:0:
256,192,256846,1,0,0:0:0:0:
256,192,256929,1,8,0:0:0:0:
256,192,256971,1,8,0:0:0:0:
256,192,257013,1,0,0:0:0:0:
256,192,257054,1,0,0:0:0:0:
256,192,257096,1,8,0:0:0:0:
256,192,257179,1,0,0:0:0:0:
256,192,257263,1,8,0:0:0:0:
256,192,257346,1,8,0:0:0:0:
256,192,257388,1,8,0:0:0:0:
256,192,257429,1,0,0:0:0:0:
256,192,257513,1,8,0:0:0:0:
256,192,257596,1,0,0:0:0:0:
256,192,257638,1,0,0:0:0:0:
256,192,257679,1,8,0:0:0:0:
256,192,257721,1,8,0:0:0:0:
256,192,257763,1,0,0:0:0:0:
256,192,257929,1,8,0:0:0:0:
256,192,257971,1,8,0:0:0:0:
256,192,258013,1,0,0:0:0:0:
256,192,258054,1,0,0:0:0:0:
256,192,258096,1,8,0:0:0:0:
256,192,258179,1,0,0:0:0:0:
256,192,258263,1,0,0:0:0:0:
256,192,258429,1,0,0:0:0:0:
256,192,258471,1,0,0:0:0:0:
256,192,258513,1,8,0:0:0:0:
256,192,258554,1,8,0:0:0:0:
256,192,258596,1,0,0:0:0:0:
256,192,258679,1,0,0:0:0:0:
256,192,258763,1,8,0:0:0:0:
256,192,258846,1,0,0:0:0:0:
256,192,258929,1,8,0:0:0:0:
256,192,258957,1,8,0:0:0:0:
256,192,258985,1,8,0:0:0:0:
256,192,259013,1,8,0:0:0:0:
256,192,259096,1,4,0:0:0:0:
256,192,259179,1,0,0:0:0:0:
256,192,259221,1,0,0:0:0:0:
256,192,259263,1,8,0:0:0:0:
256,192,259346,1,8,0:0:0:0:
256,192,259429,1,0,0:0:0:0:
256,192,259513,1,0,0:0:0:0:
256,192,259596,1,8,0:0:0:0:
256,192,259679,1,8,0:0:0:0:
256,192,259763,1,0,0:0:0:0:
256,192,259846,1,0,0:0:0:0:
256,192,259888,1,0,0:0:0:0:
256,192,259929,1,8,0:0:0:0:
256,192,260013,1,8,0:0:0:0:
256,192,260096,1,0,0:0:0:0:
256,192,260179,1,8,0:0:0:0:
256,192,260263,1,8,0:0:0:0:
256,192,260346,1,8,0:0:0:0:
256,192,260430,1,0,0:0:0:0:
256,192,260597,1,8,0:0:0:0:
256,192,260639,1,8,0:0:0:0:
256,192,260680,1,0,0:0:0:0:
256,192,260764,1,8,0:0:0:0:
256,192,260805,1,8,0:0:0:0:
256,192,260847,1,0,0:0:0:0:
256,192,260889,1,0,0:0:0:0:
256,192,260930,1,8,0:0:0:0:
256,192,261014,1,0,0:0:0:0:
256,192,261096,1,8,0:0:0:0:
256,192,261138,1,8,0:0:0:0:
256,192,261180,1,0,0:0:0:0:
256,192,261264,1,0,0:0:0:0:
256,192,261346,1,8,0:0:0:0:
256,192,261388,1,0,0:0:0:0:
256,192,261430,1,0,0:0:0:0:
256,192,261513,1,0,0:0:0:0:
256,192,261597,1,8,0:0:0:0:
256,192,261680,1,8,0:0:0:0:
256,192,261763,1,0,0:0:0:0:
256,192,261846,1,0,0:0:0:0:
256,192,261888,1,0,0:0:0:0:
256,192,261929,1,8,0:0:0:0:
256,192,262013,1,8,0:0:0:0:
256,192,262096,1,0,0:0:0:0:
256,192,262179,1,0,0:0:0:0:
256,192,262263,1,8,0:0:0:0:
256,192,262346,1,8,0:0:0:0:
256,192,262429,1,0,0:0:0:0:
256,192,262513,1,0,0:0:0:0:
256,192,262554,1,0,0:0:0:0:
256,192,262596,1,8,0:0:0:0:
256,192,262679,1,8,0:0:0:0:
256,192,262763,1,0,0:0:0:0:
256,192,262846,1,8,0:0:0:0:
256,192,262929,1,0,0:0:0:0:
256,192,263013,1,8,0:0:0:0:
256,192,263096,1,0,0:0:0:0:
256,192,263263,1,8,0:0:0:0:
256,192,263304,1,8,0:0:0:0:
256,192,263346,1,0,0:0:0:0:
256,192,263429,1,0,0:0:0:0:
256,192,263596,1,0,0:0:0:0:
256,192,263679,1,0,0:0:0:0:
256,192,263763,1,8,0:0:0:0:
256,192,263804,1,8,0:0:0:0:
256,192,263846,1,0,0:0:0:0:
256,192,263888,1,0,0:0:0:0:
256,192,263929,1,8,0:0:0:0:
256,192,264013,1,0,0:0:0:0:
256,192,264096,1,8,0:0:0:0:
256,192,264124,1,8,0:0:0:0:
256,192,264151,1,8,0:0:0:0:
256,192,264179,1,8,0:0:0:0:
256,192,264263,1,0,0:0:0:0:
256,192,264290,1,0,0:0:0:0:
256,192,264318,1,0,0:0:0:0:
256,192,264346,1,0,0:0:0:0:
256,192,264429,1,12,0:0:0:0:
256,192,264513,1,0,0:0:0:0:
256,192,264554,1,0,0:0:0:0:
256,192,264596,1,8,0:0:0:0:
256,192,264679,1,8,0:0:0:0:
256,192,264763,1,0,0:0:0:0:
256,192,264846,1,0,0:0:0:0:
256,192,264929,1,8,0:0:0:0:
256,192,265013,1,8,0:0:0:0:
256,192,265096,1,0,0:0:0:0:
256,192,265179,1,0,0:0:0:0:
256,192,265221,1,0,0:0:0:0:
256,192,265263,1,8,0:0:0:0:
256,192,265346,1,0,0:0:0:0:
256,192,265429,1,8,0:0:0:0:
256,192,265471,1,0,0:0:0:0:
256,192,265513,1,8,0:0:0:0:
256,192,265554,1,8,0:0:0:0:
256,192,265596,1,0,0:0:0:0:
256,192,265679,1,8,0:0:0:0:
256,192,265763,1,0,0:0:0:0:
256,192,265929,1,8,0:0:0:0:
256,192,266013,1,8,0:0:0:0:
256,192,266096,1,0,0:0:0:0:
256,192,266179,1,0,0:0:0:0:
256,192,266263,1,8,0:0:0:0:
256,192,266346,1,8,0:0:0:0:
256,192,266429,1,0,0:0:0:0:
256,192,266513,1,8,0:0:0:0:
256,192,266554,1,8,0:0:0:0:
256,192,266596,1,0,0:0:0:0:
256,192,266679,1,8,0:0:0:0:
256,192,266763,1,0,0:0:0:0:
256,192,266804,1,0,0:0:0:0:
256,192,266846,1,8,0:0:0:0:
256,192,266888,1,0,0:0:0:0:
256,192,266929,1,8,0:0:0:0:
256,192,267013,1,0,0:0:0:0:
256,192,267096,1,8,0:0:0:0:
256,192,267138,1,8,0:0:0:0:
256,192,267179,1,8,0:0:0:0:
256,192,267263,1,0,0:0:0:0:
256,192,267346,1,8,0:0:0:0:
256,192,267429,1,0,0:0:0:0:
256,192,267513,1,0,0:0:0:0:
256,192,267596,1,8,0:0:0:0:
256,192,267638,1,8,0:0:0:0:
256,192,267679,1,0,0:0:0:0:
256,192,267763,1,8,0:0:0:0:
256,192,267846,1,8,0:0:0:0:
256,192,267930,1,0,0:0:0:0:
256,192,268013,1,8,0:0:0:0:
256,192,268096,1,0,0:0:0:0:
256,192,268179,1,0,0:0:0:0:
256,192,268263,1,8,0:0:0:0:
256,192,268304,1,8,0:0:0:0:
256,192,268346,1,0,0:0:0:0:
256,192,268388,1,0,0:0:0:0:
256,192,268429,1,8,0:0:0:0:
256,192,268513,1,8,0:0:0:0:
256,192,268596,1,0,0:0:0:0:
256,192,268679,1,0,0:0:0:0:
256,192,268721,1,0,0:0:0:0:
256,192,268763,1,8,0:0:0:0:
256,192,268804,1,8,0:0:0:0:
256,192,268846,1,8,0:0:0:0:
256,192,268888,1,8,0:0:0:0:
256,192,268929,1,0,0:0:0:0:
256,192,269096,1,0,0:0:0:0:
256,192,269179,1,0,0:0:0:0:
256,192,269221,1,0,0:0:0:0:
256,192,269263,1,8,0:0:0:0:
256,192,269346,1,0,0:0:0:0:
256,192,269429,1,8,0:0:0:0:
256,192,269457,1,8,0:0:0:0:
256,192,269485,1,8,0:0:0:0:
256,192,269513,1,8,0:0:0:0:
256,192,269596,1,0,0:0:0:0:
256,192,269624,1,0,0:0:0:0:
256,192,269651,1,0,0:0:0:0:
256,192,269679,1,0,0:0:0:0:
256,192,269763,1,12,0:0:0:0:
256,192,269846,1,0,0:0:0:0:
256,192,269888,1,0,0:0:0:0:
256,192,269929,1,8,0:0:0:0:
256,192,270013,1,8,0:0:0:0:
256,192,270096,1,0,0:0:0:0:
256,192,270179,1,0,0:0:0:0:
256,192,270263,1,8,0:0:0:0:
256,192,270346,1,8,0:0:0:0:
256,192,270429,1,0,0:0:0:0:
256,192,270513,1,0,0:0:0:0:
256,192,270554,1,0,0:0:0:0:
256,192,270596,1,8,0:0:0:0:
256,192,270679,1,8,0:0:0:0:
256,192,270763,1,0,0:0:0:0:
256,192,270846,1,8,0:0:0:0:
256,192,270929,1,0,0:0:0:0:
256,192,271013,1,8,0:0:0:0:
256,192,271096,1,0,0:0:0:0:
256,192,271263,1,8,0:0:0:0:
256,192,271346,1,8,0:0:0:0:
256,192,271429,1,0,0:0:0:0:
256,192,271513,1,0,0:0:0:0:
256,192,271596,1,8,0:0:0:0:
256,192,271679,1,8,0:0:0:0:
256,192,271763,1,0,0:0:0:0:
256,192,271846,1,0,0:0:0:0:
256,192,271888,1,0,0:0:0:0:
256,192,271929,1,8,0:0:0:0:
256,192,272013,5,0,0:0:0:0:
256,192,272096,1,8,0:0:0:0:
256,192,272138,1,8,0:0:0:0:
256,192,272179,1,0,0:0:0:0:
256,192,272221,1,0,0:0:0:0:
256,192,272263,1,8,0:0:0:0:
256,192,272346,1,0,0:0:0:0:
256,192,272430,1,8,0:0:0:0:
256,192,272471,1,8,0:0:0:0:
256,192,272513,1,0,0:0:0:0:
256,192,272555,1,8,0:0:0:0:
256,192,272596,1,0,0:0:0:0:
256,192,272638,1,0,0:0:0:0:
256,192,272680,1,8,0:0:0:0:
256,192,272721,1,8,0:0:0:0:
256,192,272763,1,0,0:0:0:0:
256,192,272805,1,0,0:0:0:0:
256,192,272846,1,0,0:0:0:0:
256,192,272888,1,0,0:0:0:0:
256,192,272930,1,8,0:0:0:0:
256,192,272971,1,8,0:0:0:0:
256,192,273013,1,0,0:0:0:0:
256,192,273055,1,0,0:0:0:0:
256,192,273096,1,8,0:0:0:0:
256,192,273138,1,8,0:0:0:0:
256,192,273180,1,0,0:0:0:0:
256,192,273221,1,8,0:0:0:0:
256,192,273263,1,0,0:0:0:0:
256,192,273305,1,0,0:0:0:0:
256,192,273346,1,8,0:0:0:0:
256,192,273388,1,8,0:0:0:0:
256,192,273430,1,0,0:0:0:0:
256,192,273471,1,0,0:0:0:0:
256,192,273513,1,0,0:0:0:0:
256,192,273555,1,0,0:0:0:0:
256,192,273596,1,8,0:0:0:0:
256,192,273638,1,8,0:0:0:0:
256,192,273680,1,0,0:0:0:0:
256,192,273721,1,0,0:0:0:0:
256,192,273763,1,8,0:0:0:0:
256,192,273805,1,8,0:0:0:0:
256,192,273846,1,8,0:0:0:0:
256,192,273888,1,8,0:0:0:0:
256,192,273930,1,0,0:0:0:0:
256,192,273971,1,0,0:0:0:0:
256,192,274013,1,0,0:0:0:0:
256,192,274055,1,0,0:0:0:0:
256,192,274096,1,8,0:0:0:0:
256,192,274138,1,8,0:0:0:0:
256,192,274180,1,8,0:0:0:0:
256,192,274221,1,8,0:0:0:0:
256,192,274263,1,0,0:0:0:0:
256,192,274305,1,0,0:0:0:0:
256,192,274346,1,0,0:0:0:0:
256,192,274388,1,0,0:0:0:0:
256,192,274430,1,8,0:0:0:0:
256,192,274471,1,8,0:0:0:0:
256,192,274513,1,0,0:0:0:0:
256,192,274555,1,0,0:0:0:0:
256,192,274596,1,8,0:0:0:0:
256,192,274638,1,8,0:0:0:0:
256,192,274680,1,0,0:0:0:0:
256,192,274721,1,0,0:0:0:0:
256,192,274763,1,8,0:0:0:0:
256,192,274805,1,8,0:0:0:0:
256,192,274846,1,8,0:0:0:0:
256,192,274888,1,8,0:0:0:0:
256,192,274930,1,0,0:0:0:0:
256,192,274971,1,0,0:0:0:0:
256,192,275013,1,8,0:0:0:0:
256,192,275055,1,8,0:0:0:0:
256,192,275096,1,4,0:0:0:0:
256,192,275180,1,0,0:0:0:0:
256,192,275221,1,0,0:0:0:0:
256,192,275263,1,8,0:0:0:0:
256,192,275346,1,0,0:0:0:0:
256,192,275430,1,8,0:0:0:0:
256,192,275471,1,8,0:0:0:0:
256,192,275513,1,0,0:0:0:0:
256,192,275555,1,0,0:0:0:0:
256,192,275596,1,8,0:0:0:0:
256,192,275680,1,0,0:0:0:0:
256,192,275763,1,8,0:0:0:0:
256,192,275846,1,0,0:0:0:0:
256,192,275888,1,0,0:0:0:0:
256,192,275930,1,8,0:0:0:0:
256,192,276013,1,0,0:0:0:0:
256,192,276096,1,8,0:0:0:0:
256,192,276138,1,0,0:0:0:0:
256,192,276180,1,8,0:0:0:0:
256,192,276221,1,8,0:0:0:0:
256,192,276263,1,0,0:0:0:0:
256,192,276346,1,8,0:0:0:0:
256,192,276388,1,8,0:0:0:0:
256,192,276430,1,0,0:0:0:0:
256,192,276513,1,0,0:0:0:0:
256,192,276555,1,0,0:0:0:0:
256,192,276596,1,8,0:0:0:0:
256,192,276680,1,0,0:0:0:0:
256,192,276763,1,8,0:0:0:0:
256,192,276805,1,8,0:0:0:0:
256,192,276846,1,0,0:0:0:0:
256,192,276888,1,0,0:0:0:0:
256,192,276930,1,8,0:0:0:0:
256,192,277013,1,0,0:0:0:0:
256,192,277096,1,8,0:0:0:0:
256,192,277180,1,0,0:0:0:0:
256,192,277221,1,0,0:0:0:0:
256,192,277263,1,8,0:0:0:0:
256,192,277346,1,0,0:0:0:0:
256,192,277430,1,8,0:0:0:0:
256,192,277471,1,0,0:0:0:0:
256,192,277513,1,8,0:0:0:0:
256,192,277555,1,8,0:0:0:0:
256,192,277596,1,0,0:0:0:0:
256,192,277638,1,0,0:0:0:0:
256,192,277680,1,8,0:0:0:0:
256,192,277721,1,8,0:0:0:0:
256,192,277763,1,0,0:0:0:0:
256,192,277846,1,0,0:0:0:0:
256,192,277888,1,0,0:0:0:0:
256,192,277930,1,8,0:0:0:0:
256,192,278013,1,0,0:0:0:0:
256,192,278096,1,8,0:0:0:0:
256,192,278138,1,8,0:0:0:0:
256,192,278180,1,0,0:0:0:0:
256,192,278221,1,0,0:0:0:0:
256,192,278263,1,8,0:0:0:0:
256,192,278346,1,8,0:0:0:0:
256,192,278430,1,0,0:0:0:0:
256,192,278513,1,8,0:0:0:0:
256,192,278555,1,8,0:0:0:0:
256,192,278596,1,0,0:0:0:0:
256,192,278680,1,8,0:0:0:0:
256,192,278763,1,0,0:0:0:0:
256,192,278805,1,8,0:0:0:0:
256,192,278846,1,8,0:0:0:0:
256,192,278888,1,8,0:0:0:0:
256,192,278930,1,0,0:0:0:0:
256,192,279013,1,8,0:0:0:0:
256,192,279055,1,8,0:0:0:0:
256,192,279096,1,0,0:0:0:0:
256,192,279180,1,0,0:0:0:0:
256,192,279221,1,0,0:0:0:0:
256,192,279263,1,8,0:0:0:0:
256,192,279346,1,0,0:0:0:0:
256,192,279430,1,8,0:0:0:0:
256,192,279471,1,8,0:0:0:0:
256,192,279513,1,0,0:0:0:0:
256,192,279555,1,0,0:0:0:0:
256,192,279596,1,8,0:0:0:0:
256,192,279680,1,0,0:0:0:0:
256,192,279763,1,8,0:0:0:0:
256,192,279846,1,0,0:0:0:0:
256,192,279888,1,0,0:0:0:0:
256,192,279930,1,8,0:0:0:0:
256,192,280013,1,0,0:0:0:0:
256,192,280096,1,8,0:0:0:0:
256,192,280124,1,8,0:0:0:0:
256,192,280152,1,8,0:0:0:0:
256,192,280180,1,8,0:0:0:0:
256,192,280263,1,0,0:0:0:0:
256,192,280291,1,0,0:0:0:0:
256,192,280318,1,0,0:0:0:0:
256,192,280346,1,0,0:0:0:0:
256,192,280430,1,4,0:0:0:0:
256,192,280513,1,0,0:0:0:0:
256,192,280555,1,0,0:0:0:0:
256,192,280596,1,8,0:0:0:0:
256,192,280680,1,0,0:0:0:0:
256,192,280763,1,8,0:0:0:0:
256,192,280805,1,8,0:0:0:0:
256,192,280846,1,0,0:0:0:0:
256,192,280888,1,0,0:0:0:0:
256,192,280930,1,8,0:0:0:0:
256,192,281013,1,0,0:0:0:0:
256,192,281096,1,8,0:0:0:0:
256,192,281180,1,0,0:0:0:0:
256,192,281221,1,0,0:0:0:0:
256,192,281263,1,8,0:0:0:0:
256,192,281346,1,0,0:0:0:0:
256,192,281430,1,8,0:0:0:0:
256,192,281471,1,8,0:0:0:0:
256,192,281513,1,0,0:0:0:0:
256,192,281596,1,8,0:0:0:0:
256,192,281680,1,0,0:0:0:0:
256,192,281721,1,0,0:0:0:0:
256,192,281763,1,8,0:0:0:0:
256,192,281805,1,8,0:0:0:0:
256,192,281846,1,0,0:0:0:0:
256,192,281930,1,8,0:0:0:0:
256,192,281971,1,8,0:0:0:0:
256,192,282013,1,0,0:0:0:0:
256,192,282055,1,0,0:0:0:0:
256,192,282096,1,8,0:0:0:0:
256,192,282180,1,0,0:0:0:0:
256,192,282221,1,0,0:0:0:0:
256,192,282263,1,8,0:0:0:0:
256,192,282346,1,0,0:0:0:0:
256,192,282430,1,8,0:0:0:0:
256,192,282471,1,8,0:0:0:0:
256,192,282513,1,0,0:0:0:0:
256,192,282596,1,0,0:0:0:0:
256,192,282680,1,8,0:0:0:0:
256,192,282721,1,0,0:0:0:0:
256,192,282763,1,0,0:0:0:0:
256,192,282846,1,0,0:0:0:0:
256,192,282930,1,8,0:0:0:0:
256,192,282971,1,8,0:0:0:0:
256,192,283013,1,8,0:0:0:0:
256,192,283055,1,8,0:0:0:0:
256,192,283096,1,0,0:0:0:0:
256,192,283180,1,0,0:0:0:0:
256,192,283221,1,0,0:0:0:0:
256,192,283263,1,8,0:0:0:0:
256,192,283346,1,0,0:0:0:0:
256,192,283430,1,8,0:0:0:0:
256,192,283471,1,8,0:0:0:0:
256,192,283513,1,0,0:0:0:0:
256,192,283555,1,0,0:0:0:0:
256,192,283596,1,8,0:0:0:0:
256,192,283680,1,0,0:0:0:0:
256,192,283763,1,8,0:0:0:0:
256,192,283846,1,0,0:0:0:0:
256,192,283888,1,0,0:0:0:0:
256,192,283930,1,8,0:0:0:0:
256,192,284013,1,0,0:0:0:0:
256,192,284096,1,8,0:0:0:0:
256,192,284138,1,0,0:0:0:0:
256,192,284180,1,8,0:0:0:0:
256,192,284221,1,8,0:0:0:0:
256,192,284263,1,0,0:0:0:0:
256,192,284346,1,8,0:0:0:0:
256,192,284388,1,8,0:0:0:0:
256,192,284430,1,0,0:0:0:0:
256,192,284457,1,0,0:0:0:0:
256,192,284485,1,0,0:0:0:0:
256,192,284513,1,0,0:0:0:0:
256,192,284596,1,8,0:0:0:0:
256,192,284680,1,0,0:0:0:0:
256,192,284707,1,0,0:0:0:0:
256,192,284735,1,0,0:0:0:0:
256,192,284763,1,0,0:0:0:0:
256,192,284846,1,0,0:0:0:0:
256,192,284930,1,8,0:0:0:0:
256,192,284957,1,8,0:0:0:0:
256,192,284985,1,8,0:0:0:0:
256,192,285013,1,8,0:0:0:0:
256,192,285096,1,0,0:0:0:0:
256,192,285180,1,0,0:0:0:0:
256,192,285221,1,0,0:0:0:0:
256,192,285263,1,8,0:0:0:0:
256,192,285346,1,8,0:0:0:0:
256,192,285430,1,0,0:0:0:0:
256,192,285457,1,0,0:0:0:0:
256,192,285485,1,0,0:0:0:0:
256,192,285513,1,0,0:0:0:0:
256,192,285596,1,8,0:0:0:0:
256,192,285624,1,8,0:0:0:0:
256,192,285652,1,8,0:0:0:0:
256,192,285679,1,8,0:0:0:0:
256,192,285763,1,4,0:0:0:0:
256,192,285846,1,0,0:0:0:0:
256,192,285888,1,0,0:0:0:0:
256,192,285930,1,8,0:0:0:0:
256,192,286013,1,0,0:0:0:0:
256,192,286096,1,8,0:0:0:0:
256,192,286138,1,8,0:0:0:0:
256,192,286180,1,0,0:0:0:0:
256,192,286221,1,0,0:0:0:0:
256,192,286263,1,8,0:0:0:0:
256,192,286346,1,0,0:0:0:0:
256,192,286430,1,8,0:0:0:0:
256,192,286513,1,0,0:0:0:0:
256,192,286555,1,0,0:0:0:0:
256,192,286596,1,8,0:0:0:0:
256,192,286680,1,0,0:0:0:0:
256,192,286763,1,8,0:0:0:0:
256,192,286805,1,0,0:0:0:0:
256,192,286846,1,8,0:0:0:0:
256,192,286888,1,8,0:0:0:0:
256,192,286930,1,0,0:0:0:0:
256,192,287013,1,8,0:0:0:0:
256,192,287055,1,8,0:0:0:0:
256,192,287096,1,0,0:0:0:0:
256,192,287180,1,0,0:0:0:0:
256,192,287221,1,0,0:0:0:0:
256,192,287263,1,8,0:0:0:0:
256,192,287346,1,0,0:0:0:0:
256,192,287430,1,8,0:0:0:0:
256,192,287471,1,8,0:0:0:0:
256,192,287513,1,0,0:0:0:0:
256,192,287555,1,0,0:0:0:0:
256,192,287596,1,8,0:0:0:0:
256,192,287680,1,8,0:0:0:0:
256,192,287763,1,0,0:0:0:0:
256,192,287846,1,8,0:0:0:0:
256,192,287888,1,8,0:0:0:0:
256,192,287930,1,0,0:0:0:0:
256,192,288013,1,8,0:0:0:0:
256,192,288096,1,0,0:0:0:0:
256,192,288138,1,0,0:0:0:0:
256,192,288180,1,8,0:0:0:0:
256,192,288221,1,0,0:0:0:0:
256,192,288263,1,8,0:0:0:0:
256,192,288305,1,8,0:0:0:0:
256,192,288346,1,0,0:0:0:0:
256,192,288430,1,12,0:0:0:0:
256,192,288513,1,0,0:0:0:0:
256,192,288555,1,0,0:0:0:0:
256,192,288596,1,8,0:0:0:0:
256,192,288680,1,0,0:0:0:0:
256,192,288763,1,8,0:0:0:0:
256,192,288805,1,8,0:0:0:0:
256,192,288846,1,0,0:0:0:0:
256,192,288888,1,0,0:0:0:0:
256,192,288930,1,8,0:0:0:0:
256,192,289013,1,0,0:0:0:0:
256,192,289096,1,8,0:0:0:0:
256,192,289180,1,8,0:0:0:0:
256,192,289221,1,8,0:0:0:0:
256,192,289263,1,0,0:0:0:0:
256,192,289346,1,8,0:0:0:0:
256,192,289430,1,0,0:0:0:0:
256,192,289471,1,0,0:0:0:0:
256,192,289513,1,8,0:0:0:0:
256,192,289555,1,8,0:0:0:0:
256,192,289596,1,0,0:0:0:0:
256,192,289680,1,8,0:0:0:0:
256,192,289721,1,8,0:0:0:0:
256,192,289763,1,0,0:0:0:0:
256,192,289805,1,8,0:0:0:0:
256,192,289846,1,0,0:0:0:0:
256,192,289888,1,0,0:0:0:0:
256,192,289930,1,8,0:0:0:0:
256,192,290013,1,0,0:0:0:0:
256,192,290096,1,8,0:0:0:0:
256,192,290138,1,8,0:0:0:0:
256,192,290180,1,0,0:0:0:0:
256,192,290221,1,0,0:0:0:0:
256,192,290263,1,8,0:0:0:0:
256,192,290346,1,0,0:0:0:0:
256,192,290430,1,8,0:0:0:0:
256,192,290513,1,0,0:0:0:0:
256,192,290555,1,0,0:0:0:0:
256,192,290596,1,8,0:0:0:0:
256,192,290638,1,8,0:0:0:0:
256,192,290680,1,0,0:0:0:0:
256,192,290763,1,8,0:0:0:0:
256,192,290791,1,8,0:0:0:0:
256,192,290819,1,8,0:0:0:0:
256,192,290846,1,8,0:0:0:0:
256,192,290930,1,0,0:0:0:0:
256,192,290958,1,0,0:0:0:0:
256,192,290985,1,0,0:0:0:0:
256,192,291013,1,0,0:0:0:0:
256,192,291096,1,4,0:0:0:0:
256,192,291180,1,0,0:0:0:0:
256,192,291221,1,0,0:0:0:0:
256,192,291263,1,8,0:0:0:0:
256,192,291346,1,0,0:0:0:0:
256,192,291430,1,8,0:0:0:0:
256,192,291471,1,8,0:0:0:0:
256,192,291513,1,0,0:0:0:0:
256,192,291555,1,0,0:0:0:0:
256,192,291596,1,8,0:0:0:0:
256,192,291680,1,0,0:0:0:0:
256,192,291763,1,8,0:0:0:0:
256,192,291846,1,0,0:0:0:0:
256,192,291888,1,0,0:0:0:0:
256,192,291930,1,8,0:0:0:0:
256,192,292013,1,0,0:0:0:0:
256,192,292096,1,8,0:0:0:0:
256,192,292138,1,0,0:0:0:0:
256,192,292180,1,8,0:0:0:0:
256,192,292221,1,8,0:0:0:0:
256,192,292263,1,0,0:0:0:0:
256,192,292346,1,8,0:0:0:0:
256,192,292388,1,8,0:0:0:0:
256,192,292430,1,4,0:0:0:0:
256,192,292513,1,0,0:0:0:0:
256,192,292555,1,0,0:0:0:0:
256,192,292596,1,8,0:0:0:0:
256,192,292680,1,0,0:0:0:0:
256,192,292763,1,8,0:0:0:0:
256,192,292805,1,8,0:0:0:0:
256,192,292846,1,0,0:0:0:0:
256,192,292888,1,0,0:0:0:0:
256,192,292930,1,8,0:0:0:0:
256,192,293013,1,0,0:0:0:0:
256,192,293096,1,8,0:0:0:0:
256,192,293180,1,0,0:0:0:0:
256,192,293221,1,0,0:0:0:0:
256,192,293263,1,8,0:0:0:0:
256,192,293346,1,0,0:0:0:0:
256,192,293430,1,8,0:0:0:0:
256,192,293471,1,0,0:0:0:0:
256,192,293513,1,0,0:0:0:0:
256,192,293596,1,8,0:0:0:0:
256,192,293638,1,8,0:0:0:0:
256,192,293680,1,0,0:0:0:0:
256,192,293721,1,0,0:0:0:0:
256,192,293763,1,8,0:0:0:0:
256,192,293804,1,8,0:0:0:0:
256,192,293846,1,0,0:0:0:0:
256,192,293888,1,8,0:0:0:0:
256,192,293929,1,0,0:0:0:0:
256,192,293971,1,0,0:0:0:0:
256,192,294013,1,8,0:0:0:0:
256,192,294054,1,8,0:0:0:0:
256,192,294096,1,0,0:0:0:0:
256,192,294138,1,0,0:0:0:0:
256,192,294179,1,0,0:0:0:0:
256,192,294221,1,0,0:0:0:0:
256,192,294263,1,8,0:0:0:0:
256,192,294304,1,8,0:0:0:0:
256,192,294346,1,0,0:0:0:0:
256,192,294388,1,0,0:0:0:0:
256,192,294429,1,8,0:0:0:0:
256,192,294471,1,8,0:0:0:0:
256,192,294513,1,0,0:0:0:0:
256,192,294554,1,8,0:0:0:0:
256,192,294596,1,0,0:0:0:0:
256,192,294638,1,0,0:0:0:0:
256,192,294679,1,8,0:0:0:0:
256,192,294721,1,8,0:0:0:0:
256,192,294763,1,0,0:0:0:0:
256,192,294804,1,0,0:0:0:0:
256,192,294846,1,0,0:0:0:0:
256,192,294888,1,0,0:0:0:0:
256,192,294929,1,8,0:0:0:0:
256,192,294971,1,8,0:0:0:0:
256,192,295013,1,0,0:0:0:0:
256,192,295054,1,0,0:0:0:0:
256,192,295096,1,8,0:0:0:0:
256,192,295138,1,8,0:0:0:0:
256,192,295179,1,8,0:0:0:0:
256,192,295221,1,8,0:0:0:0:
256,192,295263,1,0,0:0:0:0:
256,192,295304,1,0,0:0:0:0:
256,192,295346,1,0,0:0:0:0:
256,192,295388,1,0,0:0:0:0:
256,192,295429,1,8,0:0:0:0:
256,192,295471,1,8,0:0:0:0:
256,192,295513,1,8,0:0:0:0:
256,192,295554,1,8,0:0:0:0:
256,192,295596,1,0,0:0:0:0:
256,192,295638,1,0,0:0:0:0:
256,192,295679,1,0,0:0:0:0:
256,192,295721,1,0,0:0:0:0:
256,192,295763,1,8,0:0:0:0:
256,192,295804,1,8,0:0:0:0:
256,192,295846,1,0,0:0:0:0:
256,192,295888,1,0,0:0:0:0:
256,192,295929,1,8,0:0:0:0:
256,192,295971,1,8,0:0:0:0:
256,192,296013,1,0,0:0:0:0:
256,192,296054,1,0,0:0:0:0:
256,192,296096,1,8,0:0:0:0:
256,192,296138,1,8,0:0:0:0:
256,192,296179,1,8,0:0:0:0:
256,192,296221,1,8,0:0:0:0:
256,192,296263,1,0,0:0:0:0:
256,192,296304,1,0,0:0:0:0:
256,192,296346,1,0,0:0:0:0:
256,192,296388,1,0,0:0:0:0:
256,192,296429,1,12,0:0:0:0:
256,192,296478,12,0,296817,0:0:0:0:
256,192,297204,5,12,0:0:0:0:
256,192,297591,1,0,0:0:0:0:
256,192,297784,1,0,0:0:0:0:
256,192,297978,1,8,0:0:0:0:
256,192,298365,1,0,0:0:0:0:
256,192,298752,1,0,0:0:0:0:
256,192,299139,1,8,0:0:0:0:
256,192,299204,1,0,0:0:0:0:
256,192,299268,1,0,0:0:0:0:
256,192,299333,1,0,0:0:0:0:
256,192,299397,1,0,0:0:0:0:
256,192,299462,1,0,0:0:0:0:
256,192,299526,1,8,0:0:0:0:
256,192,299913,1,0,0:0:0:0:
256,192,300107,1,8,0:0:0:0:
256,192,300300,1,8,0:0:0:0:
256,192,300688,1,8,0:0:0:0:
256,192,301075,1,0,0:0:0:0:
256,192,301462,1,0,0:0:0:0:
256,192,301849,1,8,0:0:0:0:
256,192,302042,1,0,0:0:0:0:
256,192,302236,1,8,0:0:0:0:
256,192,302623,1,8,0:0:0:0:
256,192,303010,1,0,0:0:0:0:
256,192,303397,1,8,0:0:0:0:
256,192,303591,1,0,0:0:0:0:
256,192,303784,1,8,0:0:0:0:
256,192,303849,1,0,0:0:0:0:
256,192,303913,1,0,0:0:0:0:
256,192,303978,1,8,0:0:0:0:
256,192,304042,1,8,0:0:0:0:
256,192,304107,1,8,0:0:0:0:
256,192,304171,1,0,0:0:0:0:
256,192,304365,1,8,0:0:0:0:
256,192,304559,1,0,0:0:0:0:
256,192,304752,1,8,0:0:0:0:
256,192,304946,1,8,0:0:0:0:
256,192,305139,1,0,0:0:0:0:
256,192,305526,1,8,0:0:0:0:
256,192,305720,1,0,0:0:0:0:
256,192,306107,1,0,0:0:0:0:
256,192,306300,1,8,0:0:0:0:
256,192,306397,1,8,0:0:0:0:
256,192,306688,1,0,0:0:0:0:
256,192,306881,1,8,0:0:0:0:
256,192,307268,1,0,0:0:0:0:
256,192,307462,1,8,0:0:0:0:
256,192,307655,1,0,0:0:0:0:
256,192,307849,1,0,0:0:0:0:
256,192,308042,1,8,0:0:0:0:
256,192,308430,1,8,0:0:0:0:
256,192,308817,1,0,0:0:0:0:
256,192,309204,1,0,0:0:0:0:
256,192,309591,1,8,0:0:0:0:
256,192,309784,1,0,0:0:0:0:
256,192,309978,1,8,0:0:0:0:
256,192,310042,1,0,0:0:0:0:
256,192,310107,1,0,0:0:0:0:
256,192,310171,1,0,0:0:0:0:
256,192,310236,1,0,0:0:0:0:
256,192,310300,1,0,0:0:0:0:
256,192,310365,1,8,0:0:0:0:
256,192,310752,1,0,0:0:0:0:
256,192,310946,1,8,0:0:0:0:
256,192,311333,1,0,0:0:0:0:
256,192,311526,1,8,0:0:0:0:
256,192,311720,1,0,0:0:0:0:
256,192,311913,1,8,0:0:0:0:
256,192,312300,1,8,0:0:0:0:
256,192,312494,1,0,0:0:0:0:
256,192,312881,1,0,0:0:0:0:
256,192,313075,1,8,0:0:0:0:
256,192,313268,1,0,0:0:0:0:
256,192,313655,1,0,0:0:0:0:
256,192,313849,1,8,0:0:0:0:
256,192,314042,1,0,0:0:0:0:
256,192,314236,1,8,0:0:0:0:
256,192,314430,1,8,0:0:0:0:
256,192,314817,1,8,0:0:0:0:
256,192,315010,1,0,0:0:0:0:
256,192,315397,1,0,0:0:0:0:
256,192,315591,1,0,0:0:0:0:
256,192,315784,1,8,0:0:0:0:
256,192,316171,1,8,0:0:0:0:
256,192,316365,1,0,0:0:0:0:
256,192,316559,1,8,0:0:0:0:
256,192,316946,1,8,0:0:0:0:
256,192,317010,1,0,0:0:0:0:
256,192,317075,1,0,0:0:0:0:
256,192,317139,1,8,0:0:0:0:
256,192,317204,1,8,0:0:0:0:
256,192,317268,1,8,0:0:0:0:
256,192,317333,1,0,0:0:0:0:
256,192,317720,1,8,0:0:0:0:
256,192,317913,1,0,0:0:0:0:
256,192,318107,1,8,0:0:0:0:
256,192,318494,1,8,0:0:0:0:
256,192,318688,1,0,0:0:0:0:
256,192,319075,1,0,0:0:0:0:
256,192,319268,1,8,0:0:0:0:
256,192,319655,12,0,320623,0:0:0:0:
256,192,320817,5,0,0:0:0:0:
256,192,321204,1,12,0:0:0:0:
256,192,321380,1,0,0:0:0:0:
256,192,321556,1,8,0:0:0:0:
256,192,321733,1,0,0:0:0:0:
256,192,321821,1,0,0:0:0:0:
256,192,321909,1,8,0:0:0:0:
256,192,322086,1,8,0:0:0:0:
256,192,322262,1,0,0:0:0:0:
256,192,322439,1,8,0:0:0:0:
256,192,322792,1,0,0:0:0:0:
256,192,322968,1,8,0:0:0:0:
256,192,323145,1,8,0:0:0:0:
256,192,323233,1,0,0:0:0:0:
256,192,323321,1,8,0:0:0:0:
256,192,323498,1,8,0:0:0:0:
256,192,323674,1,0,0:0:0:0:
256,192,323851,1,8,0:0:0:0:
256,192,324027,1,8,0:0:0:0:
256,192,324204,1,0,0:0:0:0:
256,192,324380,1,8,0:0:0:0:
256,192,324556,1,0,0:0:0:0:
256,192,324645,1,0,0:0:0:0:
256,192,324733,1,8,0:0:0:0:
256,192,324909,1,8,0:0:0:0:
256,192,325086,1,0,0:0:0:0:
256,192,325262,1,8,0:0:0:0:
256,192,325615,1,0,0:0:0:0:
256,192,325792,1,8,0:0:0:0:
256,192,325968,1,0,0:0:0:0:
256,192,326056,1,0,0:0:0:0:
256,192,326145,1,0,0:0:0:0:
256,192,326321,1,0,0:0:0:0:
256,192,326498,1,8,0:0:0:0:
256,192,326851,1,8,0:0:0:0:
256,192,327027,1,0,0:0:0:0:
256,192,327204,1,8,0:0:0:0:
256,192,327380,1,0,0:0:0:0:
256,192,327468,1,0,0:0:0:0:
256,192,327556,1,8,0:0:0:0:
256,192,327733,1,8,0:0:0:0:
256,192,327909,1,0,0:0:0:0:
256,192,328086,1,8,0:0:0:0:
256,192,328439,1,0,0:0:0:0:
256,192,328615,1,8,0:0:0:0:
256,192,328792,1,8,0:0:0:0:
256,192,328880,1,0,0:0:0:0:
256,192,328968,1,8,0:0:0:0:
256,192,329145,1,8,0:0:0:0:
256,192,329321,1,0,0:0:0:0:
256,192,329498,1,8,0:0:0:0:
256,192,329586,1,8,0:0:0:0:
256,192,329674,1,0,0:0:0:0:
256,192,329851,1,0,0:0:0:0:
256,192,330027,1,8,0:0:0:0:
256,192,330204,1,0,0:0:0:0:
256,192,330292,1,0,0:0:0:0:
256,192,330380,1,8,0:0:0:0:
256,192,330556,1,8,0:0:0:0:
256,192,330645,1,0,0:0:0:0:
256,192,330821,1,0,0:0:0:0:
256,192,330909,1,8,0:0:0:0:
256,192,331086,1,0,0:0:0:0:
256,192,331439,1,8,0:0:0:0:
256,192,331615,1,0,0:0:0:0:
256,192,331968,1,0,0:0:0:0:
256,192,332145,1,8,0:0:0:0:
256,192,332233,1,8,0:0:0:0:
256,192,332321,1,0,0:0:0:0:
256,192,332409,1,0,0:0:0:0:
256,192,332498,1,12,0:0:0:0:
256,192,332669,1,0,0:0:0:0:
256,192,332840,1,8,0:0:0:0:
256,192,333012,1,0,0:0:0:0:
256,192,333098,1,0,0:0:0:0:
256,192,333183,1,8,0:0:0:0:
256,192,333355,1,8,0:0:0:0:
256,192,333526,1,0,0:0:0:0:
256,192,333698,1,8,0:0:0:0:
256,192,334040,1,0,0:0:0:0:
256,192,334212,1,8,0:0:0:0:
256,192,334383,1,8,0:0:0:0:
256,192,334469,1,0,0:0:0:0:
256,192,334555,1,8,0:0:0:0:
256,192,334726,1,8,0:0:0:0:
256,192,334898,1,0,0:0:0:0:
256,192,335069,1,8,0:0:0:0:
256,192,335155,1,8,0:0:0:0:
256,192,335240,1,8,0:0:0:0:
256,192,335412,1,0,0:0:0:0:
256,192,335583,1,8,0:0:0:0:
256,192,335755,1,8,0:0:0:0:
256,192,335840,1,8,0:0:0:0:
256,192,335926,1,0,0:0:0:0:
256,192,336012,1,0,0:0:0:0:
256,192,336098,1,8,0:0:0:0:
256,192,336269,1,0,0:0:0:0:
256,192,336440,1,8,0:0:0:0:
256,192,336612,1,0,0:0:0:0:
256,192,336955,1,8,0:0:0:0:
256,192,337126,1,0,0:0:0:0:
256,192,337469,1,0,0:0:0:0:
256,192,337640,1,8,0:0:0:0:
256,192,337812,1,8,0:0:0:0:
256,192,337898,1,8,0:0:0:0:
256,192,337983,1,4,0:0:0:0:
256,192,338155,1,0,0:0:0:0:
256,192,338326,1,8,0:0:0:0:
256,192,338498,1,0,0:0:0:0:
256,192,338583,1,0,0:0:0:0:
256,192,338669,1,8,0:0:0:0:
256,192,338840,1,8,0:0:0:0:
256,192,339012,1,0,0:0:0:0:
256,192,339183,1,8,0:0:0:0:
256,192,339355,1,4,0:0:0:0:
256,192,339698,1,8,0:0:0:0:
256,192,339869,1,8,0:0:0:0:
256,192,339955,1,8,0:0:0:0:
256,192,340040,1,0,0:0:0:0:
256,192,340126,1,0,0:0:0:0:
256,192,340212,1,8,0:0:0:0:
256,192,340383,1,0,0:0:0:0:
256,192,340555,1,8,0:0:0:0:
256,192,340640,1,8,0:0:0:0:
256,192,340726,1,4,0:0:0:0:
256,192,340898,1,0,0:0:0:0:
256,192,341069,1,8,0:0:0:0:
256,192,341240,1,8,0:0:0:0:
256,192,341326,1,8,0:0:0:0:
256,192,341412,1,4,0:0:0:0:
256,192,341583,1,0,0:0:0:0:
256,192,341755,1,8,0:0:0:0:
256,192,341840,1,0,0:0:0:0:
256,192,341926,1,8,0:0:0:0:
256,192,342012,1,8,0:0:0:0:
256,192,342098,1,4,0:0:0:0:
256,192,342269,1,0,0:0:0:0:
256,192,342440,1,12,0:0:0:0:
256,192,342612,1,0,0:0:0:0:
256,192,342783,1,0,0:0:0:0:
256,192,342869,1,0,0:0:0:0:
256,192,342955,1,0,0:0:0:0:
256,192,343040,1,0,0:0:0:0:
256,192,343126,1,8,0:0:0:0:
256,192,343212,1,0,0:0:0:0:
256,192,343298,1,8,0:0:0:0:
256,192,343383,1,8,0:0:0:0:
256,192,343469,1,4,0:0:0:0:
256,192,343802,1,8,0:0:0:0:
256,192,344135,1,0,0:0:0:0:
256,192,344246,1,0,0:0:0:0:
256,192,344357,1,0,0:0:0:0:
256,192,344469,1,8,0:0:0:0:
256,192,344802,1,8,0:0:0:0:
256,192,344913,1,0,0:0:0:0:
256,192,345024,1,0,0:0:0:0:
256,192,345135,1,8,0:0:0:0:
256,192,345357,1,8,0:0:0:0:
256,192,345469,1,0,0:0:0:0:
256,192,345691,1,8,0:0:0:0:
256,192,346024,1,8,0:0:0:0:
256,192,346135,1,0,0:0:0:0:
256,192,346246,1,0,0:0:0:0:
256,192,346357,1,0,0:0:0:0:
256,192,346469,1,8,0:0:0:0:
256,192,346691,1,0,0:0:0:0:
256,192,346802,1,8,0:0:0:0:
256,192,347052,1,0,0:0:0:0:
256,192,347135,1,8,0:0:0:0:
256,192,347302,1,8,0:0:0:0:
256,192,347469,1,0,0:0:0:0:
256,192,347635,1,0,0:0:0:0:
256,192,347719,1,8,0:0:0:0:
256,192,347802,1,0,0:0:0:0:
256,192,347969,1,0,0:0:0:0:
256,192,348135,1,8,0:0:0:0:
256,192,348357,1,8,0:0:0:0:
256,192,348802,1,0,0:0:0:0:
256,192,349135,1,0,0:0:0:0:
256,192,349469,1,8,0:0:0:0:
256,192,349580,1,0,0:0:0:0:
256,192,349691,1,0,0:0:0:0:
256,192,349802,1,8,0:0:0:0:
256,192,350135,1,0,0:0:0:0:
256,192,350469,1,0,0:0:0:0:
256,192,350635,1,0,0:0:0:0:
256,192,350719,1,0,0:0:0:0:
256,192,350802,1,8,0:0:0:0:
256,192,350969,1,0,0:0:0:0:
256,192,351135,1,8,0:0:0:0:
256,192,351219,1,8,0:0:0:0:
256,192,351302,1,0,0:0:0:0:
256,192,351385,1,0,0:0:0:0:
256,192,351469,1,12,0:0:0:0:
256,192,351635,1,0,0:0:0:0:
256,192,351802,1,8,0:0:0:0:
256,192,351969,1,8,0:0:0:0:
256,192,352052,1,8,0:0:0:0:
256,192,352135,1,0,0:0:0:0:
256,192,352302,1,0,0:0:0:0:
256,192,352469,1,8,0:0:0:0:
256,192,352635,1,0,0:0:0:0:
256,192,352719,1,8,0:0:0:0:
256,192,352802,1,8,0:0:0:0:
256,192,352969,1,8,0:0:0:0:
256,192,353135,1,0,0:0:0:0:
256,192,353302,1,8,0:0:0:0:
256,192,353385,1,8,0:0:0:0:
256,192,353469,1,0,0:0:0:0:
256,192,353635,1,0,0:0:0:0:
256,192,353802,1,8,0:0:0:0:
256,192,353969,1,0,0:0:0:0:
256,192,354052,1,0,0:0:0:0:
256,192,354135,1,8,0:0:0:0:
256,192,354302,1,0,0:0:0:0:
256,192,354469,1,8,0:0:0:0:
256,192,354635,1,8,0:0:0:0:
256,192,354719,1,8,0:0:0:0:
256,192,354802,1,0,0:0:0:0:
256,192,354969,1,0,0:0:0:0:
256,192,355135,1,8,0:0:0:0:
256,192,355302,1,0,0:0:0:0:
256,192,355385,1,8,0:0:0:0:
256,192,355469,1,8,0:0:0:0:
256,192,355635,1,8,0:0:0:0:
256,192,355802,1,0,0:0:0:0:
256,192,355969,1,8,0:0:0:0:
256,192,356052,1,8,0:0:0:0:
256,192,356135,1,0,0:0:0:0:
256,192,356302,1,8,0:0:0:0:
256,192,356469,1,0,0:0:0:0:
256,192,356552,1,0,0:0:0:0:
256,192,356635,1,0,0:0:0:0:
256,192,356719,1,0,0:0:0:0:
256,192,356802,1,12,0:0:0:0:
256,192,356969,1,0,0:0:0:0:
256,192,357135,1,8,0:0:0:0:
256,192,357302,1,8,0:0:0:0:
256,192,357385,1,8,0:0:0:0:
256,192,357469,1,0,0:0:0:0:
256,192,357635,1,8,0:0:0:0:
256,192,357802,1,0,0:0:0:0:
256,192,357969,1,8,0:0:0:0:
256,192,358052,1,0,0:0:0:0:
256,192,358135,1,12,0:0:0:0:
256,192,358302,1,8,0:0:0:0:
256,192,358469,1,0,0:0:0:0:
256,192,358635,1,8,0:0:0:0:
256,192,358719,1,8,0:0:0:0:
256,192,358802,1,0,0:0:0:0:
256,192,358969,1,8,0:0:0:0:
256,192,359135,1,0,0:0:0:0:
256,192,359302,1,0,0:0:0:0:
256,192,359385,1,0,0:0:0:0:
256,192,359469,1,12,0:0:0:0:
256,192,359635,1,8,0:0:0:0:
256,192,359802,1,0,0:0:0:0:
256,192,359969,1,8,0:0:0:0:
256,192,360052,1,8,0:0:0:0:
256,192,360135,1,4,0:0:0:0:
256,192,360302,1,0,0:0:0:0:
256,192,360469,1,8,0:0:0:0:
256,192,360552,1,0,0:0:0:0:
256,192,360635,1,8,0:0:0:0:
256,192,360719,1,8,0:0:0:0:
256,192,360802,1,0,0:0:0:0:
256,192,360969,1,8,0:0:0:0:
256,192,361052,1,8,0:0:0:0:
256,192,361135,1,0,0:0:0:0:
256,192,361219,1,8,0:0:0:0:
256,192,361302,1,0,0:0:0:0:
256,192,361385,1,0,0:0:0:0:
256,192,361469,1,8,0:0:0:0:
256,192,361552,1,0,0:0:0:0:
256,192,361635,1,8,0:0:0:0:
256,192,361719,1,8,0:0:0:0:
256,192,361802,1,0,0:0:0:0:
256,192,361885,1,0,0:0:0:0:
256,192,361969,1,0,0:0:0:0:
256,192,362052,1,0,0:0:0:0:
256,192,362135,1,12,0:0:0:0:
256,192,362301,12,0,365468,0:0:0:0:
256,192,366135,5,0,0:0:0:0:
256,192,366801,1,8,0:0:0:0:
256,192,367468,1,4,0:0:0:0:
256,192,367551,1,0,0:0:0:0:
256,192,367593,1,0,0:0:0:0:
256,192,367634,1,8,0:0:0:0:
256,192,367718,1,8,0:0:0:0:
256,192,367801,1,0,0:0:0:0:
256,192,367884,1,0,0:0:0:0:
256,192,367926,1,0,0:0:0:0:
256,192,367968,1,8,0:0:0:0:
256,192,368051,1,8,0:0:0:0:
256,192,368134,1,0,0:0:0:0:
256,192,368218,1,0,0:0:0:0:
256,192,368259,1,0,0:0:0:0:
256,192,368301,1,8,0:0:0:0:
256,192,368384,1,8,0:0:0:0:
256,192,368468,1,0,0:0:0:0:
256,192,368509,1,0,0:0:0:0:
256,192,368551,1,8,0:0:0:0:
256,192,368593,1,8,0:0:0:0:
256,192,368634,1,0,0:0:0:0:
256,192,368718,1,8,0:0:0:0:
256,192,368801,1,0,0:0:0:0:
256,192,368884,1,0,0:0:0:0:
256,192,368926,1,0,0:0:0:0:
256,192,368968,1,8,0:0:0:0:
256,192,369051,1,8,0:0:0:0:
256,192,369134,1,0,0:0:0:0:
256,192,369218,1,0,0:0:0:0:
256,192,369301,1,8,0:0:0:0:
256,192,369384,1,8,0:0:0:0:
256,192,369468,1,0,0:0:0:0:
256,192,369551,1,0,0:0:0:0:
256,192,369593,1,0,0:0:0:0:
256,192,369634,1,8,0:0:0:0:
256,192,369718,1,0,0:0:0:0:
256,192,369801,1,8,0:0:0:0:
256,192,369843,1,0,0:0:0:0:
256,192,369884,1,8,0:0:0:0:
256,192,369926,1,8,0:0:0:0:
256,192,369968,1,0,0:0:0:0:
256,192,370051,1,8,0:0:0:0:
256,192,370134,1,0,0:0:0:0:
256,192,370218,1,0,0:0:0:0:
256,192,370259,1,0,0:0:0:0:
256,192,370301,1,8,0:0:0:0:
256,192,370384,1,8,0:0:0:0:
256,192,370468,1,0,0:0:0:0:
256,192,370551,1,0,0:0:0:0:
256,192,370634,1,8,0:0:0:0:
256,192,370676,1,8,0:0:0:0:
256,192,370718,1,0,0:0:0:0:
256,192,370759,1,0,0:0:0:0:
256,192,370801,1,8,0:0:0:0:
256,192,370884,1,0,0:0:0:0:
256,192,370968,1,8,0:0:0:0:
256,192,371051,1,8,0:0:0:0:
256,192,371093,1,8,0:0:0:0:
256,192,371134,1,0,0:0:0:0:
256,192,371218,1,8,0:0:0:0:
256,192,371301,1,0,0:0:0:0:
256,192,371343,1,0,0:0:0:0:
256,192,371384,1,8,0:0:0:0:
256,192,371426,1,8,0:0:0:0:
256,192,371468,1,0,0:0:0:0:
256,192,371551,1,0,0:0:0:0:
256,192,371634,1,8,0:0:0:0:
256,192,371676,1,8,0:0:0:0:
256,192,371718,1,0,0:0:0:0:
256,192,371759,1,0,0:0:0:0:
256,192,371801,1,8,0:0:0:0:
256,192,371884,1,0,0:0:0:0:
256,192,371968,1,0,0:0:0:0:
256,192,372134,1,0,0:0:0:0:
256,192,372176,1,0,0:0:0:0:
256,192,372218,1,8,0:0:0:0:
256,192,372259,1,8,0:0:0:0:
256,192,372301,1,0,0:0:0:0:
256,192,372384,1,0,0:0:0:0:
256,192,372468,1,8,0:0:0:0:
256,192,372551,1,0,0:0:0:0:
256,192,372634,1,8,0:0:0:0:
256,192,372662,1,8,0:0:0:0:
256,192,372690,1,8,0:0:0:0:
256,192,372718,1,8,0:0:0:0:
256,192,372801,1,4,0:0:0:0:
256,192,372884,1,0,0:0:0:0:
256,192,372926,1,0,0:0:0:0:
256,192,372968,1,8,0:0:0:0:
256,192,373051,1,8,0:0:0:0:
256,192,373134,1,0,0:0:0:0:
256,192,373218,1,0,0:0:0:0:
256,192,373301,1,8,0:0:0:0:
256,192,373384,1,8,0:0:0:0:
256,192,373468,1,0,0:0:0:0:
256,192,373551,1,0,0:0:0:0:
256,192,373593,1,0,0:0:0:0:
256,192,373634,1,8,0:0:0:0:
256,192,373718,1,8,0:0:0:0:
256,192,373801,1,0,0:0:0:0:
256,192,373884,1,0,0:0:0:0:
256,192,373968,1,8,0:0:0:0:
256,192,374051,1,8,0:0:0:0:
256,192,374134,1,0,0:0:0:0:
256,192,374218,1,0,0:0:0:0:
256,192,374259,1,0,0:0:0:0:
256,192,374301,1,8,0:0:0:0:
256,192,374343,1,8,0:0:0:0:
256,192,374384,1,0,0:0:0:0:
256,192,374468,1,8,0:0:0:0:
256,192,374509,1,8,0:0:0:0:
256,192,374551,1,0,0:0:0:0:
256,192,374593,1,0,0:0:0:0:
256,192,374634,1,8,0:0:0:0:
256,192,374676,1,0,0:0:0:0:
256,192,374718,1,8,0:0:0:0:
256,192,374801,1,0,0:0:0:0:
256,192,374884,1,0,0:0:0:0:
256,192,374926,1,0,0:0:0:0:
256,192,374968,1,8,0:0:0:0:
256,192,375051,1,0,0:0:0:0:
256,192,375134,1,8,0:0:0:0:
256,192,375176,1,8,0:0:0:0:
256,192,375218,1,0,0:0:0:0:
256,192,375259,1,0,0:0:0:0:
256,192,375301,1,8,0:0:0:0:
256,192,375384,1,8,0:0:0:0:
256,192,375468,1,0,0:0:0:0:
256,192,375551,1,0,0:0:0:0:
256,192,375593,1,0,0:0:0:0:
256,192,375634,1,8,0:0:0:0:
256,192,375718,1,8,0:0:0:0:
256,192,375801,1,0,0:0:0:0:
256,192,375884,1,0,0:0:0:0:
256,192,375968,1,8,0:0:0:0:
256,192,376051,1,8,0:0:0:0:
256,192,376134,1,0,0:0:0:0:
256,192,376218,1,0,0:0:0:0:
256,192,376259,1,0,0:0:0:0:
256,192,376301,1,8,0:0:0:0:
256,192,376384,1,8,0:0:0:0:
256,192,376468,1,0,0:0:0:0:
256,192,376551,1,0,0:0:0:0:
256,192,376634,1,8,0:0:0:0:
256,192,376718,1,8,0:0:0:0:
256,192,376801,1,0,0:0:0:0:
256,192,376884,1,0,0:0:0:0:
256,192,376926,1,0,0:0:0:0:
256,192,376968,1,8,0:0:0:0:
256,192,377009,1,8,0:0:0:0:
256,192,377051,1,0,0:0:0:0:
256,192,377134,1,0,0:0:0:0:
256,192,377301,1,0,0:0:0:0:
256,192,377384,1,0,0:0:0:0:
256,192,377468,1,8,0:0:0:0:
256,192,377509,1,8,0:0:0:0:
256,192,377551,1,0,0:0:0:0:
256,192,377593,1,0,0:0:0:0:
256,192,377634,1,8,0:0:0:0:
256,192,377718,1,0,0:0:0:0:
256,192,377801,1,8,0:0:0:0:
256,192,377829,1,8,0:0:0:0:
256,192,377856,1,8,0:0:0:0:
256,192,377884,1,8,0:0:0:0:
256,192,377968,1,0,0:0:0:0:
256,192,377995,1,0,0:0:0:0:
256,192,378023,1,0,0:0:0:0:
256,192,378051,1,0,0:0:0:0:
256,192,378134,1,12,0:0:0:0:
256,192,378218,1,0,0:0:0:0:
256,192,378259,1,0,0:0:0:0:
256,192,378301,1,8,0:0:0:0:
256,192,378384,1,8,0:0:0:0:
256,192,378468,1,0,0:0:0:0:
256,192,378551,1,0,0:0:0:0:
256,192,378634,1,8,0:0:0:0:
256,192,378718,1,8,0:0:0:0:
256,192,378801,1,0,0:0:0:0:
256,192,378884,1,0,0:0:0:0:
256,192,378926,1,0,0:0:0:0:
256,192,378968,1,8,0:0:0:0:
256,192,379051,1,0,0:0:0:0:
256,192,379134,1,8,0:0:0:0:
256,192,379176,1,0,0:0:0:0:
256,192,379218,1,8,0:0:0:0:
256,192,379259,1,8,0:0:0:0:
256,192,379301,1,0,0:0:0:0:
256,192,379384,1,8,0:0:0:0:
256,192,379468,1,0,0:0:0:0:
256,192,379551,1,0,0:0:0:0:
256,192,379593,1,0,0:0:0:0:
256,192,379634,1,8,0:0:0:0:
256,192,379718,1,8,0:0:0:0:
256,192,379801,1,0,0:0:0:0:
256,192,379884,1,0,0:0:0:0:
256,192,379968,1,8,0:0:0:0:
256,192,380051,1,8,0:0:0:0:
256,192,380134,1,0,0:0:0:0:
256,192,380218,1,8,0:0:0:0:
256,192,380259,1,8,0:0:0:0:
256,192,380301,1,0,0:0:0:0:
256,192,380384,1,8,0:0:0:0:
256,192,380468,1,0,0:0:0:0:
256,192,380509,1,0,0:0:0:0:
256,192,380551,1,8,0:0:0:0:
256,192,380593,1,0,0:0:0:0:
256,192,380634,1,8,0:0:0:0:
256,192,380718,1,0,0:0:0:0:
256,192,380801,1,8,0:0:0:0:
256,192,380884,1,8,0:0:0:0:
256,192,380926,1,8,0:0:0:0:
256,192,380968,1,0,0:0:0:0:
256,192,381051,1,8,0:0:0:0:
256,192,381134,1,0,0:0:0:0:
256,192,381218,1,0,0:0:0:0:
256,192,381301,1,8,0:0:0:0:
256,192,381384,1,0,0:0:0:0:
256,192,381468,1,8,0:0:0:0:
256,192,381551,1,8,0:0:0:0:
256,192,381593,1,8,0:0:0:0:
256,192,381634,1,0,0:0:0:0:
256,192,381718,1,8,0:0:0:0:
256,192,381801,1,0,0:0:0:0:
256,192,381884,1,0,0:0:0:0:
256,192,381968,1,8,0:0:0:0:
256,192,382009,1,8,0:0:0:0:
256,192,382051,1,0,0:0:0:0:
256,192,382093,1,0,0:0:0:0:
256,192,382134,1,8,0:0:0:0:
256,192,382218,1,8,0:0:0:0:
256,192,382301,1,0,0:0:0:0:
256,192,382384,1,0,0:0:0:0:
256,192,382426,1,0,0:0:0:0:
256,192,382468,1,8,0:0:0:0:
256,192,382509,1,8,0:0:0:0:
256,192,382551,1,8,0:0:0:0:
256,192,382593,1,8,0:0:0:0:
256,192,382634,1,0,0:0:0:0:
256,192,382801,1,0,0:0:0:0:
256,192,382884,1,0,0:0:0:0:
256,192,382926,1,0,0:0:0:0:
256,192,382968,1,8,0:0:0:0:
256,192,383051,1,0,0:0:0:0:
256,192,383134,1,8,0:0:0:0:
256,192,383162,1,8,0:0:0:0:
256,192,383190,1,8,0:0:0:0:
256,192,383218,1,8,0:0:0:0:
256,192,383301,1,0,0:0:0:0:
256,192,383329,1,0,0:0:0:0:
256,192,383356,1,0,0:0:0:0:
256,192,383384,1,0,0:0:0:0:
256,192,383468,1,12,0:0:0:0:
256,192,383551,1,0,0:0:0:0:
256,192,383593,1,0,0:0:0:0:
256,192,383634,1,8,0:0:0:0:
256,192,383718,1,8,0:0:0:0:
256,192,383801,1,0,0:0:0:0:
256,192,383884,1,0,0:0:0:0:
256,192,383968,1,8,0:0:0:0:
256,192,384051,1,8,0:0:0:0:
256,192,384134,1,0,0:0:0:0:
256,192,384218,1,0,0:0:0:0:
256,192,384259,1,0,0:0:0:0:
256,192,384301,1,8,0:0:0:0:
256,192,384384,1,8,0:0:0:0:
256,192,384468,1,0,0:0:0:0:
256,192,384551,1,8,0:0:0:0:
256,192,384634,1,0,0:0:0:0:
256,192,384718,1,8,0:0:0:0:
256,192,384801,1,0,0:0:0:0:
256,192,384884,1,0,0:0:0:0:
256,192,384926,1,0,0:0:0:0:
256,192,384968,1,8,0:0:0:0:
256,192,385051,1,8,0:0:0:0:
256,192,385134,1,0,0:0:0:0:
256,192,385218,1,0,0:0:0:0:
256,192,385301,1,8,0:0:0:0:
256,192,385384,1,8,0:0:0:0:
256,192,385468,1,0,0:0:0:0:
256,192,385551,1,0,0:0:0:0:
256,192,385593,1,0,0:0:0:0:
256,192,385634,1,8,0:0:0:0:
256,192,385718,1,0,0:0:0:0:
256,192,385801,1,8,0:0:0:0:
256,192,385843,1,8,0:0:0:0:
256,192,385884,1,0,0:0:0:0:
256,192,385926,1,0,0:0:0:0:
256,192,385968,1,8,0:0:0:0:
256,192,386051,1,0,0:0:0:0:
256,192,386134,1,8,0:0:0:0:
256,192,386176,1,8,0:0:0:0:
256,192,386218,1,0,0:0:0:0:
256,192,386301,1,0,0:0:0:0:
256,192,386384,1,8,0:0:0:0:
256,192,386468,1,0,0:0:0:0:
256,192,386551,1,0,0:0:0:0:
256,192,386634,1,8,0:0:0:0:
256,192,386676,1,8,0:0:0:0:
256,192,386718,1,0,0:0:0:0:
256,192,386801,1,0,0:0:0:0:
256,192,386884,1,8,0:0:0:0:
256,192,386968,1,0,0:0:0:0:
256,192,387134,1,8,0:0:0:0:
256,192,387176,1,8,0:0:0:0:
256,192,387218,1,8,0:0:0:0:
256,192,387301,1,0,0:0:0:0:
256,192,387384,1,8,0:0:0:0:
256,192,387468,1,0,0:0:0:0:
256,192,387509,1,0,0:0:0:0:
256,192,387551,1,0,0:0:0:0:
256,192,387634,1,8,0:0:0:0:
256,192,387718,1,0,0:0:0:0:
256,192,387801,1,0,0:0:0:0:
256,192,387884,1,8,0:0:0:0:
256,192,387926,1,8,0:0:0:0:
256,192,387968,1,0,0:0:0:0:
256,192,388051,1,8,0:0:0:0:
256,192,388134,1,0,0:0:0:0:
256,192,388176,1,0,0:0:0:0:
256,192,388218,1,8,0:0:0:0:
256,192,388259,1,0,0:0:0:0:
256,192,388301,1,8,0:0:0:0:
256,192,388384,1,8,0:0:0:0:
256,192,388468,1,0,0:0:0:0:
256,192,388495,1,0,0:0:0:0:
256,192,388523,1,0,0:0:0:0:
256,192,388551,1,0,0:0:0:0:
256,192,388634,1,8,0:0:0:0:
256,192,388662,1,8,0:0:0:0:
256,192,388690,1,8,0:0:0:0:
256,192,388718,1,8,0:0:0:0:
256,192,388801,1,4,0:0:0:0:
256,192,388884,1,0,0:0:0:0:
256,192,388926,1,0,0:0:0:0:
256,192,388967,1,8,0:0:0:0:
256,192,389051,1,8,0:0:0:0:
256,192,389134,1,0,0:0:0:0:
256,192,389217,1,0,0:0:0:0:
256,192,389301,1,8,0:0:0:0:
256,192,389384,1,8,0:0:0:0:
256,192,389467,1,0,0:0:0:0:
256,192,389551,1,0,0:0:0:0:
256,192,389592,1,0,0:0:0:0:
256,192,389634,1,8,0:0:0:0:
256,192,389717,1,8,0:0:0:0:
256,192,389801,1,0,0:0:0:0:
256,192,389842,1,0,0:0:0:0:
256,192,389884,1,8,0:0:0:0:
256,192,389926,1,8,0:0:0:0:
256,192,389967,1,0,0:0:0:0:
256,192,390051,1,8,0:0:0:0:
256,192,390134,1,0,0:0:0:0:
256,192,390301,1,8,0:0:0:0:
256,192,390384,1,8,0:0:0:0:
256,192,390467,1,0,0:0:0:0:
256,192,390551,1,0,0:0:0:0:
256,192,390634,1,8,0:0:0:0:
256,192,390717,1,8,0:0:0:0:
256,192,390801,1,0,0:0:0:0:
256,192,390884,1,0,0:0:0:0:
256,192,390926,1,0,0:0:0:0:
256,192,390967,1,8,0:0:0:0:
256,192,391051,1,0,0:0:0:0:
256,192,391134,1,8,0:0:0:0:
256,192,391176,1,0,0:0:0:0:
256,192,391217,1,8,0:0:0:0:
256,192,391259,1,8,0:0:0:0:
256,192,391301,1,0,0:0:0:0:
256,192,391384,1,8,0:0:0:0:
256,192,391467,1,0,0:0:0:0:
256,192,391634,1,8,0:0:0:0:
256,192,391717,1,8,0:0:0:0:
256,192,391801,1,0,0:0:0:0:
256,192,391884,1,0,0:0:0:0:
256,192,391967,1,8,0:0:0:0:
256,192,392009,1,8,0:0:0:0:
256,192,392051,1,0,0:0:0:0:
256,192,392092,1,0,0:0:0:0:
256,192,392134,1,8,0:0:0:0:
256,192,392217,1,0,0:0:0:0:
256,192,392301,1,8,0:0:0:0:
256,192,392384,1,8,0:0:0:0:
256,192,392426,1,8,0:0:0:0:
256,192,392467,1,0,0:0:0:0:
256,192,392551,1,8,0:0:0:0:
256,192,392634,1,0,0:0:0:0:
256,192,392676,1,0,0:0:0:0:
256,192,392717,1,8,0:0:0:0:
256,192,392759,1,8,0:0:0:0:
256,192,392801,1,0,0:0:0:0:
256,192,392967,1,8,0:0:0:0:
256,192,393009,1,8,0:0:0:0:
256,192,393051,1,0,0:0:0:0:
256,192,393092,1,0,0:0:0:0:
256,192,393134,1,8,0:0:0:0:
256,192,393217,1,0,0:0:0:0:
256,192,393301,1,0,0:0:0:0:
256,192,393467,1,0,0:0:0:0:
256,192,393509,1,0,0:0:0:0:
256,192,393551,1,8,0:0:0:0:
256,192,393592,1,8,0:0:0:0:
256,192,393634,1,0,0:0:0:0:
256,192,393717,1,0,0:0:0:0:
256,192,393801,1,8,0:0:0:0:
256,192,393884,1,0,0:0:0:0:
256,192,393967,1,8,0:0:0:0:
256,192,393995,1,8,0:0:0:0:
256,192,394023,1,8,0:0:0:0:
256,192,394051,1,8,0:0:0:0:
256,192,394134,1,4,0:0:0:0:
256,192,394217,1,0,0:0:0:0:
256,192,394259,1,0,0:0:0:0:
256,192,394301,1,8,0:0:0:0:
256,192,394384,1,8,0:0:0:0:
256,192,394467,1,0,0:0:0:0:
256,192,394551,1,0,0:0:0:0:
256,192,394634,1,8,0:0:0:0:
256,192,394717,1,8,0:0:0:0:
256,192,394801,1,0,0:0:0:0:
256,192,394884,1,0,0:0:0:0:
256,192,394926,1,0,0:0:0:0:
256,192,394967,1,8,0:0:0:0:
256,192,395051,1,8,0:0:0:0:
256,192,395134,1,0,0:0:0:0:
256,192,395217,1,8,0:0:0:0:
256,192,395301,1,8,0:0:0:0:
256,192,395384,1,8,0:0:0:0:
256,192,395468,1,0,0:0:0:0:
256,192,395635,1,8,0:0:0:0:
256,192,395677,1,8,0:0:0:0:
256,192,395718,1,0,0:0:0:0:
256,192,395802,1,8,0:0:0:0:
256,192,395843,1,8,0:0:0:0:
256,192,395885,1,0,0:0:0:0:
256,192,395927,1,0,0:0:0:0:
256,192,395968,1,8,0:0:0:0:
256,192,396052,1,0,0:0:0:0:
256,192,396134,1,8,0:0:0:0:
256,192,396176,1,8,0:0:0:0:
256,192,396218,1,0,0:0:0:0:
256,192,396302,1,0,0:0:0:0:
256,192,396384,1,8,0:0:0:0:
256,192,396426,1,0,0:0:0:0:
256,192,396468,1,0,0:0:0:0:
256,192,396551,1,0,0:0:0:0:
256,192,396635,1,8,0:0:0:0:
256,192,396718,1,8,0:0:0:0:
256,192,396801,1,0,0:0:0:0:
256,192,396884,1,0,0:0:0:0:
256,192,396926,1,0,0:0:0:0:
256,192,396967,1,8,0:0:0:0:
256,192,397051,1,8,0:0:0:0:
256,192,397134,1,0,0:0:0:0:
256,192,397217,1,0,0:0:0:0:
256,192,397301,1,8,0:0:0:0:
256,192,397384,1,8,0:0:0:0:
256,192,397467,1,0,0:0:0:0:
256,192,397551,1,0,0:0:0:0:
256,192,397592,1,0,0:0:0:0:
256,192,397634,1,8,0:0:0:0:
256,192,397717,1,8,0:0:0:0:
256,192,397801,1,0,0:0:0:0:
256,192,397884,1,8,0:0:0:0:
256,192,397967,1,0,0:0:0:0:
256,192,398051,1,8,0:0:0:0:
256,192,398134,1,0,0:0:0:0:
256,192,398301,1,8,0:0:0:0:
256,192,398342,1,8,0:0:0:0:
256,192,398384,1,0,0:0:0:0:
256,192,398467,1,0,0:0:0:0:
256,192,398634,1,0,0:0:0:0:
256,192,398717,1,0,0:0:0:0:
256,192,398801,1,8,0:0:0:0:
256,192,398842,1,8,0:0:0:0:
256,192,398884,1,0,0:0:0:0:
256,192,398926,1,0,0:0:0:0:
256,192,398967,1,8,0:0:0:0:
256,192,399051,1,0,0:0:0:0:
256,192,399134,1,8,0:0:0:0:
256,192,399162,1,8,0:0:0:0:
256,192,399189,1,8,0:0:0:0:
256,192,399217,1,8,0:0:0:0:
256,192,399301,1,0,0:0:0:0:
256,192,399328,1,0,0:0:0:0:
256,192,399356,1,0,0:0:0:0:
256,192,399384,1,0,0:0:0:0:
256,192,399467,1,12,0:0:0:0:
256,192,399551,1,0,0:0:0:0:
256,192,399592,1,0,0:0:0:0:
256,192,399634,1,8,0:0:0:0:
256,192,399717,1,8,0:0:0:0:
256,192,399801,1,0,0:0:0:0:
256,192,399884,1,0,0:0:0:0:
256,192,399967,1,8,0:0:0:0:
256,192,400051,1,8,0:0:0:0:
256,192,400134,1,0,0:0:0:0:
256,192,400217,1,0,0:0:0:0:
256,192,400259,1,0,0:0:0:0:
256,192,400301,1,8,0:0:0:0:
256,192,400384,1,0,0:0:0:0:
256,192,400467,1,8,0:0:0:0:
256,192,400509,1,0,0:0:0:0:
256,192,400551,1,8,0:0:0:0:
256,192,400592,1,8,0:0:0:0:
256,192,400634,1,0,0:0:0:0:
256,192,400717,1,8,0:0:0:0:
256,192,400801,1,0,0:0:0:0:
256,192,400967,1,8,0:0:0:0:
256,192,401051,1,8,0:0:0:0:
256,192,401134,1,0,0:0:0:0:
256,192,401217,1,0,0:0:0:0:
256,192,401301,1,8,0:0:0:0:
256,192,401384,1,8,0:0:0:0:
256,192,401467,1,0,0:0:0:0:
256,192,401551,1,8,0:0:0:0:
256,192,401592,1,8,0:0:0:0:
256,192,401634,1,0,0:0:0:0:
256,192,401717,1,8,0:0:0:0:
256,192,401801,1,0,0:0:0:0:
256,192,401842,1,0,0:0:0:0:
256,192,401884,1,8,0:0:0:0:
256,192,401926,1,0,0:0:0:0:
256,192,401967,1,8,0:0:0:0:
256,192,402051,1,0,0:0:0:0:
256,192,402134,1,8,0:0:0:0:
256,192,402176,1,8,0:0:0:0:
256,192,402217,1,8,0:0:0:0:
256,192,402301,1,0,0:0:0:0:
256,192,402384,1,8,0:0:0:0:
256,192,402467,1,0,0:0:0:0:
256,192,402551,1,0,0:0:0:0:
256,192,402634,1,8,0:0:0:0:
256,192,402676,1,8,0:0:0:0:
256,192,402717,1,0,0:0:0:0:
256,192,402801,1,8,0:0:0:0:
256,192,402884,1,8,0:0:0:0:
256,192,402968,1,0,0:0:0:0:
256,192,403051,1,8,0:0:0:0:
256,192,403134,1,0,0:0:0:0:
256,192,403217,1,0,0:0:0:0:
256,192,403301,1,8,0:0:0:0:
256,192,403342,1,8,0:0:0:0:
256,192,403384,1,0,0:0:0:0:
256,192,403426,1,0,0:0:0:0:
256,192,403467,1,8,0:0:0:0:
256,192,403551,1,8,0:0:0:0:
256,192,403634,1,0,0:0:0:0:
256,192,403717,1,0,0:0:0:0:
256,192,403759,1,0,0:0:0:0:
256,192,403801,1,8,0:0:0:0:
256,192,403842,1,8,0:0:0:0:
256,192,403884,1,8,0:0:0:0:
256,192,403926,1,8,0:0:0:0:
256,192,403967,1,0,0:0:0:0:
256,192,404134,1,0,0:0:0:0:
256,192,404217,1,0,0:0:0:0:
256,192,404259,1,0,0:0:0:0:
256,192,404301,1,8,0:0:0:0:
256,192,404384,1,0,0:0:0:0:
256,192,404467,1,8,0:0:0:0:
256,192,404495,1,8,0:0:0:0:
256,192,404523,1,8,0:0:0:0:
256,192,404551,1,8,0:0:0:0:
256,192,404634,1,0,0:0:0:0:
256,192,404662,1,0,0:0:0:0:
256,192,404689,1,0,0:0:0:0:
256,192,404717,1,0,0:0:0:0:
256,192,404801,1,12,0:0:0:0:
256,192,404884,1,0,0:0:0:0:
256,192,404926,1,0,0:0:0:0:
256,192,404967,1,8,0:0:0:0:
256,192,405051,1,8,0:0:0:0:
256,192,405134,1,0,0:0:0:0:
256,192,405217,1,0,0:0:0:0:
256,192,405301,1,8,0:0:0:0:
256,192,405384,1,8,0:0:0:0:
256,192,405467,1,0,0:0:0:0:
256,192,405551,1,0,0:0:0:0:
256,192,405592,1,0,0:0:0:0:
256,192,405634,1,8,0:0:0:0:
256,192,405717,1,8,0:0:0:0:
256,192,405801,1,0,0:0:0:0:
256,192,405884,1,8,0:0:0:0:
256,192,405967,1,0,0:0:0:0:
256,192,406051,1,8,0:0:0:0:
256,192,406134,1,0,0:0:0:0:
256,192,406301,1,8,0:0:0:0:
256,192,406384,1,8,0:0:0:0:
256,192,406467,1,0,0:0:0:0:
256,192,406551,1,0,0:0:0:0:
256,192,406634,1,8,0:0:0:0:
256,192,406717,1,8,0:0:0:0:
256,192,406801,1,0,0:0:0:0:
256,192,406884,1,0,0:0:0:0:
256,192,406926,1,0,0:0:0:0:
256,192,406967,1,8,0:0:0:0:
256,192,407051,5,0,0:0:0:0:
256,192,407134,1,8,0:0:0:0:
256,192,407176,1,8,0:0:0:0:
256,192,407217,1,0,0:0:0:0:
256,192,407259,1,0,0:0:0:0:
256,192,407301,1,8,0:0:0:0:
256,192,407384,1,0,0:0:0:0:
256,192,407468,1,8,0:0:0:0:
256,192,407509,1,8,0:0:0:0:
256,192,407551,1,0,0:0:0:0:
256,192,407593,1,8,0:0:0:0:
256,192,407634,1,0,0:0:0:0:
256,192,407676,1,0,0:0:0:0:
256,192,407718,1,8,0:0:0:0:
256,192,407759,1,8,0:0:0:0:
256,192,407801,1,0,0:0:0:0:
256,192,407843,1,0,0:0:0:0:
256,192,407884,1,0,0:0:0:0:
256,192,407926,1,0,0:0:0:0:
256,192,407968,1,8,0:0:0:0:
256,192,408009,1,8,0:0:0:0:
256,192,408051,1,0,0:0:0:0:
256,192,408093,1,0,0:0:0:0:
256,192,408134,1,8,0:0:0:0:
256,192,408176,1,8,0:0:0:0:
256,192,408218,1,0,0:0:0:0:
256,192,408259,1,8,0:0:0:0:
256,192,408301,1,0,0:0:0:0:
256,192,408343,1,0,0:0:0:0:
256,192,408384,1,8,0:0:0:0:
256,192,408426,1,8,0:0:0:0:
256,192,408468,1,0,0:0:0:0:
256,192,408509,1,0,0:0:0:0:
256,192,408551,1,0,0:0:0:0:
256,192,408593,1,0,0:0:0:0:
256,192,408634,1,8,0:0:0:0:
256,192,408676,1,8,0:0:0:0:
256,192,408718,1,0,0:0:0:0:
256,192,408759,1,0,0:0:0:0:
256,192,408801,1,8,0:0:0:0:
256,192,408843,1,8,0:0:0:0:
256,192,408884,1,8,0:0:0:0:
256,192,408926,1,8,0:0:0:0:
256,192,408968,1,0,0:0:0:0:
256,192,409009,1,0,0:0:0:0:
256,192,409051,1,0,0:0:0:0:
256,192,409093,1,0,0:0:0:0:
256,192,409134,1,8,0:0:0:0:
256,192,409176,1,8,0:0:0:0:
256,192,409218,1,8,0:0:0:0:
256,192,409259,1,8,0:0:0:0:
256,192,409301,1,0,0:0:0:0:
256,192,409343,1,0,0:0:0:0:
256,192,409384,1,0,0:0:0:0:
256,192,409426,1,0,0:0:0:0:
256,192,409468,1,8,0:0:0:0:
256,192,409509,1,8,0:0:0:0:
256,192,409551,1,0,0:0:0:0:
256,192,409593,1,0,0:0:0:0:
256,192,409634,1,8,0:0:0:0:
256,192,409676,1,8,0:0:0:0:
256,192,409718,1,0,0:0:0:0:
256,192,409759,1,0,0:0:0:0:
256,192,409801,1,8,0:0:0:0:
256,192,409843,1,8,0:0:0:0:
256,192,409884,1,8,0:0:0:0:
256,192,409926,1,8,0:0:0:0:
256,192,409968,1,0,0:0:0:0:
256,192,410009,1,0,0:0:0:0:
256,192,410051,1,8,0:0:0:0:
256,192,410093,1,8,0:0:0:0:
256,192,410134,1,4,0:0:0:0:
256,192,410212,1,0,0:0:0:0:
256,192,410252,1,0,0:0:0:0:
256,192,410291,1,8,0:0:0:0:
256,192,410370,1,0,0:0:0:0:
256,192,410449,1,8,0:0:0:0:
256,192,410489,1,8,0:0:0:0:
256,192,410528,1,0,0:0:0:0:
256,192,410568,1,0,0:0:0:0:
256,192,410607,1,8,0:0:0:0:
256,192,410686,1,0,0:0:0:0:
256,192,410765,1,8,0:0:0:0:
256,192,410844,1,0,0:0:0:0:
256,192,410884,1,0,0:0:0:0:
256,192,410923,1,8,0:0:0:0:
256,192,410962,1,8,0:0:0:0:
256,192,411002,1,0,0:0:0:0:
256,192,411041,1,0,0:0:0:0:
256,192,411081,1,8,0:0:0:0:
256,192,411160,1,0,0:0:0:0:
256,192,411239,1,8,0:0:0:0:
256,192,411278,1,8,0:0:0:0:
256,192,411318,1,0,0:0:0:0:
256,192,411357,1,0,0:0:0:0:
256,192,411397,1,8,0:0:0:0:
256,192,411476,1,0,0:0:0:0:
256,192,411515,1,0,0:0:0:0:
256,192,411555,1,8,0:0:0:0:
256,192,411634,1,0,0:0:0:0:
256,192,411712,1,8,0:0:0:0:
256,192,411752,1,8,0:0:0:0:
256,192,411791,1,0,0:0:0:0:
256,192,411831,1,0,0:0:0:0:
256,192,411870,1,8,0:0:0:0:
256,192,411949,1,0,0:0:0:0:
256,192,412028,1,8,0:0:0:0:
256,192,412107,1,0,0:0:0:0:
256,192,412147,1,0,0:0:0:0:
256,192,412186,1,8,0:0:0:0:
256,192,412265,1,0,0:0:0:0:
256,192,412344,1,8,0:0:0:0:
256,192,412384,1,8,0:0:0:0:
256,192,412423,1,0,0:0:0:0:
256,192,412462,1,0,0:0:0:0:
256,192,412502,1,8,0:0:0:0:
256,192,412541,1,8,0:0:0:0:
256,192,412581,1,0,0:0:0:0:
256,192,412620,1,0,0:0:0:0:
256,192,412660,1,8,0:0:0:0:
256,192,412739,1,0,0:0:0:0:
256,192,412778,1,0,0:0:0:0:
256,192,412818,1,8,0:0:0:0:
256,192,412897,1,0,0:0:0:0:
256,192,412976,1,8,0:0:0:0:
256,192,413015,1,8,0:0:0:0:
256,192,413055,1,0,0:0:0:0:
256,192,413094,1,0,0:0:0:0:
256,192,413134,1,8,0:0:0:0:
256,192,413212,1,8,0:0:0:0:
256,192,413291,1,0,0:0:0:0:
256,192,413370,1,8,0:0:0:0:
256,192,413410,1,8,0:0:0:0:
256,192,413449,1,0,0:0:0:0:
256,192,413528,1,8,0:0:0:0:
256,192,413607,1,0,0:0:0:0:
256,192,413647,1,0,0:0:0:0:
256,192,413686,1,8,0:0:0:0:
256,192,413726,1,8,0:0:0:0:
256,192,413765,1,0,0:0:0:0:
256,192,413844,1,8,0:0:0:0:
256,192,413884,1,8,0:0:0:0:
256,192,413923,1,0,0:0:0:0:
256,192,414002,1,8,0:0:0:0:
256,192,414041,1,0,0:0:0:0:
256,192,414081,1,0,0:0:0:0:
256,192,414160,1,8,0:0:0:0:
256,192,414239,1,0,0:0:0:0:
256,192,414278,1,0,0:0:0:0:
256,192,414318,1,8,0:0:0:0:
256,192,414357,1,8,0:0:0:0:
256,192,414397,1,0,0:0:0:0:
256,192,414476,1,8,0:0:0:0:
256,192,414555,1,0,0:0:0:0:
256,192,414634,1,8,0:0:0:0:
256,192,414673,1,8,0:0:0:0:
256,192,414712,1,0,0:0:0:0:
256,192,414791,1,8,0:0:0:0:
256,192,414870,1,0,0:0:0:0:
256,192,414897,1,0,0:0:0:0:
256,192,414923,1,0,0:0:0:0:
256,192,414949,1,0,0:0:0:0:
256,192,415028,1,8,0:0:0:0:
256,192,415055,1,8,0:0:0:0:
256,192,415081,1,8,0:0:0:0:
256,192,415107,1,8,0:0:0:0:
256,192,415186,1,4,0:0:0:0:
256,192,415265,1,0,0:0:0:0:
256,192,415305,1,0,0:0:0:0:
256,192,415344,1,8,0:0:0:0:
256,192,415423,1,0,0:0:0:0:
256,192,415502,1,8,0:0:0:0:
256,192,415541,1,8,0:0:0:0:
256,192,415581,1,0,0:0:0:0:
256,192,415620,1,0,0:0:0:0:
256,192,415660,1,8,0:0:0:0:
256,192,415739,1,0,0:0:0:0:
256,192,415818,1,8,0:0:0:0:
256,192,415897,1,0,0:0:0:0:
256,192,415936,1,0,0:0:0:0:
256,192,415976,1,8,0:0:0:0:
256,192,416055,1,0,0:0:0:0:
256,192,416134,1,8,0:0:0:0:
256,192,416173,1,8,0:0:0:0:
256,192,416212,1,0,0:0:0:0:
256,192,416252,1,0,0:0:0:0:
256,192,416291,1,8,0:0:0:0:
256,192,416370,1,0,0:0:0:0:
256,192,416410,1,0,0:0:0:0:
256,192,416449,1,8,0:0:0:0:
256,192,416489,1,8,0:0:0:0:
256,192,416528,1,0,0:0:0:0:
256,192,416568,1,0,0:0:0:0:
256,192,416607,1,8,0:0:0:0:
256,192,416686,1,0,0:0:0:0:
256,192,416765,1,8,0:0:0:0:
256,192,416805,1,8,0:0:0:0:
256,192,416844,1,0,0:0:0:0:
256,192,416884,1,0,0:0:0:0:
256,192,416923,1,8,0:0:0:0:
256,192,417002,1,0,0:0:0:0:
256,192,417081,1,8,0:0:0:0:
256,192,417120,1,8,0:0:0:0:
256,192,417160,1,0,0:0:0:0:
256,192,417239,1,0,0:0:0:0:
256,192,417318,1,8,0:0:0:0:
256,192,417357,1,8,0:0:0:0:
256,192,417397,1,0,0:0:0:0:
256,192,417476,1,0,0:0:0:0:
256,192,417555,1,8,0:0:0:0:
256,192,417594,1,8,0:0:0:0:
256,192,417634,1,8,0:0:0:0:
256,192,417673,1,8,0:0:0:0:
256,192,417712,1,0,0:0:0:0:
256,192,417791,1,0,0:0:0:0:
256,192,417831,1,0,0:0:0:0:
256,192,417870,1,8,0:0:0:0:
256,192,417949,1,0,0:0:0:0:
256,192,418028,1,8,0:0:0:0:
256,192,418068,1,8,0:0:0:0:
256,192,418107,1,0,0:0:0:0:
256,192,418147,1,0,0:0:0:0:
256,192,418186,1,8,0:0:0:0:
256,192,418265,1,0,0:0:0:0:
256,192,418344,1,8,0:0:0:0:
256,192,418384,1,8,0:0:0:0:
256,192,418423,1,8,0:0:0:0:
256,192,418502,1,0,0:0:0:0:
256,192,418581,1,8,0:0:0:0:
256,192,418660,1,0,0:0:0:0:
256,192,418699,1,0,0:0:0:0:
256,192,418739,1,8,0:0:0:0:
256,192,418778,1,8,0:0:0:0:
256,192,418818,1,0,0:0:0:0:
256,192,418897,1,0,0:0:0:0:
256,192,418936,1,0,0:0:0:0:
256,192,418976,1,8,0:0:0:0:
256,192,419002,1,8,0:0:0:0:
256,192,419028,1,0,0:0:0:0:
256,192,419055,1,0,0:0:0:0:
256,192,419134,1,0,0:0:0:0:
256,192,419212,1,8,0:0:0:0:
256,192,419239,1,8,0:0:0:0:
256,192,419265,1,0,0:0:0:0:
256,192,419291,1,0,0:0:0:0:
256,192,419370,1,0,0:0:0:0:
256,192,419449,1,8,0:0:0:0:
256,192,419475,1,8,0:0:0:0:
256,192,419501,1,8,0:0:0:0:
256,192,419528,1,8,0:0:0:0:
256,192,419607,1,0,0:0:0:0:
256,192,419686,1,0,0:0:0:0:
256,192,419765,1,8,0:0:0:0:
256,192,419844,1,0,0:0:0:0:
256,192,419923,1,8,0:0:0:0:
256,192,419949,1,8,0:0:0:0:
256,192,419976,1,8,0:0:0:0:
256,192,420002,1,8,0:0:0:0:
256,192,420081,1,0,0:0:0:0:
256,192,420107,1,0,0:0:0:0:
256,192,420134,1,0,0:0:0:0:
256,192,420160,1,0,0:0:0:0:
256,192,420239,1,12,0:0:0:0:
256,192,420318,1,0,0:0:0:0:
256,192,420357,1,0,0:0:0:0:
256,192,420397,1,8,0:0:0:0:
256,192,420476,1,0,0:0:0:0:
256,192,420555,1,8,0:0:0:0:
256,192,420594,1,8,0:0:0:0:
256,192,420634,1,0,0:0:0:0:
256,192,420673,1,0,0:0:0:0:
256,192,420712,1,8,0:0:0:0:
256,192,420791,1,0,0:0:0:0:
256,192,420870,1,8,0:0:0:0:
256,192,420949,1,0,0:0:0:0:
256,192,420989,1,0,0:0:0:0:
256,192,421028,1,8,0:0:0:0:
256,192,421107,1,0,0:0:0:0:
256,192,421186,1,8,0:0:0:0:
256,192,421226,1,8,0:0:0:0:
256,192,421265,1,0,0:0:0:0:
256,192,421305,1,0,0:0:0:0:
256,192,421344,1,8,0:0:0:0:
256,192,421423,1,0,0:0:0:0:
256,192,421462,1,0,0:0:0:0:
256,192,421502,1,8,0:0:0:0:
256,192,421581,1,0,0:0:0:0:
256,192,421660,1,8,0:0:0:0:
256,192,421739,1,0,0:0:0:0:
256,192,421818,1,8,0:0:0:0:
256,192,421857,1,8,0:0:0:0:
256,192,421897,1,0,0:0:0:0:
256,192,421936,1,0,0:0:0:0:
256,192,421976,1,8,0:0:0:0:
256,192,422055,1,8,0:0:0:0:
256,192,422134,1,0,0:0:0:0:
256,192,422212,1,8,0:0:0:0:
256,192,422252,1,8,0:0:0:0:
256,192,422291,1,0,0:0:0:0:
256,192,422370,1,0,0:0:0:0:
256,192,422449,1,8,0:0:0:0:
256,192,422489,1,8,0:0:0:0:
256,192,422528,1,0,0:0:0:0:
256,192,422568,1,0,0:0:0:0:
256,192,422607,1,8,0:0:0:0:
256,192,422647,1,8,0:0:0:0:
256,192,422686,1,0,0:0:0:0:
256,192,422726,1,0,0:0:0:0:
256,192,422765,1,12,0:0:0:0:
256,192,422844,1,0,0:0:0:0:
256,192,422923,1,8,0:0:0:0:
256,192,422962,1,8,0:0:0:0:
256,192,423002,1,0,0:0:0:0:
256,192,423041,1,0,0:0:0:0:
256,192,423081,1,8,0:0:0:0:
256,192,423160,1,0,0:0:0:0:
256,192,423239,1,8,0:0:0:0:
256,192,423318,1,0,0:0:0:0:
256,192,423397,1,8,0:0:0:0:
256,192,423437,1,8,0:0:0:0:
256,192,423476,1,0,0:0:0:0:
256,192,423515,1,0,0:0:0:0:
256,192,423555,1,8,0:0:0:0:
256,192,423634,1,0,0:0:0:0:
256,192,423712,1,8,0:0:0:0:
256,192,423752,1,8,0:0:0:0:
256,192,423791,1,0,0:0:0:0:
256,192,423870,1,8,0:0:0:0:
256,192,423949,1,0,0:0:0:0:
256,192,423989,1,0,0:0:0:0:
256,192,424028,1,8,0:0:0:0:
256,192,424107,1,0,0:0:0:0:
256,192,424147,1,0,0:0:0:0:
256,192,424186,1,0,0:0:0:0:
256,192,424265,1,8,0:0:0:0:
256,192,424344,1,0,0:0:0:0:
256,192,424384,1,0,0:0:0:0:
256,192,424423,1,8,0:0:0:0:
256,192,424462,1,8,0:0:0:0:
256,192,424502,1,0,0:0:0:0:
256,192,424581,1,0,0:0:0:0:
256,192,424660,1,8,0:0:0:0:
256,192,424699,1,8,0:0:0:0:
256,192,424739,1,0,0:0:0:0:
256,192,424778,1,0,0:0:0:0:
256,192,424818,1,8,0:0:0:0:
256,192,424897,1,0,0:0:0:0:
256,192,424976,1,8,0:0:0:0:
256,192,425002,1,8,0:0:0:0:
256,192,425028,1,8,0:0:0:0:
256,192,425055,1,8,0:0:0:0:
256,192,425134,1,0,0:0:0:0:
256,192,425160,1,0,0:0:0:0:
256,192,425186,1,0,0:0:0:0:
256,192,425212,1,0,0:0:0:0:
256,192,425291,1,12,0:0:0:0:
256,192,425370,1,0,0:0:0:0:
256,192,425410,1,0,0:0:0:0:
256,192,425449,1,8,0:0:0:0:
256,192,425528,1,0,0:0:0:0:
256,192,425607,1,8,0:0:0:0:
256,192,425647,1,8,0:0:0:0:
256,192,425686,1,0,0:0:0:0:
256,192,425726,1,0,0:0:0:0:
256,192,425765,1,8,0:0:0:0:
256,192,425844,1,0,0:0:0:0:
256,192,425923,1,8,0:0:0:0:
256,192,426002,1,0,0:0:0:0:
256,192,426041,1,0,0:0:0:0:
256,192,426081,1,8,0:0:0:0:
256,192,426160,1,0,0:0:0:0:
256,192,426239,1,8,0:0:0:0:
256,192,426278,1,8,0:0:0:0:
256,192,426318,1,0,0:0:0:0:
256,192,426357,1,0,0:0:0:0:
256,192,426397,1,8,0:0:0:0:
256,192,426476,1,0,0:0:0:0:
256,192,426515,1,0,0:0:0:0:
256,192,426555,1,12,0:0:0:0:
256,192,426634,1,0,0:0:0:0:
256,192,426712,1,8,0:0:0:0:
256,192,426791,1,0,0:0:0:0:
256,192,426831,1,0,0:0:0:0:
256,192,426870,1,8,0:0:0:0:
256,192,426910,1,8,0:0:0:0:
256,192,426949,1,0,0:0:0:0:
256,192,427028,1,8,0:0:0:0:
256,192,427107,1,0,0:0:0:0:
256,192,427186,1,8,0:0:0:0:
256,192,427265,1,0,0:0:0:0:
256,192,427305,1,0,0:0:0:0:
256,192,427344,1,8,0:0:0:0:
256,192,427423,1,0,0:0:0:0:
256,192,427502,1,8,0:0:0:0:
256,192,427541,1,8,0:0:0:0:
256,192,427581,1,0,0:0:0:0:
256,192,427620,1,0,0:0:0:0:
256,192,427660,1,8,0:0:0:0:
256,192,427699,1,8,0:0:0:0:
256,192,427739,1,0,0:0:0:0:
256,192,427778,1,0,0:0:0:0:
256,192,427818,1,8,0:0:0:0:
256,192,427857,1,8,0:0:0:0:
256,192,427897,1,8,0:0:0:0:
256,192,427936,1,8,0:0:0:0:
256,192,427976,1,0,0:0:0:0:
256,192,428015,1,0,0:0:0:0:
256,192,428055,1,8,0:0:0:0:
256,192,428094,1,8,0:0:0:0:
256,192,428134,1,0,0:0:0:0:
256,192,428173,1,0,0:0:0:0:
256,192,428212,1,0,0:0:0:0:
256,192,428252,1,0,0:0:0:0:
256,192,428291,1,8,0:0:0:0:
256,192,428331,1,8,0:0:0:0:
256,192,428370,1,8,0:0:0:0:
256,192,428410,1,8,0:0:0:0:
256,192,428449,1,0,0:0:0:0:
256,192,428489,1,0,0:0:0:0:
256,192,428528,1,8,0:0:0:0:
256,192,428568,1,8,0:0:0:0:
256,192,428607,1,0,0:0:0:0:
256,192,428647,1,0,0:0:0:0:
256,192,428686,1,0,0:0:0:0:
256,192,428726,1,0,0:0:0:0:
256,192,428766,1,8,0:0:0:0:
256,192,428805,1,8,0:0:0:0:
256,192,428845,1,8,0:0:0:0:
256,192,428884,1,8,0:0:0:0:
256,192,428923,1,0,0:0:0:0:
256,192,428963,1,0,0:0:0:0:
256,192,429002,1,0,0:0:0:0:
256,192,429042,1,0,0:0:0:0:
256,192,429081,1,8,0:0:0:0:
256,192,429120,1,8,0:0:0:0:
256,192,429160,1,8,0:0:0:0:
256,192,429200,1,8,0:0:0:0:
256,192,429239,1,0,0:0:0:0:
256,192,429278,1,0,0:0:0:0:
256,192,429318,1,8,0:0:0:0:
256,192,429357,1,8,0:0:0:0:
256,192,429397,1,0,0:0:0:0:
256,192,429436,1,0,0:0:0:0:
256,192,429476,1,0,0:0:0:0:
256,192,429515,1,0,0:0:0:0:
256,192,429555,1,8,0:0:0:0:
256,192,429595,1,8,0:0:0:0:
256,192,429634,1,0,0:0:0:0:
256,192,429673,1,0,0:0:0:0:
256,192,429712,1,8,0:0:0:0:
256,192,429752,1,8,0:0:0:0:
256,192,429791,1,8,0:0:0:0:
256,192,429831,1,8,0:0:0:0:
256,192,429869,1,0,0:0:0:0:
256,192,429910,1,0,0:0:0:0:
256,192,429949,1,0,0:0:0:0:
256,192,429989,1,0,0:0:0:0:
256,192,430029,1,8,0:0:0:0:
256,192,430068,1,8,0:0:0:0:
256,192,430107,1,0,0:0:0:0:
256,192,430147,1,0,0:0:0:0:
256,192,430186,1,8,0:0:0:0:
256,192,430226,1,8,0:0:0:0:
256,192,430265,1,0,0:0:0:0:
256,192,430305,1,0,0:0:0:0:
256,192,430344,1,12,0:0:0:0:
256,192,430423,12,0,430818,0:0:0:0:
256,192,430976,5,12,0:0:0:0:
256,192,431291,1,0,0:0:0:0:
256,192,431449,1,0,0:0:0:0:
256,192,431607,1,8,0:0:0:0:
256,192,432239,1,8,0:0:0:0:
256,192,432555,1,0,0:0:0:0:
256,192,432712,1,0,0:0:0:0:
256,192,432870,1,8,0:0:0:0:
256,192,433344,1,8,0:0:0:0:
256,192,433502,1,8,0:0:0:0:
256,192,433818,1,8,0:0:0:0:
256,192,434133,1,0,0:0:0:0:
256,192,434449,1,0,0:0:0:0:
256,192,434607,1,0,0:0:0:0:
256,192,434765,1,8,0:0:0:0:
256,192,434923,1,0,0:0:0:0:
256,192,435081,1,8,0:0:0:0:
256,192,435397,1,8,0:0:0:0:
256,192,436028,1,8,0:0:0:0:
256,192,436344,1,0,0:0:0:0:
256,192,436502,1,0,0:0:0:0:
256,192,436660,1,8,0:0:0:0:
256,192,436818,1,0,0:0:0:0:
256,192,436976,1,8,0:0:0:0:
256,192,437133,1,8,0:0:0:0:
256,192,437291,1,0,0:0:0:0:
256,192,437528,1,8,0:0:0:0:
256,192,437765,1,8,0:0:0:0:
256,192,437923,1,0,0:0:0:0:
256,192,438239,1,0,0:0:0:0:
256,192,438397,1,0,0:0:0:0:
256,192,438555,1,8,0:0:0:0:
256,192,438870,1,0,0:0:0:0:
256,192,439186,1,8,0:0:0:0:
256,192,439344,1,8,0:0:0:0:
256,192,439502,1,0,0:0:0:0:
256,192,439660,1,0,0:0:0:0:
256,192,439818,1,8,0:0:0:0:
256,192,440133,1,8,0:0:0:0:
256,192,440449,1,4,0:0:0:0:
256,192,440765,1,0,0:0:0:0:
256,192,440923,1,0,0:0:0:0:
256,192,441081,1,8,0:0:0:0:
256,192,441397,1,8,0:0:0:0:
256,192,441555,1,0,0:0:0:0:
256,192,441712,1,8,0:0:0:0:
256,192,441870,1,8,0:0:0:0:
256,192,442186,1,8,0:0:0:0:
256,192,442344,1,0,0:0:0:0:
256,192,442660,1,0,0:0:0:0:
256,192,442818,1,0,0:0:0:0:
256,192,442976,1,8,0:0:0:0:
256,192,443133,1,8,0:0:0:0:
256,192,443291,1,0,0:0:0:0:
256,192,443449,1,8,0:0:0:0:
256,192,443607,1,0,0:0:0:0:
256,192,443765,1,0,0:0:0:0:
256,192,443923,1,0,0:0:0:0:
256,192,444081,1,8,0:0:0:0:
256,192,444397,1,8,0:0:0:0:
256,192,444555,1,0,0:0:0:0:
256,192,444712,1,0,0:0:0:0:
256,192,444870,1,8,0:0:0:0:
256,192,445028,1,0,0:0:0:0:
256,192,445344,1,8,0:0:0:0:
256,192,445502,1,0,0:0:0:0:
256,192,445818,1,0,0:0:0:0:
256,192,446133,1,8,0:0:0:0:
256,192,446449,1,0,0:0:0:0:
256,192,446607,1,0,0:0:0:0:
256,192,446765,1,8,0:0:0:0:
256,192,447081,1,0,0:0:0:0:
256,192,447397,1,8,0:0:0:0:
256,192,447712,1,8,0:0:0:0:
256,192,447870,1,0,0:0:0:0:
256,192,448028,1,8,0:0:0:0:
256,192,448344,1,8,0:0:0:0:
256,192,448502,1,0,0:0:0:0:
256,192,448818,1,0,0:0:0:0:
256,192,448976,1,8,0:0:0:0:
256,192,449291,1,0,0:0:0:0:
256,192,449449,1,0,0:0:0:0:
256,192,449607,1,8,0:0:0:0:
256,192,449765,1,8,0:0:0:0:
256,192,449923,1,0,0:0:0:0:
256,192,450239,1,8,0:0:0:0:
256,192,450555,1,4,0:0:0:0:
256,192,451186,1,8,0:0:0:0:
256,192,451502,1,0,0:0:0:0:
256,192,451660,1,0,0:0:0:0:
256,192,451818,1,8,0:0:0:0:
256,192,452291,1,8,0:0:0:0:
256,192,452449,1,8,0:0:0:0:
256,192,452765,1,0,0:0:0:0:
256,192,452923,1,0,0:0:0:0:
256,192,453081,1,8,0:0:0:0:
256,192,453555,1,8,0:0:0:0:
256,192,453712,1,8,0:0:0:0:
256,192,454028,1,8,0:0:0:0:
256,192,454344,1,0,0:0:0:0:
256,192,454976,1,8,0:0:0:0:
256,192,455291,1,8,0:0:0:0:
256,192,455607,1,8,0:0:0:0:
256,192,456239,1,0,0:0:0:0:
256,192,456555,1,8,0:0:0:0:
256,192,456712,1,0,0:0:0:0:
256,192,456870,1,8,0:0:0:0:
256,192,457028,1,8,0:0:0:0:
256,192,457186,1,0,0:0:0:0:
256,192,457344,1,8,0:0:0:0:
256,192,457502,1,0,0:0:0:0:
256,192,457739,1,0,0:0:0:0:
256,192,457976,1,8,0:0:0:0:
256,192,458133,1,0,0:0:0:0:
256,192,458449,1,8,0:0:0:0:
256,192,458765,1,0,0:0:0:0:
256,192,458923,1,0,0:0:0:0:
256,192,459081,1,8,0:0:0:0:
256,192,459397,1,0,0:0:0:0:
256,192,459712,1,8,0:0:0:0:
256,192,459870,1,0,0:0:0:0:
256,192,460028,1,8,0:0:0:0:
256,192,460186,1,0,0:0:0:0:
256,192,460344,1,8,0:0:0:0:
256,192,460660,1,4,0:0:0:0:
256,192,460976,1,8,0:0:0:0:
256,192,461133,1,0,0:0:0:0:
256,192,461449,1,0,0:0:0:0:
256,192,461607,1,8,0:0:0:0:
256,192,461765,1,8,0:0:0:0:
256,192,461923,1,0,0:0:0:0:
256,192,462239,1,8,0:0:0:0:
256,192,462397,1,0,0:0:0:0:
256,192,462712,1,0,0:0:0:0:
256,192,462870,1,8,0:0:0:0:
256,192,463028,1,0,0:0:0:0:
256,192,463186,1,8,0:0:0:0:
256,192,463344,1,8,0:0:0:0:
256,192,463502,1,0,0:0:0:0:
256,192,463660,1,8,0:0:0:0:
256,192,463818,1,0,0:0:0:0:
256,192,463976,1,0,0:0:0:0:
256,192,464291,1,8,0:0:0:0:
256,192,464607,1,8,0:0:0:0:
256,192,464765,1,0,0:0:0:0:
256,192,464923,1,0,0:0:0:0:
256,192,465081,1,8,0:0:0:0:
256,192,465239,1,0,0:0:0:0:
256,192,465555,1,8,0:0:0:0:
256,192,465712,1,0,0:0:0:0:
256,192,466028,1,0,0:0:0:0:
256,192,466344,1,8,0:0:0:0:
256,192,466660,1,0,0:0:0:0:
256,192,466818,1,0,0:0:0:0:
256,192,466976,1,8,0:0:0:0:
256,192,467291,1,0,0:0:0:0:
256,192,467607,1,8,0:0:0:0:
256,192,467923,1,0,0:0:0:0:
256,192,468081,1,0,0:0:0:0:
256,192,468239,1,8,0:0:0:0:
256,192,468555,1,8,0:0:0:0:
256,192,468712,1,0,0:0:0:0:
256,192,469028,1,0,0:0:0:0:
256,192,469186,1,8,0:0:0:0:
256,192,469502,1,0,0:0:0:0:
256,192,470133,1,8,0:0:0:0:
256,192,470291,1,0,0:0:0:0:
256,192,470449,1,8,0:0:0:0:
256,192,470765,1,4,0:0:0:0:
256,192,471397,1,8,0:0:0:0:
256,192,471712,1,0,0:0:0:0:
256,192,471870,1,0,0:0:0:0:
256,192,472028,1,8,0:0:0:0:
256,192,472660,1,8,0:0:0:0:
256,192,472976,1,0,0:0:0:0:
256,192,473133,1,0,0:0:0:0:
256,192,473291,1,8,0:0:0:0:
256,192,473765,1,8,0:0:0:0:
256,192,473923,1,8,0:0:0:0:
256,192,474555,1,0,0:0:0:0:
256,192,475186,1,8,0:0:0:0:
256,192,475502,1,8,0:0:0:0:
256,192,475818,1,0,0:0:0:0:
256,192,476449,1,8,0:0:0:0:
256,192,477081,1,0,0:0:0:0:
256,192,477397,1,8,0:0:0:0:
256,192,477555,1,0,0:0:0:0:
256,192,477712,1,8,0:0:0:0:
256,192,477949,1,0,0:0:0:0:
256,192,478186,1,8,0:0:0:0:
256,192,478344,1,0,0:0:0:0:
256,192,478976,1,8,0:0:0:0:
256,192,479607,1,0,0:0:0:0:
256,192,479923,1,0,0:0:0:0:
256,192,480081,1,0,0:0:0:0:
256,192,480239,1,8,0:0:0:0:
256,192,480397,1,0,0:0:0:0:
256,192,480555,1,8,0:0:0:0:
256,192,480870,1,4,0:0:0:0:
256,192,481502,1,8,0:0:0:0:
256,192,481818,1,0,0:0:0:0:
256,192,481976,1,0,0:0:0:0:
256,192,482133,1,8,0:0:0:0:
256,192,482607,1,0,0:0:0:0:
256,192,483081,1,8,0:0:0:0:
256,192,483239,1,0,0:0:0:0:
256,192,483397,1,8,0:0:0:0:
256,192,483712,1,0,0:0:0:0:
256,192,483870,1,0,0:0:0:0:
256,192,484028,1,8,0:0:0:0:
256,192,484186,1,0,0:0:0:0:
256,192,484502,1,8,0:0:0:0:
256,192,484818,1,8,0:0:0:0:
256,192,484976,1,0,0:0:0:0:
256,192,485291,1,8,0:0:0:0:
256,192,485765,1,8,0:0:0:0:
256,192,485923,1,0,0:0:0:0:
256,192,486555,1,8,0:0:0:0:
256,192,486870,1,0,0:0:0:0:
256,192,487186,1,8,0:0:0:0:
256,192,487818,1,0,0:0:0:0:
256,192,488133,1,8,0:0:0:0:
256,192,488449,1,8,0:0:0:0:
256,192,488923,1,8,0:0:0:0:
256,192,489397,1,0,0:0:0:0:
256,192,489712,1,0,0:0:0:0:
256,192,490344,1,0,0:0:0:0:
256,192,490660,1,0,0:0:0:0:
