osu file format v14

[General]
AudioFilename: audio.mp3
AudioLeadIn: 0
PreviewTime: 231097
Countdown: 0
SampleSet: Normal
StackLeniency: 0.7
Mode: 1
LetterboxInBreaks: 0
WidescreenStoryboard: 0

[Editor]
DistanceSpacing: 1
BeatDivisor: 4
GridSize: 32
TimelineZoom: 4.699997

[Metadata]
Title:Scattered Faith
TitleUnicode:Scattered Faith
Artist:Kurokotei
ArtistUnicode:黒皇帝
Creator:Sayaka-
Version:Oni
Source:東方Project
Tags:touhou speedcore hijiri byakuren emotional skyscraper cosmic mind undefined fantastic object dialgadu77 marathon kurokoutei
BeatmapID:1052166
BeatmapSetID:494122

[Difficulty]
HPDrainRate:3
CircleSize:5
OverallDifficulty:8.5
ApproachRate:5
SliderMultiplier:1.4
SliderTickRate:1

[Events]
//Background and Video events
0,0,"bg.jpg",0,0
//Break Periods
2,36494,41094
2,42494,47094
2,60119,64344
2,179042,183835
2,185235,190029
//Storyboard Layer 0 (Background)
//Storyboard Layer 1 (Fail)
//Storyboard Layer 2 (Pass)
//Storyboard Layer 3 (Foreground)
//Storyboard Sound Samples

[TimingPoints]
294,750,4,1,0,100,1,0
36247,-12.5,4,1,0,100,0,0
36340,-100,4,1,0,100,0,0
42106,-12.5,4,1,0,100,0,0
42481,-100,4,1,0,100,0,0
48106,-12.5,4,1,0,100,0,0
60106,-100,4,1,0,100,0,0
65356,-12.5,4,1,0,100,0,0
66294,375,4,1,0,100,1,0
79559,-50,4,1,0,100,0,0
79794,187.5,4,1,0,100,1,0
115981,-133.333333333333,4,1,0,100,0,0
120247,-114.285714285714,4,1,0,100,0,0
123387,-108.108108108108,4,1,0,100,0,0
126247,-12.5,4,1,0,100,0,0
128637,-206.451612903226,4,1,0,100,0,0
129294,774.193548387097,4,1,0,100,1,0
129294,-50,4,1,0,100,0,0
129390,-100,4,1,0,100,0,0
153874,-75,4,1,0,100,0,0
202132,-72.463768115942,4,1,0,100,0,0
202261,-70.4225352112676,4,1,0,100,0,0
202390,-68.0272108843537,4,1,0,100,0,0
202519,-65.7894736842105,4,1,0,100,0,0
202648,-63.6942675159236,4,1,0,100,0,0
202777,-61.7283950617284,4,1,0,100,0,0
202906,-59.8802395209581,4,1,0,100,0,0
203035,-58.1395348837209,4,1,0,100,0,0
203164,-56.4971751412429,4,1,0,100,0,0
203293,-54.9450549450549,4,1,0,100,0,0
203423,-53.1914893617021,4,1,0,100,0,0
203552,-51.5463917525773,4,1,0,100,0,0
203616,387.096774193548,4,1,0,100,1,0
205164,352.941176470588,4,1,0,100,1,0
205164,-103.949044585987,4,1,0,100,0,0
206575,324.324324324324,4,1,0,100,1,0
206575,-107.506053268765,4,1,0,100,0,0
207872,300,4,1,0,100,1,0
207872,-110.726643598616,4,1,0,100,0,0
209072,279.06976744186,4,1,0,100,1,0
209072,-113.656387665198,4,1,0,100,0,0
210188,260.869565217391,4,1,0,100,1,0
210188,-116.332982086407,4,1,0,100,0,0
211231,244.897959183673,4,1,0,100,1,0
211231,-118.787878787879,4,1,0,100,0,0
212210,230.769230769231,4,1,0,100,1,0
212210,-121.047526673133,4,1,0,100,0,0
213133,218.181818181818,4,1,0,100,1,0
213133,-123.134328358209,4,1,0,100,0,0
214005,206.896551724138,4,1,0,100,1,0
214005,-125.067385444744,4,1,0,100,0,0
214832,196.72131147541,4,1,0,100,1,0
214832,-126.86308492201,4,1,0,100,0,0
215618,187.5,4,1,0,100,1,0
215618,-128.535564853557,4,1,0,100,0,0
216368,179.10447761194,4,1,0,100,1,0
216368,-130.097087378641,4,1,0,100,0,0
217084,171.428571428571,4,1,0,100,1,0
217084,-131.558339859045,4,1,0,100,0,0
217769,164.383561643836,4,1,0,100,1,0
217769,-132.928679817906,4,1,0,100,0,0
218426,157.894736842105,4,1,0,100,1,0
218426,-134.216335540839,4,1,0,100,0,0
219057,151.898734177215,4,1,0,100,1,0
219057,-135.428571428571,4,1,0,100,0,0
219664,146.341463414634,4,1,0,100,1,0
219664,-136.571825121443,4,1,0,100,0,0
220249,141.176470588235,4,1,0,100,1,0
220249,-137.651821862348,4,1,0,100,0,0
220813,136.363636363636,4,1,0,100,1,0
220813,-138.673670387393,4,1,0,100,0,0
221358,131.868131868132,4,1,0,100,1,0
221358,-139.641943734015,4,1,0,100,0,0
221885,127.659574468085,4,1,0,100,1,0
221885,-140.560747663551,4,1,0,100,0,0
222395,123.711340206186,4,1,0,100,1,0
222395,-141.433778857837,4,1,0,100,0,0
222889,120,4,1,0,100,1,0
222889,-142.26437462952,4,1,0,100,0,0
223369,116.504854368932,4,1,0,100,1,0
223369,-143.055555555555,4,1,0,100,0,0
227097,666.666666666667,4,1,0,100,1,0
227097,-25,4,1,0,100,0,0
227138,-100,4,1,0,100,0,0
232430,166.666666666667,4,1,0,100,1,1
296430,387.096774193548,4,1,0,100,1,0
296430,-43.0555563927469,4,1,0,100,0,0
297107,-133.333333333333,4,1,0,50,0,0
321204,352.941176470588,4,1,0,100,1,0
332498,342.857142857143,4,1,0,100,1,0
343469,333.333333333333,4,1,0,100,1,0
362135,666.666666666667,4,1,0,100,1,0
362135,-50,4,1,0,100,0,0
362301,-100,4,1,0,100,0,0
367468,166.666666666667,4,1,0,100,1,1
410134,157.894736842105,4,1,0,100,1,1
430344,-100,4,1,0,100,0,0
450712,-114.285714285714,4,1,0,100,0,0
470923,-133.333333333333,4,1,0,100,0,0
481028,-160,4,1,0,100,0,0

[HitObjects]
256,192,24294,5,0,0:0:0:0:
256,192,24669,1,0,0:0:0:0:
256,192,25044,1,8,0:0:0:0:
256,192,25419,1,0,0:0:0:0:
256,192,25606,1,8,0:0:0:0:
256,192,25794,1,0,0:0:0:0:
256,192,25981,1,8,0:0:0:0:
256,192,26169,1,0,0:0:0:0:
256,192,26544,1,8,0:0:0:0:
256,192,26919,1,0,0:0:0:0:
256,192,27294,1,0,0:0:0:0:
256,192,27669,1,0,0:0:0:0:
256,192,28044,1,8,0:0:0:0:
256,192,28419,1,0,0:0:0:0:
256,192,28606,1,8,0:0:0:0:
256,192,28794,1,0,0:0:0:0:
256,192,28981,1,8,0:0:0:0:
256,192,29169,1,0,0:0:0:0:
256,192,29544,1,8,0:0:0:0:
256,192,29919,1,0,0:0:0:0:
256,192,30106,1,8,0:0:0:0:
256,192,30294,1,0,0:0:0:0:
256,192,30669,1,0,0:0:0:0:
256,192,31044,1,8,0:0:0:0:
256,192,31419,1,0,0:0:0:0:
256,192,31606,1,8,0:0:0:0:
256,192,31794,1,0,0:0:0:0:
256,192,31981,1,8,0:0:0:0:
256,192,32169,1,0,0:0:0:0:
256,192,32544,1,8,0:0:0:0:
256,192,32919,1,0,0:0:0:0:
256,192,33294,1,0,0:0:0:0:
256,192,33669,1,0,0:0:0:0:
256,192,34044,1,8,0:0:0:0:
256,192,34419,1,0,0:0:0:0:
256,192,34606,1,8,0:0:0:0:
256,192,34794,1,0,0:0:0:0:
256,192,34981,1,8,0:0:0:0:
256,192,35169,1,0,0:0:0:0:
256,192,35544,1,8,0:0:0:0:
256,192,35731,1,0,0:0:0:0:
256,192,35919,1,8,0:0:0:0:
256,192,36012,1,8,0:0:0:0:
256,192,36106,1,8,0:0:0:0:
256,192,36200,1,8,0:0:0:0:
256,192,36294,1,4,0:0:0:0:
256,192,42294,5,4,0:0:0:0:
256,192,48294,5,4,0:0:0:0:
256,192,51294,1,4,0:0:0:0:
256,192,54294,1,4,0:0:0:0:
256,192,55794,1,4,0:0:0:0:
256,192,57294,1,4,0:0:0:0:
256,192,58044,1,4,0:0:0:0:
256,192,58794,1,4,0:0:0:0:
256,192,59169,1,4,0:0:0:0:
256,192,59544,1,4,0:0:0:0:
256,192,59919,1,4,0:0:0:0:
256,192,65544,12,0,66106,0:0:0:0:
256,192,66294,5,4,0:0:0:0:
256,192,66669,1,8,0:0:0:0:
256,192,67231,1,0,0:0:0:0:
256,192,67419,1,8,0:0:0:0:
256,192,67794,1,0,0:0:0:0:
256,192,68169,1,8,0:0:0:0:
256,192,68731,1,0,0:0:0:0:
256,192,68919,1,8,0:0:0:0:
256,192,69106,1,0,0:0:0:0:
256,192,69200,1,0,0:0:0:0:
256,192,69294,1,0,0:0:0:0:
256,192,69669,1,8,0:0:0:0:
256,192,70231,1,0,0:0:0:0:
256,192,70419,1,8,0:0:0:0:
256,192,70794,1,0,0:0:0:0:
256,192,71169,1,8,0:0:0:0:
256,192,71731,1,0,0:0:0:0:
256,192,71919,1,8,0:0:0:0:
256,192,72012,1,0,0:0:0:0:
256,192,72106,1,0,0:0:0:0:
256,192,72200,1,0,0:0:0:0:
256,192,72294,1,0,0:0:0:0:
256,192,72669,1,8,0:0:0:0:
256,192,73044,1,0,0:0:0:0:
256,192,73231,1,0,0:0:0:0:
256,192,73325,1,0,0:0:0:0:
256,192,73419,1,8,0:0:0:0:
256,192,73606,1,0,0:0:0:0:
256,192,73794,1,0,0:0:0:0:
256,192,74169,1,8,0:0:0:0:
256,192,74544,1,0,0:0:0:0:
256,192,74731,1,0,0:0:0:0:
256,192,74825,1,0,0:0:0:0:
256,192,74919,1,8,0:0:0:0:
256,192,75012,1,0,0:0:0:0:
256,192,75106,1,0,0:0:0:0:
256,192,75200,1,8,0:0:0:0:
256,192,75294,1,0,0:0:0:0:
256,192,75481,1,0,0:0:0:0:
256,192,75575,1,0,0:0:0:0:
256,192,75669,1,8,0:0:0:0:
256,192,75856,1,0,0:0:0:0:
256,192,76231,1,0,0:0:0:0:
256,192,76419,1,8,0:0:0:0:
256,192,76606,1,8,0:0:0:0:
256,192,76700,1,8,0:0:0:0:
256,192,76794,1,0,0:0:0:0:
256,192,76981,1,0,0:0:0:0:
256,192,77075,1,0,0:0:0:0:
256,192,77169,1,8,0:0:0:0:
256,192,77356,1,0,0:0:0:0:
256,192,77637,1,8,0:0:0:0:
256,192,77731,1,0,0:0:0:0:
256,192,77919,1,8,0:0:0:0:
256,192,78106,1,8,0:0:0:0:
256,192,78200,1,8,0:0:0:0:
256,192,78294,1,0,0:0:0:0:
256,192,78481,1,0,0:0:0:0:
256,192,78575,1,0,0:0:0:0:
256,192,78669,1,8,0:0:0:0:
256,192,78856,1,0,0:0:0:0:
256,192,78950,1,0,0:0:0:0:
256,192,79044,1,8,0:0:0:0:
256,192,79137,1,0,0:0:0:0:
256,192,79231,1,8,0:0:0:0:
256,192,79325,1,8,0:0:0:0:
256,192,79419,1,8,0:0:0:0:
256,192,79512,1,0,0:0:0:0:
256,192,79606,1,8,0:0:0:0:
256,192,79653,1,8,0:0:0:0:
256,192,79700,1,8,0:0:0:0:
256,192,79747,1,8,0:0:0:0:
256,192,79794,1,0,0:0:0:0:
256,192,79887,1,0,0:0:0:0:
256,192,79981,1,8,0:0:0:0:
256,192,80075,1,0,0:0:0:0:
256,192,80169,1,8,0:0:0:0:
256,192,80262,1,8,0:0:0:0:
256,192,80356,1,0,0:0:0:0:
256,192,80450,1,8,0:0:0:0:
256,192,80497,1,8,0:0:0:0:
256,192,80544,1,0,0:0:0:0:
256,192,80637,1,0,0:0:0:0:
256,192,80731,1,8,0:0:0:0:
256,192,80825,1,0,0:0:0:0:
256,192,80919,1,8,0:0:0:0:
256,192,81012,1,0,0:0:0:0:
256,192,81106,1,8,0:0:0:0:
256,192,81153,1,8,0:0:0:0:
256,192,81200,1,8,0:0:0:0:
256,192,81247,1,8,0:0:0:0:
256,192,81294,1,0,0:0:0:0:
256,192,81387,1,0,0:0:0:0:
256,192,81481,1,8,0:0:0:0:
256,192,81575,1,0,0:0:0:0:
256,192,81669,1,8,0:0:0:0:
256,192,81762,1,8,0:0:0:0:
256,192,81856,1,0,0:0:0:0:
256,192,81950,1,8,0:0:0:0:
256,192,81997,1,8,0:0:0:0:
256,192,82044,1,0,0:0:0:0:
256,192,82137,1,0,0:0:0:0:
256,192,82231,1,8,0:0:0:0:
256,192,82325,1,0,0:0:0:0:
256,192,82419,1,8,0:0:0:0:
256,192,82465,1,8,0:0:0:0:
256,192,82512,1,8,0:0:0:0:
256,192,82559,1,8,0:0:0:0:
256,192,82606,1,0,0:0:0:0:
256,192,82700,1,8,0:0:0:0:
256,192,82794,1,0,0:0:0:0:
256,192,82887,1,0,0:0:0:0:
256,192,82981,1,8,0:0:0:0:
256,192,83075,1,0,0:0:0:0:
256,192,83169,1,8,0:0:0:0:
256,192,83262,1,8,0:0:0:0:
256,192,83356,1,0,0:0:0:0:
256,192,83450,1,8,0:0:0:0:
256,192,83497,1,8,0:0:0:0:
256,192,83544,1,0,0:0:0:0:
256,192,83637,1,0,0:0:0:0:
256,192,83731,1,8,0:0:0:0:
256,192,83825,1,0,0:0:0:0:
256,192,83919,1,8,0:0:0:0:
256,192,84012,1,0,0:0:0:0:
256,192,84106,1,8,0:0:0:0:
256,192,84153,1,8,0:0:0:0:
256,192,84200,1,8,0:0:0:0:
256,192,84247,1,8,0:0:0:0:
256,192,84294,1,0,0:0:0:0:
256,192,84387,1,0,0:0:0:0:
256,192,84481,1,8,0:0:0:0:
256,192,84575,1,0,0:0:0:0:
256,192,84669,1,8,0:0:0:0:
256,192,84762,1,8,0:0:0:0:
256,192,84856,1,0,0:0:0:0:
256,192,84950,1,8,0:0:0:0:
256,192,84997,1,8,0:0:0:0:
256,192,85044,1,0,0:0:0:0:
256,192,85137,1,0,0:0:0:0:
256,192,85231,1,8,0:0:0:0:
256,192,85325,1,0,0:0:0:0:
256,192,85419,1,8,0:0:0:0:
256,192,85465,1,8,0:0:0:0:
256,192,85512,1,8,0:0:0:0:
256,192,85559,1,8,0:0:0:0:
256,192,85606,1,0,0:0:0:0:
256,192,85653,1,0,0:0:0:0:
256,192,85700,1,0,0:0:0:0:
256,192,85794,1,4,0:0:0:0:
256,192,85887,1,0,0:0:0:0:
256,192,85981,1,8,0:0:0:0:
256,192,86075,1,0,0:0:0:0:
256,192,86169,1,8,0:0:0:0:
256,192,86262,1,8,0:0:0:0:
256,192,86356,1,0,0:0:0:0:
256,192,86450,1,8,0:0:0:0:
256,192,86497,1,8,0:0:0:0:
256,192,86544,1,0,0:0:0:0:
256,192,86637,1,0,0:0:0:0:
256,192,86731,1,8,0:0:0:0:
256,192,86825,1,0,0:0:0:0:
256,192,86919,1,8,0:0:0:0:
256,192,87012,1,0,0:0:0:0:
256,192,87106,1,8,0:0:0:0:
256,192,87153,1,8,0:0:0:0:
256,192,87200,1,8,0:0:0:0:
256,192,87247,1,8,0:0:0:0:
256,192,87294,1,0,0:0:0:0:
256,192,87387,1,0,0:0:0:0:
256,192,87481,1,8,0:0:0:0:
256,192,87575,1,0,0:0:0:0:
256,192,87669,1,8,0:0:0:0:
256,192,87762,1,8,0:0:0:0:
256,192,87856,1,0,0:0:0:0:
256,192,87950,1,8,0:0:0:0:
256,192,87997,1,8,0:0:0:0:
256,192,88044,1,0,0:0:0:0:
256,192,88137,1,0,0:0:0:0:
256,192,88231,1,8,0:0:0:0:
256,192,88325,1,0,0:0:0:0:
256,192,88419,1,8,0:0:0:0:
256,192,88465,1,8,0:0:0:0:
256,192,88512,1,8,0:0:0:0:
256,192,88559,1,8,0:0:0:0:
256,192,88606,1,0,0:0:0:0:
256,192,88700,1,8,0:0:0:0:
256,192,88794,1,0,0:0:0:0:
256,192,88887,1,0,0:0:0:0:
256,192,88981,1,8,0:0:0:0:
256,192,89075,1,0,0:0:0:0:
256,192,89169,1,8,0:0:0:0:
256,192,89262,1,8,0:0:0:0:
256,192,89356,1,0,0:0:0:0:
256,192,89450,1,8,0:0:0:0:
256,192,89497,1,8,0:0:0:0:
256,192,89544,1,0,0:0:0:0:
256,192,89637,1,0,0:0:0:0:
256,192,89731,1,8,0:0:0:0:
256,192,89825,1,0,0:0:0:0:
256,192,89919,1,8,0:0:0:0:
256,192,90012,1,0,0:0:0:0:
256,192,90106,1,8,0:0:0:0:
256,192,90153,1,8,0:0:0:0:
256,192,90200,1,8,0:0:0:0:
256,192,90247,1,8,0:0:0:0:
256,192,90294,1,0,0:0:0:0:
256,192,90387,1,0,0:0:0:0:
256,192,90481,1,8,0:0:0:0:
256,192,90575,1,0,0:0:0:0:
256,192,90669,1,8,0:0:0:0:
256,192,90762,1,8,0:0:0:0:
256,192,90856,1,0,0:0:0:0:
256,192,90950,1,8,0:0:0:0:
256,192,90997,1,8,0:0:0:0:
256,192,91044,1,0,0:0:0:0:
256,192,91137,1,0,0:0:0:0:
256,192,91231,1,8,0:0:0:0:
256,192,91325,1,0,0:0:0:0:
256,192,91419,1,8,0:0:0:0:
256,192,91465,1,0,0:0:0:0:
256,192,91512,1,0,0:0:0:0:
256,192,91559,1,0,0:0:0:0:
256,192,91606,1,0,0:0:0:0:
256,192,91700,1,0,0:0:0:0:
256,192,91794,1,4,0:0:0:0:
256,192,91887,1,0,0:0:0:0:
256,192,91981,1,8,0:0:0:0:
256,192,92075,1,0,0:0:0:0:
256,192,92169,1,8,0:0:0:0:
256,192,92262,1,8,0:0:0:0:
256,192,92356,1,0,0:0:0:0:
256,192,92450,1,8,0:0:0:0:
256,192,92497,1,8,0:0:0:0:
256,192,92544,1,0,0:0:0:0:
256,192,92637,1,0,0:0:0:0:
256,192,92731,1,8,0:0:0:0:
256,192,92825,1,0,0:0:0:0:
256,192,92919,1,8,0:0:0:0:
256,192,93012,1,0,0:0:0:0:
256,192,93106,1,8,0:0:0:0:
256,192,93153,1,8,0:0:0:0:
256,192,93200,1,8,0:0:0:0:
256,192,93247,1,8,0:0:0:0:
256,192,93294,1,0,0:0:0:0:
256,192,93387,1,0,0:0:0:0:
256,192,93481,1,8,0:0:0:0:
256,192,93575,1,0,0:0:0:0:
256,192,93669,1,8,0:0:0:0:
256,192,93762,1,8,0:0:0:0:
256,192,93856,1,0,0:0:0:0:
256,192,93950,1,8,0:0:0:0:
256,192,93997,1,8,0:0:0:0:
256,192,94044,1,0,0:0:0:0:
256,192,94137,1,0,0:0:0:0:
256,192,94231,1,8,0:0:0:0:
256,192,94325,1,0,0:0:0:0:
256,192,94419,1,8,0:0:0:0:
256,192,94465,1,8,0:0:0:0:
256,192,94512,1,8,0:0:0:0:
256,192,94559,1,8,0:0:0:0:
256,192,94606,1,0,0:0:0:0:
256,192,94700,1,8,0:0:0:0:
256,192,94794,1,0,0:0:0:0:
256,192,94887,1,0,0:0:0:0:
256,192,94981,1,8,0:0:0:0:
256,192,95075,1,0,0:0:0:0:
256,192,95169,1,8,0:0:0:0:
256,192,95262,1,8,0:0:0:0:
256,192,95356,1,0,0:0:0:0:
256,192,95450,1,8,0:0:0:0:
256,192,95497,1,8,0:0:0:0:
256,192,95544,1,0,0:0:0:0:
256,192,95637,1,0,0:0:0:0:
256,192,95731,1,8,0:0:0:0:
256,192,95825,1,0,0:0:0:0:
256,192,95919,1,8,0:0:0:0:
256,192,96012,1,0,0:0:0:0:
256,192,96106,1,8,0:0:0:0:
256,192,96153,1,8,0:0:0:0:
256,192,96200,1,8,0:0:0:0:
256,192,96247,1,8,0:0:0:0:
256,192,96294,1,0,0:0:0:0:
256,192,96387,1,0,0:0:0:0:
256,192,96481,1,8,0:0:0:0:
256,192,96575,1,0,0:0:0:0:
256,192,96669,1,8,0:0:0:0:
256,192,96762,1,8,0:0:0:0:
256,192,96856,1,0,0:0:0:0:
256,192,96950,1,8,0:0:0:0:
256,192,96997,1,8,0:0:0:0:
256,192,97044,1,0,0:0:0:0:
256,192,97137,1,0,0:0:0:0:
256,192,97231,1,8,0:0:0:0:
256,192,97325,1,0,0:0:0:0:
256,192,97419,1,8,0:0:0:0:
256,192,97465,1,8,0:0:0:0:
256,192,97512,1,8,0:0:0:0:
256,192,97559,1,8,0:0:0:0:
256,192,97606,1,0,0:0:0:0:
256,192,97653,1,0,0:0:0:0:
256,192,97700,1,0,0:0:0:0:
256,192,97794,1,4,0:0:0:0:
256,192,97887,1,0,0:0:0:0:
256,192,97981,1,8,0:0:0:0:
256,192,98075,1,0,0:0:0:0:
256,192,98169,1,8,0:0:0:0:
256,192,98262,1,8,0:0:0:0:
256,192,98356,1,0,0:0:0:0:
256,192,98450,1,8,0:0:0:0:
256,192,98497,1,8,0:0:0:0:
256,192,98544,1,0,0:0:0:0:
256,192,98637,1,0,0:0:0:0:
256,192,98731,1,8,0:0:0:0:
256,192,98825,1,0,0:0:0:0:
256,192,98919,1,8,0:0:0:0:
256,192,99012,1,0,0:0:0:0:
256,192,99106,1,8,0:0:0:0:
256,192,99153,1,8,0:0:0:0:
256,192,99200,1,8,0:0:0:0:
256,192,99247,1,8,0:0:0:0:
256,192,99294,1,0,0:0:0:0:
256,192,99387,1,0,0:0:0:0:
256,192,99481,1,8,0:0:0:0:
256,192,99575,1,0,0:0:0:0:
256,192,99669,1,8,0:0:0:0:
256,192,99762,1,8,0:0:0:0:
256,192,99856,1,0,0:0:0:0:
256,192,99950,1,8,0:0:0:0:
256,192,99997,1,8,0:0:0:0:
256,192,100044,1,0,0:0:0:0:
256,192,100137,1,0,0:0:0:0:
256,192,100231,1,8,0:0:0:0:
256,192,100325,1,0,0:0:0:0:
256,192,100419,1,8,0:0:0:0:
256,192,100465,1,8,0:0:0:0:
256,192,100512,1,8,0:0:0:0:
256,192,100559,1,8,0:0:0:0:
256,192,100606,1,0,0:0:0:0:
256,192,100700,1,8,0:0:0:0:
256,192,100794,1,0,0:0:0:0:
256,192,100840,1,0,0:0:0:0:
256,192,100887,1,0,0:0:0:0:
256,192,100934,1,0,0:0:0:0:
256,192,100981,1,8,0:0:0:0:
256,192,101028,1,8,0:0:0:0:
256,192,101075,1,0,0:0:0:0:
256,192,101122,1,0,0:0:0:0:
256,192,101169,1,8,0:0:0:0:
256,192,101215,1,0,0:0:0:0:
256,192,101262,1,8,0:0:0:0:
256,192,101309,1,8,0:0:0:0:
256,192,101356,1,0,0:0:0:0:
256,192,101403,1,0,0:0:0:0:
256,192,101450,1,8,0:0:0:0:
256,192,101497,1,0,0:0:0:0:
256,192,101544,1,0,0:0:0:0:
256,192,101590,1,0,0:0:0:0:
256,192,101637,1,0,0:0:0:0:
256,192,101684,1,0,0:0:0:0:
256,192,101731,1,8,0:0:0:0:
256,192,101778,1,8,0:0:0:0:
256,192,101825,1,0,0:0:0:0:
256,192,101872,1,0,0:0:0:0:
256,192,101919,1,8,0:0:0:0:
256,192,101965,1,0,0:0:0:0:
256,192,102012,1,8,0:0:0:0:
256,192,102059,1,8,0:0:0:0:
256,192,102106,1,0,0:0:0:0:
256,192,102153,1,0,0:0:0:0:
256,192,102200,1,8,0:0:0:0:
256,192,102247,1,8,0:0:0:0:
256,192,102294,1,0,0:0:0:0:
256,192,102340,1,0,0:0:0:0:
256,192,102387,1,0,0:0:0:0:
256,192,102434,1,0,0:0:0:0:
256,192,102481,1,0,0:0:0:0:
256,192,102528,1,0,0:0:0:0:
256,192,102575,1,0,0:0:0:0:
256,192,102622,1,0,0:0:0:0:
256,192,102669,1,0,0:0:0:0:
256,192,102715,1,0,0:0:0:0:
256,192,102762,1,0,0:0:0:0:
256,192,102809,1,0,0:0:0:0:
256,192,102856,1,0,0:0:0:0:
256,192,102903,1,0,0:0:0:0:
256,192,102950,1,0,0:0:0:0:
256,192,102997,1,0,0:0:0:0:
256,192,103044,1,8,0:0:0:0:
256,192,103090,1,8,0:0:0:0:
256,192,103137,1,8,0:0:0:0:
256,192,103184,1,8,0:0:0:0:
256,192,103231,1,8,0:0:0:0:
256,192,103278,1,8,0:0:0:0:
256,192,103325,1,8,0:0:0:0:
256,192,103372,1,8,0:0:0:0:
256,192,103419,1,8,0:0:0:0:
256,192,103465,1,8,0:0:0:0:
256,192,103512,1,8,0:0:0:0:
256,192,103559,1,8,0:0:0:0:
256,192,103606,1,8,0:0:0:0:
256,192,103653,1,8,0:0:0:0:
256,192,103700,1,8,0:0:0:0:
256,192,103794,1,4,0:0:0:0:
256,192,103887,1,0,0:0:0:0:
256,192,103934,1,0,0:0:0:0:
256,192,103981,1,8,0:0:0:0:
256,192,104075,1,0,0:0:0:0:
256,192,104169,1,8,0:0:0:0:
256,192,104215,1,8,0:0:0:0:
256,192,104262,1,8,0:0:0:0:
256,192,104356,1,0,0:0:0:0:
256,192,104450,1,8,0:0:0:0:
256,192,104544,1,0,0:0:0:0:
256,192,104637,1,0,0:0:0:0:
256,192,104684,1,0,0:0:0:0:
256,192,104731,1,8,0:0:0:0:
256,192,104825,1,0,0:0:0:0:
256,192,104919,1,8,0:0:0:0:
256,192,104965,1,8,0:0:0:0:
256,192,105012,1,8,0:0:0:0:
256,192,105106,1,0,0:0:0:0:
256,192,105153,1,0,0:0:0:0:
256,192,105200,1,8,0:0:0:0:
256,192,105247,1,8,0:0:0:0:
256,192,105294,1,0,0:0:0:0:
256,192,105387,1,0,0:0:0:0:
256,192,105434,1,0,0:0:0:0:
256,192,105481,1,8,0:0:0:0:
256,192,105575,1,0,0:0:0:0:
256,192,105669,1,8,0:0:0:0:
256,192,105715,1,8,0:0:0:0:
256,192,105762,1,8,0:0:0:0:
256,192,105856,1,0,0:0:0:0:
256,192,105950,1,8,0:0:0:0:
256,192,106044,1,0,0:0:0:0:
256,192,106137,1,0,0:0:0:0:
256,192,106231,1,8,0:0:0:0:
256,192,106325,1,0,0:0:0:0:
256,192,106419,1,8,0:0:0:0:
256,192,106512,1,0,0:0:0:0:
256,192,106606,1,8,0:0:0:0:
256,192,106653,1,8,0:0:0:0:
256,192,106700,1,8,0:0:0:0:
256,192,106747,1,8,0:0:0:0:
256,192,106794,1,0,0:0:0:0:
256,192,106887,1,0,0:0:0:0:
256,192,106934,1,0,0:0:0:0:
256,192,106981,1,8,0:0:0:0:
256,192,107075,1,0,0:0:0:0:
256,192,107169,1,8,0:0:0:0:
256,192,107215,1,8,0:0:0:0:
256,192,107262,1,8,0:0:0:0:
256,192,107356,1,0,0:0:0:0:
256,192,107450,1,8,0:0:0:0:
256,192,107544,1,0,0:0:0:0:
256,192,107637,1,0,0:0:0:0:
256,192,107684,1,0,0:0:0:0:
256,192,107731,1,8,0:0:0:0:
256,192,107825,1,0,0:0:0:0:
256,192,107919,1,8,0:0:0:0:
256,192,107965,1,8,0:0:0:0:
256,192,108012,1,8,0:0:0:0:
256,192,108106,1,0,0:0:0:0:
256,192,108153,1,0,0:0:0:0:
256,192,108200,1,8,0:0:0:0:
256,192,108294,1,0,0:0:0:0:
256,192,108387,1,0,0:0:0:0:
256,192,108434,1,0,0:0:0:0:
256,192,108481,1,8,0:0:0:0:
256,192,108575,1,0,0:0:0:0:
256,192,108669,1,8,0:0:0:0:
256,192,108715,1,0,0:0:0:0:
256,192,108762,1,0,0:0:0:0:
256,192,108809,1,8,0:0:0:0:
256,192,108856,1,0,0:0:0:0:
256,192,108903,1,0,0:0:0:0:
256,192,108950,1,8,0:0:0:0:
256,192,109044,1,0,0:0:0:0:
256,192,109137,1,0,0:0:0:0:
256,192,109231,1,8,0:0:0:0:
256,192,109325,1,0,0:0:0:0:
256,192,109419,1,8,0:0:0:0:
256,192,109512,1,8,0:0:0:0:
256,192,109559,1,8,0:0:0:0:
256,192,109606,1,0,0:0:0:0:
256,192,109700,1,8,0:0:0:0:
256,192,109794,1,4,0:0:0:0:
256,192,109887,1,0,0:0:0:0:
256,192,109934,1,0,0:0:0:0:
256,192,109981,1,8,0:0:0:0:
256,192,110075,1,0,0:0:0:0:
256,192,110169,1,8,0:0:0:0:
256,192,110215,1,8,0:0:0:0:
256,192,110262,1,8,0:0:0:0:
256,192,110356,1,0,0:0:0:0:
256,192,110450,1,8,0:0:0:0:
256,192,110544,1,0,0:0:0:0:
256,192,110637,1,0,0:0:0:0:
256,192,110684,1,0,0:0:0:0:
256,192,110731,1,8,0:0:0:0:
256,192,110825,1,0,0:0:0:0:
256,192,110919,1,8,0:0:0:0:
256,192,110965,1,8,0:0:0:0:
256,192,111012,1,8,0:0:0:0:
256,192,111106,1,0,0:0:0:0:
256,192,111153,1,0,0:0:0:0:
256,192,111200,1,8,0:0:0:0:
256,192,111247,1,8,0:0:0:0:
256,192,111294,1,0,0:0:0:0:
256,192,111387,1,0,0:0:0:0:
256,192,111434,1,0,0:0:0:0:
256,192,111481,1,8,0:0:0:0:
256,192,111575,1,0,0:0:0:0:
256,192,111669,1,8,0:0:0:0:
256,192,111715,1,8,0:0:0:0:
256,192,111762,1,8,0:0:0:0:
256,192,111856,1,0,0:0:0:0:
256,192,111950,1,8,0:0:0:0:
256,192,112044,1,0,0:0:0:0:
256,192,112137,1,0,0:0:0:0:
256,192,112231,1,8,0:0:0:0:
256,192,112325,1,0,0:0:0:0:
256,192,112419,1,8,0:0:0:0:
256,192,112512,1,0,0:0:0:0:
256,192,112606,1,8,0:0:0:0:
256,192,112653,1,8,0:0:0:0:
256,192,112700,1,8,0:0:0:0:
256,192,112747,1,8,0:0:0:0:
256,192,112794,1,0,0:0:0:0:
256,192,112887,1,0,0:0:0:0:
256,192,112934,1,0,0:0:0:0:
256,192,112981,1,8,0:0:0:0:
256,192,113075,1,0,0:0:0:0:
256,192,113169,1,8,0:0:0:0:
256,192,113215,1,8,0:0:0:0:
256,192,113262,1,8,0:0:0:0:
256,192,113356,1,0,0:0:0:0:
256,192,113450,1,8,0:0:0:0:
256,192,113544,1,0,0:0:0:0:
256,192,113637,1,0,0:0:0:0:
256,192,113684,1,0,0:0:0:0:
256,192,113731,1,8,0:0:0:0:
256,192,113825,1,0,0:0:0:0:
256,192,113919,1,8,0:0:0:0:
256,192,113965,1,8,0:0:0:0:
256,192,114012,1,8,0:0:0:0:
256,192,114106,1,0,0:0:0:0:
256,192,114153,1,0,0:0:0:0:
256,192,114200,1,8,0:0:0:0:
256,192,114294,1,0,0:0:0:0:
256,192,114340,1,0,0:0:0:0:
256,192,114387,1,8,0:0:0:0:
256,192,114434,1,0,0:0:0:0:
256,192,114481,1,8,0:0:0:0:
256,192,114528,1,8,0:0:0:0:
256,192,114575,1,0,0:0:0:0:
256,192,114622,1,8,0:0:0:0:
256,192,114669,1,0,0:0:0:0:
256,192,114715,1,0,0:0:0:0:
256,192,114762,1,8,0:0:0:0:
256,192,114809,1,0,0:0:0:0:
256,192,114856,1,8,0:0:0:0:
256,192,114903,1,8,0:0:0:0:
256,192,114950,1,0,0:0:0:0:
256,192,114997,1,8,0:0:0:0:
256,192,115044,1,0,0:0:0:0:
256,192,115090,1,0,0:0:0:0:
256,192,115137,1,0,0:0:0:0:
256,192,115184,1,0,0:0:0:0:
256,192,115231,1,0,0:0:0:0:
256,192,115278,1,0,0:0:0:0:
256,192,115325,1,0,0:0:0:0:
256,192,115372,1,0,0:0:0:0:
256,192,115419,1,8,0:0:0:0:
256,192,115465,1,8,0:0:0:0:
256,192,115512,1,8,0:0:0:0:
256,192,115559,1,8,0:0:0:0:
256,192,115606,1,8,0:0:0:0:
256,192,115653,1,8,0:0:0:0:
256,192,115700,1,8,0:0:0:0:
256,192,115794,1,4,0:0:0:0:
256,192,116169,1,8,0:0:0:0:
256,192,116731,1,0,0:0:0:0:
256,192,116919,1,8,0:0:0:0:
256,192,117294,1,0,0:0:0:0:
256,192,117669,1,8,0:0:0:0:
256,192,118231,1,0,0:0:0:0:
256,192,118419,1,8,0:0:0:0:
256,192,118606,1,0,0:0:0:0:
256,192,118794,1,0,0:0:0:0:
256,192,119169,1,8,0:0:0:0:
256,192,119731,1,0,0:0:0:0:
256,192,119919,1,8,0:0:0:0:
256,192,120106,1,0,0:0:0:0:
256,192,120200,1,8,0:0:0:0:
256,192,120294,1,4,0:0:0:0:
256,192,120575,1,0,0:0:0:0:
256,192,120669,1,8,0:0:0:0:
256,192,120950,1,8,0:0:0:0:
256,192,120997,1,8,0:0:0:0:
256,192,121044,1,0,0:0:0:0:
256,192,121137,1,0,0:0:0:0:
256,192,121231,1,8,0:0:0:0:
256,192,121325,1,0,0:0:0:0:
256,192,121419,1,8,0:0:0:0:
256,192,121700,1,8,0:0:0:0:
256,192,121747,1,8,0:0:0:0:
256,192,121794,1,0,0:0:0:0:
256,192,122075,1,0,0:0:0:0:
256,192,122169,1,8,0:0:0:0:
256,192,122450,1,8,0:0:0:0:
256,192,122497,1,8,0:0:0:0:
256,192,122544,1,0,0:0:0:0:
256,192,122637,1,0,0:0:0:0:
256,192,122731,1,8,0:0:0:0:
256,192,122825,1,0,0:0:0:0:
256,192,122919,1,8,0:0:0:0:
256,192,123012,1,8,0:0:0:0:
256,192,123106,1,0,0:0:0:0:
256,192,123153,1,0,0:0:0:0:
256,192,123200,1,8,0:0:0:0:
256,192,123247,1,8,0:0:0:0:
256,192,123294,1,0,0:0:0:0:
256,192,123481,1,0,0:0:0:0:
256,192,123575,1,0,0:0:0:0:
256,192,123669,1,8,0:0:0:0:
256,192,123762,1,0,0:0:0:0:
256,192,123856,1,0,0:0:0:0:
256,192,123950,1,8,0:0:0:0:
256,192,123997,1,8,0:0:0:0:
256,192,124044,1,0,0:0:0:0:
256,192,124137,1,0,0:0:0:0:
256,192,124231,1,8,0:0:0:0:
256,192,124325,1,0,0:0:0:0:
256,192,124419,1,8,0:0:0:0:
256,192,124512,1,8,0:0:0:0:
256,192,124606,1,0,0:0:0:0:
256,192,124700,1,8,0:0:0:0:
256,192,124747,1,8,0:0:0:0:
256,192,124794,1,0,0:0:0:0:
256,192,124887,1,0,0:0:0:0:
256,192,124934,1,0,0:0:0:0:
256,192,124981,1,8,0:0:0:0:
256,192,125075,1,8,0:0:0:0:
256,192,125169,1,0,0:0:0:0:
256,192,125262,1,0,0:0:0:0:
256,192,125309,1,0,0:0:0:0:
256,192,125356,1,8,0:0:0:0:
256,192,125450,1,8,0:0:0:0:
256,192,125544,1,0,0:0:0:0:
256,192,125590,1,0,0:0:0:0:
256,192,125637,1,0,0:0:0:0:
256,192,125731,1,0,0:0:0:0:
256,192,125825,1,8,0:0:0:0:
256,192,125872,1,8,0:0:0:0:
256,192,125919,1,8,0:0:0:0:
256,192,126012,1,0,0:0:0:0:
256,192,126106,1,8,0:0:0:0:
256,192,126153,1,8,0:0:0:0:
256,192,126200,1,8,0:0:0:0:
256,192,126294,12,0,128544,0:0:0:0:
256,192,128731,6,0,L|128:128,1,135.624999029934
256,192,129294,1,4,0:0:0:0:
256,192,130842,1,8,0:0:0:0:
256,192,132390,1,0,0:0:0:0:
256,192,133939,1,8,0:0:0:0:
256,192,134713,1,8,0:0:0:0:
256,192,135487,1,0,0:0:0:0:
256,192,137035,1,8,0:0:0:0:
256,192,138584,1,0,0:0:0:0:
256,192,140132,1,8,0:0:0:0:
256,192,140906,1,8,0:0:0:0:
256,192,141294,1,8,0:0:0:0:
256,192,141681,1,0,0:0:0:0:
256,192,143229,1,8,0:0:0:0:
256,192,144777,1,0,0:0:0:0:
256,192,146326,1,8,0:0:0:0:
256,192,147100,1,8,0:0:0:0:
256,192,147874,1,0,0:0:0:0:
256,192,149422,1,8,0:0:0:0:
256,192,150971,1,0,0:0:0:0:
256,192,152519,1,8,0:0:0:0:
256,192,153293,1,8,0:0:0:0:
256,192,153681,1,8,0:0:0:0:
256,192,154068,1,4,0:0:0:0:
256,192,154455,1,0,0:0:0:0:
256,192,154842,1,8,0:0:0:0:
256,192,155229,1,0,0:0:0:0:
256,192,155423,1,8,0:0:0:0:
256,192,155616,1,0,0:0:0:0:
256,192,155810,1,8,0:0:0:0:
256,192,156003,1,0,0:0:0:0:
256,192,156390,1,8,0:0:0:0:
256,192,156777,1,0,0:0:0:0:
256,192,157164,1,0,0:0:0:0:
256,192,157552,1,0,0:0:0:0:
256,192,157939,1,8,0:0:0:0:
256,192,158326,1,0,0:0:0:0:
256,192,158519,1,8,0:0:0:0:
256,192,158713,1,0,0:0:0:0:
256,192,158906,1,8,0:0:0:0:
256,192,159100,1,0,0:0:0:0:
256,192,159487,1,8,0:0:0:0:
256,192,159874,1,0,0:0:0:0:
256,192,160068,1,8,0:0:0:0:
256,192,160261,1,0,0:0:0:0:
256,192,160648,1,0,0:0:0:0:
256,192,161035,1,8,0:0:0:0:
256,192,161423,1,0,0:0:0:0:
256,192,161616,1,8,0:0:0:0:
256,192,161810,1,0,0:0:0:0:
256,192,162003,1,8,0:0:0:0:
256,192,162197,1,0,0:0:0:0:
256,192,162584,1,8,0:0:0:0:
256,192,162971,1,0,0:0:0:0:
256,192,163358,1,0,0:0:0:0:
256,192,163745,1,0,0:0:0:0:
256,192,164132,1,8,0:0:0:0:
256,192,164519,1,0,0:0:0:0:
256,192,164713,1,8,0:0:0:0:
256,192,164906,1,0,0:0:0:0:
256,192,165100,1,8,0:0:0:0:
256,192,165293,1,0,0:0:0:0:
256,192,165681,1,8,0:0:0:0:
256,192,165874,1,0,0:0:0:0:
256,192,166068,1,8,0:0:0:0:
256,192,166261,1,0,0:0:0:0:
256,192,166455,1,0,0:0:0:0:
256,192,166842,1,0,0:0:0:0:
256,192,167229,1,8,0:0:0:0:
256,192,167616,1,0,0:0:0:0:
256,192,167810,1,8,0:0:0:0:
256,192,168003,1,0,0:0:0:0:
256,192,168197,1,8,0:0:0:0:
256,192,168390,1,0,0:0:0:0:
256,192,168777,1,8,0:0:0:0:
256,192,169164,1,0,0:0:0:0:
256,192,169551,1,0,0:0:0:0:
256,192,169939,1,0,0:0:0:0:
256,192,170326,1,8,0:0:0:0:
256,192,170713,1,0,0:0:0:0:
256,192,170906,1,8,0:0:0:0:
256,192,171100,1,0,0:0:0:0:
256,192,171293,1,8,0:0:0:0:
256,192,171487,1,0,0:0:0:0:
256,192,171874,1,8,0:0:0:0:
256,192,172261,1,0,0:0:0:0:
256,192,172455,1,8,0:0:0:0:
256,192,172648,1,0,0:0:0:0:
256,192,173035,1,0,0:0:0:0:
256,192,173422,1,8,0:0:0:0:
256,192,173810,1,0,0:0:0:0:
256,192,174003,1,8,0:0:0:0:
256,192,174197,1,0,0:0:0:0:
256,192,174390,1,8,0:0:0:0:
256,192,174584,1,0,0:0:0:0:
256,192,174971,1,8,0:0:0:0:
256,192,175358,1,0,0:0:0:0:
256,192,175745,1,0,0:0:0:0:
256,192,176132,1,0,0:0:0:0:
256,192,176519,1,8,0:0:0:0:
256,192,176906,1,0,0:0:0:0:
256,192,177100,1,8,0:0:0:0:
256,192,177293,1,0,0:0:0:0:
256,192,177487,1,8,0:0:0:0:
256,192,177680,1,0,0:0:0:0:
256,192,178068,1,8,0:0:0:0:
256,192,178261,1,0,0:0:0:0:
256,192,178455,1,8,0:0:0:0:
256,192,178552,1,8,0:0:0:0:
256,192,178648,1,8,0:0:0:0:
256,192,178842,1,4,0:0:0:0:
256,192,185035,5,4,0:0:0:0:
256,192,191229,5,4,0:0:0:0:
256,192,194326,1,4,0:0:0:0:
256,192,197423,1,4,0:0:0:0:
256,192,198971,1,4,0:0:0:0:
256,192,200519,1,4,0:0:0:0:
256,192,201293,1,4,0:0:0:0:
256,192,202068,1,4,0:0:0:0:
256,192,202197,1,0,0:0:0:0:
256,192,202326,1,8,0:0:0:0:
256,192,202455,1,4,0:0:0:0:
256,192,202584,1,8,0:0:0:0:
256,192,202713,1,8,0:0:0:0:
256,192,202842,1,4,0:0:0:0:
256,192,202971,1,0,0:0:0:0:
256,192,203100,1,8,0:0:0:0:
256,192,203229,1,4,0:0:0:0:
256,192,203358,1,8,0:0:0:0:
256,192,203487,1,8,0:0:0:0:
256,192,203616,1,4,0:0:0:0:
256,192,204197,1,0,0:0:0:0:
256,192,204390,1,8,0:0:0:0:
256,192,204584,1,0,0:0:0:0:
256,192,204777,1,8,0:0:0:0:
256,192,204874,1,8,0:0:0:0:
256,192,204971,1,8,0:0:0:0:
256,192,205164,1,4,0:0:0:0:
256,192,205693,1,0,0:0:0:0:
256,192,205869,1,8,0:0:0:0:
256,192,206046,1,0,0:0:0:0:
256,192,206222,1,8,0:0:0:0:
256,192,206311,1,8,0:0:0:0:
256,192,206399,1,8,0:0:0:0:
256,192,206575,1,4,0:0:0:0:
256,192,207061,1,0,0:0:0:0:
256,192,207223,1,8,0:0:0:0:
256,192,207385,1,0,0:0:0:0:
256,192,207547,1,8,0:0:0:0:
256,192,207629,1,8,0:0:0:0:
256,192,207710,1,8,0:0:0:0:
256,192,207872,1,4,0:0:0:0:
256,192,208322,1,0,0:0:0:0:
256,192,208472,1,8,0:0:0:0:
256,192,208622,1,0,0:0:0:0:
256,192,208772,1,8,0:0:0:0:
256,192,208847,1,8,0:0:0:0:
256,192,208922,1,8,0:0:0:0:
256,192,209072,1,4,0:0:0:0:
256,192,209490,1,0,0:0:0:0:
256,192,209630,1,8,0:0:0:0:
256,192,209769,1,0,0:0:0:0:
256,192,209909,1,8,0:0:0:0:
256,192,209978,1,8,0:0:0:0:
256,192,210048,1,8,0:0:0:0:
256,192,210188,1,4,0:0:0:0:
256,192,210579,1,0,0:0:0:0:
256,192,210709,1,8,0:0:0:0:
256,192,210840,1,0,0:0:0:0:
256,192,210970,1,8,0:0:0:0:
256,192,211035,1,8,0:0:0:0:
256,192,211101,1,8,0:0:0:0:
256,192,211231,1,4,0:0:0:0:
256,192,211598,1,0,0:0:0:0:
256,192,211720,1,8,0:0:0:0:
256,192,211843,1,0,0:0:0:0:
256,192,211965,1,8,0:0:0:0:
256,192,212026,1,8,0:0:0:0:
256,192,212088,1,8,0:0:0:0:
256,192,212210,1,4,0:0:0:0:
256,192,212556,1,0,0:0:0:0:
256,192,212671,1,8,0:0:0:0:
256,192,212786,1,0,0:0:0:0:
256,192,212902,1,8,0:0:0:0:
256,192,212960,1,8,0:0:0:0:
256,192,213017,1,8,0:0:0:0:
256,192,213133,1,4,0:0:0:0:
256,192,213460,1,0,0:0:0:0:
256,192,213569,1,8,0:0:0:0:
256,192,213787,1,0,0:0:0:0:
256,192,214005,1,4,0:0:0:0:
256,192,214315,1,0,0:0:0:0:
256,192,214418,1,8,0:0:0:0:
256,192,214625,1,0,0:0:0:0:
256,192,214832,1,4,0:0:0:0:
256,192,215127,1,0,0:0:0:0:
256,192,215225,1,8,0:0:0:0:
256,192,215422,1,0,0:0:0:0:
256,192,215618,1,4,0:0:0:0:
256,192,215899,1,0,0:0:0:0:
256,192,215993,1,8,0:0:0:0:
256,192,216180,1,0,0:0:0:0:
256,192,216368,1,4,0:0:0:0:
256,192,216636,1,0,0:0:0:0:
256,192,216726,1,8,0:0:0:0:
256,192,216905,1,0,0:0:0:0:
256,192,217084,1,4,0:0:0:0:
256,192,217341,1,0,0:0:0:0:
256,192,217426,1,8,0:0:0:0:
256,192,217598,1,0,0:0:0:0:
256,192,217769,1,4,0:0:0:0:
256,192,218015,1,0,0:0:0:0:
256,192,218097,1,8,0:0:0:0:
256,192,218262,1,0,0:0:0:0:
256,192,218426,1,4,0:0:0:0:
256,192,218662,1,0,0:0:0:0:
256,192,218741,1,8,0:0:0:0:
256,192,218899,1,0,0:0:0:0:
256,192,219057,1,4,0:0:0:0:
256,192,219360,1,8,0:0:0:0:
256,192,219436,1,8,0:0:0:0:
256,192,219512,1,8,0:0:0:0:
256,192,219664,1,4,0:0:0:0:
256,192,219956,1,8,0:0:0:0:
256,192,220029,1,8,0:0:0:0:
256,192,220103,1,8,0:0:0:0:
256,192,220249,1,4,0:0:0:0:
256,192,220531,1,8,0:0:0:0:
256,192,220601,1,8,0:0:0:0:
256,192,220672,1,8,0:0:0:0:
256,192,220813,1,4,0:0:0:0:
256,192,221085,1,8,0:0:0:0:
256,192,221153,1,8,0:0:0:0:
256,192,221222,1,8,0:0:0:0:
256,192,221358,1,4,0:0:0:0:
256,192,221621,1,8,0:0:0:0:
256,192,221687,1,8,0:0:0:0:
256,192,221753,1,8,0:0:0:0:
256,192,221885,1,4,0:0:0:0:
256,192,222140,1,8,0:0:0:0:
256,192,222204,1,8,0:0:0:0:
256,192,222267,1,8,0:0:0:0:
256,192,222395,1,4,0:0:0:0:
256,192,222642,1,8,0:0:0:0:
256,192,222704,1,8,0:0:0:0:
256,192,222766,1,8,0:0:0:0:
256,192,222889,1,4,0:0:0:0:
256,192,223129,1,8,0:0:0:0:
256,192,223189,1,8,0:0:0:0:
256,192,223249,1,8,0:0:0:0:
256,192,223369,1,4,0:0:0:0:
256,192,223485,1,0,0:0:0:0:
256,192,223543,1,0,0:0:0:0:
256,192,223602,1,8,0:0:0:0:
256,192,223718,1,8,0:0:0:0:
256,192,223835,1,4,0:0:0:0:
256,192,223951,1,0,0:0:0:0:
256,192,224009,1,0,0:0:0:0:
256,192,224068,1,8,0:0:0:0:
256,192,224184,1,8,0:0:0:0:
256,192,224301,1,4,0:0:0:0:
256,192,224417,1,0,0:0:0:0:
256,192,224475,1,0,0:0:0:0:
256,192,224534,1,8,0:0:0:0:
256,192,224650,1,8,0:0:0:0:
256,192,224767,1,4,0:0:0:0:
256,192,224883,1,0,0:0:0:0:
256,192,224941,1,0,0:0:0:0:
256,192,225000,1,8,0:0:0:0:
256,192,225116,1,8,0:0:0:0:
256,192,225233,1,4,0:0:0:0:
256,192,225349,1,8,0:0:0:0:
256,192,225407,1,0,0:0:0:0:
256,192,225466,1,8,0:0:0:0:
256,192,225524,1,8,0:0:0:0:
256,192,225582,1,0,0:0:0:0:
256,192,225699,1,4,0:0:0:0:
256,192,225815,1,8,0:0:0:0:
256,192,225873,1,0,0:0:0:0:
256,192,225932,1,8,0:0:0:0:
256,192,225990,1,8,0:0:0:0:
256,192,226048,1,0,0:0:0:0:
256,192,226165,1,0,0:0:0:0:
256,192,226223,1,0,0:0:0:0:
256,192,226281,1,8,0:0:0:0:
256,192,226339,1,0,0:0:0:0:
256,192,226398,1,8,0:0:0:0:
256,192,226456,1,8,0:0:0:0:
256,192,226514,1,0,0:0:0:0:
256,192,226572,1,8,0:0:0:0:
256,192,226631,1,0,0:0:0:0:
256,192,226689,1,0,0:0:0:0:
256,192,226747,1,8,0:0:0:0:
256,192,226805,1,0,0:0:0:0:
256,192,226864,1,8,0:0:0:0:
256,192,226922,1,8,0:0:0:0:
256,192,226980,1,0,0:0:0:0:
256,192,227038,1,0,0:0:0:0:
256,192,227097,12,0,230763,0:0:0:0:
256,192,231097,5,0,0:0:0:0:
256,192,231763,1,8,0:0:0:0:
256,192,231930,1,8,0:0:0:0:
256,192,232097,1,0,0:0:0:0:
256,192,232263,1,8,0:0:0:0:
256,192,232430,1,4,0:0:0:0:
256,192,232513,1,0,0:0:0:0:
256,192,232555,1,0,0:0:0:0:
256,192,232597,1,8,0:0:0:0:
256,192,232680,1,8,0:0:0:0:
256,192,232763,1,0,0:0:0:0:
256,192,232847,1,0,0:0:0:0:
256,192,232930,1,8,0:0:0:0:
256,192,233013,1,8,0:0:0:0:
256,192,233097,1,0,0:0:0:0:
256,192,233180,1,0,0:0:0:0:
256,192,233222,1,0,0:0:0:0:
256,192,233263,1,8,0:0:0:0:
256,192,233347,1,8,0:0:0:0:
256,192,233430,1,0,0:0:0:0:
256,192,233513,1,8,0:0:0:0:
256,192,233597,1,0,0:0:0:0:
256,192,233680,1,8,0:0:0:0:
256,192,233763,1,0,0:0:0:0:
256,192,233847,1,8,0:0:0:0:
256,192,233888,1,8,0:0:0:0:
256,192,233930,1,0,0:0:0:0:
256,192,234013,1,8,0:0:0:0:
256,192,234097,1,0,0:0:0:0:
256,192,234180,1,0,0:0:0:0:
256,192,234263,1,8,0:0:0:0:
256,192,234347,1,8,0:0:0:0:
256,192,234430,1,0,0:0:0:0:
256,192,234513,1,8,0:0:0:0:
256,192,234555,1,8,0:0:0:0:
256,192,234597,1,0,0:0:0:0:
256,192,234680,1,8,0:0:0:0:
256,192,234763,1,0,0:0:0:0:
256,192,234847,1,8,0:0:0:0:
256,192,234930,1,0,0:0:0:0:
256,192,234972,1,0,0:0:0:0:
256,192,235013,1,8,0:0:0:0:
256,192,235055,1,8,0:0:0:0:
256,192,235097,1,0,0:0:0:0:
256,192,235180,1,0,0:0:0:0:
256,192,235222,1,0,0:0:0:0:
256,192,235263,1,8,0:0:0:0:
256,192,235347,1,8,0:0:0:0:
256,192,235430,1,0,0:0:0:0:
256,192,235513,1,0,0:0:0:0:
256,192,235597,1,8,0:0:0:0:
256,192,235680,1,8,0:0:0:0:
256,192,235763,1,0,0:0:0:0:
256,192,235847,1,0,0:0:0:0:
256,192,235888,1,0,0:0:0:0:
256,192,235930,1,8,0:0:0:0:
256,192,236013,1,8,0:0:0:0:
256,192,236097,1,0,0:0:0:0:
256,192,236180,1,0,0:0:0:0:
256,192,236222,1,0,0:0:0:0:
256,192,236263,1,8,0:0:0:0:
256,192,236347,1,8,0:0:0:0:
256,192,236430,1,0,0:0:0:0:
256,192,236513,1,0,0:0:0:0:
256,192,236597,1,8,0:0:0:0:
256,192,236638,1,8,0:0:0:0:
256,192,236680,1,0,0:0:0:0:
256,192,236722,1,0,0:0:0:0:
256,192,236763,1,0,0:0:0:0:
256,192,236930,1,0,0:0:0:0:
256,192,237013,1,0,0:0:0:0:
256,192,237097,1,8,0:0:0:0:
256,192,237138,1,8,0:0:0:0:
256,192,237180,1,8,0:0:0:0:
256,192,237222,1,8,0:0:0:0:
256,192,237263,1,0,0:0:0:0:
256,192,237347,1,0,0:0:0:0:
256,192,237430,1,0,0:0:0:0:
256,192,237597,1,8,0:0:0:0:
256,192,237638,1,8,0:0:0:0:
256,192,237680,1,8,0:0:0:0:
256,192,237722,1,8,0:0:0:0:
256,192,237763,1,0,0:0:0:0:
256,192,237847,1,0,0:0:0:0:
256,192,237888,1,0,0:0:0:0:
256,192,237930,1,8,0:0:0:0:
256,192,238013,1,8,0:0:0:0:
256,192,238097,1,0,0:0:0:0:
256,192,238180,1,0,0:0:0:0:
256,192,238263,1,8,0:0:0:0:
256,192,238347,1,8,0:0:0:0:
256,192,238430,1,0,0:0:0:0:
256,192,238513,1,0,0:0:0:0:
256,192,238555,1,0,0:0:0:0:
256,192,238597,1,8,0:0:0:0:
256,192,238680,1,8,0:0:0:0:
256,192,238763,1,0,0:0:0:0:
256,192,238847,1,8,0:0:0:0:
256,192,238930,1,8,0:0:0:0:
256,192,239013,1,8,0:0:0:0:
256,192,239097,1,0,0:0:0:0:
256,192,239180,1,8,0:0:0:0:
256,192,239222,1,8,0:0:0:0:
256,192,239263,1,0,0:0:0:0:
256,192,239347,1,8,0:0:0:0:
256,192,239430,1,0,0:0:0:0:
256,192,239513,1,0,0:0:0:0:
256,192,239597,1,8,0:0:0:0:
256,192,239680,1,8,0:0:0:0:
256,192,239763,1,0,0:0:0:0:
256,192,239847,1,8,0:0:0:0:
256,192,239888,1,8,0:0:0:0:
256,192,239930,1,0,0:0:0:0:
256,192,240013,1,8,0:0:0:0:
256,192,240097,1,0,0:0:0:0:
256,192,240180,1,0,0:0:0:0:
256,192,240263,1,8,0:0:0:0:
256,192,240305,1,8,0:0:0:0:
256,192,240347,1,8,0:0:0:0:
256,192,240388,1,8,0:0:0:0:
256,192,240430,1,0,0:0:0:0:
256,192,240513,1,0,0:0:0:0:
256,192,240555,1,0,0:0:0:0:
256,192,240597,1,8,0:0:0:0:
256,192,240680,1,8,0:0:0:0:
256,192,240763,1,0,0:0:0:0:
256,192,240847,1,0,0:0:0:0:
256,192,240930,1,8,0:0:0:0:
256,192,241013,1,8,0:0:0:0:
256,192,241097,1,0,0:0:0:0:
256,192,241180,1,0,0:0:0:0:
256,192,241222,1,0,0:0:0:0:
256,192,241263,1,8,0:0:0:0:
256,192,241347,1,8,0:0:0:0:
256,192,241430,1,0,0:0:0:0:
256,192,241513,1,0,0:0:0:0:
256,192,241597,1,8,0:0:0:0:
256,192,241680,1,8,0:0:0:0:
256,192,241763,1,0,0:0:0:0:
256,192,241847,1,0,0:0:0:0:
256,192,241930,1,8,0:0:0:0:
256,192,241972,1,8,0:0:0:0:
256,192,242013,1,0,0:0:0:0:
256,192,242055,1,0,0:0:0:0:
256,192,242097,1,0,0:0:0:0:
256,192,242263,1,0,0:0:0:0:
256,192,242347,1,0,0:0:0:0:
256,192,242430,1,8,0:0:0:0:
256,192,242472,1,8,0:0:0:0:
256,192,242513,1,8,0:0:0:0:
256,192,242555,1,8,0:0:0:0:
256,192,242597,1,0,0:0:0:0:
256,192,242680,1,0,0:0:0:0:
256,192,242763,1,8,0:0:0:0:
256,192,242805,1,8,0:0:0:0:
256,192,242847,1,8,0:0:0:0:
256,192,242888,1,8,0:0:0:0:
256,192,242930,1,0,0:0:0:0:
256,192,242972,1,0,0:0:0:0:
256,192,243013,1,0,0:0:0:0:
256,192,243097,1,4,0:0:0:0:
256,192,243180,1,0,0:0:0:0:
256,192,243222,1,0,0:0:0:0:
256,192,243264,1,8,0:0:0:0:
256,192,243347,1,8,0:0:0:0:
256,192,243430,1,0,0:0:0:0:
256,192,243514,1,0,0:0:0:0:
256,192,243597,1,8,0:0:0:0:
256,192,243680,1,8,0:0:0:0:
256,192,243764,1,0,0:0:0:0:
256,192,243847,1,0,0:0:0:0:
256,192,243889,1,0,0:0:0:0:
256,192,243930,1,8,0:0:0:0:
256,192,244014,1,8,0:0:0:0:
256,192,244097,1,0,0:0:0:0:
256,192,244180,1,0,0:0:0:0:
256,192,244264,1,8,0:0:0:0:
256,192,244347,1,8,0:0:0:0:
256,192,244430,1,0,0:0:0:0:
256,192,244514,1,8,0:0:0:0:
256,192,244555,1,8,0:0:0:0:
256,192,244597,1,0,0:0:0:0:
256,192,244680,1,8,0:0:0:0:
256,192,244764,1,0,0:0:0:0:
256,192,244847,1,0,0:0:0:0:
256,192,244930,1,8,0:0:0:0:
256,192,245014,1,8,0:0:0:0:
256,192,245097,1,0,0:0:0:0:
256,192,245180,1,8,0:0:0:0:
256,192,245222,1,8,0:0:0:0:
256,192,245264,1,0,0:0:0:0:
256,192,245347,1,8,0:0:0:0:
256,192,245430,1,0,0:0:0:0:
256,192,245514,1,8,0:0:0:0:
256,192,245597,1,0,0:0:0:0:
256,192,245639,1,0,0:0:0:0:
256,192,245680,1,8,0:0:0:0:
256,192,245722,1,8,0:0:0:0:
256,192,245764,1,0,0:0:0:0:
256,192,245847,1,0,0:0:0:0:
256,192,245889,1,0,0:0:0:0:
256,192,245930,1,8,0:0:0:0:
256,192,246014,1,8,0:0:0:0:
256,192,246097,1,0,0:0:0:0:
256,192,246180,1,0,0:0:0:0:
256,192,246264,1,8,0:0:0:0:
256,192,246347,1,8,0:0:0:0:
256,192,246430,1,0,0:0:0:0:
256,192,246514,1,0,0:0:0:0:
256,192,246555,1,0,0:0:0:0:
256,192,246597,1,8,0:0:0:0:
256,192,246680,1,8,0:0:0:0:
256,192,246764,1,0,0:0:0:0:
256,192,246847,1,0,0:0:0:0:
256,192,246930,1,8,0:0:0:0:
256,192,247014,1,8,0:0:0:0:
256,192,247097,1,0,0:0:0:0:
256,192,247347,1,0,0:0:0:0:
256,192,247430,1,8,0:0:0:0:
256,192,247472,1,8,0:0:0:0:
256,192,247513,1,8,0:0:0:0:
256,192,247555,1,8,0:0:0:0:
256,192,247597,1,0,0:0:0:0:
256,192,247763,1,0,0:0:0:0:
256,192,247847,1,0,0:0:0:0:
256,192,247930,1,8,0:0:0:0:
256,192,248013,1,0,0:0:0:0:
256,192,248097,1,8,0:0:0:0:
256,192,248138,1,8,0:0:0:0:
256,192,248180,1,8,0:0:0:0:
256,192,248222,1,8,0:0:0:0:
256,192,248263,1,0,0:0:0:0:
256,192,248305,1,0,0:0:0:0:
256,192,248347,1,0,0:0:0:0:
256,192,248430,1,0,0:0:0:0:
256,192,248514,1,0,0:0:0:0:
256,192,248555,1,0,0:0:0:0:
256,192,248597,1,8,0:0:0:0:
256,192,248680,1,8,0:0:0:0:
256,192,248764,1,0,0:0:0:0:
256,192,248847,1,0,0:0:0:0:
256,192,248930,1,8,0:0:0:0:
256,192,249014,1,8,0:0:0:0:
256,192,249097,1,0,0:0:0:0:
256,192,249180,1,0,0:0:0:0:
256,192,249222,1,0,0:0:0:0:
256,192,249264,1,8,0:0:0:0:
256,192,249347,1,8,0:0:0:0:
256,192,249430,1,0,0:0:0:0:
256,192,249514,1,8,0:0:0:0:
256,192,249597,1,0,0:0:0:0:
256,192,249680,1,8,0:0:0:0:
256,192,249764,1,0,0:0:0:0:
256,192,249847,1,8,0:0:0:0:
256,192,249889,1,8,0:0:0:0:
256,192,249930,1,0,0:0:0:0:
256,192,250014,1,8,0:0:0:0:
256,192,250097,1,0,0:0:0:0:
256,192,250180,1,0,0:0:0:0:
256,192,250264,1,8,0:0:0:0:
256,192,250347,1,8,0:0:0:0:
256,192,250430,1,0,0:0:0:0:
256,192,250514,1,8,0:0:0:0:
256,192,250555,1,8,0:0:0:0:
256,192,250597,1,0,0:0:0:0:
256,192,250680,1,8,0:0:0:0:
256,192,250764,1,0,0:0:0:0:
256,192,250847,1,0,0:0:0:0:
256,192,250930,1,8,0:0:0:0:
256,192,250972,1,8,0:0:0:0:
256,192,251014,1,8,0:0:0:0:
256,192,251055,1,8,0:0:0:0:
256,192,251097,1,0,0:0:0:0:
256,192,251180,1,0,0:0:0:0:
256,192,251222,1,0,0:0:0:0:
256,192,251264,1,8,0:0:0:0:
256,192,251347,1,8,0:0:0:0:
256,192,251430,1,0,0:0:0:0:
256,192,251514,1,0,0:0:0:0:
256,192,251597,1,8,0:0:0:0:
256,192,251680,1,8,0:0:0:0:
256,192,251764,1,0,0:0:0:0:
256,192,251847,1,0,0:0:0:0:
256,192,251888,1,0,0:0:0:0:
256,192,251930,1,8,0:0:0:0:
256,192,252014,1,8,0:0:0:0:
256,192,252097,1,0,0:0:0:0:
256,192,252180,1,0,0:0:0:0:
256,192,252264,1,8,0:0:0:0:
256,192,252347,1,8,0:0:0:0:
256,192,252430,1,0,0:0:0:0:
256,192,252513,1,8,0:0:0:0:
256,192,252555,1,8,0:0:0:0:
256,192,252597,1,0,0:0:0:0:
256,192,252680,1,8,0:0:0:0:
256,192,252763,1,0,0:0:0:0:
256,192,252847,1,0,0:0:0:0:
256,192,252930,1,8,0:0:0:0:
256,192,253013,1,8,0:0:0:0:
256,192,253097,1,0,0:0:0:0:
256,192,253180,1,0,0:0:0:0:
256,192,253222,1,0,0:0:0:0:
256,192,253263,1,8,0:0:0:0:
256,192,253347,1,0,0:0:0:0:
256,192,253430,1,8,0:0:0:0:
256,192,253472,1,8,0:0:0:0:
256,192,253513,1,8,0:0:0:0:
256,192,253555,1,8,0:0:0:0:
256,192,253597,1,8,0:0:0:0:
256,192,253638,1,8,0:0:0:0:
256,192,253680,1,8,0:0:0:0:
256,192,253763,1,4,0:0:0:0:
256,192,253846,1,0,0:0:0:0:
256,192,253888,1,0,0:0:0:0:
256,192,253930,1,8,0:0:0:0:
256,192,254013,1,8,0:0:0:0:
256,192,254096,1,0,0:0:0:0:
256,192,254180,1,0,0:0:0:0:
256,192,254263,1,8,0:0:0:0:
256,192,254346,1,8,0:0:0:0:
256,192,254430,1,0,0:0:0:0:
256,192,254513,1,0,0:0:0:0:
256,192,254555,1,0,0:0:0:0:
256,192,254596,1,8,0:0:0:0:
256,192,254680,1,8,0:0:0:0:
256,192,254763,1,0,0:0:0:0:
256,192,254846,1,8,0:0:0:0:
256,192,254930,1,0,0:0:0:0:
256,192,255013,1,8,0:0:0:0:
256,192,255096,1,0,0:0:0:0:
256,192,255180,1,8,0:0:0:0:
256,192,255221,1,8,0:0:0:0:
256,192,255263,1,0,0:0:0:0:
256,192,255346,1,8,0:0:0:0:
256,192,255430,1,0,0:0:0:0:
256,192,255513,1,0,0:0:0:0:
256,192,255596,1,8,0:0:0:0:
256,192,255680,1,8,0:0:0:0:
256,192,255763,1,0,0:0:0:0:
256,192,255846,1,8,0:0:0:0:
256,192,255888,1,8,0:0:0:0:
256,192,255930,1,0,0:0:0:0:
256,192,256013,1,8,0:0:0:0:
256,192,256096,1,0,0:0:0:0:
256,192,256180,1,8,0:0:0:0:
256,192,256263,1,0,0:0:0:0:
256,192,256305,1,0,0:0:0:0:
256,192,256346,1,8,0:0:0:0:
256,192,256388,1,8,0:0:0:0:
256,192,256430,1,0,0:0:0:0:
256,192,256513,1,0,0:0:0:0:
256,192,256555,1,0,0:0:0:0:
256,192,256596,1,8,0:0:0:0:
256,192,256680,1,8,0:0:0:0:
256,192,256763,1,0,0:0:0:0:
256,192,256846,1,0,0:0:0:0:
256,192,256930,1,8,0:0:0:0:
256,192,257013,1,8,0:0:0:0:
256,192,257096,1,0,0:0:0:0:
256,192,257180,1,0,0:0:0:0:
256,192,257222,1,0,0:0:0:0:
256,192,257263,1,8,0:0:0:0:
256,192,257346,1,8,0:0:0:0:
256,192,257430,1,0,0:0:0:0:
256,192,257513,1,0,0:0:0:0:
256,192,257555,1,0,0:0:0:0:
256,192,257596,1,8,0:0:0:0:
256,192,257680,1,8,0:0:0:0:
256,192,257763,1,0,0:0:0:0:
256,192,257846,1,0,0:0:0:0:
256,192,257930,1,8,0:0:0:0:
256,192,257971,1,8,0:0:0:0:
256,192,258013,1,0,0:0:0:0:
256,192,258055,1,0,0:0:0:0:
256,192,258096,1,0,0:0:0:0:
256,192,258263,1,0,0:0:0:0:
256,192,258346,1,0,0:0:0:0:
256,192,258430,1,8,0:0:0:0:
256,192,258471,1,8,0:0:0:0:
256,192,258513,1,8,0:0:0:0:
256,192,258555,1,8,0:0:0:0:
256,192,258596,1,0,0:0:0:0:
256,192,258680,1,0,0:0:0:0:
256,192,258763,1,0,0:0:0:0:
256,192,258930,1,8,0:0:0:0:
256,192,258971,1,8,0:0:0:0:
256,192,259013,1,8,0:0:0:0:
256,192,259055,1,8,0:0:0:0:
256,192,259096,1,0,0:0:0:0:
256,192,259180,1,0,0:0:0:0:
256,192,259221,1,0,0:0:0:0:
256,192,259263,1,8,0:0:0:0:
256,192,259346,1,8,0:0:0:0:
256,192,259430,1,0,0:0:0:0:
256,192,259513,1,0,0:0:0:0:
256,192,259596,1,8,0:0:0:0:
256,192,259680,1,8,0:0:0:0:
256,192,259763,1,0,0:0:0:0:
256,192,259846,1,0,0:0:0:0:
256,192,259888,1,0,0:0:0:0:
256,192,259930,1,8,0:0:0:0:
256,192,260013,1,8,0:0:0:0:
256,192,260096,1,0,0:0:0:0:
256,192,260180,1,8,0:0:0:0:
256,192,260263,1,8,0:0:0:0:
256,192,260346,1,8,0:0:0:0:
256,192,260430,1,0,0:0:0:0:
256,192,260513,1,8,0:0:0:0:
256,192,260555,1,8,0:0:0:0:
256,192,260596,1,0,0:0:0:0:
256,192,260680,1,8,0:0:0:0:
256,192,260763,1,0,0:0:0:0:
256,192,260846,1,0,0:0:0:0:
256,192,260930,1,8,0:0:0:0:
256,192,261013,1,8,0:0:0:0:
256,192,261096,1,0,0:0:0:0:
256,192,261180,1,8,0:0:0:0:
256,192,261221,1,8,0:0:0:0:
256,192,261263,1,0,0:0:0:0:
256,192,261346,1,8,0:0:0:0:
256,192,261430,1,0,0:0:0:0:
256,192,261513,1,0,0:0:0:0:
256,192,261596,1,8,0:0:0:0:
256,192,261638,1,8,0:0:0:0:
256,192,261680,1,8,0:0:0:0:
256,192,261721,1,8,0:0:0:0:
256,192,261763,1,0,0:0:0:0:
256,192,261846,1,0,0:0:0:0:
256,192,261888,1,0,0:0:0:0:
256,192,261930,1,8,0:0:0:0:
256,192,262013,1,8,0:0:0:0:
256,192,262096,1,0,0:0:0:0:
256,192,262180,1,0,0:0:0:0:
256,192,262263,1,8,0:0:0:0:
256,192,262346,1,8,0:0:0:0:
256,192,262430,1,0,0:0:0:0:
256,192,262513,1,0,0:0:0:0:
256,192,262555,1,0,0:0:0:0:
256,192,262596,1,8,0:0:0:0:
256,192,262680,1,8,0:0:0:0:
256,192,262763,1,0,0:0:0:0:
256,192,262846,1,0,0:0:0:0:
256,192,262930,1,8,0:0:0:0:
256,192,263013,1,8,0:0:0:0:
256,192,263096,1,0,0:0:0:0:
256,192,263180,1,0,0:0:0:0:
256,192,263263,1,8,0:0:0:0:
256,192,263305,1,8,0:0:0:0:
256,192,263346,1,0,0:0:0:0:
256,192,263388,1,0,0:0:0:0:
256,192,263430,1,0,0:0:0:0:
256,192,263596,1,0,0:0:0:0:
256,192,263680,1,0,0:0:0:0:
256,192,263763,1,8,0:0:0:0:
256,192,263805,1,8,0:0:0:0:
256,192,263846,1,8,0:0:0:0:
256,192,263888,1,8,0:0:0:0:
256,192,263930,1,0,0:0:0:0:
256,192,264013,1,0,0:0:0:0:
256,192,264096,1,8,0:0:0:0:
256,192,264138,1,8,0:0:0:0:
256,192,264180,1,8,0:0:0:0:
256,192,264221,1,8,0:0:0:0:
256,192,264263,1,0,0:0:0:0:
256,192,264305,1,0,0:0:0:0:
256,192,264346,1,0,0:0:0:0:
256,192,264430,1,4,0:0:0:0:
256,192,264513,1,0,0:0:0:0:
256,192,264555,1,0,0:0:0:0:
256,192,264597,1,8,0:0:0:0:
256,192,264680,1,8,0:0:0:0:
256,192,264763,1,0,0:0:0:0:
256,192,264847,1,0,0:0:0:0:
256,192,264930,1,8,0:0:0:0:
256,192,265013,1,8,0:0:0:0:
256,192,265097,1,0,0:0:0:0:
256,192,265180,1,0,0:0:0:0:
256,192,265222,1,0,0:0:0:0:
256,192,265263,1,8,0:0:0:0:
256,192,265347,1,8,0:0:0:0:
256,192,265430,1,0,0:0:0:0:
256,192,265513,1,0,0:0:0:0:
256,192,265597,1,8,0:0:0:0:
256,192,265680,1,8,0:0:0:0:
256,192,265763,1,0,0:0:0:0:
256,192,265847,1,8,0:0:0:0:
256,192,265888,1,8,0:0:0:0:
256,192,265930,1,0,0:0:0:0:
256,192,266013,1,8,0:0:0:0:
256,192,266097,1,0,0:0:0:0:
256,192,266180,1,0,0:0:0:0:
256,192,266263,1,8,0:0:0:0:
256,192,266347,1,8,0:0:0:0:
256,192,266430,1,0,0:0:0:0:
256,192,266513,1,8,0:0:0:0:
256,192,266555,1,8,0:0:0:0:
256,192,266597,1,0,0:0:0:0:
256,192,266680,1,8,0:0:0:0:
256,192,266763,1,0,0:0:0:0:
256,192,266847,1,8,0:0:0:0:
256,192,266930,1,0,0:0:0:0:
256,192,266972,1,0,0:0:0:0:
256,192,267013,1,8,0:0:0:0:
256,192,267055,1,8,0:0:0:0:
256,192,267097,1,0,0:0:0:0:
256,192,267180,1,0,0:0:0:0:
256,192,267222,1,0,0:0:0:0:
256,192,267263,1,8,0:0:0:0:
256,192,267347,1,8,0:0:0:0:
256,192,267430,1,0,0:0:0:0:
256,192,267513,1,0,0:0:0:0:
256,192,267597,1,8,0:0:0:0:
256,192,267680,1,8,0:0:0:0:
256,192,267763,1,0,0:0:0:0:
256,192,267847,1,0,0:0:0:0:
256,192,267888,1,0,0:0:0:0:
256,192,267930,1,8,0:0:0:0:
256,192,268013,1,8,0:0:0:0:
256,192,268097,1,0,0:0:0:0:
256,192,268180,1,0,0:0:0:0:
256,192,268263,1,8,0:0:0:0:
256,192,268347,1,8,0:0:0:0:
256,192,268430,1,0,0:0:0:0:
256,192,268680,1,0,0:0:0:0:
256,192,268763,1,8,0:0:0:0:
256,192,268805,1,8,0:0:0:0:
256,192,268846,1,8,0:0:0:0:
256,192,268888,1,8,0:0:0:0:
256,192,268930,1,0,0:0:0:0:
256,192,269096,1,0,0:0:0:0:
256,192,269180,1,0,0:0:0:0:
256,192,269263,1,8,0:0:0:0:
256,192,269346,1,0,0:0:0:0:
256,192,269430,1,8,0:0:0:0:
256,192,269471,1,8,0:0:0:0:
256,192,269513,1,8,0:0:0:0:
256,192,269555,1,8,0:0:0:0:
256,192,269596,1,0,0:0:0:0:
256,192,269638,1,0,0:0:0:0:
256,192,269680,1,0,0:0:0:0:
256,192,269763,1,0,0:0:0:0:
256,192,269847,1,0,0:0:0:0:
256,192,269888,1,0,0:0:0:0:
256,192,269930,1,8,0:0:0:0:
256,192,270013,1,8,0:0:0:0:
256,192,270097,1,0,0:0:0:0:
256,192,270180,1,0,0:0:0:0:
256,192,270263,1,8,0:0:0:0:
256,192,270347,1,8,0:0:0:0:
256,192,270430,1,0,0:0:0:0:
256,192,270513,1,0,0:0:0:0:
256,192,270555,1,0,0:0:0:0:
256,192,270597,1,8,0:0:0:0:
256,192,270680,1,8,0:0:0:0:
256,192,270763,1,0,0:0:0:0:
256,192,270847,1,8,0:0:0:0:
256,192,270930,1,0,0:0:0:0:
256,192,271013,1,8,0:0:0:0:
256,192,271097,1,0,0:0:0:0:
256,192,271180,1,8,0:0:0:0:
256,192,271222,1,8,0:0:0:0:
256,192,271263,1,0,0:0:0:0:
256,192,271347,1,8,0:0:0:0:
256,192,271430,1,0,0:0:0:0:
256,192,271513,1,0,0:0:0:0:
256,192,271597,1,8,0:0:0:0:
256,192,271680,1,8,0:0:0:0:
256,192,271763,1,0,0:0:0:0:
256,192,271847,1,8,0:0:0:0:
256,192,271888,1,8,0:0:0:0:
256,192,271930,1,0,0:0:0:0:
256,192,272013,1,8,0:0:0:0:
256,192,272097,1,0,0:0:0:0:
256,192,272180,1,0,0:0:0:0:
256,192,272263,1,8,0:0:0:0:
256,192,272305,1,8,0:0:0:0:
256,192,272347,1,8,0:0:0:0:
256,192,272388,1,8,0:0:0:0:
256,192,272430,1,0,0:0:0:0:
256,192,272472,1,0,0:0:0:0:
256,192,272513,1,0,0:0:0:0:
256,192,272555,1,0,0:0:0:0:
256,192,272597,1,8,0:0:0:0:
256,192,272638,1,8,0:0:0:0:
256,192,272680,1,0,0:0:0:0:
256,192,272722,1,0,0:0:0:0:
256,192,272763,1,8,0:0:0:0:
256,192,272805,1,0,0:0:0:0:
256,192,272847,1,0,0:0:0:0:
256,192,272888,1,0,0:0:0:0:
256,192,272930,1,8,0:0:0:0:
256,192,272972,1,8,0:0:0:0:
256,192,273013,1,8,0:0:0:0:
256,192,273055,1,8,0:0:0:0:
256,192,273097,1,0,0:0:0:0:
256,192,273138,1,0,0:0:0:0:
256,192,273180,1,0,0:0:0:0:
256,192,273222,1,0,0:0:0:0:
256,192,273263,1,8,0:0:0:0:
256,192,273305,1,8,0:0:0:0:
256,192,273347,1,0,0:0:0:0:
256,192,273388,1,8,0:0:0:0:
256,192,273430,1,0,0:0:0:0:
256,192,273472,1,0,0:0:0:0:
256,192,273513,1,0,0:0:0:0:
256,192,273555,1,0,0:0:0:0:
256,192,273597,1,8,0:0:0:0:
256,192,273638,1,8,0:0:0:0:
256,192,273680,1,8,0:0:0:0:
256,192,273722,1,8,0:0:0:0:
256,192,273763,1,0,0:0:0:0:
256,192,273805,1,0,0:0:0:0:
256,192,273847,1,0,0:0:0:0:
256,192,273888,1,0,0:0:0:0:
256,192,273930,1,0,0:0:0:0:
256,192,273972,1,0,0:0:0:0:
256,192,274013,1,0,0:0:0:0:
256,192,274055,1,0,0:0:0:0:
256,192,274097,1,0,0:0:0:0:
256,192,274138,1,0,0:0:0:0:
256,192,274180,1,0,0:0:0:0:
256,192,274222,1,0,0:0:0:0:
256,192,274263,1,0,0:0:0:0:
256,192,274305,1,0,0:0:0:0:
256,192,274347,1,0,0:0:0:0:
256,192,274388,1,0,0:0:0:0:
256,192,274430,1,8,0:0:0:0:
256,192,274472,1,8,0:0:0:0:
256,192,274513,1,8,0:0:0:0:
256,192,274555,1,8,0:0:0:0:
256,192,274597,1,8,0:0:0:0:
256,192,274638,1,8,0:0:0:0:
256,192,274680,1,8,0:0:0:0:
256,192,274722,1,8,0:0:0:0:
256,192,274763,1,8,0:0:0:0:
256,192,274805,1,8,0:0:0:0:
256,192,274847,1,8,0:0:0:0:
256,192,274888,1,8,0:0:0:0:
256,192,274930,1,8,0:0:0:0:
256,192,274972,1,8,0:0:0:0:
256,192,275013,1,8,0:0:0:0:
256,192,275097,1,4,0:0:0:0:
256,192,275180,1,0,0:0:0:0:
256,192,275222,1,0,0:0:0:0:
256,192,275263,1,8,0:0:0:0:
256,192,275347,1,8,0:0:0:0:
256,192,275430,1,0,0:0:0:0:
256,192,275472,1,0,0:0:0:0:
256,192,275513,1,8,0:0:0:0:
256,192,275597,1,0,0:0:0:0:
256,192,275638,1,0,0:0:0:0:
256,192,275680,1,8,0:0:0:0:
256,192,275722,1,8,0:0:0:0:
256,192,275763,1,0,0:0:0:0:
256,192,275847,1,0,0:0:0:0:
256,192,275888,1,0,0:0:0:0:
256,192,275930,1,8,0:0:0:0:
256,192,276013,1,0,0:0:0:0:
256,192,276097,1,0,0:0:0:0:
256,192,276138,1,0,0:0:0:0:
256,192,276180,1,0,0:0:0:0:
256,192,276222,1,0,0:0:0:0:
256,192,276263,1,8,0:0:0:0:
256,192,276347,1,8,0:0:0:0:
256,192,276388,1,8,0:0:0:0:
256,192,276430,1,0,0:0:0:0:
256,192,276513,1,0,0:0:0:0:
256,192,276555,1,0,0:0:0:0:
256,192,276597,1,8,0:0:0:0:
256,192,276680,1,0,0:0:0:0:
256,192,276763,1,0,0:0:0:0:
256,192,276805,1,0,0:0:0:0:
256,192,276847,1,8,0:0:0:0:
256,192,276930,1,0,0:0:0:0:
256,192,276972,1,0,0:0:0:0:
256,192,277013,1,8,0:0:0:0:
256,192,277055,1,8,0:0:0:0:
256,192,277097,1,0,0:0:0:0:
256,192,277180,1,0,0:0:0:0:
256,192,277222,1,0,0:0:0:0:
256,192,277263,1,8,0:0:0:0:
256,192,277347,1,0,0:0:0:0:
256,192,277430,1,0,0:0:0:0:
256,192,277472,1,0,0:0:0:0:
256,192,277513,1,0,0:0:0:0:
256,192,277555,1,0,0:0:0:0:
256,192,277597,1,8,0:0:0:0:
256,192,277638,1,8,0:0:0:0:
256,192,277680,1,8,0:0:0:0:
256,192,277722,1,8,0:0:0:0:
256,192,277763,1,0,0:0:0:0:
256,192,277847,1,0,0:0:0:0:
256,192,277888,1,0,0:0:0:0:
256,192,277930,1,8,0:0:0:0:
256,192,278013,1,8,0:0:0:0:
256,192,278055,1,8,0:0:0:0:
256,192,278097,1,0,0:0:0:0:
256,192,278180,1,0,0:0:0:0:
256,192,278263,1,8,0:0:0:0:
256,192,278347,1,8,0:0:0:0:
256,192,278388,1,8,0:0:0:0:
256,192,278430,1,0,0:0:0:0:
256,192,278513,1,0,0:0:0:0:
256,192,278555,1,0,0:0:0:0:
256,192,278597,1,8,0:0:0:0:
256,192,278680,1,8,0:0:0:0:
256,192,278763,1,0,0:0:0:0:
256,192,278847,1,0,0:0:0:0:
256,192,278888,1,0,0:0:0:0:
256,192,278930,1,8,0:0:0:0:
256,192,279013,1,8,0:0:0:0:
256,192,279055,1,8,0:0:0:0:
256,192,279097,1,0,0:0:0:0:
256,192,279180,1,8,0:0:0:0:
256,192,279222,1,8,0:0:0:0:
256,192,279263,1,0,0:0:0:0:
256,192,279347,1,0,0:0:0:0:
256,192,279430,1,8,0:0:0:0:
256,192,279472,1,8,0:0:0:0:
256,192,279513,1,8,0:0:0:0:
256,192,279555,1,8,0:0:0:0:
256,192,279597,1,0,0:0:0:0:
256,192,279680,1,0,0:0:0:0:
256,192,279763,1,0,0:0:0:0:
256,192,279847,1,8,0:0:0:0:
256,192,279888,1,8,0:0:0:0:
256,192,279930,1,0,0:0:0:0:
256,192,280013,1,0,0:0:0:0:
256,192,280097,1,8,0:0:0:0:
256,192,280138,1,8,0:0:0:0:
256,192,280180,1,8,0:0:0:0:
256,192,280222,1,8,0:0:0:0:
256,192,280263,1,0,0:0:0:0:
256,192,280305,1,0,0:0:0:0:
256,192,280347,1,0,0:0:0:0:
256,192,280430,1,4,0:0:0:0:
256,192,280513,1,0,0:0:0:0:
256,192,280555,1,0,0:0:0:0:
256,192,280596,1,8,0:0:0:0:
256,192,280680,1,0,0:0:0:0:
256,192,280763,1,0,0:0:0:0:
256,192,280805,1,0,0:0:0:0:
256,192,280846,1,8,0:0:0:0:
256,192,280930,1,0,0:0:0:0:
256,192,280971,1,0,0:0:0:0:
256,192,281013,1,8,0:0:0:0:
256,192,281055,1,8,0:0:0:0:
256,192,281096,1,0,0:0:0:0:
256,192,281180,1,0,0:0:0:0:
256,192,281221,1,0,0:0:0:0:
256,192,281263,1,8,0:0:0:0:
256,192,281346,1,0,0:0:0:0:
256,192,281430,1,0,0:0:0:0:
256,192,281471,1,0,0:0:0:0:
256,192,281513,1,0,0:0:0:0:
256,192,281555,1,0,0:0:0:0:
256,192,281596,1,8,0:0:0:0:
256,192,281680,1,8,0:0:0:0:
256,192,281721,1,8,0:0:0:0:
256,192,281763,1,0,0:0:0:0:
256,192,281846,1,0,0:0:0:0:
256,192,281888,1,0,0:0:0:0:
256,192,281930,1,8,0:0:0:0:
256,192,282013,1,0,0:0:0:0:
256,192,282096,1,0,0:0:0:0:
256,192,282138,1,0,0:0:0:0:
256,192,282180,1,8,0:0:0:0:
256,192,282263,1,0,0:0:0:0:
256,192,282305,1,0,0:0:0:0:
256,192,282346,1,8,0:0:0:0:
256,192,282388,1,8,0:0:0:0:
256,192,282430,1,0,0:0:0:0:
256,192,282513,1,0,0:0:0:0:
256,192,282555,1,0,0:0:0:0:
256,192,282596,1,8,0:0:0:0:
256,192,282680,1,0,0:0:0:0:
256,192,282763,1,0,0:0:0:0:
256,192,282805,1,0,0:0:0:0:
256,192,282846,1,0,0:0:0:0:
256,192,282888,1,0,0:0:0:0:
256,192,282930,1,8,0:0:0:0:
256,192,282971,1,8,0:0:0:0:
256,192,283013,1,8,0:0:0:0:
256,192,283055,1,8,0:0:0:0:
256,192,283096,1,0,0:0:0:0:
256,192,283180,1,0,0:0:0:0:
256,192,283221,1,0,0:0:0:0:
256,192,283263,1,8,0:0:0:0:
256,192,283346,1,8,0:0:0:0:
256,192,283388,1,8,0:0:0:0:
256,192,283430,1,0,0:0:0:0:
256,192,283513,1,0,0:0:0:0:
256,192,283596,1,8,0:0:0:0:
256,192,283680,1,8,0:0:0:0:
256,192,283721,1,8,0:0:0:0:
256,192,283763,1,0,0:0:0:0:
256,192,283846,1,0,0:0:0:0:
256,192,283888,1,0,0:0:0:0:
256,192,283930,1,8,0:0:0:0:
256,192,284013,1,8,0:0:0:0:
256,192,284096,1,0,0:0:0:0:
256,192,284180,1,0,0:0:0:0:
256,192,284221,1,0,0:0:0:0:
256,192,284263,1,8,0:0:0:0:
256,192,284346,1,0,0:0:0:0:
256,192,284388,1,0,0:0:0:0:
256,192,284430,1,8,0:0:0:0:
256,192,284471,1,8,0:0:0:0:
256,192,284513,1,8,0:0:0:0:
256,192,284555,1,8,0:0:0:0:
256,192,284596,1,0,0:0:0:0:
256,192,284680,1,8,0:0:0:0:
256,192,284721,1,8,0:0:0:0:
256,192,284763,1,8,0:0:0:0:
256,192,284805,1,8,0:0:0:0:
256,192,284846,1,0,0:0:0:0:
256,192,284930,1,8,0:0:0:0:
256,192,284971,1,8,0:0:0:0:
256,192,285013,1,8,0:0:0:0:
256,192,285055,1,8,0:0:0:0:
256,192,285096,1,0,0:0:0:0:
256,192,285180,1,0,0:0:0:0:
256,192,285221,1,0,0:0:0:0:
256,192,285263,1,8,0:0:0:0:
256,192,285346,1,0,0:0:0:0:
256,192,285430,1,8,0:0:0:0:
256,192,285471,1,8,0:0:0:0:
256,192,285513,1,8,0:0:0:0:
256,192,285555,1,8,0:0:0:0:
256,192,285596,1,0,0:0:0:0:
256,192,285638,1,0,0:0:0:0:
256,192,285680,1,8,0:0:0:0:
256,192,285763,1,4,0:0:0:0:
256,192,285846,1,0,0:0:0:0:
256,192,285888,1,0,0:0:0:0:
256,192,285929,1,8,0:0:0:0:
256,192,286013,1,8,0:0:0:0:
256,192,286096,1,0,0:0:0:0:
256,192,286138,1,0,0:0:0:0:
256,192,286179,1,8,0:0:0:0:
256,192,286263,1,0,0:0:0:0:
256,192,286304,1,0,0:0:0:0:
256,192,286346,1,8,0:0:0:0:
256,192,286388,1,8,0:0:0:0:
256,192,286429,1,0,0:0:0:0:
256,192,286513,1,0,0:0:0:0:
256,192,286554,1,0,0:0:0:0:
256,192,286596,1,8,0:0:0:0:
256,192,286679,1,0,0:0:0:0:
256,192,286763,1,0,0:0:0:0:
256,192,286804,1,0,0:0:0:0:
256,192,286846,1,0,0:0:0:0:
256,192,286888,1,0,0:0:0:0:
256,192,286929,1,8,0:0:0:0:
256,192,287013,1,8,0:0:0:0:
256,192,287054,1,8,0:0:0:0:
256,192,287096,1,0,0:0:0:0:
256,192,287179,1,0,0:0:0:0:
256,192,287221,1,0,0:0:0:0:
256,192,287263,1,8,0:0:0:0:
256,192,287346,1,0,0:0:0:0:
256,192,287429,1,0,0:0:0:0:
256,192,287471,1,0,0:0:0:0:
256,192,287513,1,8,0:0:0:0:
256,192,287596,1,0,0:0:0:0:
256,192,287638,1,0,0:0:0:0:
256,192,287679,1,8,0:0:0:0:
256,192,287721,1,8,0:0:0:0:
256,192,287763,1,0,0:0:0:0:
256,192,287846,1,0,0:0:0:0:
256,192,287888,1,0,0:0:0:0:
256,192,287929,1,8,0:0:0:0:
256,192,288013,1,0,0:0:0:0:
256,192,288096,1,0,0:0:0:0:
256,192,288138,1,0,0:0:0:0:
256,192,288179,1,0,0:0:0:0:
256,192,288221,1,0,0:0:0:0:
256,192,288263,1,8,0:0:0:0:
256,192,288304,1,8,0:0:0:0:
256,192,288346,1,8,0:0:0:0:
256,192,288430,1,4,0:0:0:0:
256,192,288513,1,0,0:0:0:0:
256,192,288554,1,0,0:0:0:0:
256,192,288596,1,8,0:0:0:0:
256,192,288679,1,8,0:0:0:0:
256,192,288721,1,8,0:0:0:0:
256,192,288763,1,0,0:0:0:0:
256,192,288846,1,0,0:0:0:0:
256,192,288929,1,8,0:0:0:0:
256,192,289013,1,8,0:0:0:0:
256,192,289054,1,8,0:0:0:0:
256,192,289096,1,0,0:0:0:0:
256,192,289179,1,0,0:0:0:0:
256,192,289221,1,0,0:0:0:0:
256,192,289263,1,8,0:0:0:0:
256,192,289346,1,8,0:0:0:0:
256,192,289429,1,0,0:0:0:0:
256,192,289513,1,0,0:0:0:0:
256,192,289554,1,0,0:0:0:0:
256,192,289596,1,8,0:0:0:0:
256,192,289679,1,8,0:0:0:0:
256,192,289721,1,8,0:0:0:0:
256,192,289763,1,0,0:0:0:0:
256,192,289846,1,8,0:0:0:0:
256,192,289888,1,8,0:0:0:0:
256,192,289929,1,0,0:0:0:0:
256,192,290013,1,0,0:0:0:0:
256,192,290096,1,8,0:0:0:0:
256,192,290138,1,8,0:0:0:0:
256,192,290179,1,8,0:0:0:0:
256,192,290221,1,8,0:0:0:0:
256,192,290263,1,0,0:0:0:0:
256,192,290346,1,0,0:0:0:0:
256,192,290429,1,0,0:0:0:0:
256,192,290513,1,8,0:0:0:0:
256,192,290554,1,8,0:0:0:0:
256,192,290596,1,0,0:0:0:0:
256,192,290679,1,0,0:0:0:0:
256,192,290763,1,8,0:0:0:0:
256,192,290804,1,8,0:0:0:0:
256,192,290846,1,8,0:0:0:0:
256,192,290888,1,8,0:0:0:0:
256,192,290929,1,0,0:0:0:0:
256,192,290971,1,0,0:0:0:0:
256,192,291013,1,0,0:0:0:0:
256,192,291096,1,4,0:0:0:0:
256,192,291179,1,0,0:0:0:0:
256,192,291221,1,0,0:0:0:0:
256,192,291262,1,8,0:0:0:0:
256,192,291346,1,0,0:0:0:0:
256,192,291429,1,0,0:0:0:0:
256,192,291471,1,0,0:0:0:0:
256,192,291512,1,8,0:0:0:0:
256,192,291596,1,0,0:0:0:0:
256,192,291637,1,0,0:0:0:0:
256,192,291679,1,8,0:0:0:0:
256,192,291721,1,8,0:0:0:0:
256,192,291762,1,0,0:0:0:0:
256,192,291846,1,0,0:0:0:0:
256,192,291887,1,0,0:0:0:0:
256,192,291929,1,8,0:0:0:0:
256,192,292012,1,0,0:0:0:0:
256,192,292096,1,0,0:0:0:0:
256,192,292137,1,0,0:0:0:0:
256,192,292179,1,0,0:0:0:0:
256,192,292221,1,0,0:0:0:0:
256,192,292262,1,8,0:0:0:0:
256,192,292305,1,8,0:0:0:0:
256,192,292346,1,8,0:0:0:0:
256,192,292429,1,4,0:0:0:0:
256,192,292512,1,0,0:0:0:0:
256,192,292554,1,0,0:0:0:0:
256,192,292596,1,8,0:0:0:0:
256,192,292679,1,0,0:0:0:0:
256,192,292762,1,0,0:0:0:0:
256,192,292804,1,0,0:0:0:0:
256,192,292846,1,8,0:0:0:0:
256,192,292929,1,0,0:0:0:0:
256,192,292971,1,0,0:0:0:0:
256,192,293012,1,8,0:0:0:0:
256,192,293054,1,8,0:0:0:0:
256,192,293096,1,0,0:0:0:0:
256,192,293179,1,0,0:0:0:0:
256,192,293221,1,0,0:0:0:0:
256,192,293262,1,8,0:0:0:0:
256,192,293346,1,0,0:0:0:0:
256,192,293429,1,0,0:0:0:0:
256,192,293471,1,0,0:0:0:0:
256,192,293512,1,0,0:0:0:0:
256,192,293555,1,0,0:0:0:0:
256,192,293596,1,8,0:0:0:0:
256,192,293637,1,8,0:0:0:0:
256,192,293679,1,8,0:0:0:0:
256,192,293721,1,8,0:0:0:0:
256,192,293762,1,0,0:0:0:0:
256,192,293805,1,0,0:0:0:0:
256,192,293846,1,0,0:0:0:0:
256,192,293888,1,0,0:0:0:0:
256,192,293930,1,8,0:0:0:0:
256,192,293971,1,0,0:0:0:0:
256,192,294013,1,8,0:0:0:0:
256,192,294055,1,8,0:0:0:0:
256,192,294096,1,0,0:0:0:0:
256,192,294138,1,0,0:0:0:0:
256,192,294180,1,8,0:0:0:0:
256,192,294221,1,0,0:0:0:0:
256,192,294263,1,8,0:0:0:0:
256,192,294305,1,8,0:0:0:0:
256,192,294346,1,8,0:0:0:0:
256,192,294388,1,8,0:0:0:0:
256,192,294430,1,0,0:0:0:0:
256,192,294471,1,0,0:0:0:0:
256,192,294513,1,8,0:0:0:0:
256,192,294555,1,0,0:0:0:0:
256,192,294596,1,8,0:0:0:0:
256,192,294638,1,8,0:0:0:0:
256,192,294680,1,8,0:0:0:0:
256,192,294721,1,8,0:0:0:0:
256,192,294763,1,0,0:0:0:0:
256,192,294805,1,0,0:0:0:0:
256,192,294846,1,0,0:0:0:0:
256,192,294888,1,0,0:0:0:0:
256,192,294930,1,8,0:0:0:0:
256,192,294971,1,8,0:0:0:0:
256,192,295013,1,0,0:0:0:0:
256,192,295055,1,8,0:0:0:0:
256,192,295096,1,0,0:0:0:0:
256,192,295138,1,0,0:0:0:0:
256,192,295180,1,0,0:0:0:0:
256,192,295221,1,0,0:0:0:0:
256,192,295263,1,0,0:0:0:0:
256,192,295305,1,0,0:0:0:0:
256,192,295346,1,0,0:0:0:0:
256,192,295388,1,0,0:0:0:0:
256,192,295430,1,0,0:0:0:0:
256,192,295471,1,0,0:0:0:0:
256,192,295513,1,0,0:0:0:0:
256,192,295555,1,0,0:0:0:0:
256,192,295596,1,0,0:0:0:0:
256,192,295638,1,0,0:0:0:0:
256,192,295680,1,0,0:0:0:0:
256,192,295721,1,0,0:0:0:0:
256,192,295763,1,8,0:0:0:0:
256,192,295805,1,8,0:0:0:0:
256,192,295846,1,8,0:0:0:0:
256,192,295888,1,8,0:0:0:0:
256,192,295930,1,8,0:0:0:0:
256,192,295971,1,8,0:0:0:0:
256,192,296013,1,8,0:0:0:0:
256,192,296055,1,8,0:0:0:0:
256,192,296096,1,8,0:0:0:0:
256,192,296138,1,8,0:0:0:0:
256,192,296180,1,8,0:0:0:0:
256,192,296221,1,8,0:0:0:0:
256,192,296263,1,8,0:0:0:0:
256,192,296305,1,8,0:0:0:0:
256,192,296346,1,8,0:0:0:0:
256,192,296388,1,8,0:0:0:0:
256,192,296430,12,0,297010,0:0:0:0:
256,192,297204,5,0,0:0:0:0:
256,192,297591,1,8,0:0:0:0:
256,192,297784,1,0,0:0:0:0:
256,192,297978,1,0,0:0:0:0:
256,192,298365,1,0,0:0:0:0:
256,192,298752,1,8,0:0:0:0:
256,192,298946,1,0,0:0:0:0:
256,192,299139,1,8,0:0:0:0:
256,192,299204,1,8,0:0:0:0:
256,192,299268,1,8,0:0:0:0:
256,192,299333,1,8,0:0:0:0:
256,192,299397,1,8,0:0:0:0:
256,192,299462,1,8,0:0:0:0:
256,192,299526,1,0,0:0:0:0:
256,192,299913,1,8,0:0:0:0:
256,192,300107,1,0,0:0:0:0:
256,192,300300,1,0,0:0:0:0:
256,192,300688,1,8,0:0:0:0:
256,192,301075,1,0,0:0:0:0:
256,192,301462,1,8,0:0:0:0:
256,192,301655,1,0,0:0:0:0:
256,192,301849,1,0,0:0:0:0:
256,192,302042,1,0,0:0:0:0:
256,192,302236,1,8,0:0:0:0:
256,192,302623,1,0,0:0:0:0:
256,192,303010,1,8,0:0:0:0:
256,192,303204,1,0,0:0:0:0:
256,192,303397,1,0,0:0:0:0:
256,192,303784,1,8,0:0:0:0:
256,192,303849,1,8,0:0:0:0:
256,192,303913,1,8,0:0:0:0:
256,192,303978,1,8,0:0:0:0:
256,192,304042,1,8,0:0:0:0:
256,192,304107,1,8,0:0:0:0:
256,192,304171,1,0,0:0:0:0:
256,192,304559,1,8,0:0:0:0:
256,192,304752,1,0,0:0:0:0:
256,192,304946,1,0,0:0:0:0:
256,192,305139,1,0,0:0:0:0:
256,192,305333,1,8,0:0:0:0:
256,192,305720,1,0,0:0:0:0:
256,192,306107,1,8,0:0:0:0:
256,192,306688,1,0,0:0:0:0:
256,192,306881,1,8,0:0:0:0:
256,192,307268,1,0,0:0:0:0:
256,192,307655,1,8,0:0:0:0:
256,192,307849,1,0,0:0:0:0:
256,192,308042,1,0,0:0:0:0:
256,192,308430,1,8,0:0:0:0:
256,192,308817,1,0,0:0:0:0:
256,192,309204,1,8,0:0:0:0:
256,192,309591,1,0,0:0:0:0:
256,192,309978,1,8,0:0:0:0:
256,192,310042,1,8,0:0:0:0:
256,192,310107,1,8,0:0:0:0:
256,192,310171,1,8,0:0:0:0:
256,192,310236,1,8,0:0:0:0:
256,192,310300,1,8,0:0:0:0:
256,192,310365,1,0,0:0:0:0:
256,192,310752,1,8,0:0:0:0:
256,192,310946,1,0,0:0:0:0:
256,192,311333,1,0,0:0:0:0:
256,192,311526,1,8,0:0:0:0:
256,192,311913,1,0,0:0:0:0:
256,192,312300,1,8,0:0:0:0:
256,192,312494,1,0,0:0:0:0:
256,192,312881,1,0,0:0:0:0:
256,192,313075,1,8,0:0:0:0:
256,192,313268,1,0,0:0:0:0:
256,192,313655,1,0,0:0:0:0:
256,192,313849,1,8,0:0:0:0:
256,192,314236,1,0,0:0:0:0:
256,192,314623,1,8,0:0:0:0:
256,192,314817,1,0,0:0:0:0:
256,192,315010,1,0,0:0:0:0:
256,192,315397,1,8,0:0:0:0:
256,192,315784,1,0,0:0:0:0:
256,192,315978,1,0,0:0:0:0:
256,192,316171,1,8,0:0:0:0:
256,192,316365,1,0,0:0:0:0:
256,192,316559,1,0,0:0:0:0:
256,192,316946,1,8,0:0:0:0:
256,192,317010,1,8,0:0:0:0:
256,192,317075,1,8,0:0:0:0:
256,192,317139,1,8,0:0:0:0:
256,192,317204,1,8,0:0:0:0:
256,192,317268,1,8,0:0:0:0:
256,192,317333,1,0,0:0:0:0:
256,192,317720,1,8,0:0:0:0:
256,192,318107,1,0,0:0:0:0:
256,192,318494,1,8,0:0:0:0:
256,192,318688,1,0,0:0:0:0:
256,192,318881,1,0,0:0:0:0:
256,192,319268,1,8,0:0:0:0:
256,192,319655,1,0,0:0:0:0:
256,192,319849,1,0,0:0:0:0:
256,192,320042,1,8,0:0:0:0:
256,192,320236,1,0,0:0:0:0:
256,192,320430,1,0,0:0:0:0:
256,192,320623,1,0,0:0:0:0:
256,192,320817,12,0,321010,0:0:0:0:
256,192,321204,5,4,0:0:0:0:
256,192,321380,1,0,0:0:0:0:
256,192,321468,1,0,0:0:0:0:
256,192,321556,1,8,0:0:0:0:
256,192,321733,1,0,0:0:0:0:
256,192,321909,1,8,0:0:0:0:
256,192,322086,1,0,0:0:0:0:
256,192,322262,1,8,0:0:0:0:
256,192,322439,1,0,0:0:0:0:
256,192,322527,1,0,0:0:0:0:
256,192,322615,1,0,0:0:0:0:
256,192,322792,1,0,0:0:0:0:
256,192,322968,1,8,0:0:0:0:
256,192,323145,1,0,0:0:0:0:
256,192,323233,1,0,0:0:0:0:
256,192,323321,1,8,0:0:0:0:
256,192,323498,1,0,0:0:0:0:
256,192,323674,1,8,0:0:0:0:
256,192,323851,1,0,0:0:0:0:
256,192,323939,1,0,0:0:0:0:
256,192,324027,1,0,0:0:0:0:
256,192,324204,1,0,0:0:0:0:
256,192,324380,1,8,0:0:0:0:
256,192,324556,1,0,0:0:0:0:
256,192,324645,1,0,0:0:0:0:
256,192,324733,1,8,0:0:0:0:
256,192,324909,1,0,0:0:0:0:
256,192,325086,1,8,0:0:0:0:
256,192,325262,2,0,L|160:192,6,70
256,192,326498,1,8,0:0:0:0:
256,192,326851,5,0,0:0:0:0:
256,192,327027,1,0,0:0:0:0:
256,192,327115,1,0,0:0:0:0:
256,192,327203,1,8,0:0:0:0:
256,192,327380,1,0,0:0:0:0:
256,192,327556,1,8,0:0:0:0:
256,192,327733,1,0,0:0:0:0:
256,192,327909,1,8,0:0:0:0:
256,192,328086,1,0,0:0:0:0:
256,192,328174,1,0,0:0:0:0:
256,192,328262,1,0,0:0:0:0:
256,192,328439,1,0,0:0:0:0:
256,192,328615,1,8,0:0:0:0:
256,192,328792,1,0,0:0:0:0:
256,192,328880,1,0,0:0:0:0:
256,192,328968,1,8,0:0:0:0:
256,192,329145,1,0,0:0:0:0:
256,192,329321,1,8,0:0:0:0:
256,192,329498,1,0,0:0:0:0:
256,192,329586,1,0,0:0:0:0:
256,192,329674,1,0,0:0:0:0:
256,192,329851,1,0,0:0:0:0:
256,192,330027,1,8,0:0:0:0:
256,192,330203,1,0,0:0:0:0:
256,192,330292,1,0,0:0:0:0:
256,192,330380,1,8,0:0:0:0:
256,192,330556,1,0,0:0:0:0:
256,192,330645,1,8,0:0:0:0:
256,192,330821,1,0,0:0:0:0:
256,192,330909,2,0,L|160:192,6,70
256,192,332145,1,8,0:0:0:0:
256,192,332321,1,0,0:0:0:0:
256,192,332498,1,4,0:0:0:0:
256,192,332669,1,0,0:0:0:0:
256,192,332755,1,0,0:0:0:0:
256,192,332840,1,8,0:0:0:0:
256,192,333012,1,0,0:0:0:0:
256,192,333183,1,8,0:0:0:0:
256,192,333355,1,0,0:0:0:0:
256,192,333526,1,8,0:0:0:0:
256,192,333698,1,0,0:0:0:0:
256,192,333783,1,0,0:0:0:0:
256,192,333869,1,0,0:0:0:0:
256,192,334040,1,0,0:0:0:0:
256,192,334126,1,0,0:0:0:0:
256,192,334212,1,8,0:0:0:0:
256,192,334383,1,0,0:0:0:0:
256,192,334555,1,8,0:0:0:0:
256,192,334726,1,0,0:0:0:0:
256,192,334812,1,0,0:0:0:0:
256,192,334898,1,8,0:0:0:0:
256,192,335069,1,0,0:0:0:0:
256,192,335155,1,0,0:0:0:0:
256,192,335240,1,0,0:0:0:0:
256,192,335412,1,0,0:0:0:0:
256,192,335583,1,8,0:0:0:0:
256,192,335755,1,8,0:0:0:0:
256,192,335840,1,8,0:0:0:0:
256,192,335926,1,0,0:0:0:0:
256,192,336098,1,0,0:0:0:0:
256,192,336269,1,8,0:0:0:0:
256,192,336440,2,0,L|384:288,3,140
256,192,337640,1,8,0:0:0:0:
256,192,337812,1,0,0:0:0:0:
256,192,337983,1,4,0:0:0:0:
256,192,338155,1,0,0:0:0:0:
256,192,338240,1,0,0:0:0:0:
256,192,338326,1,8,0:0:0:0:
256,192,338498,1,0,0:0:0:0:
256,192,338669,1,8,0:0:0:0:
256,192,338840,1,0,0:0:0:0:
256,192,338926,1,0,0:0:0:0:
256,192,339012,1,8,0:0:0:0:
256,192,339183,1,0,0:0:0:0:
256,192,339355,1,4,0:0:0:0:
256,192,339526,1,0,0:0:0:0:
256,192,339612,1,0,0:0:0:0:
256,192,339698,1,8,0:0:0:0:
256,192,339869,1,0,0:0:0:0:
256,192,340040,1,8,0:0:0:0:
256,192,340212,1,0,0:0:0:0:
256,192,340383,1,8,0:0:0:0:
256,192,340555,1,0,0:0:0:0:
256,192,340640,1,0,0:0:0:0:
256,192,340726,1,0,0:0:0:0:
256,192,340898,1,0,0:0:0:0:
256,192,340983,1,0,0:0:0:0:
256,192,341069,1,8,0:0:0:0:
256,192,341240,1,0,0:0:0:0:
256,192,341412,1,4,0:0:0:0:
256,192,341583,1,0,0:0:0:0:
256,192,341669,1,0,0:0:0:0:
256,192,341755,1,8,0:0:0:0:
256,192,341926,1,0,0:0:0:0:
256,192,342098,1,8,0:0:0:0:
256,192,342183,1,8,0:0:0:0:
256,192,342269,1,0,0:0:0:0:
256,192,342355,1,0,0:0:0:0:
256,192,342440,1,8,0:0:0:0:
256,192,342526,1,0,0:0:0:0:
256,192,342612,1,0,0:0:0:0:
256,192,342698,1,0,0:0:0:0:
256,192,342783,1,8,0:0:0:0:
256,192,342869,1,8,0:0:0:0:
256,192,342955,1,0,0:0:0:0:
256,192,343040,1,0,0:0:0:0:
256,192,343126,1,8,0:0:0:0:
256,192,343212,1,0,0:0:0:0:
256,192,343298,1,0,0:0:0:0:
256,192,343383,1,0,0:0:0:0:
256,192,343469,1,0,0:0:0:0:
256,192,343802,1,0,0:0:0:0:
256,192,344135,1,8,0:0:0:0:
256,192,344246,1,0,0:0:0:0:
256,192,344357,1,0,0:0:0:0:
256,192,344469,1,0,0:0:0:0:
256,192,344802,1,0,0:0:0:0:
256,192,345135,1,0,0:0:0:0:
256,192,345302,1,0,0:0:0:0:
256,192,345469,2,0,L|32:192,1,210
256,192,346135,1,0,0:0:0:0:
256,192,346246,1,0,0:0:0:0:
256,192,346357,1,0,0:0:0:0:
256,192,346469,1,0,0:0:0:0:
256,192,346802,1,8,0:0:0:0:
256,192,347052,1,0,0:0:0:0:
256,192,347135,1,8,0:0:0:0:
256,192,347302,1,8,0:0:0:0:
256,192,347469,1,0,0:0:0:0:
256,192,347635,1,8,0:0:0:0:
256,192,347719,1,0,0:0:0:0:
256,192,347885,1,8,0:0:0:0:
256,192,347969,1,0,0:0:0:0:
256,192,348135,2,0,L|480:192,1,210
256,192,348802,1,0,0:0:0:0:
256,192,349135,1,0,0:0:0:0:
256,192,349468,1,8,0:0:0:0:
256,192,349579,1,0,0:0:0:0:
256,192,349690,1,0,0:0:0:0:
256,192,349802,1,0,0:0:0:0:
256,192,350135,1,0,0:0:0:0:
256,192,350468,1,0,0:0:0:0:
256,192,350635,1,0,0:0:0:0:
256,192,350802,1,8,0:0:0:0:
256,192,350969,1,0,0:0:0:0:
256,192,351135,1,8,0:0:0:0:
256,192,351219,1,8,0:0:0:0:
256,192,351302,1,8,0:0:0:0:
256,192,351469,1,4,0:0:0:0:
256,192,351719,1,0,0:0:0:0:
256,192,351802,1,8,0:0:0:0:
256,192,351969,1,0,0:0:0:0:
256,192,352052,1,0,0:0:0:0:
256,192,352135,1,0,0:0:0:0:
256,192,352302,1,0,0:0:0:0:
256,192,352469,1,8,0:0:0:0:
256,192,352635,1,0,0:0:0:0:
256,192,352719,1,0,0:0:0:0:
256,192,352802,1,0,0:0:0:0:
256,192,353052,1,0,0:0:0:0:
256,192,353135,1,8,0:0:0:0:
256,192,353302,1,0,0:0:0:0:
256,192,353385,1,0,0:0:0:0:
256,192,353469,1,0,0:0:0:0:
256,192,353635,1,0,0:0:0:0:
256,192,353802,1,8,0:0:0:0:
256,192,353969,1,0,0:0:0:0:
256,192,354052,1,8,0:0:0:0:
256,192,354135,1,0,0:0:0:0:
256,192,354385,1,0,0:0:0:0:
256,192,354469,1,8,0:0:0:0:
256,192,354635,1,0,0:0:0:0:
256,192,354719,1,0,0:0:0:0:
256,192,354802,1,0,0:0:0:0:
256,192,354969,1,0,0:0:0:0:
256,192,355135,1,8,0:0:0:0:
256,192,355302,1,0,0:0:0:0:
256,192,355385,1,0,0:0:0:0:
256,192,355469,1,0,0:0:0:0:
256,192,355719,1,0,0:0:0:0:
256,192,355802,1,8,0:0:0:0:
256,192,355969,1,0,0:0:0:0:
256,192,356052,1,0,0:0:0:0:
256,192,356135,1,0,0:0:0:0:
256,192,356302,1,0,0:0:0:0:
256,192,356469,1,8,0:0:0:0:
256,192,356552,1,8,0:0:0:0:
256,192,356635,1,8,0:0:0:0:
256,192,356719,1,8,0:0:0:0:
256,192,356802,1,0,0:0:0:0:
256,192,357052,1,0,0:0:0:0:
256,192,357135,1,8,0:0:0:0:
256,192,357302,1,0,0:0:0:0:
256,192,357385,1,0,0:0:0:0:
256,192,357469,1,0,0:0:0:0:
256,192,357635,1,0,0:0:0:0:
256,192,357802,1,8,0:0:0:0:
256,192,357969,1,0,0:0:0:0:
256,192,358052,1,0,0:0:0:0:
256,192,358135,1,0,0:0:0:0:
256,192,358385,1,0,0:0:0:0:
256,192,358469,1,8,0:0:0:0:
256,192,358635,1,0,0:0:0:0:
256,192,358719,1,0,0:0:0:0:
256,192,358802,1,0,0:0:0:0:
256,192,358969,1,0,0:0:0:0:
256,192,359135,1,8,0:0:0:0:
256,192,359302,1,0,0:0:0:0:
256,192,359385,1,8,0:0:0:0:
256,192,359469,1,0,0:0:0:0:
256,192,359635,1,0,0:0:0:0:
256,192,359719,1,0,0:0:0:0:
256,192,359802,1,8,0:0:0:0:
256,192,359969,1,8,0:0:0:0:
256,192,360052,1,8,0:0:0:0:
256,192,360135,1,0,0:0:0:0:
256,192,360302,1,0,0:0:0:0:
256,192,360469,1,8,0:0:0:0:
256,192,360635,1,0,0:0:0:0:
256,192,360719,1,8,0:0:0:0:
256,192,360802,1,0,0:0:0:0:
256,192,360969,5,8,0:0:0:0:
256,192,361052,1,0,0:0:0:0:
256,192,361135,1,8,0:0:0:0:
256,192,361219,1,8,0:0:0:0:
256,192,361302,1,8,0:0:0:0:
256,192,361385,1,8,0:0:0:0:
256,192,361469,1,0,0:0:0:0:
256,192,361552,1,0,0:0:0:0:
256,192,361635,1,8,0:0:0:0:
256,192,361719,1,0,0:0:0:0:
256,192,361802,1,8,0:0:0:0:
256,192,361885,1,8,0:0:0:0:
256,192,361969,1,8,0:0:0:0:
256,192,362052,1,8,0:0:0:0:
256,192,362135,12,0,365801,0:0:0:0:
256,192,366135,5,0,0:0:0:0:
256,192,366801,1,8,0:0:0:0:
256,192,366968,1,8,0:0:0:0:
256,192,367135,1,0,0:0:0:0:
256,192,367301,1,8,0:0:0:0:
256,192,367468,1,4,0:0:0:0:
256,192,367551,1,0,0:0:0:0:
256,192,367593,1,0,0:0:0:0:
256,192,367635,1,8,0:0:0:0:
256,192,367718,1,8,0:0:0:0:
256,192,367801,1,0,0:0:0:0:
256,192,367885,1,0,0:0:0:0:
256,192,367968,1,8,0:0:0:0:
256,192,368051,1,8,0:0:0:0:
256,192,368135,1,0,0:0:0:0:
256,192,368218,1,0,0:0:0:0:
256,192,368260,1,0,0:0:0:0:
256,192,368301,1,8,0:0:0:0:
256,192,368385,1,8,0:0:0:0:
256,192,368468,1,0,0:0:0:0:
256,192,368551,1,8,0:0:0:0:
256,192,368635,1,0,0:0:0:0:
256,192,368718,1,8,0:0:0:0:
256,192,368801,1,0,0:0:0:0:
256,192,368885,1,8,0:0:0:0:
256,192,368926,1,8,0:0:0:0:
256,192,368968,1,0,0:0:0:0:
256,192,369051,1,8,0:0:0:0:
256,192,369135,1,0,0:0:0:0:
256,192,369218,1,0,0:0:0:0:
256,192,369301,1,8,0:0:0:0:
256,192,369385,1,8,0:0:0:0:
256,192,369468,1,0,0:0:0:0:
256,192,369551,1,8,0:0:0:0:
256,192,369593,1,8,0:0:0:0:
256,192,369635,1,0,0:0:0:0:
256,192,369718,1,8,0:0:0:0:
256,192,369801,1,0,0:0:0:0:
256,192,369885,1,8,0:0:0:0:
256,192,369968,1,0,0:0:0:0:
256,192,370010,1,0,0:0:0:0:
256,192,370051,1,8,0:0:0:0:
256,192,370093,1,8,0:0:0:0:
256,192,370135,1,0,0:0:0:0:
256,192,370218,1,0,0:0:0:0:
256,192,370260,1,0,0:0:0:0:
256,192,370301,1,8,0:0:0:0:
256,192,370385,1,8,0:0:0:0:
256,192,370468,1,0,0:0:0:0:
256,192,370551,1,0,0:0:0:0:
256,192,370635,1,8,0:0:0:0:
256,192,370718,1,8,0:0:0:0:
256,192,370801,1,0,0:0:0:0:
256,192,370885,1,0,0:0:0:0:
256,192,370926,1,0,0:0:0:0:
256,192,370968,1,8,0:0:0:0:
256,192,371051,1,8,0:0:0:0:
256,192,371135,1,0,0:0:0:0:
256,192,371218,1,0,0:0:0:0:
256,192,371260,1,0,0:0:0:0:
256,192,371301,1,8,0:0:0:0:
256,192,371385,1,8,0:0:0:0:
256,192,371468,1,0,0:0:0:0:
256,192,371551,1,0,0:0:0:0:
256,192,371635,1,8,0:0:0:0:
256,192,371676,1,8,0:0:0:0:
256,192,371718,1,0,0:0:0:0:
256,192,371760,1,0,0:0:0:0:
256,192,371801,1,0,0:0:0:0:
256,192,371968,1,0,0:0:0:0:
256,192,372051,1,0,0:0:0:0:
256,192,372135,1,8,0:0:0:0:
256,192,372176,1,8,0:0:0:0:
256,192,372218,1,8,0:0:0:0:
256,192,372260,1,8,0:0:0:0:
256,192,372301,1,0,0:0:0:0:
256,192,372385,1,0,0:0:0:0:
256,192,372468,1,0,0:0:0:0:
256,192,372635,1,8,0:0:0:0:
256,192,372676,1,8,0:0:0:0:
256,192,372718,1,8,0:0:0:0:
256,192,372760,1,8,0:0:0:0:
256,192,372801,1,0,0:0:0:0:
256,192,372885,1,0,0:0:0:0:
256,192,372926,1,0,0:0:0:0:
256,192,372968,1,8,0:0:0:0:
256,192,373051,1,8,0:0:0:0:
256,192,373135,1,0,0:0:0:0:
256,192,373218,1,0,0:0:0:0:
256,192,373301,1,8,0:0:0:0:
256,192,373385,1,8,0:0:0:0:
256,192,373468,1,0,0:0:0:0:
256,192,373551,1,0,0:0:0:0:
256,192,373593,1,0,0:0:0:0:
256,192,373635,1,8,0:0:0:0:
256,192,373718,1,8,0:0:0:0:
256,192,373801,1,0,0:0:0:0:
256,192,373885,1,8,0:0:0:0:
256,192,373968,1,8,0:0:0:0:
256,192,374051,1,8,0:0:0:0:
256,192,374135,1,0,0:0:0:0:
256,192,374218,1,8,0:0:0:0:
256,192,374260,1,8,0:0:0:0:
256,192,374301,1,0,0:0:0:0:
256,192,374385,1,8,0:0:0:0:
256,192,374468,1,0,0:0:0:0:
256,192,374551,1,0,0:0:0:0:
256,192,374635,1,8,0:0:0:0:
256,192,374718,1,8,0:0:0:0:
256,192,374801,1,0,0:0:0:0:
256,192,374885,1,8,0:0:0:0:
256,192,374926,1,8,0:0:0:0:
256,192,374968,1,0,0:0:0:0:
256,192,375051,1,8,0:0:0:0:
256,192,375135,1,0,0:0:0:0:
256,192,375218,1,0,0:0:0:0:
256,192,375301,1,8,0:0:0:0:
256,192,375343,1,8,0:0:0:0:
256,192,375385,1,8,0:0:0:0:
256,192,375426,1,8,0:0:0:0:
256,192,375468,1,0,0:0:0:0:
256,192,375551,1,0,0:0:0:0:
256,192,375593,1,0,0:0:0:0:
256,192,375635,1,8,0:0:0:0:
256,192,375718,1,8,0:0:0:0:
256,192,375801,1,0,0:0:0:0:
256,192,375885,1,0,0:0:0:0:
256,192,375968,1,8,0:0:0:0:
256,192,376051,1,8,0:0:0:0:
256,192,376135,1,0,0:0:0:0:
256,192,376218,1,0,0:0:0:0:
256,192,376260,1,0,0:0:0:0:
256,192,376301,1,8,0:0:0:0:
256,192,376385,1,8,0:0:0:0:
256,192,376468,1,0,0:0:0:0:
256,192,376551,1,0,0:0:0:0:
256,192,376635,1,8,0:0:0:0:
256,192,376718,1,8,0:0:0:0:
256,192,376801,1,0,0:0:0:0:
256,192,376885,1,0,0:0:0:0:
256,192,376968,1,8,0:0:0:0:
256,192,377010,1,8,0:0:0:0:
256,192,377051,1,0,0:0:0:0:
256,192,377093,1,0,0:0:0:0:
256,192,377135,1,0,0:0:0:0:
256,192,377301,1,0,0:0:0:0:
256,192,377385,1,0,0:0:0:0:
256,192,377468,1,8,0:0:0:0:
256,192,377510,1,8,0:0:0:0:
256,192,377551,1,8,0:0:0:0:
256,192,377593,1,8,0:0:0:0:
256,192,377635,1,0,0:0:0:0:
256,192,377718,1,0,0:0:0:0:
256,192,377801,1,8,0:0:0:0:
256,192,377843,1,8,0:0:0:0:
256,192,377885,1,8,0:0:0:0:
256,192,377926,1,8,0:0:0:0:
256,192,377968,1,0,0:0:0:0:
256,192,378010,1,0,0:0:0:0:
256,192,378051,1,0,0:0:0:0:
256,192,378135,1,4,0:0:0:0:
256,192,378218,1,0,0:0:0:0:
256,192,378260,1,0,0:0:0:0:
256,192,378302,1,8,0:0:0:0:
256,192,378385,1,8,0:0:0:0:
256,192,378468,1,0,0:0:0:0:
256,192,378552,1,0,0:0:0:0:
256,192,378635,1,8,0:0:0:0:
256,192,378718,1,8,0:0:0:0:
256,192,378802,1,0,0:0:0:0:
256,192,378885,1,0,0:0:0:0:
256,192,378927,1,0,0:0:0:0:
256,192,378968,1,8,0:0:0:0:
256,192,379052,1,8,0:0:0:0:
256,192,379135,1,0,0:0:0:0:
256,192,379218,1,0,0:0:0:0:
256,192,379302,1,8,0:0:0:0:
256,192,379385,1,8,0:0:0:0:
256,192,379468,1,0,0:0:0:0:
256,192,379552,1,8,0:0:0:0:
256,192,379593,1,8,0:0:0:0:
256,192,379635,1,0,0:0:0:0:
256,192,379718,1,8,0:0:0:0:
256,192,379802,1,0,0:0:0:0:
256,192,379885,1,0,0:0:0:0:
256,192,379968,1,8,0:0:0:0:
256,192,380052,1,8,0:0:0:0:
256,192,380135,1,0,0:0:0:0:
256,192,380218,1,8,0:0:0:0:
256,192,380260,1,8,0:0:0:0:
256,192,380302,1,0,0:0:0:0:
256,192,380385,1,8,0:0:0:0:
256,192,380468,1,0,0:0:0:0:
256,192,380552,1,8,0:0:0:0:
256,192,380635,1,0,0:0:0:0:
256,192,380677,1,0,0:0:0:0:
256,192,380718,1,8,0:0:0:0:
256,192,380760,1,8,0:0:0:0:
256,192,380802,1,0,0:0:0:0:
256,192,380885,1,0,0:0:0:0:
256,192,380927,1,0,0:0:0:0:
256,192,380968,1,8,0:0:0:0:
256,192,381052,1,8,0:0:0:0:
256,192,381135,1,0,0:0:0:0:
256,192,381218,1,0,0:0:0:0:
256,192,381302,1,8,0:0:0:0:
256,192,381385,1,8,0:0:0:0:
256,192,381468,1,0,0:0:0:0:
256,192,381552,1,0,0:0:0:0:
256,192,381593,1,0,0:0:0:0:
256,192,381635,1,8,0:0:0:0:
256,192,381718,1,8,0:0:0:0:
256,192,381802,1,0,0:0:0:0:
256,192,381885,1,0,0:0:0:0:
256,192,381968,1,8,0:0:0:0:
256,192,382052,1,8,0:0:0:0:
256,192,382135,1,0,0:0:0:0:
256,192,382385,1,0,0:0:0:0:
256,192,382468,1,8,0:0:0:0:
256,192,382510,1,8,0:0:0:0:
256,192,382551,1,8,0:0:0:0:
256,192,382593,1,8,0:0:0:0:
256,192,382635,1,0,0:0:0:0:
256,192,382801,1,0,0:0:0:0:
256,192,382885,1,0,0:0:0:0:
256,192,382968,1,8,0:0:0:0:
256,192,383051,1,0,0:0:0:0:
256,192,383135,1,8,0:0:0:0:
256,192,383176,1,8,0:0:0:0:
256,192,383218,1,8,0:0:0:0:
256,192,383260,1,8,0:0:0:0:
256,192,383301,1,0,0:0:0:0:
256,192,383343,1,0,0:0:0:0:
256,192,383385,1,0,0:0:0:0:
256,192,383468,1,0,0:0:0:0:
256,192,383552,1,0,0:0:0:0:
256,192,383593,1,0,0:0:0:0:
256,192,383635,1,8,0:0:0:0:
256,192,383718,1,8,0:0:0:0:
256,192,383802,1,0,0:0:0:0:
256,192,383885,1,0,0:0:0:0:
256,192,383968,1,8,0:0:0:0:
256,192,384052,1,8,0:0:0:0:
256,192,384135,1,0,0:0:0:0:
256,192,384218,1,0,0:0:0:0:
256,192,384260,1,0,0:0:0:0:
256,192,384302,1,8,0:0:0:0:
256,192,384385,1,8,0:0:0:0:
256,192,384468,1,0,0:0:0:0:
256,192,384552,1,8,0:0:0:0:
256,192,384635,1,0,0:0:0:0:
256,192,384718,1,8,0:0:0:0:
256,192,384802,1,0,0:0:0:0:
256,192,384885,1,8,0:0:0:0:
256,192,384927,1,8,0:0:0:0:
256,192,384968,1,0,0:0:0:0:
256,192,385052,1,8,0:0:0:0:
256,192,385135,1,0,0:0:0:0:
256,192,385218,1,0,0:0:0:0:
256,192,385302,1,8,0:0:0:0:
256,192,385385,1,8,0:0:0:0:
256,192,385468,1,0,0:0:0:0:
256,192,385552,1,8,0:0:0:0:
256,192,385593,1,8,0:0:0:0:
256,192,385635,1,0,0:0:0:0:
256,192,385718,1,8,0:0:0:0:
256,192,385802,1,0,0:0:0:0:
256,192,385885,1,0,0:0:0:0:
256,192,385968,1,8,0:0:0:0:
256,192,386010,1,8,0:0:0:0:
256,192,386052,1,8,0:0:0:0:
256,192,386093,1,8,0:0:0:0:
256,192,386135,1,0,0:0:0:0:
256,192,386218,1,0,0:0:0:0:
256,192,386260,1,0,0:0:0:0:
256,192,386302,1,8,0:0:0:0:
256,192,386385,1,8,0:0:0:0:
256,192,386468,1,0,0:0:0:0:
256,192,386552,1,0,0:0:0:0:
256,192,386635,1,8,0:0:0:0:
256,192,386718,1,8,0:0:0:0:
256,192,386802,1,0,0:0:0:0:
256,192,386885,1,0,0:0:0:0:
256,192,386926,1,0,0:0:0:0:
256,192,386968,1,8,0:0:0:0:
256,192,387052,1,8,0:0:0:0:
256,192,387135,1,0,0:0:0:0:
256,192,387218,1,0,0:0:0:0:
256,192,387302,1,8,0:0:0:0:
256,192,387385,1,8,0:0:0:0:
256,192,387468,1,0,0:0:0:0:
256,192,387551,1,8,0:0:0:0:
256,192,387593,1,8,0:0:0:0:
256,192,387635,1,0,0:0:0:0:
256,192,387718,1,8,0:0:0:0:
256,192,387801,1,0,0:0:0:0:
256,192,387885,1,0,0:0:0:0:
256,192,387968,1,8,0:0:0:0:
256,192,388051,1,8,0:0:0:0:
256,192,388135,1,0,0:0:0:0:
256,192,388218,1,0,0:0:0:0:
256,192,388260,1,0,0:0:0:0:
256,192,388301,1,8,0:0:0:0:
256,192,388385,1,0,0:0:0:0:
256,192,388468,1,8,0:0:0:0:
256,192,388510,1,8,0:0:0:0:
256,192,388551,1,8,0:0:0:0:
256,192,388593,1,8,0:0:0:0:
256,192,388635,1,8,0:0:0:0:
256,192,388676,1,8,0:0:0:0:
256,192,388718,1,8,0:0:0:0:
256,192,388801,1,4,0:0:0:0:
256,192,388884,1,0,0:0:0:0:
256,192,388926,1,0,0:0:0:0:
256,192,388968,1,8,0:0:0:0:
256,192,389051,1,8,0:0:0:0:
256,192,389134,1,0,0:0:0:0:
256,192,389218,1,0,0:0:0:0:
256,192,389301,1,8,0:0:0:0:
256,192,389384,1,8,0:0:0:0:
256,192,389468,1,0,0:0:0:0:
256,192,389551,1,0,0:0:0:0:
256,192,389593,1,0,0:0:0:0:
256,192,389634,1,8,0:0:0:0:
256,192,389718,1,8,0:0:0:0:
256,192,389801,1,0,0:0:0:0:
256,192,389884,1,8,0:0:0:0:
256,192,389968,1,0,0:0:0:0:
256,192,390051,1,8,0:0:0:0:
256,192,390134,1,0,0:0:0:0:
256,192,390218,1,8,0:0:0:0:
256,192,390259,1,8,0:0:0:0:
256,192,390301,1,0,0:0:0:0:
256,192,390384,1,8,0:0:0:0:
256,192,390468,1,0,0:0:0:0:
256,192,390551,1,0,0:0:0:0:
256,192,390634,1,8,0:0:0:0:
256,192,390718,1,8,0:0:0:0:
256,192,390801,1,0,0:0:0:0:
256,192,390884,1,8,0:0:0:0:
256,192,390926,1,8,0:0:0:0:
256,192,390968,1,0,0:0:0:0:
256,192,391051,1,8,0:0:0:0:
256,192,391134,1,0,0:0:0:0:
256,192,391218,1,8,0:0:0:0:
256,192,391301,1,0,0:0:0:0:
256,192,391343,1,0,0:0:0:0:
256,192,391384,1,8,0:0:0:0:
256,192,391426,1,8,0:0:0:0:
256,192,391468,1,0,0:0:0:0:
256,192,391551,1,0,0:0:0:0:
256,192,391593,1,0,0:0:0:0:
256,192,391634,1,8,0:0:0:0:
256,192,391718,1,8,0:0:0:0:
256,192,391801,1,0,0:0:0:0:
256,192,391884,1,0,0:0:0:0:
256,192,391968,1,8,0:0:0:0:
256,192,392051,1,8,0:0:0:0:
256,192,392134,1,0,0:0:0:0:
256,192,392218,1,0,0:0:0:0:
256,192,392260,1,0,0:0:0:0:
256,192,392301,1,8,0:0:0:0:
256,192,392384,1,8,0:0:0:0:
256,192,392468,1,0,0:0:0:0:
256,192,392551,1,0,0:0:0:0:
256,192,392593,1,0,0:0:0:0:
256,192,392634,1,8,0:0:0:0:
256,192,392718,1,8,0:0:0:0:
256,192,392801,1,0,0:0:0:0:
256,192,392884,1,0,0:0:0:0:
256,192,392968,1,8,0:0:0:0:
256,192,393009,1,8,0:0:0:0:
256,192,393051,1,0,0:0:0:0:
256,192,393093,1,0,0:0:0:0:
256,192,393134,1,0,0:0:0:0:
256,192,393301,1,0,0:0:0:0:
256,192,393384,1,0,0:0:0:0:
256,192,393468,1,8,0:0:0:0:
256,192,393509,1,8,0:0:0:0:
256,192,393551,1,8,0:0:0:0:
256,192,393593,1,8,0:0:0:0:
256,192,393634,1,0,0:0:0:0:
256,192,393718,1,0,0:0:0:0:
256,192,393801,1,0,0:0:0:0:
256,192,393968,1,8,0:0:0:0:
256,192,394009,1,8,0:0:0:0:
256,192,394051,1,8,0:0:0:0:
256,192,394093,1,8,0:0:0:0:
256,192,394134,1,0,0:0:0:0:
256,192,394218,1,0,0:0:0:0:
256,192,394259,1,0,0:0:0:0:
256,192,394301,1,8,0:0:0:0:
256,192,394384,1,8,0:0:0:0:
256,192,394468,1,0,0:0:0:0:
256,192,394551,1,0,0:0:0:0:
256,192,394634,1,8,0:0:0:0:
256,192,394718,1,8,0:0:0:0:
256,192,394801,1,0,0:0:0:0:
256,192,394884,1,0,0:0:0:0:
256,192,394926,1,0,0:0:0:0:
256,192,394968,1,8,0:0:0:0:
256,192,395051,1,8,0:0:0:0:
256,192,395134,1,0,0:0:0:0:
256,192,395218,1,8,0:0:0:0:
256,192,395301,1,8,0:0:0:0:
256,192,395384,1,8,0:0:0:0:
256,192,395468,1,0,0:0:0:0:
256,192,395551,1,8,0:0:0:0:
256,192,395593,1,8,0:0:0:0:
256,192,395634,1,0,0:0:0:0:
256,192,395718,1,8,0:0:0:0:
256,192,395801,1,0,0:0:0:0:
256,192,395884,1,0,0:0:0:0:
256,192,395968,1,8,0:0:0:0:
256,192,396051,1,8,0:0:0:0:
256,192,396134,1,0,0:0:0:0:
256,192,396218,1,8,0:0:0:0:
256,192,396259,1,8,0:0:0:0:
256,192,396301,1,0,0:0:0:0:
256,192,396384,1,8,0:0:0:0:
256,192,396468,1,0,0:0:0:0:
256,192,396551,1,0,0:0:0:0:
256,192,396634,1,8,0:0:0:0:
256,192,396676,1,8,0:0:0:0:
256,192,396718,1,8,0:0:0:0:
256,192,396759,1,8,0:0:0:0:
256,192,396801,1,0,0:0:0:0:
256,192,396884,1,0,0:0:0:0:
256,192,396926,1,0,0:0:0:0:
256,192,396968,1,8,0:0:0:0:
256,192,397051,1,8,0:0:0:0:
256,192,397134,1,0,0:0:0:0:
256,192,397218,1,0,0:0:0:0:
256,192,397301,1,8,0:0:0:0:
256,192,397384,1,8,0:0:0:0:
256,192,397468,1,0,0:0:0:0:
256,192,397551,1,0,0:0:0:0:
256,192,397593,1,0,0:0:0:0:
256,192,397634,1,8,0:0:0:0:
256,192,397718,1,8,0:0:0:0:
256,192,397801,1,0,0:0:0:0:
256,192,397884,1,0,0:0:0:0:
256,192,397968,1,8,0:0:0:0:
256,192,398051,1,8,0:0:0:0:
256,192,398134,1,0,0:0:0:0:
256,192,398218,1,0,0:0:0:0:
256,192,398301,1,8,0:0:0:0:
256,192,398343,1,8,0:0:0:0:
256,192,398384,1,0,0:0:0:0:
256,192,398426,1,0,0:0:0:0:
256,192,398468,1,0,0:0:0:0:
256,192,398634,1,0,0:0:0:0:
256,192,398718,1,0,0:0:0:0:
256,192,398801,1,8,0:0:0:0:
256,192,398843,1,8,0:0:0:0:
256,192,398884,1,8,0:0:0:0:
256,192,398926,1,8,0:0:0:0:
256,192,398968,1,0,0:0:0:0:
256,192,399051,1,0,0:0:0:0:
256,192,399134,1,8,0:0:0:0:
256,192,399176,1,8,0:0:0:0:
256,192,399218,1,8,0:0:0:0:
256,192,399259,1,8,0:0:0:0:
256,192,399301,1,0,0:0:0:0:
256,192,399343,1,0,0:0:0:0:
256,192,399384,1,0,0:0:0:0:
256,192,399468,1,4,0:0:0:0:
256,192,399551,1,0,0:0:0:0:
256,192,399593,1,0,0:0:0:0:
256,192,399635,1,8,0:0:0:0:
256,192,399718,1,8,0:0:0:0:
256,192,399801,1,0,0:0:0:0:
256,192,399885,1,0,0:0:0:0:
256,192,399968,1,8,0:0:0:0:
256,192,400051,1,8,0:0:0:0:
256,192,400135,1,0,0:0:0:0:
256,192,400218,1,0,0:0:0:0:
256,192,400260,1,0,0:0:0:0:
256,192,400301,1,8,0:0:0:0:
256,192,400385,1,8,0:0:0:0:
256,192,400468,1,0,0:0:0:0:
256,192,400551,1,0,0:0:0:0:
256,192,400635,1,8,0:0:0:0:
256,192,400718,1,8,0:0:0:0:
256,192,400801,1,0,0:0:0:0:
256,192,400885,1,8,0:0:0:0:
256,192,400926,1,8,0:0:0:0:
256,192,400968,1,0,0:0:0:0:
256,192,401051,1,8,0:0:0:0:
256,192,401135,1,0,0:0:0:0:
256,192,401218,1,0,0:0:0:0:
256,192,401301,1,8,0:0:0:0:
256,192,401385,1,8,0:0:0:0:
256,192,401468,1,0,0:0:0:0:
256,192,401551,1,8,0:0:0:0:
256,192,401593,1,8,0:0:0:0:
256,192,401635,1,0,0:0:0:0:
256,192,401718,1,8,0:0:0:0:
256,192,401801,1,0,0:0:0:0:
256,192,401885,1,8,0:0:0:0:
256,192,401968,1,0,0:0:0:0:
256,192,402010,1,0,0:0:0:0:
256,192,402051,1,8,0:0:0:0:
256,192,402093,1,8,0:0:0:0:
256,192,402135,1,0,0:0:0:0:
256,192,402218,1,0,0:0:0:0:
256,192,402260,1,0,0:0:0:0:
256,192,402301,1,8,0:0:0:0:
256,192,402385,1,8,0:0:0:0:
256,192,402468,1,0,0:0:0:0:
256,192,402551,1,0,0:0:0:0:
256,192,402635,1,8,0:0:0:0:
256,192,402718,1,8,0:0:0:0:
256,192,402801,1,0,0:0:0:0:
256,192,402885,1,0,0:0:0:0:
256,192,402926,1,0,0:0:0:0:
256,192,402968,1,8,0:0:0:0:
256,192,403051,1,8,0:0:0:0:
256,192,403135,1,0,0:0:0:0:
256,192,403218,1,0,0:0:0:0:
256,192,403301,1,8,0:0:0:0:
256,192,403385,1,8,0:0:0:0:
256,192,403468,1,0,0:0:0:0:
256,192,403718,1,0,0:0:0:0:
256,192,403801,1,8,0:0:0:0:
256,192,403843,1,8,0:0:0:0:
256,192,403884,1,8,0:0:0:0:
256,192,403926,1,8,0:0:0:0:
256,192,403968,1,0,0:0:0:0:
256,192,404134,1,0,0:0:0:0:
256,192,404218,1,0,0:0:0:0:
256,192,404301,1,8,0:0:0:0:
256,192,404384,1,0,0:0:0:0:
256,192,404468,1,8,0:0:0:0:
256,192,404509,1,8,0:0:0:0:
256,192,404551,1,8,0:0:0:0:
256,192,404593,1,8,0:0:0:0:
256,192,404634,1,0,0:0:0:0:
256,192,404676,1,0,0:0:0:0:
256,192,404718,1,0,0:0:0:0:
256,192,404801,1,0,0:0:0:0:
256,192,404885,1,0,0:0:0:0:
256,192,404926,1,0,0:0:0:0:
256,192,404968,1,8,0:0:0:0:
256,192,405051,1,8,0:0:0:0:
256,192,405135,1,0,0:0:0:0:
256,192,405218,1,0,0:0:0:0:
256,192,405301,1,8,0:0:0:0:
256,192,405385,1,8,0:0:0:0:
256,192,405468,1,0,0:0:0:0:
256,192,405551,1,0,0:0:0:0:
256,192,405593,1,0,0:0:0:0:
256,192,405635,1,8,0:0:0:0:
256,192,405718,1,8,0:0:0:0:
256,192,405801,1,0,0:0:0:0:
256,192,405885,1,8,0:0:0:0:
256,192,405968,1,0,0:0:0:0:
256,192,406051,1,8,0:0:0:0:
256,192,406135,1,0,0:0:0:0:
256,192,406218,1,8,0:0:0:0:
256,192,406260,1,8,0:0:0:0:
256,192,406301,1,0,0:0:0:0:
256,192,406385,1,8,0:0:0:0:
256,192,406468,1,0,0:0:0:0:
256,192,406551,1,0,0:0:0:0:
256,192,406635,1,8,0:0:0:0:
256,192,406718,1,8,0:0:0:0:
256,192,406801,1,0,0:0:0:0:
256,192,406885,1,8,0:0:0:0:
256,192,406926,1,8,0:0:0:0:
256,192,406968,1,0,0:0:0:0:
256,192,407051,1,8,0:0:0:0:
256,192,407135,1,0,0:0:0:0:
256,192,407218,1,0,0:0:0:0:
256,192,407301,1,8,0:0:0:0:
256,192,407343,1,8,0:0:0:0:
256,192,407385,1,8,0:0:0:0:
256,192,407426,1,8,0:0:0:0:
256,192,407468,1,0,0:0:0:0:
256,192,407510,1,0,0:0:0:0:
256,192,407551,1,0,0:0:0:0:
256,192,407593,1,0,0:0:0:0:
256,192,407635,1,8,0:0:0:0:
256,192,407676,1,8,0:0:0:0:
256,192,407718,1,0,0:0:0:0:
256,192,407760,1,0,0:0:0:0:
256,192,407801,1,8,0:0:0:0:
256,192,407843,1,0,0:0:0:0:
256,192,407885,1,0,0:0:0:0:
256,192,407926,1,0,0:0:0:0:
256,192,407968,1,8,0:0:0:0:
256,192,408010,1,8,0:0:0:0:
256,192,408051,1,8,0:0:0:0:
256,192,408093,1,8,0:0:0:0:
256,192,408135,1,0,0:0:0:0:
256,192,408176,1,0,0:0:0:0:
256,192,408218,1,0,0:0:0:0:
256,192,408260,1,0,0:0:0:0:
256,192,408301,1,8,0:0:0:0:
256,192,408343,1,8,0:0:0:0:
256,192,408385,1,0,0:0:0:0:
256,192,408426,1,8,0:0:0:0:
256,192,408468,1,0,0:0:0:0:
256,192,408510,1,0,0:0:0:0:
256,192,408551,1,0,0:0:0:0:
256,192,408593,1,0,0:0:0:0:
256,192,408635,1,8,0:0:0:0:
256,192,408676,1,8,0:0:0:0:
256,192,408718,1,8,0:0:0:0:
256,192,408760,1,8,0:0:0:0:
256,192,408801,1,0,0:0:0:0:
256,192,408843,1,0,0:0:0:0:
256,192,408885,1,0,0:0:0:0:
256,192,408926,1,0,0:0:0:0:
256,192,408968,1,0,0:0:0:0:
256,192,409010,1,0,0:0:0:0:
256,192,409051,1,0,0:0:0:0:
256,192,409093,1,0,0:0:0:0:
256,192,409135,1,0,0:0:0:0:
256,192,409176,1,0,0:0:0:0:
256,192,409218,1,0,0:0:0:0:
256,192,409260,1,0,0:0:0:0:
256,192,409301,1,0,0:0:0:0:
256,192,409343,1,0,0:0:0:0:
256,192,409385,1,0,0:0:0:0:
256,192,409426,1,0,0:0:0:0:
256,192,409468,1,8,0:0:0:0:
256,192,409510,1,8,0:0:0:0:
256,192,409551,1,8,0:0:0:0:
256,192,409593,1,8,0:0:0:0:
256,192,409635,1,8,0:0:0:0:
256,192,409676,1,8,0:0:0:0:
256,192,409718,1,8,0:0:0:0:
256,192,409760,1,8,0:0:0:0:
256,192,409801,1,8,0:0:0:0:
256,192,409843,1,8,0:0:0:0:
256,192,409885,1,8,0:0:0:0:
256,192,409926,1,8,0:0:0:0:
256,192,409968,1,8,0:0:0:0:
256,192,410010,1,8,0:0:0:0:
256,192,410051,1,8,0:0:0:0:
256,192,410134,1,4,0:0:0:0:
256,192,410212,1,0,0:0:0:0:
256,192,410252,1,0,0:0:0:0:
256,192,410291,1,8,0:0:0:0:
256,192,410370,1,8,0:0:0:0:
256,192,410449,1,0,0:0:0:0:
256,192,410528,1,0,0:0:0:0:
256,192,410568,1,0,0:0:0:0:
256,192,410607,1,8,0:0:0:0:
256,192,410686,1,8,0:0:0:0:
256,192,410765,1,0,0:0:0:0:
256,192,410844,1,0,0:0:0:0:
256,192,410884,1,0,0:0:0:0:
256,192,410923,1,8,0:0:0:0:
256,192,411002,1,8,0:0:0:0:
256,192,411081,1,0,0:0:0:0:
256,192,411120,1,0,0:0:0:0:
256,192,411160,1,8,0:0:0:0:
256,192,411239,1,0,0:0:0:0:
256,192,411278,1,0,0:0:0:0:
256,192,411318,1,8,0:0:0:0:
256,192,411357,1,8,0:0:0:0:
256,192,411397,1,0,0:0:0:0:
256,192,411476,1,0,0:0:0:0:
256,192,411515,1,0,0:0:0:0:
256,192,411555,1,8,0:0:0:0:
256,192,411634,1,8,0:0:0:0:
256,192,411712,1,0,0:0:0:0:
256,192,411791,1,0,0:0:0:0:
256,192,411831,1,0,0:0:0:0:
256,192,411870,1,8,0:0:0:0:
256,192,411949,1,8,0:0:0:0:
256,192,412028,1,0,0:0:0:0:
256,192,412107,1,0,0:0:0:0:
256,192,412147,1,0,0:0:0:0:
256,192,412186,1,8,0:0:0:0:
256,192,412265,1,8,0:0:0:0:
256,192,412344,1,0,0:0:0:0:
256,192,412423,1,0,0:0:0:0:
256,192,412462,1,0,0:0:0:0:
256,192,412502,1,8,0:0:0:0:
256,192,412541,1,8,0:0:0:0:
256,192,412581,1,8,0:0:0:0:
256,192,412620,1,8,0:0:0:0:
256,192,412660,1,0,0:0:0:0:
256,192,412739,1,0,0:0:0:0:
256,192,412778,1,0,0:0:0:0:
256,192,412818,1,8,0:0:0:0:
256,192,412897,1,8,0:0:0:0:
256,192,412936,1,8,0:0:0:0:
256,192,412976,1,0,0:0:0:0:
256,192,413055,1,0,0:0:0:0:
256,192,413134,1,8,0:0:0:0:
256,192,413212,1,8,0:0:0:0:
256,192,413252,1,8,0:0:0:0:
256,192,413291,1,0,0:0:0:0:
256,192,413370,1,0,0:0:0:0:
256,192,413410,1,0,0:0:0:0:
256,192,413449,1,8,0:0:0:0:
256,192,413528,1,8,0:0:0:0:
256,192,413607,1,0,0:0:0:0:
256,192,413686,1,0,0:0:0:0:
256,192,413726,1,0,0:0:0:0:
256,192,413765,1,8,0:0:0:0:
256,192,413844,1,8,0:0:0:0:
256,192,413884,1,8,0:0:0:0:
256,192,413923,1,0,0:0:0:0:
256,192,414002,1,8,0:0:0:0:
256,192,414041,1,8,0:0:0:0:
256,192,414081,1,0,0:0:0:0:
256,192,414160,1,0,0:0:0:0:
256,192,414239,1,8,0:0:0:0:
256,192,414278,1,8,0:0:0:0:
256,192,414318,1,8,0:0:0:0:
256,192,414357,1,8,0:0:0:0:
256,192,414397,1,0,0:0:0:0:
256,192,414476,1,0,0:0:0:0:
256,192,414555,1,0,0:0:0:0:
256,192,414634,1,8,0:0:0:0:
256,192,414673,1,8,0:0:0:0:
256,192,414712,1,0,0:0:0:0:
256,192,414791,1,0,0:0:0:0:
256,192,414870,1,8,0:0:0:0:
256,192,414910,1,8,0:0:0:0:
256,192,414949,1,8,0:0:0:0:
256,192,414989,1,8,0:0:0:0:
256,192,415028,1,0,0:0:0:0:
256,192,415068,1,0,0:0:0:0:
256,192,415107,1,0,0:0:0:0:
256,192,415186,1,4,0:0:0:0:
256,192,415265,1,0,0:0:0:0:
256,192,415305,1,0,0:0:0:0:
256,192,415344,1,8,0:0:0:0:
256,192,415423,1,8,0:0:0:0:
256,192,415502,1,0,0:0:0:0:
256,192,415581,1,0,0:0:0:0:
256,192,415620,1,0,0:0:0:0:
256,192,415660,1,8,0:0:0:0:
256,192,415739,1,8,0:0:0:0:
256,192,415818,1,0,0:0:0:0:
256,192,415897,1,0,0:0:0:0:
256,192,415936,1,0,0:0:0:0:
256,192,415976,1,8,0:0:0:0:
256,192,416055,1,8,0:0:0:0:
256,192,416134,1,0,0:0:0:0:
256,192,416173,1,0,0:0:0:0:
256,192,416212,1,8,0:0:0:0:
256,192,416291,1,0,0:0:0:0:
256,192,416331,1,0,0:0:0:0:
256,192,416370,1,8,0:0:0:0:
256,192,416410,1,8,0:0:0:0:
256,192,416449,1,0,0:0:0:0:
256,192,416528,1,0,0:0:0:0:
256,192,416568,1,0,0:0:0:0:
256,192,416607,1,8,0:0:0:0:
256,192,416686,1,8,0:0:0:0:
256,192,416765,1,0,0:0:0:0:
256,192,416844,1,0,0:0:0:0:
256,192,416884,1,0,0:0:0:0:
256,192,416923,1,8,0:0:0:0:
256,192,417002,1,8,0:0:0:0:
256,192,417081,1,0,0:0:0:0:
256,192,417160,1,0,0:0:0:0:
256,192,417199,1,0,0:0:0:0:
256,192,417239,1,8,0:0:0:0:
256,192,417318,1,8,0:0:0:0:
256,192,417397,1,0,0:0:0:0:
256,192,417476,1,0,0:0:0:0:
256,192,417515,1,0,0:0:0:0:
256,192,417555,1,8,0:0:0:0:
256,192,417594,1,8,0:0:0:0:
256,192,417634,1,8,0:0:0:0:
256,192,417673,1,8,0:0:0:0:
256,192,417712,1,0,0:0:0:0:
256,192,417791,1,0,0:0:0:0:
256,192,417831,1,0,0:0:0:0:
256,192,417870,1,8,0:0:0:0:
256,192,417949,1,8,0:0:0:0:
256,192,418028,1,0,0:0:0:0:
256,192,418107,1,0,0:0:0:0:
256,192,418147,1,0,0:0:0:0:
256,192,418186,1,8,0:0:0:0:
256,192,418265,1,8,0:0:0:0:
256,192,418344,1,0,0:0:0:0:
256,192,418423,1,0,0:0:0:0:
256,192,418462,1,0,0:0:0:0:
256,192,418502,1,8,0:0:0:0:
256,192,418581,1,8,0:0:0:0:
256,192,418660,1,0,0:0:0:0:
256,192,418739,1,0,0:0:0:0:
256,192,418778,1,0,0:0:0:0:
256,192,418818,1,8,0:0:0:0:
256,192,418897,1,0,0:0:0:0:
256,192,418936,1,0,0:0:0:0:
256,192,418976,1,8,0:0:0:0:
256,192,419015,1,8,0:0:0:0:
256,192,419055,1,8,0:0:0:0:
256,192,419094,1,8,0:0:0:0:
256,192,419134,1,0,0:0:0:0:
256,192,419212,1,8,0:0:0:0:
256,192,419252,1,8,0:0:0:0:
256,192,419291,1,8,0:0:0:0:
256,192,419331,1,8,0:0:0:0:
256,192,419370,1,0,0:0:0:0:
256,192,419449,1,8,0:0:0:0:
256,192,419489,1,8,0:0:0:0:
256,192,419528,1,8,0:0:0:0:
256,192,419568,1,8,0:0:0:0:
256,192,419607,1,0,0:0:0:0:
256,192,419686,1,0,0:0:0:0:
256,192,419726,1,0,0:0:0:0:
256,192,419765,1,8,0:0:0:0:
256,192,419844,1,0,0:0:0:0:
256,192,419923,1,8,0:0:0:0:
256,192,419962,1,8,0:0:0:0:
256,192,420002,1,8,0:0:0:0:
256,192,420041,1,8,0:0:0:0:
256,192,420081,1,8,0:0:0:0:
256,192,420120,1,8,0:0:0:0:
256,192,420160,1,8,0:0:0:0:
256,192,420239,1,4,0:0:0:0:
256,192,420318,1,8,0:0:0:0:
256,192,420357,1,8,0:0:0:0:
256,192,420397,1,0,0:0:0:0:
256,192,420476,1,0,0:0:0:0:
256,192,420555,1,8,0:0:0:0:
256,192,420634,1,0,0:0:0:0:
256,192,420673,1,0,0:0:0:0:
256,192,420712,1,8,0:0:0:0:
256,192,420791,1,8,0:0:0:0:
256,192,420870,1,0,0:0:0:0:
256,192,420949,1,8,0:0:0:0:
256,192,420989,1,8,0:0:0:0:
256,192,421028,1,0,0:0:0:0:
256,192,421107,1,0,0:0:0:0:
256,192,421186,1,8,0:0:0:0:
256,192,421226,1,8,0:0:0:0:
256,192,421265,1,8,0:0:0:0:
256,192,421305,1,8,0:0:0:0:
256,192,421344,1,0,0:0:0:0:
256,192,421423,1,8,0:0:0:0:
256,192,421462,1,8,0:0:0:0:
256,192,421502,1,0,0:0:0:0:
256,192,421581,1,8,0:0:0:0:
256,192,421620,1,8,0:0:0:0:
256,192,421660,1,0,0:0:0:0:
256,192,421739,1,0,0:0:0:0:
256,192,421818,1,8,0:0:0:0:
256,192,421897,1,0,0:0:0:0:
256,192,421936,1,0,0:0:0:0:
256,192,421976,1,8,0:0:0:0:
256,192,422055,1,8,0:0:0:0:
256,192,422134,1,0,0:0:0:0:
256,192,422212,1,8,0:0:0:0:
256,192,422252,1,8,0:0:0:0:
256,192,422291,1,0,0:0:0:0:
256,192,422370,1,0,0:0:0:0:
256,192,422449,1,8,0:0:0:0:
256,192,422489,1,8,0:0:0:0:
256,192,422528,1,0,0:0:0:0:
256,192,422568,1,0,0:0:0:0:
256,192,422607,1,8,0:0:0:0:
256,192,422647,1,8,0:0:0:0:
256,192,422686,1,8,0:0:0:0:
256,192,422726,1,8,0:0:0:0:
256,192,422765,1,0,0:0:0:0:
256,192,422844,1,8,0:0:0:0:
256,192,422884,1,8,0:0:0:0:
256,192,422923,1,0,0:0:0:0:
256,192,423002,1,8,0:0:0:0:
256,192,423081,1,0,0:0:0:0:
256,192,423160,1,0,0:0:0:0:
256,192,423199,1,0,0:0:0:0:
256,192,423239,1,8,0:0:0:0:
256,192,423318,1,0,0:0:0:0:
256,192,423397,1,8,0:0:0:0:
256,192,423436,1,8,0:0:0:0:
256,192,423476,1,0,0:0:0:0:
256,192,423555,1,8,0:0:0:0:
256,192,423634,1,0,0:0:0:0:
256,192,423673,1,0,0:0:0:0:
256,192,423712,1,8,0:0:0:0:
256,192,423752,1,8,0:0:0:0:
256,192,423791,1,0,0:0:0:0:
256,192,423870,1,8,0:0:0:0:
256,192,423910,1,8,0:0:0:0:
256,192,423949,1,8,0:0:0:0:
256,192,423989,1,8,0:0:0:0:
256,192,424028,1,0,0:0:0:0:
256,192,424068,1,0,0:0:0:0:
256,192,424107,1,8,0:0:0:0:
256,192,424147,1,8,0:0:0:0:
256,192,424186,1,0,0:0:0:0:
256,192,424265,1,0,0:0:0:0:
256,192,424344,1,8,0:0:0:0:
256,192,424384,1,8,0:0:0:0:
256,192,424423,1,8,0:0:0:0:
256,192,424462,1,8,0:0:0:0:
256,192,424502,1,0,0:0:0:0:
256,192,424581,1,0,0:0:0:0:
256,192,424660,1,0,0:0:0:0:
256,192,424699,1,0,0:0:0:0:
256,192,424739,1,8,0:0:0:0:
256,192,424778,1,8,0:0:0:0:
256,192,424818,1,0,0:0:0:0:
256,192,424897,1,0,0:0:0:0:
256,192,424976,1,8,0:0:0:0:
256,192,425015,1,8,0:0:0:0:
256,192,425055,1,8,0:0:0:0:
256,192,425094,1,8,0:0:0:0:
256,192,425134,1,0,0:0:0:0:
256,192,425173,1,0,0:0:0:0:
256,192,425212,1,0,0:0:0:0:
256,192,425291,1,4,0:0:0:0:
256,192,425370,1,0,0:0:0:0:
256,192,425410,1,0,0:0:0:0:
256,192,425449,1,8,0:0:0:0:
256,192,425528,1,8,0:0:0:0:
256,192,425607,1,0,0:0:0:0:
256,192,425686,1,0,0:0:0:0:
256,192,425726,1,0,0:0:0:0:
256,192,425765,1,8,0:0:0:0:
256,192,425805,1,0,0:0:0:0:
256,192,425844,1,8,0:0:0:0:
256,192,425884,1,8,0:0:0:0:
256,192,425923,1,0,0:0:0:0:
256,192,426002,1,0,0:0:0:0:
256,192,426041,1,0,0:0:0:0:
256,192,426081,1,8,0:0:0:0:
256,192,426160,1,8,0:0:0:0:
256,192,426239,1,0,0:0:0:0:
256,192,426278,1,0,0:0:0:0:
256,192,426318,1,0,0:0:0:0:
256,192,426357,1,0,0:0:0:0:
256,192,426397,1,8,0:0:0:0:
256,192,426476,1,8,0:0:0:0:
256,192,426555,1,4,0:0:0:0:
256,192,426634,1,0,0:0:0:0:
256,192,426673,1,0,0:0:0:0:
256,192,426712,1,8,0:0:0:0:
256,192,426791,1,8,0:0:0:0:
256,192,426870,1,0,0:0:0:0:
256,192,426949,1,0,0:0:0:0:
256,192,426989,1,0,0:0:0:0:
256,192,427028,1,8,0:0:0:0:
256,192,427068,1,0,0:0:0:0:
256,192,427107,1,8,0:0:0:0:
256,192,427147,1,8,0:0:0:0:
256,192,427186,1,0,0:0:0:0:
256,192,427265,1,0,0:0:0:0:
256,192,427305,1,0,0:0:0:0:
256,192,427344,1,8,0:0:0:0:
256,192,427423,1,0,0:0:0:0:
256,192,427502,1,0,0:0:0:0:
256,192,427541,1,0,0:0:0:0:
256,192,427581,1,0,0:0:0:0:
256,192,427620,1,0,0:0:0:0:
256,192,427660,1,8,0:0:0:0:
256,192,427699,1,8,0:0:0:0:
256,192,427739,1,8,0:0:0:0:
256,192,427778,1,8,0:0:0:0:
256,192,427818,1,0,0:0:0:0:
256,192,427857,1,0,0:0:0:0:
256,192,427897,1,0,0:0:0:0:
256,192,427936,1,0,0:0:0:0:
256,192,427976,1,8,0:0:0:0:
256,192,428015,1,8,0:0:0:0:
256,192,428055,1,0,0:0:0:0:
256,192,428094,1,0,0:0:0:0:
256,192,428134,1,8,0:0:0:0:
256,192,428173,1,0,0:0:0:0:
256,192,428212,1,8,0:0:0:0:
256,192,428252,1,8,0:0:0:0:
256,192,428291,1,0,0:0:0:0:
256,192,428331,1,0,0:0:0:0:
256,192,428370,1,0,0:0:0:0:
256,192,428410,1,0,0:0:0:0:
256,192,428449,1,8,0:0:0:0:
256,192,428489,1,8,0:0:0:0:
256,192,428528,1,0,0:0:0:0:
256,192,428568,1,0,0:0:0:0:
256,192,428607,1,8,0:0:0:0:
256,192,428647,1,0,0:0:0:0:
256,192,428686,1,8,0:0:0:0:
256,192,428726,1,8,0:0:0:0:
256,192,428765,1,0,0:0:0:0:
256,192,428805,1,0,0:0:0:0:
256,192,428844,1,0,0:0:0:0:
256,192,428884,1,0,0:0:0:0:
256,192,428923,1,8,0:0:0:0:
256,192,428962,1,8,0:0:0:0:
256,192,429002,1,8,0:0:0:0:
256,192,429041,1,8,0:0:0:0:
256,192,429081,1,0,0:0:0:0:
256,192,429120,1,0,0:0:0:0:
256,192,429160,1,0,0:0:0:0:
256,192,429199,1,0,0:0:0:0:
256,192,429239,1,0,0:0:0:0:
256,192,429278,1,0,0:0:0:0:
256,192,429318,1,0,0:0:0:0:
256,192,429357,1,0,0:0:0:0:
256,192,429397,1,8,0:0:0:0:
256,192,429436,1,8,0:0:0:0:
256,192,429476,1,0,0:0:0:0:
256,192,429515,1,0,0:0:0:0:
256,192,429555,1,8,0:0:0:0:
256,192,429594,1,0,0:0:0:0:
256,192,429633,1,0,0:0:0:0:
256,192,429673,1,0,0:0:0:0:
256,192,429712,1,8,0:0:0:0:
256,192,429752,1,8,0:0:0:0:
256,192,429791,1,8,0:0:0:0:
256,192,429831,1,8,0:0:0:0:
256,192,429870,1,8,0:0:0:0:
256,192,429910,1,8,0:0:0:0:
256,192,429949,1,8,0:0:0:0:
256,192,429989,1,8,0:0:0:0:
256,192,430028,1,8,0:0:0:0:
256,192,430068,1,8,0:0:0:0:
256,192,430107,1,8,0:0:0:0:
256,192,430147,1,8,0:0:0:0:
256,192,430186,1,8,0:0:0:0:
256,192,430226,1,8,0:0:0:0:
256,192,430265,1,8,0:0:0:0:
256,192,430305,1,8,0:0:0:0:
256,192,430344,12,0,430818,0:0:0:0:
256,192,430976,5,12,0:0:0:0:
256,192,431291,1,0,0:0:0:0:
256,192,431449,1,0,0:0:0:0:
256,192,431607,1,8,0:0:0:0:
256,192,432081,1,0,0:0:0:0:
256,192,432239,1,8,0:0:0:0:
256,192,432555,1,0,0:0:0:0:
256,192,432712,1,0,0:0:0:0:
256,192,432870,1,8,0:0:0:0:
256,192,433344,1,8,0:0:0:0:
256,192,433502,1,8,0:0:0:0:
256,192,434133,1,0,0:0:0:0:
256,192,434449,1,8,0:0:0:0:
256,192,434765,1,0,0:0:0:0:
256,192,435081,1,8,0:0:0:0:
256,192,435397,1,0,0:0:0:0:
256,192,436028,1,8,0:0:0:0:
256,192,436344,1,8,0:0:0:0:
256,192,436660,1,0,0:0:0:0:
256,192,436818,1,8,0:0:0:0:
256,192,436976,1,0,0:0:0:0:
256,192,437133,1,0,0:0:0:0:
256,192,437291,1,8,0:0:0:0:
256,192,437528,1,0,0:0:0:0:
256,192,437765,1,8,0:0:0:0:
256,192,437923,1,0,0:0:0:0:
256,192,438555,1,8,0:0:0:0:
256,192,439186,1,0,0:0:0:0:
256,192,439818,1,8,0:0:0:0:
256,192,440133,1,8,0:0:0:0:
256,192,440449,1,4,0:0:0:0:
256,192,440923,1,0,0:0:0:0:
256,192,441081,1,8,0:0:0:0:
256,192,441397,1,8,0:0:0:0:
256,192,441712,1,0,0:0:0:0:
256,192,442028,1,8,0:0:0:0:
256,192,442186,1,0,0:0:0:0:
256,192,442502,1,0,0:0:0:0:
256,192,442660,1,8,0:0:0:0:
256,192,442818,1,8,0:0:0:0:
256,192,442976,1,0,0:0:0:0:
256,192,443133,1,0,0:0:0:0:
256,192,443291,1,8,0:0:0:0:
256,192,443449,1,0,0:0:0:0:
256,192,443528,1,0,0:0:0:0:
256,192,443607,1,0,0:0:0:0:
256,192,443765,1,0,0:0:0:0:
256,192,443923,1,8,0:0:0:0:
256,192,444081,1,0,0:0:0:0:
256,192,444397,1,0,0:0:0:0:
256,192,444555,1,8,0:0:0:0:
256,192,444712,1,8,0:0:0:0:
256,192,444791,1,8,0:0:0:0:
256,192,444870,1,0,0:0:0:0:
256,192,445028,1,0,0:0:0:0:
256,192,445186,1,8,0:0:0:0:
256,192,445344,1,0,0:0:0:0:
256,192,445423,1,0,0:0:0:0:
256,192,445502,1,0,0:0:0:0:
256,192,446133,1,8,0:0:0:0:
256,192,446449,1,0,0:0:0:0:
256,192,446607,1,0,0:0:0:0:
256,192,446765,1,8,0:0:0:0:
256,192,447239,1,0,0:0:0:0:
256,192,447397,1,8,0:0:0:0:
256,192,447712,1,0,0:0:0:0:
256,192,448028,1,8,0:0:0:0:
256,192,448344,1,0,0:0:0:0:
256,192,448502,1,8,0:0:0:0:
256,192,448818,1,0,0:0:0:0:
256,192,448976,1,8,0:0:0:0:
256,192,449291,1,0,0:0:0:0:
256,192,449923,1,8,0:0:0:0:
256,192,450239,1,8,0:0:0:0:
256,192,450555,1,4,0:0:0:0:
256,192,451186,1,8,0:0:0:0:
256,192,451501,1,0,0:0:0:0:
256,192,451659,1,0,0:0:0:0:
256,192,451817,1,8,0:0:0:0:
256,192,452291,1,0,0:0:0:0:
256,192,452449,1,8,0:0:0:0:
256,192,452765,1,0,0:0:0:0:
256,192,452922,1,0,0:0:0:0:
256,192,453080,1,8,0:0:0:0:
256,192,453554,1,8,0:0:0:0:
256,192,453712,1,8,0:0:0:0:
256,192,454343,1,0,0:0:0:0:
256,192,454975,1,0,0:0:0:0:
256,192,455291,1,8,0:0:0:0:
256,192,455607,1,0,0:0:0:0:
256,192,456238,1,8,0:0:0:0:
256,192,456554,1,8,0:0:0:0:
256,192,456870,1,0,0:0:0:0:
256,192,457028,1,8,0:0:0:0:
256,192,457186,1,0,0:0:0:0:
256,192,457343,1,0,0:0:0:0:
256,192,457501,1,8,0:0:0:0:
256,192,457738,1,0,0:0:0:0:
256,192,457975,1,8,0:0:0:0:
256,192,458133,1,0,0:0:0:0:
256,192,458765,1,8,0:0:0:0:
256,192,459396,1,0,0:0:0:0:
256,192,460028,1,8,0:0:0:0:
256,192,460343,1,8,0:0:0:0:
256,192,460659,1,4,0:0:0:0:
256,192,461291,1,8,0:0:0:0:
256,192,461607,1,8,0:0:0:0:
256,192,461922,1,0,0:0:0:0:
256,192,462238,1,8,0:0:0:0:
256,192,462396,1,0,0:0:0:0:
256,192,462712,1,0,0:0:0:0:
256,192,462870,1,8,0:0:0:0:
256,192,463028,1,8,0:0:0:0:
256,192,463186,1,0,0:0:0:0:
256,192,463343,1,0,0:0:0:0:
256,192,463501,1,8,0:0:0:0:
256,192,463659,1,0,0:0:0:0:
256,192,463817,1,0,0:0:0:0:
256,192,463975,1,0,0:0:0:0:
256,192,464133,1,8,0:0:0:0:
256,192,464291,1,0,0:0:0:0:
256,192,464607,1,0,0:0:0:0:
256,192,464765,1,8,0:0:0:0:
256,192,464922,1,8,0:0:0:0:
256,192,465080,1,0,0:0:0:0:
256,192,465238,1,0,0:0:0:0:
256,192,465396,1,8,0:0:0:0:
256,192,465554,1,0,0:0:0:0:
256,192,465712,1,0,0:0:0:0:
256,192,466343,1,8,0:0:0:0:
256,192,466659,1,0,0:0:0:0:
256,192,466817,1,0,0:0:0:0:
256,192,466975,1,8,0:0:0:0:
256,192,467449,1,0,0:0:0:0:
256,192,467607,1,8,0:0:0:0:
256,192,467922,1,0,0:0:0:0:
256,192,468238,1,8,0:0:0:0:
256,192,468554,1,0,0:0:0:0:
256,192,468712,1,8,0:0:0:0:
256,192,469028,1,0,0:0:0:0:
256,192,469186,1,8,0:0:0:0:
256,192,469501,1,0,0:0:0:0:
256,192,470133,1,8,0:0:0:0:
256,192,470449,1,8,0:0:0:0:
256,192,470765,1,4,0:0:0:0:
256,192,471397,1,0,0:0:0:0:
256,192,471712,1,0,0:0:0:0:
256,192,471870,1,0,0:0:0:0:
256,192,472028,1,8,0:0:0:0:
256,192,472660,1,8,0:0:0:0:
256,192,472976,1,0,0:0:0:0:
256,192,473133,1,0,0:0:0:0:
256,192,473291,1,8,0:0:0:0:
256,192,473765,1,8,0:0:0:0:
256,192,473923,1,8,0:0:0:0:
256,192,474555,1,0,0:0:0:0:
256,192,475186,1,8,0:0:0:0:
256,192,475502,1,8,0:0:0:0:
256,192,475818,1,0,0:0:0:0:
256,192,476449,1,8,0:0:0:0:
256,192,476765,1,8,0:0:0:0:
256,192,477081,1,0,0:0:0:0:
256,192,477239,1,8,0:0:0:0:
256,192,477397,1,0,0:0:0:0:
256,192,477555,1,0,0:0:0:0:
256,192,477712,1,8,0:0:0:0:
256,192,477949,1,0,0:0:0:0:
256,192,478186,1,8,0:0:0:0:
256,192,478344,1,0,0:0:0:0:
256,192,478976,1,0,0:0:0:0:
256,192,479607,1,8,0:0:0:0:
256,192,480239,1,0,0:0:0:0:
256,192,480555,1,8,0:0:0:0:
256,192,480870,1,4,0:0:0:0:
256,192,481502,1,0,0:0:0:0:
256,192,481818,1,8,0:0:0:0:
256,192,482133,1,0,0:0:0:0:
256,192,482607,1,0,0:0:0:0:
256,192,482765,1,8,0:0:0:0:
256,192,483081,1,0,0:0:0:0:
256,192,483239,1,0,0:0:0:0:
256,192,483397,1,8,0:0:0:0:
256,192,483555,1,8,0:0:0:0:
256,192,483712,1,0,0:0:0:0:
256,192,483870,1,8,0:0:0:0:
256,192,484028,1,8,0:0:0:0:
256,192,484186,1,0,0:0:0:0:
256,192,484344,1,0,0:0:0:0:
256,192,484502,1,8,0:0:0:0:
256,192,484818,1,8,0:0:0:0:
256,192,484976,1,0,0:0:0:0:
256,192,485133,1,8,0:0:0:0:
256,192,485291,1,8,0:0:0:0:
256,192,485449,1,0,0:0:0:0:
256,192,485607,1,0,0:0:0:0:
256,192,485765,1,8,0:0:0:0:
256,192,485923,1,8,0:0:0:0:
256,192,486555,1,8,0:0:0:0:
256,192,486870,1,0,0:0:0:0:
256,192,487028,1,0,0:0:0:0:
256,192,487186,1,8,0:0:0:0:
256,192,487818,1,8,0:0:0:0:
256,192,488133,1,0,0:0:0:0:
256,192,488449,1,8,0:0:0:0:
256,192,488923,1,8,0:0:0:0:
256,192,489081,1,0,0:0:0:0:
256,192,489397,1,8,0:0:0:0:
256,192,489712,1,0,0:0:0:0:
256,192,490344,12,0,490976,0:0:0:0:
