osu file format v14

[General]
AudioFilename: audio.mp3
AudioLeadIn: 0
PreviewTime: 231097
Countdown: 0
SampleSet: None
StackLeniency: 0.7
Mode: 2
LetterboxInBreaks: 0
WidescreenStoryboard: 1

[Editor]
DistanceSpacing: 2
BeatDivisor: 8
GridSize: 4
TimelineZoom: 3.799999

[Metadata]
Title:Scattered Faith
TitleUnicode:Scattered Faith
Artist:Kurokotei
ArtistUnicode:黒皇帝
Creator:Astreachan
Version:Nervous Apocaslip [AR10]
Source:東方星蓮船 ~ Undefined Fantastic Object.
Tags:touhou speedcore hijiri byakuren emotional skyscraper cosmic mind undefined fantastic object dialgadu77 marathon
BeatmapID:2289046
BeatmapSetID:805205

[Difficulty]
HPDrainRate:4
CircleSize:4
OverallDifficulty:10
ApproachRate:10
SliderMultiplier:1
SliderTickRate:1

[Events]
//Background and Video events
0,0,"bg.jpg",0,0
//Break Periods
2,36494,41544
2,42494,47544
2,179042,184285
2,185235,190479
//Storyboard Layer 0 (Background)
//Storyboard Layer 1 (Fail)
//Storyboard Layer 2 (Pass)
//Storyboard Layer 3 (Foreground)
//Storyboard Layer 4 (Overlay)
//Storyboard Sound Samples

[TimingPoints]
294,750,4,1,0,100,1,0
36247,-12.5,4,1,66,100,0,0
36340,-100,4,1,66,100,0,0
42106,-12.5,4,1,66,100,0,0
42481,-100,4,1,66,100,0,0
48106,-12.5,4,1,66,100,0,0
60106,-100,4,1,66,100,0,0
65356,-12.5,4,1,66,100,0,0
66294,375,4,1,66,100,1,0
79559,-50,4,1,66,100,0,0
79794,187.5,4,1,66,100,1,0
115981,-133.333333333333,4,1,66,100,0,0
120247,-114.285714285714,4,1,66,100,0,0
123387,-108.108108108108,4,1,66,100,0,0
126247,-12.5,4,1,66,100,0,0
128637,-206.451612903226,4,1,66,100,0,0
129294,774.193548387097,4,1,66,100,1,0
129294,-50,4,1,66,100,0,0
129390,-100,4,1,66,100,0,0
153874,-75,4,1,66,100,0,0
202132,-72.463768115942,4,1,66,100,0,0
202261,-70.4225352112676,4,1,66,100,0,0
202390,-68.0272108843537,4,1,66,100,0,0
202519,-65.7894736842105,4,1,66,100,0,0
202648,-63.6942675159236,4,1,66,100,0,0
202777,-61.7283950617284,4,1,66,100,0,0
202906,-59.8802395209581,4,1,66,100,0,0
203035,-58.1395348837209,4,1,66,100,0,0
203164,-56.4971751412429,4,1,66,100,0,0
203293,-54.9450549450549,4,1,66,100,0,0
203423,-53.1914893617021,4,1,66,100,0,0
203552,-51.5463917525773,4,1,66,100,0,0
203616,387.096774193548,4,1,66,100,1,0
205164,352.941176470588,4,1,66,100,1,0
205164,-103.949044585987,4,1,66,100,0,0
206575,324.324324324324,4,1,66,100,1,0
206575,-107.506053268765,4,1,66,100,0,0
207872,300,4,1,66,100,1,0
207872,-110.726643598616,4,1,66,100,0,0
209072,279.06976744186,4,1,66,100,1,0
209072,-113.656387665198,4,1,66,100,0,0
210188,260.869565217391,4,1,66,100,1,0
210188,-116.332982086407,4,1,66,100,0,0
211231,244.897959183673,4,1,66,100,1,0
211231,-118.787878787879,4,1,66,100,0,0
212210,230.769230769231,4,1,66,100,1,0
212210,-121.047526673133,4,1,66,100,0,0
213133,218.181818181818,4,1,66,100,1,0
213133,-123.134328358209,4,1,66,100,0,0
214005,206.896551724138,4,1,66,100,1,0
214005,-125.067385444744,4,1,66,100,0,0
214832,196.72131147541,4,1,66,100,1,0
214832,-126.86308492201,4,1,66,100,0,0
215618,187.5,4,1,66,100,1,0
215618,-128.535564853557,4,1,66,100,0,0
216368,179.10447761194,4,1,66,100,1,0
216368,-130.097087378641,4,1,66,100,0,0
217084,171.428571428571,4,1,66,100,1,0
217084,-131.558339859045,4,1,66,100,0,0
217769,164.383561643836,4,1,66,100,1,0
217769,-132.928679817906,4,1,66,100,0,0
218426,157.894736842105,4,1,66,100,1,0
218426,-134.216335540839,4,1,66,100,0,0
219057,151.898734177215,4,1,66,100,1,0
219057,-135.428571428571,4,1,66,100,0,0
219664,146.341463414634,4,1,66,100,1,0
219664,-136.571825121443,4,1,66,100,0,0
220249,141.176470588235,4,1,66,100,1,0
220249,-137.651821862348,4,1,66,100,0,0
220813,136.363636363636,4,1,66,100,1,0
220813,-138.673670387393,4,1,66,100,0,0
221358,131.868131868132,4,1,66,100,1,0
221358,-139.641943734015,4,1,66,100,0,0
221885,127.659574468085,4,1,66,100,1,0
221885,-140.560747663551,4,1,66,100,0,0
222395,123.711340206186,4,1,66,100,1,0
222395,-141.433778857837,4,1,66,100,0,0
222889,120,4,1,66,100,1,0
222889,-142.26437462952,4,1,66,100,0,0
223369,116.504854368932,4,1,66,100,1,0
223369,-143.055555555555,4,1,66,100,0,0
227097,666.666666666667,4,1,66,100,1,0
227097,-25,4,1,66,100,0,0
227138,-100,4,1,66,100,0,0
227263,-100,4,1,3,100,0,0
232430,166.666666666667,4,1,3,100,1,1
232513,-100,4,1,66,100,0,1
232680,-100,4,1,3,100,0,1
232846,-100,4,1,66,100,0,1
296430,387.096774193548,4,1,66,100,1,0
296430,-43.0555563927469,4,1,66,100,0,0
297107,-133.333333333333,4,1,66,50,0,0
321204,352.941176470588,4,1,66,100,1,0
332498,342.857142857143,4,1,66,100,1,0
343469,333.333333333333,4,1,66,100,1,0
362135,666.666666666667,4,1,66,100,1,0
362135,-50,4,1,66,100,0,0
362301,-100,4,1,66,100,0,0
366135,-100,4,1,3,100,0,0
367468,166.666666666667,4,1,3,100,1,1
367551,-100,4,1,66,100,0,1
367718,-100,4,1,3,100,0,1
367884,-100,4,1,66,100,0,1
410134,157.894736842105,4,1,66,100,1,1
430344,-100,4,1,66,100,0,0
450712,-114.285714285714,4,1,66,100,0,0
470923,-133.333333333333,4,1,66,100,0,0
481028,-160,4,1,66,100,0,0
487976,-160,4,1,0,100,0,0
491607,-160,4,2,0,10,0,0
495416,78.9473684210526,4,2,0,10,1,0
495416,-25,4,2,0,10,0,0

[Colours]
Combo1 : 192,192,192
Combo2 : 255,0,128
Combo3 : 64,0,128
Combo4 : 255,0,0

[HitObjects]
240,184,294,5,2,2:2:0:0:
176,168,1794,2,2,P|120:152|76:88,2,100,2|2|2,2:0|2:0|2:0,2:0:0:0:
332,240,4606,5,2,2:0:0:0:
368,224,4700,1,2,2:0:0:0:
424,200,4794,2,2,L|464:200,2,25,2|2|2,2:0|2:0|2:0,2:0:0:0:
292,196,5356,1,2,2:0:0:0:
340,204,5544,1,2,2:2:0:0:
292,208,5731,1,2,2:2:0:0:
240,208,5919,1,2,2:2:0:0:
160,208,6106,1,2,2:0:0:0:
104,180,6294,1,2,2:0:0:0:
264,188,7794,6,2,L|372:188,2,100,2|2|2,2:0|2:0|2:0,2:0:0:0:
168,212,10606,5,2,2:0:0:0:
132,200,10700,1,2,2:0:0:0:
100,172,10794,2,2,L|52:172,2,25,2|2|2,2:0|2:0|2:0,2:0:0:0:
208,168,11356,2,2,L|252:168,2,25,2|2|2,2:0|2:0|2:0,2:0:0:0:
104,168,11919,2,2,L|64:168,1,25,2|2,2:0|2:0,2:0:0:0:
164,172,12294,5,2,2:0:0:0:
248,176,13044,2,0,L|316:176,1,50,0|0,2:0|2:0,2:0:0:0:
192,172,13794,2,2,L|72:172,2,100,2|2|2,2:0|2:0|2:0,2:0:0:0:
344,160,15669,2,0,L|408:160,1,50,0|0,2:0|2:0,2:0:0:0:
312,160,16419,2,0,L|244:160,1,50,0|2,2:0|2:0,2:0:0:0:
148,164,17169,6,2,L|108:164,2,25,2|2|2,2:0|2:0|2:0,2:0:0:0:
232,164,17731,2,2,L|272:164,1,25,2|2,2:0|2:0,2:0:0:0:
352,164,18106,2,2,L|396:164,1,25,2|2,2:0|2:0,2:0:0:0:
252,188,18856,1,0,2:0:0:0:
232,180,18950,1,0,2:0:0:0:
216,168,19044,1,0,2:0:0:0:
352,200,19606,5,2,2:0:0:0:
368,188,19700,1,2,2:0:0:0:
380,168,19794,1,2,2:0:0:0:
296,136,20544,6,2,L|192:136,1,100,2|2,2:0|2:0,2:0:0:0:
248,160,22044,1,2,2:0:0:0:
332,212,22606,5,2,2:0:0:0:
360,200,22700,1,2,2:0:0:0:
384,176,22794,2,2,L|424:176,2,25,2|2|2,2:0|2:0|2:0,2:0:0:0:
272,180,23356,2,2,L|240:180,2,25,2|2|2,2:0|2:0|2:0,2:0:0:0:
356,184,23919,1,2,2:0:0:0:
168,180,24294,6,0,L|104:180,2,50,0|0|8,0:0|0:0|0:0,0:0:0:0:
232,156,25419,2,0,L|280:156,1,25,0|8,0:0|0:0,0:0:0:0:
184,156,25794,2,0,L|144:156,1,25,0|8,0:0|0:0,0:0:0:0:
257,156,26169,2,0,L|328:156,1,50,0|8,0:0|0:0,0:0:0:0:
256,164,26919,1,0,0:0:0:0:
120,160,27294,6,0,L|184:160,2,50,0|0|8,0:0|0:0|0:0,0:0:0:0:
264,156,28419,2,0,L|308:156,1,25,0|8,0:0|0:0,0:0:0:0:
400,160,28794,2,0,L|352:160,1,25,0|8,0:0|0:0,0:0:0:0:
272,160,29169,2,0,L|200:160,1,50,0|8,0:0|0:0,0:0:0:0:
120,156,29919,1,0,0:0:0:0:
236,160,30294,6,0,L|304:160,2,50,0|0|8,0:0|0:0|0:0,0:0:0:0:
140,156,31419,2,0,L|96:156,1,25,0|8,0:0|0:0,0:0:0:0:
184,168,31794,2,0,L|224:168,1,25,0|8,0:0|0:0,0:0:0:0:
292,168,32169,1,0,0:0:0:0:
368,180,32544,2,0,L|300:180,1,50,8|0,0:0|0:0,0:0:0:0:
176,164,33294,6,0,L|112:164,2,50,0|0|8,0:0|0:0|0:0,0:0:0:0:
252,168,34419,2,0,L|296:168,1,25,0|8,0:0|0:0,0:0:0:0:
368,176,34794,2,0,L|408:176,1,25,0|8,0:0|0:0,0:0:0:0:
296,176,35169,2,0,L|232:176,2,50,0|8|0,0:0|0:0|0:0,0:0:0:0:
324,180,36012,1,0,0:0:0:0:
336,172,36106,1,0,0:0:0:0:
352,160,36200,1,0,0:0:0:0:
440,148,36294,1,4,0:0:0:0:
72,176,42294,5,4,0:0:0:0:
472,192,48294,5,4,0:0:0:0:
40,192,51294,5,4,0:0:0:0:
472,176,54294,5,4,0:0:0:0:
188,160,55794,5,4,0:0:0:0:
316,164,57294,5,4,0:0:0:0:
184,160,58044,5,4,0:0:0:0:
44,160,58794,5,4,0:0:0:0:
180,164,59169,5,4,0:0:0:0:
308,160,59544,5,4,0:0:0:0:
456,160,59919,5,4,0:0:0:0:
256,192,60294,12,0,65169,0:0:0:0:
244,260,65544,6,0,B|124:92|124:92|224:88|224:88|140:248|140:248|288:-88,1,800,0|8,0:0|0:3,0:0:0:0:
252,176,66669,1,8,0:0:0:0:
124,176,67231,2,0,L|192:176,1,50,0|8,0:0|0:0,0:0:0:0:
304,188,67794,6,0,L|372:188,2,50,0|0|8,0:0|0:0|0:0,0:0:0:0:
160,160,68731,2,0,L|228:160,1,50,0|8,0:0|0:0,0:0:0:0:
356,168,69294,6,0,L|420:168,2,50,0|0|8,0:0|0:0|0:0,0:0:0:0:
224,156,70044,1,0,0:0:0:0:
140,148,70231,2,0,L|76:148,1,50,0|8,0:0|0:0,0:0:0:0:
248,168,70794,6,0,L|320:168,2,50,0|0|8,0:0|0:0|0:0,0:0:0:0:
128,144,71544,2,0,L|64:144,2,50,0|0|8,0:0|0:0|0:0,0:0:0:0:
284,188,72294,6,0,L|392:188,2,100,0|8|0,0:0|0:0|0:0,0:0:0:0:
172,168,73419,1,8,0:0:0:0:
272,168,73794,6,0,L|388:168,1,100,0|8,0:0|0:0,0:0:0:0:
236,160,74544,2,0,L|168:160,1,50
296,160,74919,2,0,L|368:160,1,50,8|0,0:0|0:0,0:0:0:0:
428,156,75200,1,0,0:0:0:0:
366,160,75294,6,0,L|296:160,2,50,0|0|8,0:0|0:0|0:0,0:0:0:0:
240,160,75856,2,0,L|176:160,1,50
132,160,76231,2,0,L|64:160,1,50,0|8,0:0|0:0,0:0:0:0:
160,156,76606,2,0,L|196:156,2,25
68,152,76981,6,0,L|132:152,1,50,0|8,0:0|0:0,0:0:0:0:
204,152,77356,1,0,0:0:0:0:
276,156,77544,2,8,L|320:156,2,25,8|8|8,0:3|0:3|0:3,0:3:0:0:
120,156,77919,2,8,L|88:156,2,25,8|8|8,0:3|0:3|0:3,0:3:0:0:
288,160,78294,5,8,0:3:0:0:
372,152,78481,1,8,0:3:0:0:
440,156,78669,2,8,L|368:156,1,50,8|8,0:3|0:3,0:3:0:0:
296,160,79044,1,8,0:3:0:0:
280,160,79137,1,8,0:3:0:0:
256,160,79231,1,8,0:3:0:0:
240,160,79325,1,8,0:3:0:0:
216,160,79419,1,8,0:3:0:0:
180,160,79512,1,8,0:3:0:0:
156,160,79606,1,8,0:3:0:0:
131,160,79700,1,8,0:3:0:0:
102,160,79794,5,12,0:3:0:0:
260,172,79981,1,8,0:0:0:0:
384,168,80169,1,0,0:0:0:0:
248,164,80356,1,8,0:0:0:0:
376,156,80544,1,0,0:0:0:0:
248,156,80731,1,8,0:0:0:0:
96,152,80919,1,0,0:0:0:0:
196,156,81106,2,8,L|264:156,2,50
56,156,81481,5,0,0:0:0:0:
200,156,81669,1,8,0:0:0:0:
340,152,81856,1,0,0:0:0:0:
176,148,82044,1,8,0:0:0:0:
308,144,82231,1,0,0:0:0:0:
196,136,82419,2,8,L|136:136,1,50
72,132,82606,2,8,L|8:132,1,50
156,128,82794,5,8,0:0:0:0:
268,128,82981,1,0,0:0:0:0:
416,128,83169,1,8,0:0:0:0:
296,120,83356,1,0,0:0:0:0:
172,116,83544,1,8,0:0:0:0:
52,112,83731,1,0,0:0:0:0:
172,116,83919,1,8,0:0:0:0:
288,120,84106,2,8,L|352:120,2,50
148,120,84481,5,0,0:0:0:0:
28,124,84669,1,8,0:0:0:0:
164,124,84856,1,0,0:0:0:0:
296,128,85044,1,8,0:0:0:0:
412,128,85231,2,8,L|352:128,1,50
260,128,85419,2,8,L|144:128,2,100
392,128,85981,5,0,0:0:0:0:
256,120,86169,1,8,0:0:0:0:
116,116,86356,1,0,0:0:0:0:
248,112,86544,1,8,0:0:0:0:
108,96,86731,1,0,0:0:0:0:
256,96,86919,1,8,0:0:0:0:
392,100,87106,2,8,L|448:100,2,50
244,96,87481,5,0,0:0:0:0:
368,88,87669,1,8,0:0:0:0:
248,92,87856,1,0,0:0:0:0:
116,92,88044,1,8,0:0:0:0:
232,92,88231,1,0,0:0:0:0:
332,88,88419,2,8,L|392:88,4,50
232,84,88981,5,0,0:0:0:0:
132,80,89169,1,8,0:0:0:0:
248,80,89356,1,0,0:0:0:0:
348,72,89544,1,8,0:0:0:0:
452,68,89731,1,0,0:0:0:0:
324,72,89919,1,8,0:0:0:0:
184,76,90106,2,8,L|112:76,2,50
304,80,90481,5,0,0:0:0:0:
428,76,90669,1,8,0:0:0:0:
308,84,90856,1,0,0:0:0:0:
196,80,91044,2,8,L|128:80,3,50
96,76,91419,2,8,L|40:76,3,50,10|8|8|8,0:0|0:0|0:0|0:0,0:0:0:0:
128,72,91794,1,2,0:2:0:0:
244,72,91981,5,8,0:0:0:0:
344,72,92169,1,0,0:0:0:0:
444,68,92356,1,8,0:0:0:0:
336,68,92544,1,0,0:0:0:0:
216,60,92731,1,8,0:0:0:0:
104,64,92919,1,0,0:0:0:0:
216,72,93106,2,8,L|276:72,2,50
84,80,93481,5,0,0:0:0:0:
196,80,93669,1,8,0:0:0:0:
312,84,93856,1,0,0:0:0:0:
432,80,94044,1,8,0:0:0:0:
312,76,94231,1,0,0:0:0:0:
208,84,94419,2,8,L|152:84,4,50
312,88,94981,5,0,0:0:0:0:
428,80,95169,1,8,0:0:0:0:
312,84,95356,1,0,0:0:0:0:
184,84,95544,1,8,0:0:0:0:
64,80,95731,1,0,0:0:0:0:
200,76,95919,1,8,0:0:0:0:
72,72,96106,1,8,0:0:0:0:
152,60,96200,1,8,0:0:0:0:
236,48,96294,5,8,0:0:0:0:
360,52,96481,1,0,0:0:0:0:
456,52,96669,1,8,0:0:0:0:
328,56,96856,1,0,0:0:0:0:
188,60,97044,1,8,0:0:0:0:
108,60,97137,1,8,0:0:0:0:
32,56,97231,2,8,L|152:56,3,100,8|8|8|8,0:0|0:0|0:0|0:2,0:0:0:0:
260,64,97981,5,0,0:0:0:0:
380,64,98169,1,8,0:0:0:0:
248,64,98356,1,0,0:0:0:0:
116,64,98544,1,8,0:0:0:0:
256,64,98731,1,0,0:0:0:0:
112,72,98919,1,8,0:0:0:0:
252,76,99106,1,8,0:0:0:0:
308,48,99200,1,8,0:0:0:0:
360,44,99294,5,8,0:0:0:0:
240,52,99481,1,0,0:0:0:0:
132,64,99669,1,8,0:0:0:0:
260,60,99856,1,0,0:0:0:0:
400,52,100044,1,8,0:0:0:0:
508,48,100231,1,0,0:0:0:0:
364,48,100419,1,8,0:0:0:0:
280,44,100512,1,8,0:0:0:0:
188,40,100606,5,8,0:0:0:0:
256,192,100794,12,0,103606,0:0:0:0:
128,184,103794,6,0,L|232:184,2,100,8|8|0,0:3|0:0|0:0,0:0:0:0:
56,184,104262,1,0,0:0:0:0:
128,184,104356,2,0,L|236:184,2,100,8|2|8,0:0|0:1|0:0,0:0:0:0:
48,184,104825,1,0,0:0:0:0:
128,184,104919,6,0,L|240:184,1,100,0|8,0:0|0:0,0:0:0:0:
268,192,105200,1,0,0:0:0:0:
308,188,105294,2,0,L|416:188,1,100,2|8,0:0|0:0,0:0:0:0:
308,188,105669,2,0,L|252:188,2,50,0|0|8,0:0|0:0|0:0,0:0:0:0:
372,192,105950,2,0,L|120:192,1,250
56,192,106606,1,0,0:0:0:0:
116,188,106700,1,0,0:0:0:0:
184,180,106794,6,0,L|240:180,3,50,2|0|8|0,0:0|0:0|0:0|0:0,0:0:0:0:
296,176,107169,2,0,L|400:176,1,100,0|8,0:0|0:0,0:0:0:0:
328,176,107450,2,0,L|252:176,4,50,0|2|0|8|0,0:0|0:0|0:0|0:0|0:0,0:0:0:0:
272,176,107919,6,0,L|160:176,2,100,0|8|2,0:0|0:0|0:0,0:0:0:0:
344,176,108387,2,0,L|404:176,1,50,0|8,0:0|0:0,0:0:0:0:
460,184,108575,2,0,L|404:184,1,50
340,184,108762,1,0,0:0:0:0:
269,183,108856,1,8,0:0:0:0:
136,184,108950,2,0,P|84:140|188:36,1,250
372,52,109606,6,0,L|432:52,1,50
348,48,109794,2,0,L|284:48,1,50,2|0,0:3|0:0,0:0:0:0:
240,48,109981,2,0,L|188:48,1,50,8|0,0:0|0:0,0:0:0:0:
128,48,110169,2,0,L|232:48,1,100,0|8,0:0|0:0,0:0:0:0:
344,60,110544,6,0,L|396:60,1,50,2|0,0:0|0:0,0:0:0:0:
456,56,110731,2,0,L|400:56,1,50,8|0,0:0|0:0,0:0:0:0:
340,56,110919,2,0,L|280:56,1,50
208,72,111106,2,0,L|88:72,1,100,8|2,0:0|0:0,0:0:0:0:
172,72,111387,1,0,0:0:0:0:
208,72,111481,1,8,0:0:0:0:
240,72,111575,1,0,0:0:0:0:
272,72,111669,1,0,0:0:0:0:
312,76,111762,1,0,0:0:0:0:
348,80,111856,1,8,0:0:0:0:
412,84,111950,2,0,L|140:84,1,250,4|0,0:0|0:0,0:0:0:0:
92,88,112606,6,0,L|40:88,1,50,2|0,0:0|0:0,0:0:0:0:
92,88,112794,2,0,L|168:88,1,50
200,92,112981,2,0,L|260:92,1,50,8|0,0:0|0:0,0:0:0:0:
288,96,113169,1,0,0:0:0:0:
352,100,113262,2,0,L|468:100,1,100
396,96,113544,2,0,L|332:96,1,50,2|0,0:0|0:0,0:0:0:0:
316,96,113731,2,0,L|260:96,1,50,8|0,0:0|0:0,0:0:0:0:
224,96,113919,2,0,L|152:96,1,50
224,96,114106,2,0,L|292:96,1,50,8|0,0:0|0:0,0:0:0:0:
354,307,114294,5,4,0:3:0:0:
402,297,114387,1,4,0:3:0:0:
441,266,114481,1,4,0:3:0:0:
461,221,114575,1,4,0:3:0:0:
459,171,114669,1,4,0:3:0:0:
435,128,114762,1,4,0:3:0:0:
394,101,114856,1,4,0:3:0:0:
345,95,114950,1,4,0:3:0:0:
354,307,115044,5,4,0:3:0:0:
402,297,115137,1,4,0:3:0:0:
441,266,115231,1,4,0:3:0:0:
461,221,115325,1,4,0:3:0:0:
459,171,115419,1,4,0:3:0:0:
435,128,115512,1,4,0:3:0:0:
394,101,115606,1,4,0:3:0:0:
345,95,115700,1,4,0:3:0:0:
235,154,115794,5,2,0:2:0:0:
80,112,116169,5,8,0:0:0:0:
336,176,116731,2,0,L|256:176,1,75.0000028610231,0|8,0:0|0:0,0:0:0:0:
96,148,117294,6,0,L|248:148,1,150.000005722046,2|8,0:2|0:0,0:0:0:0:
256,184,118231,2,0,L|340:184,1,75.0000028610231,0|8,0:0|0:0,0:0:0:0:
156,236,118794,6,0,P|124:192|176:124,1,150.000005722046,2|8,0:2|0:0,0:0:0:0:
316,152,119731,2,0,L|408:152,1,75.0000028610231,0|8,0:0|0:0,0:0:0:0:
188,103,120294,6,8,P|181:139|253:255,1,175.00000166893,12|8,0:0|0:0,0:0:0:0:
367,67,121044,2,8,P|403:113|359:213,1,175.00000166893
82,74,121794,6,8,P|79:132|143:237,1,175.00000166893,12|8,0:0|0:0,0:0:0:0:
364,77,122544,2,8,P|401:152|355:232,1,175.00000166893
136,181,123294,5,12,0:0:0:0:
207,179,123481,1,8,0:0:0:0:
312,172,123669,1,12,0:0:0:0:
385,168,123856,1,8,0:0:0:0:
256,168,124044,1,12,0:0:0:0:
184,160,124231,1,8,0:0:0:0:
112,136,124419,1,8,0:0:0:0:
38,108,124606,1,8,0:0:0:0:
123,111,124794,5,8,0:0:0:0:
151,101,124887,1,8,0:0:0:0:
187,90,124981,1,8,0:0:0:0:
226,73,125075,1,8,0:0:0:0:
255,64,125169,1,8,0:0:0:0:
280,58,125262,1,8,0:0:0:0:
302,56,125356,1,8,0:0:0:0:
326,54,125450,1,8,0:0:0:0:
420,112,125544,5,8,0:0:0:0:
392,102,125637,1,8,0:0:0:0:
356,91,125731,1,8,0:0:0:0:
317,74,125825,1,8,0:0:0:0:
288,65,125919,1,8,0:0:0:0:
263,59,126012,1,8,0:0:0:0:
241,57,126106,1,8,0:0:0:0:
186,54,126200,1,8,0:0:0:0:
256,192,126387,12,0,128637,0:0:0:0:
264,168,128731,5,4,0:0:0:0:
121,171,129294,6,0,L|253:171,1,100,4|0,2:0|2:0,2:0:0:0:
298,177,129874,2,0,L|340:179,1,25,8|0,2:1|2:0,2:0:0:0:
245,168,130455,1,0,2:0:0:0:
137,164,130842,6,0,L|70:165,1,50,8|0,2:1|2:0,2:0:0:0:
170,175,131616,2,0,L|215:175,1,25,8|0,2:1|2:0,2:0:0:0:
323,186,132003,1,0,2:0:0:0:
363,177,132197,1,0,2:0:0:0:
421,177,132390,6,0,L|475:177,1,50,8|0,2:1|2:0,2:0:0:0:
388,174,132971,2,0,L|320:176,1,50,8|0,2:1|2:0,2:0:0:0:
245,166,133552,1,0,2:0:0:0:
205,165,133745,1,0,2:0:0:0:
84,164,133939,6,0,L|27:164,1,50,8|0,2:1|2:0,2:0:0:0:
178,172,134713,2,0,L|234:172,1,50,8|0,2:1|2:0,2:0:0:0:
348,195,135487,6,0,L|404:195,1,50,8|0,2:1|2:0,2:0:0:0:
292,196,136068,2,0,L|231:195,1,50,8|0,2:1|2:0,2:0:0:0:
165,178,136648,1,0,2:0:0:0:
254,189,137035,6,0,L|325:188,1,50,8|0,2:1|2:0,2:0:0:0:
371,189,137810,2,0,L|421:187,1,50,8|0,2:1|2:0,2:0:0:0:
371,189,138390,1,0,2:0:0:0:
274,180,138584,6,0,L|211:180,1,50,8|0,2:1|2:0,2:0:0:0:
109,178,139358,2,0,L|166:178,1,50,8|0,2:1|2:0,2:0:0:0:
262,181,140132,2,0,L|202:181,1,50,8|0,2:1|2:0,2:0:0:0:
236,176,140906,2,0,L|306:176,1,50,8|0,2:1|2:0,2:0:0:0:
394,169,141681,6,0,L|451:168,1,50,8|0,2:1|2:0,2:0:0:0:
308,168,142261,2,0,L|246:170,1,50,8|0,2:1|2:0,2:0:0:0:
196,164,142842,1,0,2:0:0:0:
148,160,143035,1,0,2:0:0:0:
40,152,143229,6,0,L|94:152,1,50,8|0,2:1|2:0,2:0:0:0:
238,148,143810,1,0,2:0:0:0:
319,147,144003,2,0,L|373:147,1,50,8|0,2:1|2:0,2:0:0:0:
448,147,144584,1,0,2:0:0:0:
330,149,144777,6,0,L|274:150,1,50,8|0,2:1|2:0,2:0:0:0:
140,152,145358,2,0,L|86:153,1,50,8|0,2:1|2:0,2:0:0:0:
237,156,145939,1,0,2:0:0:0:
280,149,146132,1,0,2:0:0:0:
349,150,146326,2,0,L|412:150,1,50,8|0,2:1|2:0,2:0:0:0:
311,143,147100,2,0,L|241:144,1,50,8|0,2:1|2:0,2:0:0:0:
190,129,147874,6,0,L|252:130,1,50,8|0,2:1|2:0,2:0:0:0:
388,132,148455,2,0,L|438:132,1,50,8|0,2:1|2:0,2:0:0:0:
291,145,149035,1,0,2:0:0:0:
256,140,149229,1,0,2:0:0:0:
197,140,149423,2,0,L|133:140,1,50,8|0,2:1|2:0,2:0:0:0:
74,141,150003,1,0,2:0:0:0:
197,140,150197,6,0,L|252:139,1,50,8|0,2:1|2:0,2:0:0:0:
320,136,150777,1,0,2:0:0:0:
132,136,150971,2,0,L|82:136,3,50,8|0|8|0,2:1|2:0|2:1|2:0,2:0:0:0:
247,156,152519,5,8,2:1:0:0:
222,155,152906,1,8,2:1:0:0:
103,157,153294,5,8,2:1:0:0:
141,148,153681,1,8,2:1:0:0:
337,169,154068,6,0,L|412:169,2,66.6666666666667,2|0|8,0:2|0:0|0:0,0:0:0:0:
224,152,155229,2,0,L|162:152,1,33.3333333333333,0|8,0:0|0:0,0:0:0:0:
277,157,155616,2,0,L|322:158,1,33.3333333333333,0|8,0:0|0:0,0:0:0:0:
412,162,156003,2,0,L|318:162,1,66.6666666666667,0|8,0:0|0:0,0:0:0:0:
204,162,156777,5,0,0:0:0:0:
289,173,157164,2,0,L|379:174,2,66.6666666666667,0|0|8,0:0|0:0|0:0,0:0:0:0:
197,185,158326,2,0,L|138:186,1,33.3333333333333,0|8,0:0|0:0,0:0:0:0:
53,178,158713,2,0,L|94:177,1,33.3333333333333,0|8,0:0|0:0,0:0:0:0:
174,174,159100,1,0,0:0:0:0:
264,182,159487,1,8,0:0:0:0:
384,178,159874,5,0,0:0:0:0:
261,167,160261,2,0,L|170:169,2,66.6666666666667,0|0|8,0:0|0:0|0:0,0:0:0:0:
329,173,161423,2,0,L|376:174,1,33.3333333333333,0|8,0:0|0:0,0:0:0:0:
248,164,161810,2,0,L|200:164,1,33.3333333333333,0|8,0:0|0:0,0:0:0:0:
128,160,162197,1,0,0:0:0:0:
235,187,162584,2,0,L|313:186,1,66.6666666666667,8|0,0:0|0:0,0:0:0:0:
415,191,163358,6,0,L|338:191,2,66.6666666666667,0|0|8,0:0|0:0|0:0,0:0:0:0:
247,177,164519,2,0,L|188:177,1,33.3333333333333,0|8,0:0|0:0,0:0:0:0:
80,176,164906,2,0,L|37:175,1,33.3333333333333,0|8,0:0|0:0,0:0:0:0:
213,177,165294,2,0,L|294:177,2,66.6666666666667,0|8|0,0:0|0:0|0:0,0:0:0:0:
285,175,166455,6,0,L|365:175,1,66.6666666666667
415,171,167229,2,0,L|333:171,1,66.6666666666667,8|0,0:0|0:0,0:0:0:0:
248,164,167810,2,0,L|198:163,1,33.3333333333333,8|0,0:0|0:0,0:0:0:0:
76,160,168197,2,0,L|122:160,1,33.3333333333333,8|0,0:0|0:0,0:0:0:0:
346,182,168777,2,0,L|417:182,1,66.6666666666667,8|0,0:0|0:0,0:0:0:0:
253,178,169552,6,0,L|167:177,1,66.6666666666667
282,172,170326,2,0,L|353:172,1,66.6666666666667,8|0,0:0|0:0,0:0:0:0:
439,174,170906,1,8,0:0:0:0:
316,165,171100,2,0,L|260:166,2,33.3333333333333,0|8|0,0:0|0:0|0:0,0:0:0:0:
439,167,171874,2,0,L|358:168,1,66.6666666666667,8|0,0:0|0:0,0:0:0:0:
196,154,172648,6,0,L|106:153,1,66.6666666666667
250,154,173423,2,0,L|325:153,1,66.6666666666667,8|0,0:0|0:0,0:0:0:0:
406,157,174003,1,8,0:0:0:0:
293,154,174197,2,0,L|245:154,2,33.3333333333333,0|8|0,0:0|0:0|0:0,0:0:0:0:
253,166,174971,2,0,L|162:166,1,66.6666666666667,8|0,0:0|0:0,0:0:0:0:
311,170,175745,6,0,L|396:170,1,66.6666666666667
286,159,176519,2,0,L|191:159,1,66.6666666666667,8|0,0:0|0:0,0:0:0:0:
133,156,177100,1,8,0:0:0:0:
296,152,177294,2,0,L|346:151,2,33.3333333333333,0|8|0,0:0|0:0|0:0,0:0:0:0:
332,188,178068,1,8,0:0:0:0:
360,180,178261,5,8,0:0:0:0:
388,160,178455,1,8,0:0:0:0:
384,96,178552,1,8,0:0:0:0:
356,76,178648,1,8,0:0:0:0:
324,56,178745,1,8,0:0:0:0:
220,52,178842,5,12,0:0:0:0:
48,188,185035,5,4,0:0:0:0:
464,176,191229,5,4,0:0:0:0:
44,176,194326,5,4,0:0:0:0:
464,200,197423,5,4,0:0:0:0:
44,176,198971,5,4,0:0:0:0:
256,192,200519,12,0,201681,0:0:0:0:
24,24,202068,5,2,0:3:0:0:
64,72,202197,1,2,0:3:0:0:
100,116,202326,1,2,0:3:0:0:
140,156,202455,1,2,0:3:0:0:
184,176,202584,1,2,0:3:0:0:
240,184,202713,1,2,0:3:0:0:
296,180,202842,1,2,0:3:0:0:
360,176,202971,1,2,0:3:0:0:
416,160,203100,1,2,0:3:0:0:
444,108,203229,1,2,0:3:0:0:
444,72,203358,1,2,0:3:0:0:
408,60,203487,1,2,0:3:0:0:
312,40,203616,6,0,L|208:40,1,100,4|0,0:0|0:0,0:0:0:0:
172,48,204390,2,0,L|68:48,1,100,8|0,0:0|0:0,0:0:0:0:
144,72,205164,6,0,L|248:72,1,96.2009816064211,4|0,0:0|0:0,0:0:0:0:
340,68,205869,2,0,L|448:68,1,96.2009816064211,8|0,0:0|0:0,0:0:0:0:
344,60,206575,6,0,L|236:60,1,93.0180207512111,4|0,0:0|0:0,0:0:0:0:
156,72,207223,2,0,L|44:72,1,93.0180207512111,8|0,0:0|0:0,0:0:0:0:
148,76,207872,6,0,L|256:76,1,90.312497696057,4|0,0:0|0:0,0:0:0:0:
328,88,208472,2,0,L|432:88,1,90.312497696057,8|0,0:0|0:0,0:0:0:0:
352,96,209072,6,0,L|252:96,1,87.9844963842126,4|0,0:0|0:0,0:0:0:0:
148,100,209630,2,0,L|48:100,1,87.9844963842126,8|0,0:0|0:0,0:0:0:0:
160,120,210188,6,0,L|260:120,1,85.9601428305633,4|0,0:0|0:0,0:0:0:0:
360,120,210709,2,0,L|464:120,1,85.9601428305633,8|0,0:0|0:0,0:0:0:0:
328,80,211231,6,0,L|236:80,1,84.1836726501652,4|0,0:0|0:0,0:0:0:0:
144,72,211720,2,0,L|44:72,1,84.1836726501652,8|0,0:0|0:0,0:0:0:0:
148,172,212210,6,0,L|244:172,1,82.6121816537702,4|0,0:0|0:0,0:0:0:0:
348,180,212671,2,0,L|440:180,1,82.6121816537702,8|0,0:0|0:0,0:0:0:0:
308,72,213133,6,0,L|212:72,1,81.2121196349594,4|0,0:0|0:0,0:0:0:0:
120,64,213569,2,0,L|32:64,1,81.2121196349594,8|0,0:0|0:0,0:0:0:0:
140,164,214005,6,0,L|228:164,1,79.9568982345454,4|0,0:0|0:0,0:0:0:0:
360,168,214418,2,0,L|444:168,1,79.9568982345454,8|0,0:0|0:0,0:0:0:0:
336,76,214832,6,0,L|256:76,1,78.8251378772372,4|0,0:0|0:0,0:0:0:0:
160,76,215225,2,0,L|68:76,1,78.8251378772372,8|0,0:0|0:0,0:0:0:0:
168,176,215618,6,0,L|252:176,1,77.7994771185655,4|0,0:0|0:0,0:0:0:0:
376,184,215993,2,0,L|460:184,1,77.7994771185655,8|0,0:0|0:0,0:0:0:0:
336,76,216368,6,0,L|256:76,1,76.8656691034751,4|0,0:0|0:0,0:0:0:0:
140,76,216726,2,0,L|64:76,1,76.8656691034751,8|0,0:0|0:0,0:0:0:0:
148,188,217084,6,0,L|236:188,1,76.0119079445875,4|0,0:0|0:0,0:0:0:0:
368,200,217426,2,0,L|452:200,1,76.0119079445875,8|0,0:0|0:0,0:0:0:0:
348,56,217769,6,0,L|260:56,1,75.2283101615843,4|0,0:0|0:0,0:0:0:0:
176,64,218097,2,0,L|96:64,1,75.2283101615843,8|0,0:0|0:0,0:0:0:0:
176,200,218426,6,0,L|268:200,1,74.5065769653076,4|0,0:0|0:0,0:0:0:0:
364,216,218741,2,0,L|440:216,1,74.5065769653076,8|0,0:0|0:0,0:0:0:0:
336,64,219057,6,0,L|256:64,1,73.8396612587512,4|0,0:0|0:0,0:0:0:0:
148,64,219360,2,0,L|64:64,1,73.8396612587512,8|0,0:0|0:0,0:0:0:0:
160,184,219664,6,0,L|240:184,1,73.2215457884371,4|0,0:0|0:0,0:0:0:0:
368,188,219956,2,0,L|448:188,1,73.2215457884371,8|0,0:0|0:0,0:0:0:0:
344,56,220249,6,0,L|268:56,1,72.6470571933734,4|0,0:0|0:0,0:0:0:0:
148,56,220531,2,0,L|68:56,1,72.6470571933734,8|0,0:0|0:0,0:0:0:0:
172,180,220813,6,0,L|252:180,1,72.1117397463369,4|0,0:0|0:0,0:0:0:0:
360,188,221085,2,0,L|444:188,1,72.1117397463369,8|0,0:0|0:0,0:0:0:0:
336,64,221358,6,0,L|260:64,1,71.6117249338748,4|0,0:0|0:0,0:0:0:0:
156,64,221621,2,0,L|84:64,1,71.6117249338748,8|0,0:0|0:0,0:0:0:0:
188,216,221885,6,0,L|264:216,1,71.143618248312,4|0,0:0|0:0,0:0:0:0:
376,220,222140,2,0,L|448:220,1,71.143618248312,8|0,0:0|0:0,0:0:0:0:
344,64,222395,6,0,L|268:64,1,70.7044683549603,4|0,0:0|0:0,0:0:0:0:
160,64,222642,2,0,L|84:64,1,70.7044683549603,8|0,0:0|0:0,0:0:0:0:
176,232,222889,6,0,L|248:232,1,70.2916670867549,4|0,0:0|0:0,0:0:0:0:
372,232,223129,2,0,L|448:232,1,70.2916670867549,8|0,0:0|0:0,0:0:0:0:
352,64,223369,6,0,L|280:64,1,69.9029117929058,4|0,0:0|0:0,0:0:0:0:
180,64,223602,2,0,L|100:64,1,69.9029117929058,8|0,0:0|0:0,0:0:0:0:
184,232,223835,6,0,L|264:232,1,69.9029117929058,4|0,0:0|0:0,0:0:0:0:
368,232,224068,2,0,L|448:232,1,69.9029117929058,8|0,0:0|0:0,0:0:0:0:
280,224,224301,6,0,L|204:224,2,69.9029117929058,4|0|8,0:0|0:0|0:0,0:0:0:0:
400,224,224650,2,0,L|472:224,2,69.9029117929058,0|4|0,0:0|0:0|0:0,0:0:0:0:
304,220,225000,2,0,L|224:224,1,69.9029117929058,8|0,0:0|0:0,0:0:0:0:
132,212,225233,6,0,L|56:212,3,69.9029117929058,4|0|8|0,0:0|0:0|0:0|0:0,0:0:0:0:
132,212,225699,2,0,L|212:212,3,69.9029117929058,4|0|8|0,0:0|0:0|0:0|0:0,0:0:0:0:
364,281,226165,5,4,0:0:0:0:
384,270,226223,1,0,0:0:0:0:
397,262,226281,1,0,0:0:0:0:
410,245,226339,1,0,0:0:0:0:
418,229,226398,1,0,0:0:0:0:
425,209,226456,1,0,0:0:0:0:
434,191,226514,1,0,0:0:0:0:
442,166,226572,1,0,0:0:0:0:
386,142,226631,5,4,0:0:0:0:
360,125,226689,1,0,0:0:0:0:
337,105,226747,1,0,0:0:0:0:
317,89,226805,1,0,0:0:0:0:
336,157,226864,5,4,0:0:0:0:
358,138,226922,1,0,0:0:0:0:
374,121,226980,1,0,0:0:0:0:
388,108,227038,1,0,0:0:0:0:
365,60,227097,5,4,0:0:0:0:
256,192,227263,12,0,230430,0:3:0:0:
84,196,231097,5,8,2:2:0:0:
128,192,231763,5,8,2:3:0:0:
252,216,232430,6,0,B|320:216|448:128|448:120|448:120|224:100|224:100|136:232,1,600,4|0,0:3|0:0,0:0:0:0:
220,244,233596,1,0,0:0:0:0:
412,276,233763,6,0,B|472:172|480:76|480:76|328:64|220:96|220:96|312:212,1,600,4|0,0:3|0:0,0:0:0:0:
328,208,234930,1,0,0:0:0:0:
132,208,235096,2,0,P|76:184|196:104,1,300,8|0,0:3|0:0,0:0:0:0:
360,52,235763,2,0,B|408:104|416:128|380:268|380:268|228:272|60:144|60:144|220:104|332:200|332:200|416:256|416:256|416:256|416:256|428:216,1,1000,4|2,0:0|0:2,0:0:0:0:
220,56,237763,6,0,B|260:100|88:304|88:304|276:56,1,600,0|0,0:2|0:0,0:0:0:0:
400,124,239096,6,0,L|288:128,1,100,4|0,0:3|0:0,0:0:0:0:
200,128,239430,2,0,L|100:128,1,100
208,124,239763,1,4,0:3:0:0:
308,120,239930,2,0,L|412:120,1,100
188,88,240263,2,0,B|240:120|36:288|36:288|432:300|432:300|52:136|52:136|464:52,1,1500,4|2,0:0|0:2,0:0:0:0:
172,32,243096,6,0,P|124:84|416:240,1,600
148,56,244430,2,0,P|192:84|108:276,2,300,4|2|0,0:0|0:0|0:0,0:0:0:0:
360,64,245596,6,0,L|244:64,1,100,0|4,0:0|0:3,0:0:0:0:
156,64,245930,2,0,L|256:64,1,100
360,64,246263,2,0,L|248:64,1,100,0|4,0:0|0:3,0:0:0:0:
144,56,246596,2,0,P|120:112|196:228,1,200,0|2,0:0|0:0,0:0:0:0:
340,236,247263,6,0,L|440:236,1,100,0|4,0:0|0:3,0:0:0:0:
340,236,247596,2,0,L|236:236,1,100
340,236,247930,2,0,L|448:236,1,100,0|4,0:0|0:3,0:0:0:0:
288,32,248263,6,0,P|188:72|440:348,1,700,4|8,0:0|0:2,0:0:0:0:
336,280,249596,1,0,0:0:0:0:
184,328,249763,6,0,P|120:252|412:184,1,600,4|0,0:0|0:0,0:0:0:0:
316,112,251096,6,0,L|100:112,1,200,2|0,0:0|0:0,0:0:0:0:
212,112,251596,2,0,L|428:112,1,200,2|0,0:0|0:0,0:0:0:0:
296,112,252096,2,0,P|224:120|220:384,1,400,4|0,0:0|0:0,0:0:0:0:
296,192,253096,5,4,0:3:0:0:
396,180,253430,1,4,0:3:0:0:
180,72,253763,2,0,P|120:92|324:288,1,600,4|8,0:0|0:2,0:0:0:0:
256,240,254930,1,0,0:0:0:0:
72,288,255096,6,0,P|88:144|480:24,1,600,0|8,0:0|0:2,0:0:0:0:
312,172,256263,1,0,0:0:0:0:
152,160,256430,2,0,B|112:128|152:108|380:16,1,300
192,372,257096,6,0,B|60:100|60:100|468:204|468:204|176:216,1,1000,2|2,0:0|0:2,0:0:0:0:
440,248,259096,6,0,B|488:200|316:4|316:4|184:208|184:208|452:248,1,800,4|0,0:0|0:0,0:0:0:0:
284,232,260596,6,0,L|388:232,1,100,4|0,0:3|0:0,0:0:0:0:
284,232,260930,1,0,0:0:0:0:
148,224,261096,2,0,L|300:224,1,150,4|0,0:3|0:0,0:0:0:0:
432,208,261596,6,0,B|408:144|112:72|112:72|360:268|360:268|72:296|72:296|64:128|64:128|372:68|372:68|316:108|316:108|312:108,1,1500,4|2,0:0|0:2,0:0:0:0:
144,48,264430,6,0,P|96:120|380:144,1,600,4|0,0:0|0:0,0:0:0:0:
288,76,265763,6,0,P|212:80|136:272,1,300,4|0,0:3|0:0,0:0:0:0:
296,204,266763,6,0,L|408:204,1,100
296,204,267096,2,0,L|188:204,1,100,4|0,0:3|0:0,0:0:0:0:
88,200,267430,2,0,L|200:200,1,100
328,200,267763,1,4,0:3:0:0:
452,200,267930,6,0,L|252:200,2,200,0|0|4,0:0|0:0|0:3,0:0:0:0:
336,200,268763,2,0,L|224:200,1,100,0|0,0:3|0:0,0:0:0:0:
112,200,269096,2,0,L|232:200,1,100,0|4,0:0|0:3,0:0:0:0:
400,180,269596,6,0,B|408:180|244:108|88:84|72:124|72:124|80:304|80:304|268:296,1,700,4|8,0:0|0:2,0:0:0:0:
424,288,270930,1,0,0:0:0:0:
300,296,271096,6,0,B|84:280|40:164|40:164|352:136,1,600,0|2,0:0|0:2,0:0:0:0:
392,276,272430,5,4,0:0:0:0:
436,248,272513,1,0,0:0:0:0:
460,208,272596,1,0,0:0:0:0:
460,156,272680,1,0,0:0:0:0:
436,112,272763,1,0,0:0:0:0:
396,84,272846,1,0,0:0:0:0:
304,76,272930,5,4,0:0:0:0:
260,96,273013,1,0,0:0:0:0:
228,140,273096,1,0,0:0:0:0:
220,188,273180,1,0,0:0:0:0:
236,236,273263,1,0,0:0:0:0:
272,272,273346,1,0,0:0:0:0:
353,270,273430,5,4,0:0:0:0:
397,246,273513,1,0,0:0:0:0:
409,198,273596,1,0,0:0:0:0:
389,150,273680,1,0,0:0:0:0:
392,276,273763,5,4,0:0:0:0:
436,248,273846,1,0,0:0:0:0:
460,208,273929,1,0,0:0:0:0:
460,156,274013,1,0,0:0:0:0:
436,112,274096,1,0,0:0:0:0:
396,84,274179,1,0,0:0:0:0:
304,76,274263,5,4,0:0:0:0:
260,96,274346,1,0,0:0:0:0:
228,140,274429,1,0,0:0:0:0:
220,188,274513,1,0,0:0:0:0:
236,236,274596,1,0,0:0:0:0:
272,272,274679,1,0,0:0:0:0:
353,270,274763,5,4,0:0:0:0:
397,246,274846,1,0,0:0:0:0:
409,198,274929,1,0,0:0:0:0:
389,150,275013,1,0,0:0:0:0:
408,214,275096,6,0,P|444:206|476:62,2,200,0|4|0,0:0|0:3|0:0,0:0:0:0:
192,200,276096,2,0,L|292:200,1,100,4|0,0:3|0:0,0:0:0:0:
100,200,276430,2,0,L|304:200,2,200,0|4|0,0:0|0:3|0:0,0:0:0:0:
168,184,277430,1,4,0:3:0:0:
48,176,277596,1,0,0:0:0:0:
232,64,277763,6,0,L|484:240,1,300,0|8,0:0|0:0,0:0:0:0:
356,208,278430,2,0,L|152:208,4,200,0|4|0|4|0,0:0|0:3|0:0|0:3|0:0,0:0:0:0:
152,184,280096,6,0,P|100:168|88:120,1,100,2|0,0:2|0:0,0:0:0:0:
248,120,280430,2,0,L|456:120,3,200,0|4|0|4,0:0|0:3|0:0|0:3,0:0:0:0:
228,128,281763,5,0,0:3:0:0:
132,128,281930,1,0,0:0:0:0:
240,136,282096,2,0,L|352:136,1,100,4|0,0:3|0:0,0:0:0:0:
464,136,282430,2,0,L|348:136,1,100
228,136,282930,6,0,L|24:136,3,200,8|0|0|0,0:0|0:0|0:0|0:0,0:0:0:0:
228,136,284263,2,0,L|440:136,3,200,8|0|0|0,0:0|0:0|0:0|0:0,0:0:0:0:
320,136,285430,1,2,0:2:0:0:
132,132,285763,6,0,B|68:120|68:120|312:116|312:116|116:132,1,500,4|0,0:0|0:0,0:0:0:0:
228,148,286763,2,0,L|336:148,1,100,8|0,0:2|0:0,0:0:0:0:
448,156,287096,2,0,L|248:156,1,200
120,180,287596,6,0,B|28:176|28:176|248:168,1,300,0|4,0:0|0:3,0:0:0:0:
340,160,288263,1,0,0:0:0:0:
464,160,288430,1,4,0:0:0:0:
360,156,288596,2,0,L|248:156,1,100,0|4,0:3|0:3,0:0:0:0:
168,140,288930,2,0,L|64:140,1,100
168,140,289263,6,0,L|368:140,1,200,2|0,0:2|0:0,0:0:0:0:
444,152,289930,2,0,L|328:152,1,100,0|4,0:0|0:3,0:0:0:0:
228,164,290263,2,0,L|112:164,1,100
228,164,290596,2,0,L|336:164,1,100,0|4,0:0|0:3,0:0:0:0:
460,168,290930,6,0,L|248:164,3,200
144,168,292096,1,8,0:2:0:0:
264,160,292263,1,0,0:0:0:0:
400,160,292430,2,0,L|184:156,3,200,4|4|0|4,0:0|0:3|0:0|0:3,0:0:0:0:
168,80,293763,6,0,P|132:112|248:276,1,300,4|0,0:0|0:0,0:0:0:0:
392,56,294430,2,0,P|424:92|448:152,1,100,4|0,0:0|0:0,0:0:0:0:
392,276,294763,5,4,0:0:0:0:
436,248,294846,1,0,0:0:0:0:
460,208,294929,1,0,0:0:0:0:
460,156,295013,1,0,0:0:0:0:
436,112,295096,1,0,0:0:0:0:
396,84,295179,1,0,0:0:0:0:
304,76,295263,5,4,0:0:0:0:
260,96,295346,1,0,0:0:0:0:
228,140,295429,1,0,0:0:0:0:
220,188,295513,1,0,0:0:0:0:
236,236,295596,1,0,0:0:0:0:
272,272,295679,1,0,0:0:0:0:
353,270,295763,5,4,0:0:0:0:
397,246,295846,1,0,0:0:0:0:
409,198,295929,1,0,0:0:0:0:
389,150,296013,1,0,0:0:0:0:
323,122,296096,5,4,0:0:0:0:
253,155,296179,1,0,0:0:0:0:
287,221,296262,1,0,0:0:0:0:
362,185,296346,1,0,0:0:0:0:
273,41,296430,6,0,P|209:53|325:273,1,464.516110740766,4|0,0:0|0:0,0:0:0:0:
196,232,297591,5,0,0:0:0:0:
120,224,297784,1,0,0:0:0:0:
196,232,297978,1,8,0:1:0:0:
368,208,299139,5,0,0:0:0:0:
448,212,299332,1,0,0:0:0:0:
368,208,299526,1,8,0:1:0:0:
176,192,300107,5,0,0:0:0:0:
88,176,300300,1,8,0:1:0:0:
312,200,301849,6,0,L|400:200,2,75.0000028610231,0|0|8,0:0|0:0|0:1,0:0:0:0:
136,100,303784,6,0,P|112:152|124:172,1,75.0000028610231,0|8,0:0|0:1,0:0:0:0:
260,184,304365,1,0,0:0:0:0:
348,176,304559,5,0,0:0:0:0:
448,176,304752,1,0,0:0:0:0:
348,176,304946,1,0,0:0:0:0:
228,172,305139,1,0,0:0:0:0:
388,168,305526,1,8,0:1:0:0:
168,192,308042,5,0,0:0:0:0:
60,184,308430,1,0,0:0:0:0:
168,192,308817,1,8,0:1:0:0:
280,184,309978,5,0,0:0:0:0:
424,172,310365,1,0,0:2:0:0:
248,160,310946,1,8,0:1:0:0:
260,192,311526,5,0,0:0:0:0:
380,184,311720,1,0,0:0:0:0:
464,176,311913,1,0,0:0:0:0:
380,184,312107,1,0,0:0:0:0:
284,184,312300,1,0,0:0:0:0:
168,184,312494,1,0,0:0:0:0:
284,184,312688,1,0,0:0:0:0:
380,184,312881,1,0,0:0:0:0:
64,176,313268,5,8,0:1:0:0:
304,216,313655,5,0,0:0:0:0:
408,212,313849,1,0,0:0:0:0:
304,212,314042,1,0,0:0:0:0:
184,208,314236,1,0,0:0:0:0:
56,212,314430,1,0,0:0:0:0:
384,216,314817,5,0,0:0:0:0:
472,176,315011,1,8,0:1:0:0:
168,184,316171,5,0,0:0:0:0:
56,176,316365,1,0,0:0:0:0:
168,184,316559,1,8,0:1:0:0:
376,192,317720,5,0,0:0:0:0:
256,192,318107,1,8,0:1:0:0:
124,172,318688,5,8,0:1:0:0:
384,188,319268,5,8,0:1:0:0:
408,196,321204,6,0,L|292:195,1,100,4|4,0:0|0:3,0:0:0:0:
127,165,322086,2,0,L|178:165,1,50,0|4,0:0|0:3,0:0:0:0:
409,93,322615,6,0,P|433:144|406:192,1,100,0|4,0:0|0:3,0:0:0:0:
243,150,323498,2,0,L|312:150,1,50,0|4,0:0|0:3,0:0:0:0:
144,92,324027,6,0,P|124:120|152:188,1,100,0|4,0:0|0:3,0:0:0:0:
292,152,324909,2,0,L|240:152,1,50,0|4,0:0|0:3,0:0:0:0:
432,156,325439,6,0,L|324:156,1,100,0|4,0:0|0:3,0:0:0:0:
148,168,326321,2,0,L|216:168,1,50,0|4,0:0|0:3,0:0:0:0:
392,124,326851,6,0,P|428:160|408:204,1,100,0|4,0:0|0:3,0:0:0:0:
192,164,327733,2,0,L|252:164,1,50,0|4,0:0|0:3,0:0:0:0:
144,152,328262,6,0,L|36:152,1,100,0|4,0:0|0:3,0:0:0:0:
384,144,329145,2,0,P|392:168|376:188,1,50,0|4,0:0|0:3,0:0:0:0:
240,164,329674,6,0,L|348:164,1,100,0|4,0:0|0:3,0:0:0:0:
188,164,330556,2,0,L|124:164,1,50,0|4,0:0|0:3,0:0:0:0:
364,128,331086,6,0,P|388:152|356:212,1,100,0|4,0:0|0:3,0:0:0:0:
228,184,331968,2,0,L|296:184,1,50,0|4,0:0|0:3,0:0:0:0:
140,152,332498,6,0,L|72:152,2,50,8|0|4,0:2|0:0|0:3,0:0:0:0:
244,152,333012,2,0,L|304:152,1,50
428,152,333355,2,0,L|372:152,1,50,0|4,0:0|0:3,0:0:0:0:
256,148,333698,6,0,L|184:148,2,50
368,152,334212,2,0,L|440:152,1,50,4|0,0:3|0:0,0:0:0:0:
336,152,334555,2,0,L|272:152,1,50
160,148,334898,1,4,0:3:0:0:
48,152,335069,1,0,0:0:0:0:
184,164,335240,6,0,L|256:164,1,50
320,164,335583,2,0,L|388:164,1,50,4|0,0:3|0:0,0:0:0:0:
244,160,335926,2,0,L|176:160,1,50
96,160,336269,1,4,0:3:0:0:
212,164,336440,2,0,L|280:164,6,50,0|0|0|4|0|0|0,0:0|0:0|0:0|0:3|0:0|0:0|0:0,0:0:0:0:
392,168,337640,6,0,L|448:168,1,50,4|0,0:3|0:0,0:0:0:0:
280,156,337983,2,0,L|216:156,1,50,4|0,0:0|0:0,0:0:0:0:
84,148,338326,2,0,L|152:148,1,50,4|0,0:3|0:0,0:0:0:0:
228,148,338669,1,0,0:0:0:0:
344,144,338840,2,0,L|408:144,2,50,0|4|0,0:0|0:3|0:0,0:0:0:0:
208,140,339355,6,0,L|140:140,1,50,4|0,0:0|0:0,0:0:0:0:
260,148,339698,2,0,L|328:148,1,50,4|0,0:3|0:0,0:0:0:0:
416,160,340040,2,0,L|356:160,1,50
216,144,340383,2,0,L|152:144,1,50,4|0,0:3|0:0,0:0:0:0:
328,144,340726,6,0,L|380:144,1,50,4|0,0:0|0:0,0:0:0:0:
464,144,341069,2,0,L|400:144,1,50,4|0,0:3|0:0,0:0:0:0:
272,148,341412,1,4,0:0:0:0:
176,140,341583,2,0,L|112:140,2,50,0|4|0,0:0|0:3|0:0,0:0:0:0:
316,152,342098,6,0,L|380:152,2,50,4|0|4,0:0|0:0|0:3,0:0:0:0:
200,152,342612,1,0,0:0:0:0:
76,140,342783,1,4,0:0:0:0:
56,200,342955,1,0,0:0:0:0:
112,248,343126,1,4,0:0:0:0:
176,252,343298,1,0,0:0:0:0:
208,232,343383,1,0,0:0:0:0:
316,216,343469,6,0,P|372:220|396:172,1,100,4|0,0:0|0:0,0:0:0:0:
268,144,344135,2,0,L|224:144,3,25,4|0|0|0,0:3|0:0|0:0|0:0,0:0:0:0:
176,132,344469,2,0,P|144:140|144:216,1,100
264,188,345135,2,0,L|332:188,2,50,8|0|4,0:2|0:0|0:3,0:0:0:0:
352,160,346135,6,0,L|388:160,3,25
296,152,346469,2,0,L|188:152,1,100,0|4,0:0|0:3,0:0:0:0:
156,156,347135,2,0,L|220:156,1,50
304,160,347469,2,0,L|328:160,1,25,2|0,0:2|0:0,0:0:0:0:
280,160,347635,2,0,L|252:160,1,25
180,148,347802,2,0,P|140:144|160:196,1,100,0|4,0:0|0:3,0:0:0:0:
264,188,348802,6,0,L|332:188,1,50
380,192,349135,2,0,L|328:192,1,50
220,184,349469,2,0,L|184:184,3,25,4|0|0|0,0:3|0:0|0:0|0:0,0:0:0:0:
104,176,349802,2,0,P|96:200|152:252,1,100
260,196,350469,2,0,L|332:196,2,50,8|0|4,0:2|0:0|0:3,0:0:0:0:
104,128,351135,1,0,0:0:0:0:
76,160,351219,1,0,0:0:0:0:
80,192,351302,1,0,0:0:0:0:
108,208,351385,1,0,0:0:0:0:
244,216,351469,6,0,L|312:216,2,50,4|0|4,0:0|0:0|0:3,0:0:0:0:
152,208,351969,2,0,L|80:208,3,50,0|0|0|4,0:0|0:0|0:0|0:3,0:0:0:0:
212,240,352635,1,2,0:0:0:0:
236,232,352719,1,2,0:0:0:0:
276,224,352802,6,0,L|328:224,1,50,2|0,0:0|0:0,0:0:0:0:
424,224,353135,2,0,L|476:224,1,50,4|0,0:3|0:0,0:0:0:0:
352,220,353469,2,0,L|296:220,1,50
192,224,353802,2,0,L|136:224,1,50,4|2,0:3|0:0,0:0:0:0:
72,224,354052,1,2,0:0:0:0:
142,224,354135,6,0,L|192:224,1,50,2|0,0:0|0:0,0:0:0:0:
296,224,354469,2,0,L|348:224,1,50,4|0,0:3|0:0,0:0:0:0:
276,224,354802,2,0,L|216:224,1,50
128,220,355135,2,0,L|68:220,1,50,4|2,0:3|0:0,0:0:0:0:
144,220,355385,1,2,0:0:0:0:
200,220,355469,6,0,L|260:220,2,50,2|0|4,0:0|0:0|0:3,0:0:0:0:
272,220,355969,2,0,L|340:220,2,50
180,212,356469,1,4,0:3:0:0:
152,192,356552,1,4,0:3:0:0:
144,160,356635,1,4,0:3:0:0:
168,136,356719,1,4,0:3:0:0:
264,132,356802,6,0,L|336:132,1,50,4|0,0:0|0:0,0:0:0:0:
224,132,357135,2,0,L|164:132,1,50,4|0,0:3|0:0,0:0:0:0:
276,120,357469,2,0,L|332:120,1,50
416,120,357802,2,0,L|360:120,1,50,4|2,0:3|0:0,0:0:0:0:
292,120,358052,1,2,0:0:0:0:
224,124,358135,6,0,L|168:124,1,50,4|0,0:0|0:0,0:0:0:0:
80,124,358469,2,0,L|140:124,1,50,4|0,0:3|0:0,0:0:0:0:
224,128,358802,2,0,L|276:128,1,50
364,136,359135,1,4,0:3:0:0:
256,132,359302,1,2,0:0:0:0:
224,128,359385,1,2,0:0:0:0:
124,116,359469,6,0,L|68:116,1,50,4|0,0:0|0:0,0:0:0:0:
160,116,359802,2,0,L|216:116,1,50,4|0,0:3|0:0,0:0:0:0:
360,124,360135,2,0,L|296:124,1,50,4|0,0:0|0:0,0:0:0:0:
188,128,360469,2,0,L|116:128,1,50,4|0,0:3|0:0,0:0:0:0:
256,192,360802,12,0,362135,0:0:0:0:
256,192,362301,12,0,365468,2:2:0:0:
64,172,366135,5,8,2:2:0:0:
124,184,366801,5,8,2:3:0:0:
340,232,367468,6,0,B|380:200|440:100|440:100|164:112|164:112|324:184,1,600,4|8,0:3|0:2,0:0:0:0:
396,188,368634,1,0,0:0:0:0:
280,92,368801,6,0,B|68:180|68:180|264:244|268:244|380:96|380:96|388:80,1,600
292,60,369968,1,0,0:0:0:0:
192,64,370134,2,0,B|108:144|108:144|240:216|240:216|272:192,1,300,2|0,0:3|0:0,0:0:0:0:
440,48,370801,6,0,B|392:224|124:276|124:276|40:92|40:92|432:92,1,1000,4|2,0:0|0:2,0:0:0:0:
252,72,372801,6,0,P|172:104|392:208,1,600,4|0,0:0|0:0,0:0:0:0:
236,136,374134,6,0,L|128:136,1,100,4|0,0:3|0:0,0:0:0:0:
296,132,374468,2,0,L|412:132,1,100
296,132,374801,2,0,L|180:132,2,100,4|0|0,0:3|0:0|0:0,0:0:0:0:
464,52,375301,6,0,P|364:384|452:32,1,1500,4|2,0:0|0:2,0:0:0:0:
228,64,378134,6,0,P|184:116|404:92,1,600,4|0,0:0|0:0,0:0:0:0:
272,68,379468,2,0,P|192:88|272:232,2,300,2|0|0,0:0|0:0|0:0,0:0:0:0:
168,116,380634,6,0,L|64:116,1,100,0|4,0:0|0:3,0:0:0:0:
236,124,380968,2,0,L|344:124,1,100
236,124,381301,2,0,L|128:124,2,100,0|4|0,0:0|0:3|0:0,0:0:0:0:
356,84,381968,6,0,P|400:128|384:264,1,200,2|0,0:3|0:0,0:0:0:0:
288,248,382468,2,0,L|176:248,1,100
96,240,382801,2,0,L|208:240,1,100,4|0,0:3|0:0,0:0:0:0:
316,240,383134,2,8,L|428:240,1,100
256,56,383468,6,0,P|344:80|140:184,1,600,4|8,0:0|0:2,0:0:0:0:
260,144,384634,1,0,0:0:0:0:
152,76,384801,6,0,P|116:104|364:192,1,600,4|2,0:0|0:2,0:0:0:0:
184,108,386134,6,0,P|144:116|224:256,1,300
372,52,387134,2,0,P|440:196|148:176,1,600,4|8,0:0|0:2,0:0:0:0:
284,173,388301,1,0,0:0:0:0:
428,165,388468,2,0,L|319:165,1,100,2|0,0:2|0:0,0:0:0:0:
200,52,388801,6,0,P|164:60|344:260,1,600,4|8,0:0|0:2,0:0:0:0:
260,176,389968,1,0,0:0:0:0:
152,160,390134,6,0,B|56:152|56:152|384:76|384:76|428:208|428:208|388:208,1,600
304,192,391301,1,0,0:0:0:0:
176,80,391468,6,0,B|132:120|132:120|332:268,1,300,2|0,0:3|0:0,0:0:0:0:
136,240,392134,2,0,B|52:108|68:96|400:24|400:24|56:340,1,900,4|0,0:0|0:2,0:0:0:0:
264,248,393801,2,0,L|372:248,1,100,8|0,0:2|0:0,0:0:0:0:
196,44,394134,6,0,B|144:96|280:296|276:296|448:72|448:72|108:148,1,800,0|4,0:0|0:3,0:0:0:0:
248,128,395634,2,0,L|364:128,1,100
248,128,395968,2,0,L|136:128,1,100,0|4,0:0|0:3,0:0:0:0:
328,176,396384,1,0,0:0:0:0:
240,88,396634,6,0,B|56:112|172:200|172:200|460:136|460:136|128:68|128:68|72:312|72:312|288:276,1,1300,4|0,0:0|0:0,0:0:0:0:
260,88,399134,2,0,L|151:88,1,100,2|0,0:3|0:0,0:0:0:0:
336,56,399468,6,0,P|368:76|148:148,1,600,4|2,0:0|0:2,0:0:0:0:
316,68,400801,6,0,P|264:72|232:284,2,300
216,112,401968,6,0,L|112:112,1,100,0|4,0:0|0:3,0:0:0:0:
216,112,402301,2,0,L|320:112,1,100
216,112,402634,2,0,L|112:112,1,100,0|4,0:0|0:3,0:0:0:0:
216,112,402968,2,0,L|428:112,2,200,0|2|0,0:0|0:0|0:0,0:0:0:0:
140,112,403801,6,0,L|36:112,1,100
172,108,404134,2,0,L|276:108,1,100,4|0,0:3|0:0,0:0:0:0:
392,116,404468,2,0,L|492:116,1,100
288,72,404801,6,0,P|360:96|168:344,1,600,6|8,0:3|0:2,0:0:0:0:
276,252,405968,1,0,0:0:0:0:
112,216,406134,6,0,P|76:140|388:120,1,600
166,267,407468,5,4,0:0:0:0:
118,255,407551,1,0,0:0:0:0:
83,222,407634,1,0,0:0:0:0:
70,174,407718,1,0,0:0:0:0:
88,128,407801,1,0,0:0:0:0:
127,98,407884,1,0,0:0:0:0:
218,286,407968,5,4,0:0:0:0:
265,264,408051,1,0,0:0:0:0:
292,222,408134,1,0,0:0:0:0:
295,172,408218,1,0,0:0:0:0:
274,128,408301,1,0,0:0:0:0:
235,99,408384,1,0,0:0:0:0:
262,254,408468,5,4,0:0:0:0:
214,239,408551,1,0,0:0:0:0:
191,193,408634,1,0,0:0:0:0:
206,148,408718,1,0,0:0:0:0:
166,267,408801,5,4,0:0:0:0:
118,255,408884,1,0,0:0:0:0:
83,222,408967,1,0,0:0:0:0:
70,174,409051,1,0,0:0:0:0:
88,128,409134,1,0,0:0:0:0:
127,98,409217,1,0,0:0:0:0:
218,286,409301,5,4,0:0:0:0:
265,264,409384,1,0,0:0:0:0:
292,222,409467,1,0,0:0:0:0:
295,172,409551,1,0,0:0:0:0:
274,128,409634,1,8,0:2:0:0:
235,99,409717,1,0,0:0:0:0:
262,254,409801,5,4,0:0:0:0:
214,239,409884,1,0,0:0:0:0:
191,193,409967,1,0,0:0:0:0:
206,148,410051,1,0,0:0:0:0:
225,184,410134,6,0,B|165:136|165:136|557:156|557:156|425:204,1,600,4|2,0:0|0:2,0:0:0:0:
309,205,411239,1,0,0:0:0:0:
368,248,411397,6,0,B|448:176|448:176|56:144|56:144|156:196,1,600,0|8,0:0|0:2,0:0:0:0:
252,216,412502,1,0,0:0:0:0:
352,232,412660,2,0,B|400:168|400:168|280:156|280:156|232:60,1,300
152,68,413291,6,0,B|72:168|72:168|432:192|432:192|68:272|68:272|216:280,1,1000,4|0,0:0|0:0,0:0:0:0:
408,288,415028,1,0,0:0:0:0:
283,131,415186,6,0,B|143:211|143:211|507:243|507:243|259:291|259:291|219:299,1,800,4|4,0:0|0:3,0:0:0:0:
288,260,416607,2,0,L|392:260,1,100
288,260,416923,2,0,L|168:260,1,100,0|4,0:0|0:3,0:0:0:0:
84,256,417318,1,0,0:0:0:0:
188,264,417555,6,0,B|424:248|424:248|88:208|88:208|228:112|228:112|284:264|284:264|40:296|40:296|392:296,1,1500,4|8,0:0|0:2,0:0:0:0:
300,296,420081,1,0,0:0:0:0:
240,76,420239,6,0,B|420:152|420:152|56:344,1,600,4|2,0:0|0:2,0:0:0:0:
276,324,421502,6,0,B|416:208|416:208|300:172,2,300
172,288,422607,2,0,L|64:288,1,100,0|4,0:0|0:3,0:0:0:0:
172,288,422923,2,0,L|292:288,1,100
172,288,423239,2,0,L|72:288,1,100,0|4,0:0|0:3,0:0:0:0:
172,288,423555,2,0,L|392:288,2,200,0|4|0,0:0|0:0|0:0,0:0:0:0:
280,288,424344,6,0,L|380:288,1,100,4|0,0:3|0:0,0:0:0:0:
280,288,424660,2,0,L|160:288,1,100
80,280,424976,2,0,L|196:280,1,100,4|0,0:3|0:0,0:0:0:0:
344,56,425291,6,0,B|444:200|444:200|216:260|216:260|92:104,1,600,2|8,0:3|0:2,0:0:0:0:
248,96,426397,1,0,0:0:0:0:
96,60,426555,2,0,B|72:324|72:324|392:208,1,600,4|2,0:0|0:2,0:0:0:0:
149,328,427818,5,0,0:0:0:0:
133,315,427897,1,0,0:0:0:0:
113,297,427976,1,0,0:0:0:0:
96,275,428055,1,0,0:0:0:0:
83,246,428134,1,0,0:0:0:0:
69,220,428212,1,0,0:0:0:0:
141,301,428291,5,0,0:0:0:0:
159,287,428370,1,0,0:0:0:0:
174,267,428449,1,0,0:0:0:0:
183,242,428528,1,0,0:0:0:0:
189,211,428607,1,0,0:0:0:0:
188,196,428686,1,0,0:0:0:0:
130,287,428765,5,0,0:0:0:0:
112,265,428844,1,0,0:0:0:0:
100,247,428923,1,0,0:0:0:0:
88,229,429002,1,0,0:0:0:0:
149,328,429081,5,0,0:0:0:0:
133,315,429160,1,0,0:0:0:0:
113,297,429239,1,0,0:0:0:0:
96,275,429318,1,0,0:0:0:0:
83,246,429397,1,0,0:0:0:0:
69,220,429475,1,0,0:0:0:0:
141,301,429554,5,0,0:0:0:0:
159,287,429633,1,0,0:0:0:0:
174,267,429712,1,0,0:0:0:0:
183,242,429791,1,0,0:0:0:0:
189,211,429870,1,0,0:0:0:0:
188,196,429949,1,0,0:0:0:0:
130,287,430028,5,0,0:0:0:0:
112,265,430107,1,0,0:0:0:0:
100,247,430186,1,0,0:0:0:0:
88,229,430265,1,0,0:0:0:0:
160,196,430344,5,4,0:0:0:0:
256,192,430502,12,0,430818,0:0:0:0:
219,122,430976,6,0,P|159:131|139:267,1,200,8|0,0:0|0:0,0:0:0:0:
313,224,431449,1,0,0:0:0:0:
256,192,431607,12,0,432397,0:0:0:0:
356,188,432555,5,0,0:0:0:0:
252,183,432712,1,0,0:0:0:0:
141,178,432870,2,0,B|91:135|91:135|343:139,1,300,4|0,0:3|0:0,0:0:0:0:
482,140,433502,6,0,P|439:42|92:371,1,900,4|0,0:0|0:0,0:0:0:0:
214,267,435081,5,0,0:0:0:0:
256,192,435397,12,0,436502,0:0:0:0:
361,200,436660,5,4,0:3:0:0:
262,199,436818,2,0,L|370:201,1,100
262,199,437133,2,0,L|162:197,1,100,0|4,0:0|0:3,0:0:0:0:
250,201,437528,1,0,0:0:0:0:
256,192,437844,12,0,439976,0:0:0:0:
464,204,440133,5,2,0:2:0:0:
253,201,440449,2,0,B|112:187|111:187|385:141|385:141|94:113,1,600
286,105,441712,2,0,B|446:171|446:171|313:227,1,300,2|0,0:3|0:0,0:0:0:0:
181,193,442660,6,0,L|78:192,2,100,0|0|4,0:0|0:0|0:3,0:0:0:0:
272,198,443133,2,0,L|381:198,1,100
172,197,443449,2,0,L|272:198,1,100,0|4,0:0|0:3,0:0:0:0:
406,197,443765,2,0,L|199:195,2,200
287,195,444555,6,0,L|169:195,1,100
287,195,444870,2,0,L|396:195,1,100,4|0,0:3|0:0,0:0:0:0:
221,126,445344,2,0,B|32:230|32:230|473:9,1,700,2|8,0:0|0:2,0:0:0:0:
358,44,446607,1,0,0:0:0:0:
238,57,446765,6,0,B|43:192|43:192|388:324,1,600,0|2,0:0|0:2,0:0:0:0:
277,190,448028,2,0,B|106:187|106:187|238:132,1,300
355,65,448976,6,0,B|406:173|280:349|280:349|83:114,1,600
236,177,450239,1,0,0:0:0:0:
400,228,450555,6,0,B|438:111|438:111|190:72|190:72|325:274,1,600,4|0,0:0|0:0,0:0:0:0:
368,204,451660,1,0,0:0:0:0:
244,92,451818,6,0,P|192:120|400:232,1,525.00000500679,8|0,0:0|0:0,0:0:0:0:
264,224,452923,1,0,0:0:0:0:
132,260,453081,2,0,P|96:200|232:148,1,262.500002503395,8|0,0:0|0:0,0:0:0:0:
352,112,453712,6,0,P|404:176|200:88,1,875.00000834465,8|0,0:0|0:0,0:0:0:0:
368,84,455607,6,0,B|464:192|436:200|436:200|36:204,1,525.00000500679,8|0,0:0|0:0,0:0:0:0:
264,176,456870,6,0,L|368:176,1,87.500000834465,8|0,0:0|0:0,0:0:0:0:
264,176,457186,2,0,L|156:176,1,87.500000834465
264,176,457502,2,0,L|400:176,2,131.250001251698,8|0|0,0:0|0:0|0:0,0:0:0:0:
256,192,458133,12,0,460186,0:0:0:0:
372,116,460344,5,0,0:0:0:0:
208,88,460660,2,0,P|100:108|272:288,1,525.00000500679,4|0,0:0|0:0,0:0:0:0:
152,96,461923,2,0,P|204:80|292:236,1,262.500002503395,8|0,0:0|0:0,0:0:0:0:
200,144,462870,6,0,L|100:144,2,87.500000834465,0|0|8,0:0|0:0|0:0,0:0:0:0:
332,140,463344,2,0,L|436:140,1,87.500000834465
332,140,463660,2,0,L|228:140,2,87.500000834465,0|8|0,0:0|0:0|0:0,0:0:0:0:
216,96,464291,2,0,L|80:216,1,175.00000166893
188,196,464765,1,8,0:0:0:0:
260,192,464923,2,0,L|356:192,1,87.500000834465
264,192,465239,2,0,L|88:188,1,175.00000166893,8|0,0:0|0:0,0:0:0:0:
256,192,465712,12,0,466502,0:0:0:0:
264,184,466660,5,8,0:0:0:0:
264,184,466818,5,8,0:0:0:0:
256,192,466976,12,0,467765,0:0:0:0:
256,184,467923,5,0,0:0:0:0:
88,184,468239,6,0,L|368:184,2,262.500002503395,8|8|8,0:0|0:0|0:0,0:0:0:0:
256,192,469344,12,0,469976,0:0:0:0:
264,180,470133,5,0,0:0:0:0:
168,168,470449,1,0,0:0:0:0:
264,180,470765,1,4,0:0:0:0:
256,192,470923,12,4,480870,0:0:0:0:
224,160,481818,5,0,0:0:0:0:
372,136,482133,2,0,P|396:184|308:268,1,187.5
200,200,483081,6,0,L|124:200,4,62.5
284,200,483870,2,0,L|360:200,2,62.5
184,124,484502,2,0,P|136:176|160:220,1,125
256,192,484976,6,0,L|324:192,3,62.5
256,192,485765,12,0,487976,2:2:0:0:
264,176,488133,5,2,2:0:0:0:
120,176,488449,5,2,2:0:0:0:
216,192,488923,5,2,2:0:0:0:
260,184,489081,1,2,2:0:0:0:
356,188,489397,5,2,2:0:0:0:
252,168,489712,5,2,2:0:0:0:
80,184,490344,5,2,2:0:0:0:
208,176,490660,5,2,2:0:0:0:
256,200,491607,6,2,L|240:200,1,15.625
224,200,491666,2,2,L|216:200,5,7.8125
64,184,492870,5,2,2:0:0:0:
424,184,493686,5,2,0:0:0:0:
264,192,494502,5,2,2:0:0:0:
0,177,495416,2,0,L|76:176,128,75,2|0|0|0|0|0|0|0|0|0|0|0|0|0|0|0|0|0|0|0|0|0|0|0|0|0|0|0|0|0|0|0|0|0|0|0|0|0|0|0|0|0|0|0|0|0|0|0|0|0|0|0|0|0|0|0|0|0|0|0|0|0|0|0|0|0|0|0|0|0|0|0|0|0|0|0|0|0|0|0|0|0|0|0|0|0|0|0|0|0|0|0|0|0|0|0|0|0|0|0|0|0|0|0|0|0|0|0|0|0|0|0|0|0|0|0|0|0|0|0|0|0|0|0|0|0|0|0|0,0:0|0:0|0:0|0:0|0:0|0:0|0:0|0:0|0:0|0:0|0:0|0:0|0:0|0:0|0:0|0:0|0:0|0:0|0:0|0:0|0:0|0:0|0:0|0:0|0:0|0:0|0:0|0:0|0:0|0:0|0:0|0:0|0:0|0:0|0:0|0:0|0:0|0:0|0:0|0:0|0:0|0:0|0:0|0:0|0:0|0:0|0:0|0:0|0:0|0:0|0:0|0:0|0:0|0:0|0:0|0:0|0:0|0:0|0:0|0:0|0:0|0:0|0:0|0:0|0:0|0:0|0:0|0:0|0:0|0:0|0:0|0:0|0:0|0:0|0:0|0:0|0:0|0:0|0:0|0:0|0:0|0:0|0:0|0:0|0:0|0:0|0:0|0:0|0:0|0:0|0:0|0:0|0:0|0:0|0:0|0:0|0:0|0:0|0:0|0:0|0:0|0:0|0:0|0:0|0:0|0:0|0:0|0:0|0:0|0:0|0:0|0:0|0:0|0:0|0:0|0:0|0:0|0:0|0:0|0:0|0:0|0:0|0:0|0:0|0:0|0:0|0:0|0:0|0:0,0:0:0:0:
