osu file format v14

[General]
AudioFilename: audio.mp3
AudioLeadIn: 0
PreviewTime: 231097
Countdown: 0
SampleSet: Soft
StackLeniency: 0.7
Mode: 3
LetterboxInBreaks: 0
SpecialStyle: 0
WidescreenStoryboard: 1

[Editor]
DistanceSpacing: 1.2
BeatDivisor: 4
GridSize: 4
TimelineZoom: 2.899998

[Metadata]
Title:Scattered Faith
TitleUnicode:Scattered Faith
Artist:Kurokotei
ArtistUnicode:黒皇帝
Creator:4hri
Version:
Source:東方Project
Tags:touhou speedcore marathon kurokotei sayaka- hijiri byakuren 感情の摩天楼 emotional skyscraper ~ cosmic mind zun 東方星蓮船 ~ undefined fantastic object stage 6 boss theme
BeatmapID:1239907
BeatmapSetID:523735

[Difficulty]
HPDrainRate:8.5
CircleSize:7
OverallDifficulty:8
ApproachRate:5
SliderMultiplier:1.4
SliderTickRate:1

[Events]
//Background and Video events
0,0,"FAITH.jpg",0,0
//Break Periods
2,13244,23094
2,27119,65094
2,105869,231230
//Storyboard Layer 0 (Background)
//Storyboard Layer 1 (Fail)
//Storyboard Layer 2 (Pass)
//Storyboard Layer 3 (Foreground)
//Storyboard Sound Samples

[TimingPoints]
294,187.5,4,2,1,10,1,0
66294,-100,4,2,1,20,0,0
116169,-83.3333333333333,4,2,1,20,0,0
116262,-125,4,2,1,20,0,0
116356,-83.3333333333333,4,2,1,20,0,0
116450,-125,4,2,1,20,0,0
116544,-83.3333333333333,4,2,1,20,0,0
116637,-125,4,2,1,20,0,0
116731,-83.3333333333333,4,2,1,20,0,0
116825,-125,4,2,1,20,0,0
116919,-83.3333333333333,4,2,1,20,0,0
117012,-125,4,2,1,20,0,0
117106,-83.3333333333333,4,2,1,20,0,0
117200,-125,4,2,1,20,0,0
117294,-83.3333333333333,4,2,1,20,0,0
117387,-125,4,2,1,20,0,0
117481,-83.3333333333333,4,2,1,20,0,0
117575,-125,4,2,1,20,0,0
117669,-83.3333333333333,4,2,1,20,0,0
117762,-125,4,2,1,20,0,0
117856,-83.3333333333333,4,2,1,20,0,0
117950,-125,4,2,1,20,0,0
118044,-52.6315789473684,4,2,1,20,0,0
118067,-1000,4,2,1,20,0,0
118090,-52.6315789473684,4,2,1,20,0,0
118114,-1000,4,2,1,20,0,0
118137,-52.6315789473684,4,2,1,20,0,0
118161,-1000,4,2,1,20,0,0
118184,-52.6315789473684,4,2,1,20,0,0
118208,-1000,4,2,1,20,0,0
118231,-52.6315789473684,4,2,1,20,0,0
118254,-1000,4,2,1,20,0,0
118278,-52.6315789473684,4,2,1,20,0,0
118301,-1000,4,2,1,20,0,0
118325,-52.6315789473684,4,2,1,20,0,0
118348,-1000,4,2,1,20,0,0
118372,-52.6315789473684,4,2,1,20,0,0
118395,-1000,4,2,1,20,0,0
118419,-100,4,2,1,20,0,0
118794,-66.6666666666667,4,2,1,20,0,0
118840,-200,4,2,1,20,0,0
118887,-66.6666666666667,4,2,1,20,0,0
118934,-200,4,2,1,20,0,0
118981,-66.6666666666667,4,2,1,20,0,0
119027,-200,4,2,1,20,0,0
119074,-66.6666666666667,4,2,1,20,0,0
119121,-200,4,2,1,20,0,0
119169,-66.6666666666667,4,2,1,20,0,0
119215,-200,4,2,1,20,0,0
119262,-66.6666666666667,4,2,1,20,0,0
119309,-200,4,2,1,20,0,0
119356,-66.6666666666667,4,2,1,20,0,0
119402,-200,4,2,1,20,0,0
119449,-66.6666666666667,4,2,1,20,0,0
119496,-200,4,2,1,20,0,0
119544,-66.6666666666667,4,2,1,20,0,0
119590,-200,4,2,1,20,0,0
119637,-66.6666666666667,4,2,1,20,0,0
119684,-200,4,2,1,20,0,0
119731,-66.6666666666667,4,2,1,20,0,0
119777,-200,4,2,1,20,0,0
119824,-66.6666666666667,4,2,1,20,0,0
119871,-200,4,2,1,20,0,0
119919,-66.6666666666667,4,2,1,20,0,0
119965,-200,4,2,1,20,0,0
120012,-66.6666666666667,4,2,1,20,0,0
120059,-200,4,2,1,20,0,0
120106,-66.6666666666667,4,2,1,20,0,0
120152,-200,4,2,1,20,0,0
120199,-66.6666666666667,4,2,1,20,0,0
120246,-200,4,2,1,20,0,0
120294,-100,4,2,1,20,0,0
128919,-104.166666666667,4,2,1,20,0,0
129012,-107.52688172043,4,2,1,20,0,0
129106,-111.111111111111,4,2,1,20,0,0
129200,-114.942528735632,4,2,1,20,0,0
129294,387.096774193548,4,2,1,5,1,0
129294,-64.5161290322581,4,2,1,5,0,0
130068,387.096774193548,4,2,1,10,1,0
130068,-64.5161290322581,4,2,1,5,0,0
153294,-60.6060606060606,4,2,1,5,0,0
153390,-58.8235294117647,4,2,1,5,0,0
153487,-57.1428571428571,4,2,1,5,0,0
153584,-55.5555555555556,4,2,1,5,0,0
153681,-54.054054054054,4,2,1,5,0,0
153777,-52.6315789473684,4,2,1,5,0,0
153874,-51.2820512820513,4,2,1,5,0,0
153971,-50,4,2,1,5,0,0
154068,193.548387096774,4,2,1,15,1,0
203616,387.096774193548,4,2,1,15,1,0
203616,-48.5436893203883,4,2,1,15,0,0
205164,352.941176470588,4,2,1,16,1,0
205164,-53.1914893617021,4,2,1,16,0,0
206575,324.324324324324,4,2,1,17,1,0
206575,-57.8034682080925,4,2,1,16,0,0
207872,300,4,2,1,18,1,0
207872,-62.5,4,2,1,18,0,0
209072,279.06976744186,4,2,1,19,1,0
209072,-67.1140939597315,4,2,1,19,0,0
210188,260.869565217391,4,2,1,20,1,0
210188,-71.9424460431655,4,2,1,20,0,0
211231,244.897959183673,4,2,1,21,1,0
211231,-76.9230769230769,4,2,1,21,0,0
212210,230.769230769231,4,2,1,22,1,0
212210,-81.3008130081301,4,2,1,22,0,0
213133,218.181818181818,4,2,1,23,1,0
213133,-86.2068965517241,4,2,1,23,0,0
214005,206.896551724138,4,2,1,24,1,0
214005,-90.9090909090909,4,2,1,24,0,0
214832,196.72131147541,4,2,1,25,1,0
214832,-95.2380952380952,4,2,1,25,0,0
215618,187.5,4,2,1,26,1,0
215618,-100,4,2,1,26,0,0
216368,179.10447761194,4,2,1,27,1,0
216368,-104.166666666667,4,2,1,27,0,0
217084,171.428571428571,4,2,1,28,1,0
217084,-109.89010989011,4,2,1,28,0,0
217769,164.383561643836,4,2,1,29,1,0
217769,-113.636363636364,4,2,1,29,0,0
218426,157.894736842105,4,2,1,30,1,0
218426,-119.047619047619,4,2,1,30,0,0
219057,151.898734177215,4,2,1,31,1,0
219057,-123.456790123457,4,2,1,31,0,0
219664,146.341463414634,4,2,1,32,1,0
219664,-128.205128205128,4,2,1,32,0,0
220249,141.176470588235,4,2,1,33,1,0
220249,-131.578947368421,4,2,1,33,0,0
220813,136.363636363636,4,2,1,34,1,0
220813,-136.986301369863,4,2,1,34,0,0
221358,131.868131868132,4,2,1,35,1,0
221358,-142.857142857143,4,2,1,35,0,0
221885,127.659574468085,4,2,1,36,1,0
221885,-147.058823529412,4,2,1,36,0,0
222395,123.711340206186,4,2,1,38,1,0
222395,-151.515151515152,4,2,1,38,0,0
222889,120,4,2,1,40,1,0
222889,-156.25,4,2,1,40,0,0
223369,116.504854368932,4,2,1,20,1,0
223369,-161.290322580645,4,2,1,20,0,0
227097,166.666666666667,4,2,1,10,1,0
227097,-112.359550561798,4,2,1,10,0,0
232430,-112.359550561798,4,2,1,40,0,1
296430,387.096774193548,4,2,1,15,1,0
296430,-33.3333333333333,4,2,1,15,0,0
296526,-35.7142857142857,4,2,1,15,0,0
296623,-38.4615384615385,4,2,1,15,0,0
296720,-41.6666666666667,4,2,1,15,0,0
296817,-45.4545454545455,4,2,1,15,0,0
297204,387.096774193548,4,2,1,10,1,0
297204,-50,4,2,1,10,0,0
321204,352.941176470588,4,2,1,30,1,0
321204,-53.1914893617021,4,2,1,30,0,0
332498,342.857142857143,4,2,1,30,1,0
332498,-54.6448087431694,4,2,1,30,0,0
343469,333.333333333333,4,2,1,20,1,0
343469,-56.1797752808989,4,2,1,20,0,0
362135,166.666666666667,4,2,1,10,1,0
362135,-112.359550561798,4,2,1,10,0,0
367468,-112.359550561798,4,2,1,40,0,1
410134,157.894736842105,4,2,1,45,1,1
410134,-119.047619047619,4,2,1,45,0,1
430344,-119.047619047619,4,2,1,20,0,0
450553,-119.047619047619,4,2,1,20,0,0
470764,-142.857142857143,4,2,1,20,0,0

[HitObjects]
475,192,294,128,0,1794:0:0:0:0:
36,192,294,128,0,3294:0:0:0:0:
109,192,294,1,0,0:0:0:0:
402,192,294,1,0,0:0:0:0:
329,192,481,1,0,0:0:0:0:
256,192,669,1,0,0:0:0:0:
182,192,856,1,0,0:0:0:0:
329,192,1044,1,0,0:0:0:0:
402,192,1231,1,0,0:0:0:0:
329,192,1419,1,0,0:0:0:0:
256,192,1606,1,0,0:0:0:0:
402,192,1794,128,0,4794:0:0:0:0:
182,192,1794,1,0,0:0:0:0:
109,192,1794,1,0,0:0:0:0:
256,192,1981,1,0,0:0:0:0:
329,192,2169,1,0,0:0:0:0:
475,192,2356,1,0,0:0:0:0:
329,192,2544,1,0,0:0:0:0:
109,192,2544,1,0,0:0:0:0:
182,192,2731,1,0,0:0:0:0:
256,192,2919,1,0,0:0:0:0:
329,192,3106,1,0,0:0:0:0:
109,192,3294,128,0,5544:0:0:0:0:
475,192,3294,1,0,0:0:0:0:
182,192,3294,1,0,0:0:0:0:
329,192,3481,1,0,0:0:0:0:
36,192,3669,1,0,0:0:0:0:
182,192,3856,1,0,0:0:0:0:
256,192,4044,1,0,0:0:0:0:
475,192,4044,1,0,0:0:0:0:
329,192,4231,1,0,0:0:0:0:
475,192,4419,1,0,0:0:0:0:
182,192,4606,1,0,0:0:0:0:
329,192,4606,1,0,0:0:0:0:
256,192,4700,1,0,0:0:0:0:
329,192,4794,128,0,6294:0:0:0:0:
475,192,4794,1,0,0:0:0:0:
36,192,4794,1,0,0:0:0:0:
182,192,4981,1,0,0:0:0:0:
256,192,4981,1,0,0:0:0:0:
402,192,5169,1,0,0:0:0:0:
475,192,5169,1,0,0:0:0:0:
36,192,5356,1,0,0:0:0:0:
256,192,5356,1,0,0:0:0:0:
182,192,5544,128,0,6294:0:0:0:0:
36,192,5544,1,0,0:0:0:0:
475,192,5544,1,0,0:0:0:0:
402,192,5731,1,0,0:0:0:0:
256,192,5731,1,0,0:0:0:0:
36,192,5919,1,0,0:0:0:0:
109,192,5919,1,0,0:0:0:0:
256,192,6106,1,0,0:0:0:0:
475,192,6106,1,0,0:0:0:0:
402,192,6294,1,0,0:0:0:0:
109,192,6294,1,0,0:0:0:0:
475,192,6294,128,0,8544:0:0:0:0:
36,192,6294,128,0,7794:0:0:0:0:
256,192,6481,1,0,0:0:0:0:
329,192,6669,1,0,0:0:0:0:
109,192,6856,1,0,0:0:0:0:
256,192,7044,1,0,0:0:0:0:
182,192,7231,1,0,0:0:0:0:
402,192,7419,1,0,0:0:0:0:
329,192,7606,1,0,0:0:0:0:
109,192,7794,128,0,9294:0:0:0:0:
182,192,7794,1,0,0:0:0:0:
402,192,7794,1,0,0:0:0:0:
256,192,7981,1,0,0:0:0:0:
329,192,8169,1,0,0:0:0:0:
36,192,8356,1,0,0:0:0:0:
402,192,8544,128,0,10794:0:0:0:0:
256,192,8544,1,0,0:0:0:0:
182,192,8731,1,0,0:0:0:0:
256,192,8919,1,0,0:0:0:0:
329,192,9106,1,0,0:0:0:0:
36,192,9294,128,0,11544:0:0:0:0:
475,192,9294,1,0,0:0:0:0:
182,192,9294,1,0,0:0:0:0:
256,192,9481,1,0,0:0:0:0:
109,192,9669,1,0,0:0:0:0:
182,192,9856,1,0,0:0:0:0:
475,192,10044,1,0,0:0:0:0:
256,192,10044,1,0,0:0:0:0:
329,192,10231,1,0,0:0:0:0:
256,192,10419,1,0,0:0:0:0:
182,192,10606,1,0,0:0:0:0:
256,192,10700,1,0,0:0:0:0:
475,192,10794,128,0,12294:0:0:0:0:
329,192,10794,1,0,0:0:0:0:
109,192,10794,1,0,0:0:0:0:
182,192,10981,1,0,0:0:0:0:
402,192,10981,1,0,0:0:0:0:
256,192,11169,1,0,0:0:0:0:
109,192,11169,1,0,0:0:0:0:
402,192,11356,1,0,0:0:0:0:
256,192,11356,1,0,0:0:0:0:
109,192,11544,128,0,12294:0:0:0:0:
329,192,11544,1,0,0:0:0:0:
182,192,11544,1,0,0:0:0:0:
256,192,11731,1,0,0:0:0:0:
329,192,11731,1,0,0:0:0:0:
402,192,11919,1,0,0:0:0:0:
36,192,11919,1,0,0:0:0:0:
182,192,12106,1,0,0:0:0:0:
256,192,12106,1,0,0:0:0:0:
402,192,12294,1,0,0:0:0:0:
329,192,12294,1,0,0:0:0:0:
36,192,12294,1,0,0:0:0:0:
36,192,12481,1,0,0:0:0:0:
329,192,12481,1,0,0:0:0:0:
402,192,12481,1,0,0:0:0:0:
402,192,12669,1,0,0:0:0:0:
329,192,12669,1,0,0:0:0:0:
36,192,12669,1,0,0:0:0:0:
256,192,12856,1,0,0:0:0:0:
109,192,12856,1,0,0:0:0:0:
182,192,13044,1,0,0:0:0:0:
329,192,13044,1,0,0:0:0:0:
475,192,13044,1,0,0:0:0:0:
36,192,24294,132,0,24669:0:0:0:0:
109,192,24294,128,0,24669:0:0:0:0:
475,192,24294,1,0,0:0:0:0:
182,192,24294,1,0,0:0:0:0:
256,192,24294,1,0,0:0:0:0:
329,192,24481,1,0,0:0:0:0:
402,192,24481,1,0,0:0:0:0:
182,192,24669,1,0,0:0:0:0:
256,192,24669,1,0,0:0:0:0:
475,192,24669,1,0,0:0:0:0:
329,192,24856,1,0,0:0:0:0:
109,192,25044,128,0,25419:0:0:0:0:
36,192,25044,128,0,25419:0:0:0:0:
182,192,25044,1,0,0:0:0:0:
402,192,25044,1,0,0:0:0:0:
475,192,25044,1,0,0:0:0:0:
182,192,25794,128,0,26169:0:0:0:0:
36,192,25794,128,0,26169:0:0:0:0:
182,192,26544,128,0,26919:0:0:0:0:
36,192,26544,128,0,26919:0:0:0:0:
182,192,66294,132,0,67419:0:0:0:0:
36,192,66294,1,0,0:0:0:0:
329,192,66294,1,0,0:0:0:0:
475,192,66294,128,0,66481:0:0:0:0:
256,192,66481,1,0,0:0:0:0:
329,192,66575,1,0,0:0:0:0:
475,192,66669,128,0,66856:0:0:0:0:
402,192,66669,1,0,0:0:0:0:
36,192,66669,1,0,0:0:0:0:
109,192,66669,1,0,0:0:0:0:
329,192,66762,1,0,0:0:0:0:
256,192,66856,1,0,0:0:0:0:
402,192,67044,1,0,0:0:0:0:
475,192,67044,128,0,67231:0:0:0:0:
36,192,67044,1,0,0:0:0:0:
329,192,67137,1,0,0:0:0:0:
256,192,67231,1,0,0:0:0:0:
109,192,67231,1,0,0:0:0:0:
475,192,67419,128,0,67794:0:0:0:0:
402,192,67419,1,0,0:0:0:0:
36,192,67419,1,0,0:0:0:0:
256,192,67419,1,0,0:0:0:0:
109,192,67419,128,0,67606:0:0:0:0:
182,192,67606,1,0,0:0:0:0:
256,192,67700,1,0,0:0:0:0:
329,192,67794,128,0,69294:0:0:0:0:
182,192,67794,1,0,0:0:0:0:
402,192,67794,1,0,0:0:0:0:
36,192,67794,128,0,67981:0:0:0:0:
109,192,67981,1,0,0:0:0:0:
182,192,68075,1,0,0:0:0:0:
36,192,68169,128,0,68356:0:0:0:0:
256,192,68169,1,0,0:0:0:0:
402,192,68169,1,0,0:0:0:0:
475,192,68169,1,0,0:0:0:0:
109,192,68262,1,0,0:0:0:0:
182,192,68356,1,0,0:0:0:0:
36,192,68544,128,0,68731:0:0:0:0:
109,192,68544,1,0,0:0:0:0:
402,192,68544,1,0,0:0:0:0:
475,192,68637,1,0,0:0:0:0:
402,192,68731,1,0,0:0:0:0:
36,192,68919,128,0,69106:0:0:0:0:
109,192,68919,1,0,0:0:0:0:
402,192,68919,1,0,0:0:0:0:
182,192,68919,1,0,0:0:0:0:
256,192,69106,1,0,0:0:0:0:
402,192,69200,1,0,0:0:0:0:
475,192,69294,128,0,70044:0:0:0:0:
182,192,69294,128,0,69481:0:0:0:0:
109,192,69294,1,0,0:0:0:0:
36,192,69294,1,0,0:0:0:0:
402,192,69481,1,0,0:0:0:0:
256,192,69481,1,0,0:0:0:0:
329,192,69575,1,0,0:0:0:0:
182,192,69669,128,0,69856:0:0:0:0:
109,192,69669,1,0,0:0:0:0:
36,192,69669,1,0,0:0:0:0:
402,192,69669,1,0,0:0:0:0:
329,192,69762,1,0,0:0:0:0:
256,192,69856,1,0,0:0:0:0:
36,192,70044,128,0,70325:0:0:0:0:
329,192,70044,128,0,70231:0:0:0:0:
109,192,70044,1,0,0:0:0:0:
256,192,70044,1,0,0:0:0:0:
182,192,70137,1,0,0:0:0:0:
256,192,70231,1,0,0:0:0:0:
109,192,70325,128,0,70606:0:0:0:0:
329,192,70419,128,0,70606:0:0:0:0:
256,192,70419,1,0,0:0:0:0:
475,192,70419,1,0,0:0:0:0:
182,192,70606,128,0,70794:0:0:0:0:
36,192,70794,128,0,71544:0:0:0:0:
329,192,70794,128,0,70981:0:0:0:0:
402,192,70794,128,0,71169:0:0:0:0:
256,192,70794,1,0,0:0:0:0:
475,192,70794,1,0,0:0:0:0:
182,192,70981,128,0,71356:0:0:0:0:
256,192,71169,128,0,71544:0:0:0:0:
109,192,71169,1,0,0:0:0:0:
475,192,71169,1,0,0:0:0:0:
109,192,71356,128,0,71731:0:0:0:0:
329,192,71356,1,0,0:0:0:0:
475,192,71544,128,0,72294:0:0:0:0:
329,192,71544,128,0,71919:0:0:0:0:
402,192,71544,1,0,0:0:0:0:
182,192,71731,128,0,72106:0:0:0:0:
256,192,71731,1,0,0:0:0:0:
402,192,71919,128,0,72294:0:0:0:0:
36,192,71919,1,0,0:0:0:0:
36,192,72106,128,0,72294:0:0:0:0:
109,192,72106,1,0,0:0:0:0:
256,192,72294,128,0,73419:0:0:0:0:
329,192,72294,128,0,72481:0:0:0:0:
109,192,72294,1,0,0:0:0:0:
182,192,72387,1,0,0:0:0:0:
109,192,72481,1,0,0:0:0:0:
475,192,72481,1,0,0:0:0:0:
36,192,72575,1,0,0:0:0:0:
329,192,72669,128,0,72856:0:0:0:0:
109,192,72669,1,0,0:0:0:0:
182,192,72669,1,0,0:0:0:0:
475,192,72669,1,0,0:0:0:0:
402,192,72762,1,0,0:0:0:0:
182,192,72856,1,0,0:0:0:0:
109,192,72950,1,0,0:0:0:0:
329,192,73044,128,0,73231:0:0:0:0:
36,192,73044,1,0,0:0:0:0:
475,192,73044,1,0,0:0:0:0:
182,192,73137,1,0,0:0:0:0:
36,192,73231,1,0,0:0:0:0:
475,192,73231,1,0,0:0:0:0:
109,192,73325,1,0,0:0:0:0:
402,192,73419,128,0,73794:0:0:0:0:
329,192,73419,128,0,73606:0:0:0:0:
182,192,73419,1,0,0:0:0:0:
475,192,73419,1,0,0:0:0:0:
109,192,73512,1,0,0:0:0:0:
36,192,73606,1,0,0:0:0:0:
182,192,73606,1,0,0:0:0:0:
109,192,73794,128,0,74544:0:0:0:0:
182,192,73794,128,0,73981:0:0:0:0:
256,192,73794,1,0,0:0:0:0:
475,192,73794,1,0,0:0:0:0:
36,192,73794,1,0,0:0:0:0:
329,192,73887,1,0,0:0:0:0:
402,192,73981,1,0,0:0:0:0:
329,192,74075,1,0,0:0:0:0:
182,192,74169,128,0,74356:0:0:0:0:
402,192,74169,1,0,0:0:0:0:
475,192,74169,1,0,0:0:0:0:
36,192,74169,1,0,0:0:0:0:
256,192,74262,1,0,0:0:0:0:
329,192,74356,1,0,0:0:0:0:
475,192,74356,1,0,0:0:0:0:
36,192,74450,1,0,0:0:0:0:
402,192,74544,128,0,74919:0:0:0:0:
329,192,74544,128,0,74731:0:0:0:0:
182,192,74544,1,0,0:0:0:0:
475,192,74544,1,0,0:0:0:0:
256,192,74731,1,0,0:0:0:0:
475,192,74919,128,0,75106:0:0:0:0:
36,192,74919,128,0,75106:0:0:0:0:
109,192,74919,1,0,0:0:0:0:
329,192,74919,1,0,0:0:0:0:
256,192,74919,1,0,0:0:0:0:
329,192,75106,1,0,0:0:0:0:
109,192,75106,1,0,0:0:0:0:
182,192,75200,1,0,0:0:0:0:
402,192,75200,1,0,0:0:0:0:
475,192,75294,1,0,0:0:0:0:
329,192,75294,1,0,0:0:0:0:
256,192,75294,1,0,0:0:0:0:
36,192,75294,128,0,75481:0:0:0:0:
109,192,75481,128,0,75669:0:0:0:0:
182,192,75481,1,0,0:0:0:0:
402,192,75481,1,0,0:0:0:0:
36,192,75669,128,0,75856:0:0:0:0:
329,192,75669,1,0,0:0:0:0:
475,192,75669,1,0,0:0:0:0:
475,192,75856,128,0,76044:0:0:0:0:
256,192,75856,1,0,0:0:0:0:
109,192,75856,1,0,0:0:0:0:
402,192,76044,128,0,76231:0:0:0:0:
329,192,76044,1,0,0:0:0:0:
182,192,76044,1,0,0:0:0:0:
36,192,76044,1,0,0:0:0:0:
329,192,76231,128,0,76419:0:0:0:0:
109,192,76231,1,0,0:0:0:0:
182,192,76231,1,0,0:0:0:0:
36,192,76419,1,0,0:0:0:0:
109,192,76419,1,0,0:0:0:0:
475,192,76419,1,0,0:0:0:0:
475,192,76606,1,0,0:0:0:0:
256,192,76606,1,0,0:0:0:0:
182,192,76606,128,0,76794:0:0:0:0:
402,192,76700,1,0,0:0:0:0:
329,192,76700,1,0,0:0:0:0:
256,192,76794,1,0,0:0:0:0:
475,192,76794,1,0,0:0:0:0:
109,192,76794,128,0,76981:0:0:0:0:
36,192,76981,128,0,77169:0:0:0:0:
329,192,76981,1,0,0:0:0:0:
402,192,76981,1,0,0:0:0:0:
475,192,77169,128,0,77356:0:0:0:0:
256,192,77169,1,0,0:0:0:0:
109,192,77169,1,0,0:0:0:0:
402,192,77169,1,0,0:0:0:0:
402,192,77356,128,0,77544:0:0:0:0:
182,192,77356,1,0,0:0:0:0:
329,192,77356,1,0,0:0:0:0:
109,192,77544,128,0,77731:0:0:0:0:
182,192,77544,1,0,0:0:0:0:
36,192,77544,1,0,0:0:0:0:
329,192,77544,1,0,0:0:0:0:
256,192,77637,1,0,0:0:0:0:
182,192,77731,128,0,77919:0:0:0:0:
329,192,77731,1,0,0:0:0:0:
402,192,77919,128,0,78106:0:0:0:0:
475,192,77919,1,0,0:0:0:0:
256,192,77919,1,0,0:0:0:0:
36,192,77919,1,0,0:0:0:0:
109,192,78012,1,0,0:0:0:0:
329,192,78106,128,0,78294:0:0:0:0:
36,192,78106,1,0,0:0:0:0:
36,192,78294,128,0,78481:0:0:0:0:
109,192,78294,1,0,0:0:0:0:
256,192,78294,1,0,0:0:0:0:
402,192,78294,1,0,0:0:0:0:
182,192,78387,1,0,0:0:0:0:
109,192,78481,128,0,78669:0:0:0:0:
256,192,78481,1,0,0:0:0:0:
475,192,78669,128,0,78856:0:0:0:0:
402,192,78669,1,0,0:0:0:0:
182,192,78669,1,0,0:0:0:0:
36,192,78669,1,0,0:0:0:0:
329,192,78762,1,0,0:0:0:0:
402,192,78856,128,0,79044:0:0:0:0:
256,192,78856,1,0,0:0:0:0:
109,192,79044,1,0,0:0:0:0:
36,192,79044,1,0,0:0:0:0:
475,192,79044,1,0,0:0:0:0:
256,192,79137,1,0,0:0:0:0:
182,192,79137,1,0,0:0:0:0:
402,192,79231,1,0,0:0:0:0:
475,192,79231,1,0,0:0:0:0:
109,192,79231,1,0,0:0:0:0:
36,192,79231,1,0,0:0:0:0:
329,192,79325,1,0,0:0:0:0:
256,192,79325,1,0,0:0:0:0:
475,192,79419,1,0,0:0:0:0:
402,192,79419,1,0,0:0:0:0:
109,192,79419,1,0,0:0:0:0:
36,192,79419,1,0,0:0:0:0:
182,192,79512,1,0,0:0:0:0:
256,192,79512,1,0,0:0:0:0:
329,192,79606,1,0,0:0:0:0:
402,192,79606,1,0,0:0:0:0:
182,192,79653,1,0,0:0:0:0:
109,192,79653,1,0,0:0:0:0:
329,192,79700,1,0,0:0:0:0:
402,192,79700,1,0,0:0:0:0:
182,192,79747,1,0,0:0:0:0:
109,192,79747,1,0,0:0:0:0:
36,192,79794,1,0,0:0:0:0:
402,192,79794,1,0,0:0:0:0:
475,192,79794,1,0,0:0:0:0:
256,192,79794,1,0,0:0:0:0:
329,192,79887,1,0,0:0:0:0:
256,192,79981,1,0,0:0:0:0:
182,192,79981,1,0,0:0:0:0:
475,192,79981,1,0,0:0:0:0:
109,192,80075,1,0,0:0:0:0:
36,192,80169,1,0,0:0:0:0:
256,192,80169,1,0,0:0:0:0:
402,192,80169,1,0,0:0:0:0:
329,192,80262,1,0,0:0:0:0:
182,192,80356,1,0,0:0:0:0:
109,192,80356,1,0,0:0:0:0:
475,192,80356,1,0,0:0:0:0:
256,192,80450,1,0,0:0:0:0:
329,192,80544,1,0,0:0:0:0:
402,192,80544,1,0,0:0:0:0:
36,192,80544,1,0,0:0:0:0:
109,192,80544,1,0,0:0:0:0:
182,192,80637,1,0,0:0:0:0:
256,192,80731,1,0,0:0:0:0:
329,192,80731,1,0,0:0:0:0:
475,192,80731,1,0,0:0:0:0:
402,192,80825,1,0,0:0:0:0:
182,192,80919,1,0,0:0:0:0:
36,192,80919,1,0,0:0:0:0:
329,192,80919,1,0,0:0:0:0:
256,192,81012,1,0,0:0:0:0:
109,192,81106,1,0,0:0:0:0:
182,192,81106,1,0,0:0:0:0:
475,192,81106,1,0,0:0:0:0:
402,192,81200,1,0,0:0:0:0:
329,192,81200,1,0,0:0:0:0:
475,192,81294,1,0,0:0:0:0:
182,192,81294,1,0,0:0:0:0:
109,192,81294,1,0,0:0:0:0:
36,192,81294,1,0,0:0:0:0:
256,192,81387,1,0,0:0:0:0:
329,192,81481,1,0,0:0:0:0:
402,192,81481,1,0,0:0:0:0:
109,192,81481,1,0,0:0:0:0:
475,192,81575,1,0,0:0:0:0:
402,192,81669,1,0,0:0:0:0:
182,192,81669,1,0,0:0:0:0:
36,192,81669,1,0,0:0:0:0:
256,192,81762,1,0,0:0:0:0:
329,192,81856,1,0,0:0:0:0:
475,192,81856,1,0,0:0:0:0:
109,192,81856,1,0,0:0:0:0:
182,192,81950,1,0,0:0:0:0:
36,192,82044,1,0,0:0:0:0:
109,192,82044,1,0,0:0:0:0:
402,192,82044,1,0,0:0:0:0:
329,192,82137,1,0,0:0:0:0:
36,192,82231,1,0,0:0:0:0:
475,192,82231,1,0,0:0:0:0:
182,192,82231,1,0,0:0:0:0:
256,192,82325,1,0,0:0:0:0:
182,192,82419,1,0,0:0:0:0:
36,192,82419,1,0,0:0:0:0:
109,192,82419,1,0,0:0:0:0:
475,192,82512,1,0,0:0:0:0:
329,192,82512,1,0,0:0:0:0:
182,192,82559,1,0,0:0:0:0:
36,192,82559,1,0,0:0:0:0:
329,192,82606,1,0,0:0:0:0:
475,192,82606,1,0,0:0:0:0:
182,192,82700,1,0,0:0:0:0:
36,192,82700,1,0,0:0:0:0:
256,192,82700,1,0,0:0:0:0:
475,192,82794,1,0,0:0:0:0:
402,192,82794,1,0,0:0:0:0:
329,192,82794,1,0,0:0:0:0:
109,192,82794,1,0,0:0:0:0:
182,192,82887,1,0,0:0:0:0:
256,192,82981,1,0,0:0:0:0:
475,192,82981,1,0,0:0:0:0:
36,192,82981,1,0,0:0:0:0:
402,192,83075,1,0,0:0:0:0:
182,192,83169,1,0,0:0:0:0:
329,192,83169,1,0,0:0:0:0:
109,192,83169,1,0,0:0:0:0:
36,192,83262,1,0,0:0:0:0:
109,192,83356,1,0,0:0:0:0:
256,192,83356,1,0,0:0:0:0:
402,192,83356,1,0,0:0:0:0:
329,192,83450,1,0,0:0:0:0:
182,192,83544,1,0,0:0:0:0:
256,192,83544,1,0,0:0:0:0:
36,192,83544,1,0,0:0:0:0:
475,192,83544,1,0,0:0:0:0:
402,192,83637,1,0,0:0:0:0:
329,192,83731,1,0,0:0:0:0:
182,192,83731,1,0,0:0:0:0:
109,192,83731,1,0,0:0:0:0:
256,192,83825,1,0,0:0:0:0:
329,192,83919,1,0,0:0:0:0:
475,192,83919,1,0,0:0:0:0:
36,192,83919,1,0,0:0:0:0:
109,192,84012,1,0,0:0:0:0:
182,192,84106,1,0,0:0:0:0:
402,192,84106,1,0,0:0:0:0:
256,192,84106,1,0,0:0:0:0:
329,192,84200,1,0,0:0:0:0:
109,192,84200,1,0,0:0:0:0:
36,192,84294,1,0,0:0:0:0:
182,192,84294,1,0,0:0:0:0:
256,192,84294,1,0,0:0:0:0:
475,192,84294,1,0,0:0:0:0:
402,192,84387,1,0,0:0:0:0:
256,192,84481,1,0,0:0:0:0:
329,192,84481,1,0,0:0:0:0:
109,192,84481,1,0,0:0:0:0:
182,192,84575,1,0,0:0:0:0:
329,192,84669,1,0,0:0:0:0:
475,192,84669,1,0,0:0:0:0:
36,192,84669,1,0,0:0:0:0:
256,192,84762,1,0,0:0:0:0:
182,192,84856,1,0,0:0:0:0:
109,192,84856,1,0,0:0:0:0:
402,192,84856,1,0,0:0:0:0:
329,192,84950,1,0,0:0:0:0:
109,192,85044,1,0,0:0:0:0:
36,192,85044,1,0,0:0:0:0:
475,192,85044,1,0,0:0:0:0:
182,192,85044,1,0,0:0:0:0:
182,192,85137,1,0,0:0:0:0:
109,192,85137,1,0,0:0:0:0:
36,192,85137,1,0,0:0:0:0:
329,192,85231,1,0,0:0:0:0:
475,192,85231,1,0,0:0:0:0:
402,192,85231,1,0,0:0:0:0:
475,192,85325,1,0,0:0:0:0:
402,192,85325,1,0,0:0:0:0:
329,192,85325,1,0,0:0:0:0:
36,192,85419,1,0,0:0:0:0:
109,192,85442,1,0,0:0:0:0:
182,192,85465,1,0,0:0:0:0:
329,192,85489,1,0,0:0:0:0:
402,192,85512,1,0,0:0:0:0:
475,192,85536,1,0,0:0:0:0:
36,192,85559,1,0,0:0:0:0:
109,192,85583,1,0,0:0:0:0:
182,192,85606,1,0,0:0:0:0:
329,192,85629,1,0,0:0:0:0:
402,192,85653,1,0,0:0:0:0:
475,192,85676,1,0,0:0:0:0:
256,192,85700,1,0,0:0:0:0:
182,192,85723,1,0,0:0:0:0:
109,192,85747,1,0,0:0:0:0:
36,192,85770,1,0,0:0:0:0:
329,192,85794,1,0,0:0:0:0:
475,192,85794,1,0,0:0:0:0:
402,192,85887,1,0,0:0:0:0:
329,192,85981,1,0,0:0:0:0:
256,192,85981,1,0,0:0:0:0:
36,192,85981,1,0,0:0:0:0:
109,192,86075,1,0,0:0:0:0:
182,192,86169,1,0,0:0:0:0:
329,192,86169,1,0,0:0:0:0:
475,192,86169,1,0,0:0:0:0:
402,192,86262,1,0,0:0:0:0:
256,192,86356,1,0,0:0:0:0:
182,192,86356,1,0,0:0:0:0:
36,192,86356,1,0,0:0:0:0:
109,192,86450,1,0,0:0:0:0:
182,192,86544,1,0,0:0:0:0:
256,192,86544,1,0,0:0:0:0:
475,192,86544,1,0,0:0:0:0:
402,192,86544,1,0,0:0:0:0:
329,192,86637,1,0,0:0:0:0:
182,192,86731,1,0,0:0:0:0:
36,192,86731,1,0,0:0:0:0:
475,192,86731,1,0,0:0:0:0:
256,192,86825,1,0,0:0:0:0:
329,192,86919,1,0,0:0:0:0:
402,192,86919,1,0,0:0:0:0:
109,192,86919,1,0,0:0:0:0:
182,192,87012,1,0,0:0:0:0:
36,192,87106,1,0,0:0:0:0:
256,192,87106,1,0,0:0:0:0:
475,192,87106,1,0,0:0:0:0:
402,192,87200,1,0,0:0:0:0:
329,192,87294,1,0,0:0:0:0:
256,192,87294,1,0,0:0:0:0:
109,192,87294,1,0,0:0:0:0:
182,192,87387,1,0,0:0:0:0:
402,192,87481,1,0,0:0:0:0:
475,192,87481,1,0,0:0:0:0:
36,192,87481,1,0,0:0:0:0:
329,192,87575,1,0,0:0:0:0:
256,192,87669,1,0,0:0:0:0:
182,192,87669,1,0,0:0:0:0:
109,192,87669,1,0,0:0:0:0:
475,192,87762,1,0,0:0:0:0:
402,192,87856,1,0,0:0:0:0:
36,192,87856,1,0,0:0:0:0:
182,192,87856,1,0,0:0:0:0:
256,192,87950,1,0,0:0:0:0:
329,192,88044,1,0,0:0:0:0:
475,192,88044,1,0,0:0:0:0:
182,192,88044,1,0,0:0:0:0:
109,192,88137,1,0,0:0:0:0:
36,192,88231,1,0,0:0:0:0:
256,192,88231,1,0,0:0:0:0:
329,192,88231,1,0,0:0:0:0:
402,192,88325,1,0,0:0:0:0:
475,192,88419,1,0,0:0:0:0:
329,192,88419,1,0,0:0:0:0:
256,192,88419,1,0,0:0:0:0:
182,192,88512,1,0,0:0:0:0:
36,192,88512,1,0,0:0:0:0:
329,192,88559,1,0,0:0:0:0:
475,192,88559,1,0,0:0:0:0:
182,192,88606,1,0,0:0:0:0:
36,192,88606,1,0,0:0:0:0:
329,192,88700,1,0,0:0:0:0:
475,192,88700,1,0,0:0:0:0:
109,192,88700,1,0,0:0:0:0:
182,192,88794,1,0,0:0:0:0:
256,192,88794,1,0,0:0:0:0:
402,192,88794,1,0,0:0:0:0:
36,192,88794,1,0,0:0:0:0:
329,192,88887,1,0,0:0:0:0:
475,192,88981,1,0,0:0:0:0:
402,192,88981,1,0,0:0:0:0:
109,192,88981,1,0,0:0:0:0:
256,192,89075,1,0,0:0:0:0:
182,192,89169,1,0,0:0:0:0:
36,192,89169,1,0,0:0:0:0:
329,192,89169,1,0,0:0:0:0:
109,192,89262,1,0,0:0:0:0:
256,192,89356,1,0,0:0:0:0:
329,192,89356,1,0,0:0:0:0:
475,192,89356,1,0,0:0:0:0:
182,192,89450,1,0,0:0:0:0:
402,192,89544,1,0,0:0:0:0:
36,192,89544,1,0,0:0:0:0:
109,192,89544,1,0,0:0:0:0:
475,192,89544,1,0,0:0:0:0:
329,192,89637,1,0,0:0:0:0:
256,192,89731,1,0,0:0:0:0:
109,192,89731,1,0,0:0:0:0:
475,192,89731,1,0,0:0:0:0:
182,192,89825,1,0,0:0:0:0:
36,192,89919,1,0,0:0:0:0:
329,192,89919,1,0,0:0:0:0:
402,192,89919,1,0,0:0:0:0:
256,192,90012,1,0,0:0:0:0:
475,192,90106,1,0,0:0:0:0:
329,192,90106,1,0,0:0:0:0:
109,192,90106,1,0,0:0:0:0:
182,192,90200,1,0,0:0:0:0:
256,192,90200,1,0,0:0:0:0:
36,192,90294,1,0,0:0:0:0:
329,192,90294,1,0,0:0:0:0:
109,192,90294,1,0,0:0:0:0:
475,192,90294,1,0,0:0:0:0:
402,192,90387,1,0,0:0:0:0:
329,192,90481,1,0,0:0:0:0:
182,192,90481,1,0,0:0:0:0:
109,192,90481,1,0,0:0:0:0:
256,192,90575,1,0,0:0:0:0:
109,192,90669,1,0,0:0:0:0:
36,192,90669,1,0,0:0:0:0:
402,192,90669,1,0,0:0:0:0:
182,192,90762,1,0,0:0:0:0:
256,192,90856,1,0,0:0:0:0:
329,192,90856,1,0,0:0:0:0:
475,192,90856,1,0,0:0:0:0:
402,192,90950,1,0,0:0:0:0:
182,192,91044,1,0,0:0:0:0:
36,192,91044,1,0,0:0:0:0:
475,192,91044,1,0,0:0:0:0:
329,192,91044,1,0,0:0:0:0:
182,192,91137,1,0,0:0:0:0:
36,192,91137,1,0,0:0:0:0:
256,192,91231,1,0,0:0:0:0:
329,192,91231,1,0,0:0:0:0:
402,192,91325,1,0,0:0:0:0:
475,192,91325,1,0,0:0:0:0:
109,192,91325,1,0,0:0:0:0:
182,192,91325,1,0,0:0:0:0:
36,192,91419,1,0,0:0:0:0:
256,192,91419,1,0,0:0:0:0:
329,192,91419,128,0,91606:0:0:0:0:
402,192,91512,128,0,91606:0:0:0:0:
475,192,91512,128,0,91606:0:0:0:0:
256,192,91606,1,0,0:0:0:0:
36,192,91606,1,0,0:0:0:0:
109,192,91606,1,0,0:0:0:0:
36,192,91700,1,0,0:0:0:0:
256,192,91700,1,0,0:0:0:0:
256,192,91794,1,0,0:0:0:0:
36,192,91794,1,0,0:0:0:0:
329,192,91794,1,0,0:0:0:0:
475,192,91794,1,0,0:0:0:0:
402,192,91887,1,0,0:0:0:0:
182,192,91981,1,0,0:0:0:0:
329,192,91981,1,0,0:0:0:0:
109,192,91981,1,0,0:0:0:0:
36,192,92075,1,0,0:0:0:0:
109,192,92169,1,0,0:0:0:0:
256,192,92169,1,0,0:0:0:0:
475,192,92169,1,0,0:0:0:0:
402,192,92262,1,0,0:0:0:0:
329,192,92356,1,0,0:0:0:0:
256,192,92356,1,0,0:0:0:0:
36,192,92356,1,0,0:0:0:0:
182,192,92450,1,0,0:0:0:0:
329,192,92544,1,0,0:0:0:0:
475,192,92544,1,0,0:0:0:0:
109,192,92544,1,0,0:0:0:0:
402,192,92637,1,0,0:0:0:0:
329,192,92731,1,0,0:0:0:0:
256,192,92731,1,0,0:0:0:0:
36,192,92731,1,0,0:0:0:0:
182,192,92825,1,0,0:0:0:0:
402,192,92919,1,0,0:0:0:0:
475,192,92919,1,0,0:0:0:0:
256,192,92919,1,0,0:0:0:0:
329,192,93012,1,0,0:0:0:0:
109,192,93106,1,0,0:0:0:0:
256,192,93106,1,0,0:0:0:0:
36,192,93106,1,0,0:0:0:0:
182,192,93200,1,0,0:0:0:0:
329,192,93200,1,0,0:0:0:0:
256,192,93294,1,0,0:0:0:0:
402,192,93294,1,0,0:0:0:0:
475,192,93294,1,0,0:0:0:0:
182,192,93387,1,0,0:0:0:0:
109,192,93481,1,0,0:0:0:0:
36,192,93481,1,0,0:0:0:0:
329,192,93481,1,0,0:0:0:0:
402,192,93575,1,0,0:0:0:0:
475,192,93669,1,0,0:0:0:0:
256,192,93669,1,0,0:0:0:0:
182,192,93669,1,0,0:0:0:0:
109,192,93762,1,0,0:0:0:0:
475,192,93856,1,0,0:0:0:0:
36,192,93856,1,0,0:0:0:0:
256,192,93856,1,0,0:0:0:0:
329,192,93950,1,0,0:0:0:0:
182,192,94044,1,0,0:0:0:0:
109,192,94044,1,0,0:0:0:0:
402,192,94044,1,0,0:0:0:0:
329,192,94137,1,0,0:0:0:0:
256,192,94231,1,0,0:0:0:0:
36,192,94231,1,0,0:0:0:0:
475,192,94231,1,0,0:0:0:0:
109,192,94325,1,0,0:0:0:0:
182,192,94419,1,0,0:0:0:0:
256,192,94419,1,0,0:0:0:0:
402,192,94419,1,0,0:0:0:0:
329,192,94512,1,0,0:0:0:0:
475,192,94512,1,0,0:0:0:0:
256,192,94559,1,0,0:0:0:0:
182,192,94606,1,0,0:0:0:0:
36,192,94606,1,0,0:0:0:0:
329,192,94700,1,0,0:0:0:0:
475,192,94700,1,0,0:0:0:0:
182,192,94794,1,0,0:0:0:0:
36,192,94794,1,0,0:0:0:0:
402,192,94794,1,0,0:0:0:0:
109,192,94794,1,0,0:0:0:0:
256,192,94887,1,0,0:0:0:0:
329,192,94981,1,0,0:0:0:0:
475,192,94981,1,0,0:0:0:0:
109,192,94981,1,0,0:0:0:0:
402,192,95075,1,0,0:0:0:0:
256,192,95169,1,0,0:0:0:0:
36,192,95169,1,0,0:0:0:0:
329,192,95169,1,0,0:0:0:0:
109,192,95262,1,0,0:0:0:0:
182,192,95356,1,0,0:0:0:0:
475,192,95356,1,0,0:0:0:0:
402,192,95356,1,0,0:0:0:0:
329,192,95450,1,0,0:0:0:0:
256,192,95544,1,0,0:0:0:0:
36,192,95544,1,0,0:0:0:0:
109,192,95544,1,0,0:0:0:0:
475,192,95544,1,0,0:0:0:0:
402,192,95637,1,0,0:0:0:0:
329,192,95731,1,0,0:0:0:0:
182,192,95731,1,0,0:0:0:0:
109,192,95731,1,0,0:0:0:0:
256,192,95825,1,0,0:0:0:0:
36,192,95919,1,0,0:0:0:0:
109,192,95919,1,0,0:0:0:0:
475,192,95919,1,0,0:0:0:0:
402,192,96012,1,0,0:0:0:0:
329,192,96106,1,0,0:0:0:0:
109,192,96106,1,0,0:0:0:0:
182,192,96106,1,0,0:0:0:0:
256,192,96200,1,0,0:0:0:0:
329,192,96294,1,0,0:0:0:0:
475,192,96294,1,0,0:0:0:0:
36,192,96294,1,0,0:0:0:0:
109,192,96387,1,0,0:0:0:0:
182,192,96481,1,0,0:0:0:0:
256,192,96481,1,0,0:0:0:0:
402,192,96481,1,0,0:0:0:0:
329,192,96575,1,0,0:0:0:0:
36,192,96669,1,0,0:0:0:0:
109,192,96669,1,0,0:0:0:0:
475,192,96669,1,0,0:0:0:0:
402,192,96762,1,0,0:0:0:0:
182,192,96856,1,0,0:0:0:0:
256,192,96856,1,0,0:0:0:0:
329,192,96856,1,0,0:0:0:0:
109,192,96950,1,0,0:0:0:0:
36,192,97044,1,0,0:0:0:0:
256,192,97044,1,0,0:0:0:0:
402,192,97044,1,0,0:0:0:0:
475,192,97044,1,0,0:0:0:0:
329,192,97137,1,0,0:0:0:0:
182,192,97137,1,0,0:0:0:0:
109,192,97231,1,0,0:0:0:0:
36,192,97231,1,0,0:0:0:0:
256,192,97231,1,0,0:0:0:0:
329,192,97325,1,0,0:0:0:0:
475,192,97325,1,0,0:0:0:0:
36,192,97419,1,0,0:0:0:0:
109,192,97442,1,0,0:0:0:0:
182,192,97465,1,0,0:0:0:0:
329,192,97489,1,0,0:0:0:0:
402,192,97512,1,0,0:0:0:0:
475,192,97536,1,0,0:0:0:0:
182,192,97559,1,0,0:0:0:0:
109,192,97583,1,0,0:0:0:0:
36,192,97606,1,0,0:0:0:0:
475,192,97629,1,0,0:0:0:0:
402,192,97653,1,0,0:0:0:0:
329,192,97676,1,0,0:0:0:0:
256,192,97700,1,0,0:0:0:0:
182,192,97723,1,0,0:0:0:0:
109,192,97747,1,0,0:0:0:0:
36,192,97770,1,0,0:0:0:0:
329,192,97794,1,0,0:0:0:0:
475,192,97794,1,0,0:0:0:0:
402,192,97887,1,0,0:0:0:0:
256,192,97981,1,0,0:0:0:0:
109,192,97981,1,0,0:0:0:0:
329,192,97981,1,0,0:0:0:0:
182,192,98075,1,0,0:0:0:0:
256,192,98169,1,0,0:0:0:0:
36,192,98169,1,0,0:0:0:0:
475,192,98169,1,0,0:0:0:0:
402,192,98262,1,0,0:0:0:0:
329,192,98356,1,0,0:0:0:0:
109,192,98356,1,0,0:0:0:0:
182,192,98356,1,0,0:0:0:0:
256,192,98450,1,0,0:0:0:0:
36,192,98544,1,0,0:0:0:0:
109,192,98544,1,0,0:0:0:0:
475,192,98544,1,0,0:0:0:0:
402,192,98637,1,0,0:0:0:0:
329,192,98731,1,0,0:0:0:0:
256,192,98731,1,0,0:0:0:0:
109,192,98731,1,0,0:0:0:0:
182,192,98825,1,0,0:0:0:0:
256,192,98919,1,0,0:0:0:0:
475,192,98919,1,0,0:0:0:0:
36,192,98919,1,0,0:0:0:0:
402,192,99012,1,0,0:0:0:0:
329,192,99106,1,0,0:0:0:0:
109,192,99106,1,0,0:0:0:0:
182,192,99106,1,0,0:0:0:0:
256,192,99200,1,0,0:0:0:0:
475,192,99294,1,0,0:0:0:0:
329,192,99294,1,0,0:0:0:0:
36,192,99294,1,0,0:0:0:0:
109,192,99294,1,0,0:0:0:0:
402,192,99387,1,0,0:0:0:0:
329,192,99481,1,0,0:0:0:0:
182,192,99481,1,0,0:0:0:0:
109,192,99481,1,0,0:0:0:0:
36,192,99575,1,0,0:0:0:0:
109,192,99669,1,0,0:0:0:0:
256,192,99669,1,0,0:0:0:0:
475,192,99669,1,0,0:0:0:0:
402,192,99762,1,0,0:0:0:0:
329,192,99856,1,0,0:0:0:0:
256,192,99856,1,0,0:0:0:0:
36,192,99856,1,0,0:0:0:0:
182,192,99950,1,0,0:0:0:0:
109,192,100044,1,0,0:0:0:0:
329,192,100044,1,0,0:0:0:0:
475,192,100044,1,0,0:0:0:0:
402,192,100137,1,0,0:0:0:0:
329,192,100231,1,0,0:0:0:0:
256,192,100231,1,0,0:0:0:0:
182,192,100231,1,0,0:0:0:0:
109,192,100325,1,0,0:0:0:0:
36,192,100419,1,0,0:0:0:0:
256,192,100419,1,0,0:0:0:0:
475,192,100419,1,0,0:0:0:0:
402,192,100512,1,0,0:0:0:0:
329,192,100512,1,0,0:0:0:0:
256,192,100559,1,0,0:0:0:0:
109,192,100606,1,0,0:0:0:0:
182,192,100606,1,0,0:0:0:0:
475,192,100700,1,0,0:0:0:0:
329,192,100700,1,0,0:0:0:0:
402,192,100700,1,0,0:0:0:0:
256,192,100794,1,0,0:0:0:0:
182,192,100794,1,0,0:0:0:0:
36,192,100794,1,0,0:0:0:0:
109,192,100840,1,0,0:0:0:0:
182,192,100887,1,0,0:0:0:0:
256,192,100934,1,0,0:0:0:0:
475,192,100981,1,0,0:0:0:0:
402,192,101028,1,0,0:0:0:0:
329,192,101075,1,0,0:0:0:0:
182,192,101122,1,0,0:0:0:0:
256,192,101169,1,0,0:0:0:0:
329,192,101215,1,0,0:0:0:0:
182,192,101262,1,0,0:0:0:0:
109,192,101309,1,0,0:0:0:0:
36,192,101356,1,0,0:0:0:0:
109,192,101403,1,0,0:0:0:0:
182,192,101450,1,0,0:0:0:0:
256,192,101497,1,0,0:0:0:0:
475,192,101544,1,0,0:0:0:0:
402,192,101590,1,0,0:0:0:0:
329,192,101637,1,0,0:0:0:0:
256,192,101684,1,0,0:0:0:0:
36,192,101731,1,0,0:0:0:0:
109,192,101778,1,0,0:0:0:0:
182,192,101825,1,0,0:0:0:0:
475,192,101919,1,0,0:0:0:0:
402,192,101965,1,0,0:0:0:0:
329,192,102012,1,0,0:0:0:0:
256,192,102059,1,0,0:0:0:0:
182,192,102106,1,0,0:0:0:0:
109,192,102153,1,0,0:0:0:0:
329,192,102200,1,0,0:0:0:0:
402,192,102247,1,0,0:0:0:0:
475,192,102294,1,0,0:0:0:0:
256,192,102294,1,0,0:0:0:0:
182,192,102340,1,0,0:0:0:0:
402,192,102340,1,0,0:0:0:0:
109,192,102387,1,0,0:0:0:0:
329,192,102387,1,0,0:0:0:0:
36,192,102434,1,0,0:0:0:0:
256,192,102434,1,0,0:0:0:0:
109,192,102481,1,0,0:0:0:0:
475,192,102481,1,0,0:0:0:0:
402,192,102528,1,0,0:0:0:0:
182,192,102528,1,0,0:0:0:0:
329,192,102575,1,0,0:0:0:0:
256,192,102575,1,0,0:0:0:0:
182,192,102622,1,0,0:0:0:0:
402,192,102622,1,0,0:0:0:0:
109,192,102669,1,0,0:0:0:0:
475,192,102669,1,0,0:0:0:0:
402,192,102715,1,0,0:0:0:0:
36,192,102715,1,0,0:0:0:0:
329,192,102762,1,0,0:0:0:0:
109,192,102762,1,0,0:0:0:0:
256,192,102809,1,0,0:0:0:0:
182,192,102809,1,0,0:0:0:0:
329,192,102856,1,0,0:0:0:0:
36,192,102856,1,0,0:0:0:0:
402,192,102903,1,0,0:0:0:0:
109,192,102903,1,0,0:0:0:0:
182,192,102950,1,0,0:0:0:0:
475,192,102950,1,0,0:0:0:0:
256,192,102997,1,0,0:0:0:0:
402,192,102997,1,0,0:0:0:0:
329,192,103044,1,0,0:0:0:0:
36,192,103044,1,0,0:0:0:0:
109,192,103067,1,0,0:0:0:0:
182,192,103090,1,0,0:0:0:0:
329,192,103114,1,0,0:0:0:0:
402,192,103137,1,0,0:0:0:0:
475,192,103161,1,0,0:0:0:0:
36,192,103184,1,0,0:0:0:0:
109,192,103208,1,0,0:0:0:0:
182,192,103231,1,0,0:0:0:0:
329,192,103254,1,0,0:0:0:0:
402,192,103278,1,0,0:0:0:0:
475,192,103301,1,0,0:0:0:0:
36,192,103325,1,0,0:0:0:0:
109,192,103348,1,0,0:0:0:0:
182,192,103372,1,0,0:0:0:0:
329,192,103395,1,0,0:0:0:0:
402,192,103419,1,0,0:0:0:0:
475,192,103442,1,0,0:0:0:0:
36,192,103465,1,0,0:0:0:0:
109,192,103489,1,0,0:0:0:0:
182,192,103512,1,0,0:0:0:0:
329,192,103536,1,0,0:0:0:0:
402,192,103559,1,0,0:0:0:0:
475,192,103583,1,0,0:0:0:0:
36,192,103606,1,0,0:0:0:0:
109,192,103629,1,0,0:0:0:0:
182,192,103653,1,0,0:0:0:0:
329,192,103676,1,0,0:0:0:0:
402,192,103700,1,0,0:0:0:0:
475,192,103723,1,0,0:0:0:0:
36,192,103747,1,0,0:0:0:0:
109,192,103770,1,0,0:0:0:0:
182,192,103794,1,0,0:0:0:0:
256,192,103794,1,0,0:0:0:0:
329,192,103794,1,0,0:0:0:0:
256,192,103887,1,0,0:0:0:0:
329,192,103887,1,0,0:0:0:0:
402,192,103981,1,0,0:0:0:0:
475,192,103981,1,0,0:0:0:0:
182,192,103981,1,0,0:0:0:0:
36,192,103981,1,0,0:0:0:0:
256,192,104075,1,0,0:0:0:0:
329,192,104075,1,0,0:0:0:0:
329,192,104169,1,0,0:0:0:0:
256,192,104169,1,0,0:0:0:0:
182,192,104262,1,0,0:0:0:0:
475,192,104356,1,0,0:0:0:0:
36,192,104356,1,0,0:0:0:0:
109,192,104356,1,0,0:0:0:0:
402,192,104450,1,0,0:0:0:0:
329,192,104544,1,0,0:0:0:0:
182,192,104544,1,0,0:0:0:0:
36,192,104544,1,0,0:0:0:0:
182,192,104637,1,0,0:0:0:0:
36,192,104637,1,0,0:0:0:0:
256,192,104731,1,0,0:0:0:0:
329,192,104731,1,0,0:0:0:0:
475,192,104731,1,0,0:0:0:0:
182,192,104825,1,0,0:0:0:0:
36,192,104825,1,0,0:0:0:0:
182,192,104919,1,0,0:0:0:0:
36,192,104919,1,0,0:0:0:0:
256,192,105012,1,0,0:0:0:0:
329,192,105106,1,0,0:0:0:0:
109,192,105106,1,0,0:0:0:0:
475,192,105106,1,0,0:0:0:0:
402,192,105200,1,0,0:0:0:0:
182,192,105294,1,0,0:0:0:0:
36,192,105294,1,0,0:0:0:0:
329,192,105294,1,0,0:0:0:0:
329,192,105387,1,0,0:0:0:0:
182,192,105387,1,0,0:0:0:0:
109,192,105481,1,0,0:0:0:0:
36,192,105481,1,0,0:0:0:0:
475,192,105481,1,0,0:0:0:0:
329,192,105575,1,0,0:0:0:0:
182,192,105575,1,0,0:0:0:0:
329,192,105669,1,0,0:0:0:0:
182,192,105669,1,0,0:0:0:0:
475,192,232430,5,0,0:0:0:0:
402,192,232430,1,0,0:0:0:0:
182,192,232430,1,0,0:0:0:0:
36,192,232430,1,0,0:0:0:0:
109,192,232430,1,0,0:0:0:0:
329,192,232513,1,0,0:0:0:0:
256,192,232513,1,0,0:0:0:0:
182,192,232597,1,0,0:0:0:0:
36,192,232597,1,0,0:0:0:0:
402,192,232597,1,0,0:0:0:0:
109,192,232680,1,0,0:0:0:0:
475,192,232680,1,0,0:0:0:0:
402,192,232763,1,0,0:0:0:0:
256,192,232763,1,0,0:0:0:0:
182,192,232763,1,0,0:0:0:0:
36,192,232847,1,0,0:0:0:0:
329,192,232847,1,0,0:0:0:0:
109,192,232930,1,0,0:0:0:0:
182,192,232930,1,0,0:0:0:0:
475,192,232930,1,0,0:0:0:0:
402,192,233013,1,0,0:0:0:0:
329,192,233013,1,0,0:0:0:0:
256,192,233097,1,0,0:0:0:0:
109,192,233097,1,0,0:0:0:0:
36,192,233097,1,0,0:0:0:0:
475,192,233097,1,0,0:0:0:0:
182,192,233180,1,0,0:0:0:0:
402,192,233180,1,0,0:0:0:0:
329,192,233263,1,0,0:0:0:0:
256,192,233263,1,0,0:0:0:0:
36,192,233263,1,0,0:0:0:0:
109,192,233347,1,0,0:0:0:0:
182,192,233347,1,0,0:0:0:0:
256,192,233430,1,0,0:0:0:0:
329,192,233430,1,0,0:0:0:0:
475,192,233430,1,0,0:0:0:0:
402,192,233513,1,0,0:0:0:0:
36,192,233513,1,0,0:0:0:0:
109,192,233597,1,0,0:0:0:0:
182,192,233597,1,0,0:0:0:0:
329,192,233597,1,0,0:0:0:0:
256,192,233680,1,0,0:0:0:0:
475,192,233680,1,0,0:0:0:0:
402,192,233763,1,0,0:0:0:0:
329,192,233763,1,0,0:0:0:0:
109,192,233763,1,0,0:0:0:0:
36,192,233763,1,0,0:0:0:0:
182,192,233847,1,0,0:0:0:0:
256,192,233847,1,0,0:0:0:0:
475,192,233930,1,0,0:0:0:0:
329,192,233930,1,0,0:0:0:0:
36,192,233930,1,0,0:0:0:0:
109,192,234013,1,0,0:0:0:0:
256,192,234013,1,0,0:0:0:0:
182,192,234097,1,0,0:0:0:0:
329,192,234097,1,0,0:0:0:0:
402,192,234097,1,0,0:0:0:0:
475,192,234180,1,0,0:0:0:0:
109,192,234180,1,0,0:0:0:0:
36,192,234263,1,0,0:0:0:0:
256,192,234263,1,0,0:0:0:0:
182,192,234263,1,0,0:0:0:0:
329,192,234347,1,0,0:0:0:0:
402,192,234347,1,0,0:0:0:0:
475,192,234430,1,0,0:0:0:0:
256,192,234430,1,0,0:0:0:0:
182,192,234430,1,0,0:0:0:0:
36,192,234430,1,0,0:0:0:0:
109,192,234513,1,0,0:0:0:0:
402,192,234513,1,0,0:0:0:0:
329,192,234597,1,0,0:0:0:0:
256,192,234597,1,0,0:0:0:0:
36,192,234597,1,0,0:0:0:0:
475,192,234680,1,0,0:0:0:0:
402,192,234680,1,0,0:0:0:0:
329,192,234763,1,0,0:0:0:0:
36,192,234763,1,0,0:0:0:0:
109,192,234763,1,0,0:0:0:0:
256,192,234847,1,0,0:0:0:0:
475,192,234847,1,0,0:0:0:0:
182,192,234930,1,0,0:0:0:0:
36,192,234930,1,0,0:0:0:0:
109,192,234930,1,0,0:0:0:0:
329,192,235013,1,0,0:0:0:0:
475,192,235013,1,0,0:0:0:0:
402,192,235013,1,0,0:0:0:0:
256,192,235097,1,0,0:0:0:0:
182,192,235097,1,0,0:0:0:0:
36,192,235097,1,0,0:0:0:0:
109,192,235097,1,0,0:0:0:0:
329,192,235180,1,0,0:0:0:0:
475,192,235180,1,0,0:0:0:0:
402,192,235263,1,0,0:0:0:0:
182,192,235263,1,0,0:0:0:0:
36,192,235263,1,0,0:0:0:0:
109,192,235347,1,0,0:0:0:0:
329,192,235347,1,0,0:0:0:0:
256,192,235430,1,0,0:0:0:0:
182,192,235430,1,0,0:0:0:0:
475,192,235430,1,0,0:0:0:0:
402,192,235513,1,0,0:0:0:0:
329,192,235513,1,0,0:0:0:0:
109,192,235597,1,0,0:0:0:0:
36,192,235597,1,0,0:0:0:0:
256,192,235597,1,0,0:0:0:0:
182,192,235680,1,0,0:0:0:0:
475,192,235680,1,0,0:0:0:0:
402,192,235763,1,0,0:0:0:0:
329,192,235763,1,0,0:0:0:0:
256,192,235763,1,0,0:0:0:0:
36,192,235763,1,0,0:0:0:0:
109,192,235847,1,0,0:0:0:0:
182,192,235847,1,0,0:0:0:0:
256,192,235930,1,0,0:0:0:0:
329,192,235930,1,0,0:0:0:0:
475,192,235930,1,0,0:0:0:0:
36,192,236013,1,0,0:0:0:0:
182,192,236013,1,0,0:0:0:0:
109,192,236097,1,0,0:0:0:0:
329,192,236097,1,0,0:0:0:0:
402,192,236097,1,0,0:0:0:0:
182,192,236180,1,0,0:0:0:0:
256,192,236180,1,0,0:0:0:0:
475,192,236263,1,0,0:0:0:0:
329,192,236263,1,0,0:0:0:0:
36,192,236263,1,0,0:0:0:0:
109,192,236347,1,0,0:0:0:0:
256,192,236347,1,0,0:0:0:0:
182,192,236430,1,0,0:0:0:0:
36,192,236430,1,0,0:0:0:0:
329,192,236430,1,0,0:0:0:0:
402,192,236430,1,0,0:0:0:0:
475,192,236513,1,0,0:0:0:0:
256,192,236513,1,0,0:0:0:0:
182,192,236597,1,0,0:0:0:0:
36,192,236597,1,0,0:0:0:0:
329,192,236638,1,0,0:0:0:0:
475,192,236638,1,0,0:0:0:0:
182,192,236680,1,0,0:0:0:0:
36,192,236680,1,0,0:0:0:0:
329,192,236763,1,0,0:0:0:0:
402,192,236763,1,0,0:0:0:0:
475,192,236763,1,0,0:0:0:0:
256,192,236847,1,0,0:0:0:0:
36,192,236847,1,0,0:0:0:0:
182,192,236930,1,0,0:0:0:0:
109,192,236930,1,0,0:0:0:0:
329,192,236930,1,0,0:0:0:0:
402,192,237013,1,0,0:0:0:0:
475,192,237013,1,0,0:0:0:0:
182,192,237097,1,0,0:0:0:0:
109,192,237097,1,0,0:0:0:0:
329,192,237138,1,0,0:0:0:0:
402,192,237138,1,0,0:0:0:0:
182,192,237180,1,0,0:0:0:0:
109,192,237180,1,0,0:0:0:0:
329,192,237222,1,0,0:0:0:0:
402,192,237222,1,0,0:0:0:0:
182,192,237263,1,0,0:0:0:0:
109,192,237263,1,0,0:0:0:0:
36,192,237263,1,0,0:0:0:0:
329,192,237347,1,0,0:0:0:0:
475,192,237347,1,0,0:0:0:0:
402,192,237430,1,0,0:0:0:0:
256,192,237430,1,0,0:0:0:0:
36,192,237430,1,0,0:0:0:0:
109,192,237513,1,0,0:0:0:0:
182,192,237513,1,0,0:0:0:0:
475,192,237597,1,0,0:0:0:0:
402,192,237617,1,0,0:0:0:0:
329,192,237638,1,0,0:0:0:0:
256,192,237659,1,0,0:0:0:0:
36,192,237680,1,0,0:0:0:0:
109,192,237701,1,0,0:0:0:0:
182,192,237722,1,0,0:0:0:0:
256,192,237742,1,0,0:0:0:0:
329,192,237763,1,0,0:0:0:0:
402,192,237763,1,0,0:0:0:0:
475,192,237763,1,0,0:0:0:0:
182,192,237847,1,0,0:0:0:0:
36,192,237847,1,0,0:0:0:0:
109,192,237930,1,0,0:0:0:0:
256,192,237930,1,0,0:0:0:0:
475,192,237930,1,0,0:0:0:0:
402,192,238013,1,0,0:0:0:0:
329,192,238013,1,0,0:0:0:0:
256,192,238097,1,0,0:0:0:0:
36,192,238097,1,0,0:0:0:0:
475,192,238097,1,0,0:0:0:0:
109,192,238180,1,0,0:0:0:0:
182,192,238180,1,0,0:0:0:0:
256,192,238263,1,0,0:0:0:0:
402,192,238263,1,0,0:0:0:0:
475,192,238263,1,0,0:0:0:0:
329,192,238347,1,0,0:0:0:0:
36,192,238347,1,0,0:0:0:0:
109,192,238430,1,0,0:0:0:0:
256,192,238430,1,0,0:0:0:0:
402,192,238430,1,0,0:0:0:0:
475,192,238430,1,0,0:0:0:0:
182,192,238513,1,0,0:0:0:0:
329,192,238513,1,0,0:0:0:0:
109,192,238597,1,0,0:0:0:0:
36,192,238597,1,0,0:0:0:0:
402,192,238597,1,0,0:0:0:0:
182,192,238680,1,0,0:0:0:0:
256,192,238680,1,0,0:0:0:0:
329,192,238763,1,0,0:0:0:0:
402,192,238763,1,0,0:0:0:0:
475,192,238763,1,0,0:0:0:0:
256,192,238847,1,0,0:0:0:0:
36,192,238847,1,0,0:0:0:0:
109,192,238930,1,0,0:0:0:0:
182,192,238930,1,0,0:0:0:0:
475,192,238930,1,0,0:0:0:0:
402,192,239013,1,0,0:0:0:0:
256,192,239013,1,0,0:0:0:0:
329,192,239097,1,0,0:0:0:0:
109,192,239097,1,0,0:0:0:0:
36,192,239097,1,0,0:0:0:0:
475,192,239097,1,0,0:0:0:0:
182,192,239180,1,0,0:0:0:0:
256,192,239180,1,0,0:0:0:0:
402,192,239263,1,0,0:0:0:0:
475,192,239263,1,0,0:0:0:0:
109,192,239263,1,0,0:0:0:0:
182,192,239347,1,0,0:0:0:0:
329,192,239347,1,0,0:0:0:0:
109,192,239430,1,0,0:0:0:0:
36,192,239430,1,0,0:0:0:0:
402,192,239430,1,0,0:0:0:0:
182,192,239513,1,0,0:0:0:0:
256,192,239513,1,0,0:0:0:0:
475,192,239513,1,0,0:0:0:0:
402,192,239597,1,0,0:0:0:0:
329,192,239597,1,0,0:0:0:0:
256,192,239680,1,0,0:0:0:0:
182,192,239680,1,0,0:0:0:0:
36,192,239680,1,0,0:0:0:0:
109,192,239763,1,0,0:0:0:0:
329,192,239763,1,0,0:0:0:0:
475,192,239763,1,0,0:0:0:0:
402,192,239763,1,0,0:0:0:0:
256,192,239847,1,0,0:0:0:0:
36,192,239847,1,0,0:0:0:0:
182,192,239930,1,0,0:0:0:0:
329,192,239930,1,0,0:0:0:0:
475,192,239930,1,0,0:0:0:0:
109,192,240013,1,0,0:0:0:0:
402,192,240013,1,0,0:0:0:0:
329,192,240097,1,0,0:0:0:0:
36,192,240097,1,0,0:0:0:0:
256,192,240097,1,0,0:0:0:0:
182,192,240180,1,0,0:0:0:0:
475,192,240180,1,0,0:0:0:0:
402,192,240263,1,0,0:0:0:0:
329,192,240263,1,0,0:0:0:0:
256,192,240263,1,0,0:0:0:0:
182,192,240347,1,0,0:0:0:0:
109,192,240347,1,0,0:0:0:0:
36,192,240430,1,0,0:0:0:0:
256,192,240430,1,0,0:0:0:0:
329,192,240430,1,0,0:0:0:0:
475,192,240430,1,0,0:0:0:0:
402,192,240513,1,0,0:0:0:0:
182,192,240513,1,0,0:0:0:0:
109,192,240597,1,0,0:0:0:0:
256,192,240597,1,0,0:0:0:0:
329,192,240597,1,0,0:0:0:0:
36,192,240680,1,0,0:0:0:0:
475,192,240680,1,0,0:0:0:0:
402,192,240763,1,0,0:0:0:0:
329,192,240763,1,0,0:0:0:0:
182,192,240763,1,0,0:0:0:0:
109,192,240847,1,0,0:0:0:0:
256,192,240847,1,0,0:0:0:0:
329,192,240930,1,0,0:0:0:0:
475,192,240930,1,0,0:0:0:0:
402,192,240930,1,0,0:0:0:0:
36,192,241013,1,0,0:0:0:0:
109,192,241013,1,0,0:0:0:0:
182,192,241097,1,0,0:0:0:0:
256,192,241097,1,0,0:0:0:0:
475,192,241097,1,0,0:0:0:0:
329,192,241097,1,0,0:0:0:0:
402,192,241180,1,0,0:0:0:0:
109,192,241180,1,0,0:0:0:0:
182,192,241263,1,0,0:0:0:0:
256,192,241263,1,0,0:0:0:0:
475,192,241263,1,0,0:0:0:0:
36,192,241347,1,0,0:0:0:0:
329,192,241347,1,0,0:0:0:0:
256,192,241430,1,0,0:0:0:0:
109,192,241430,1,0,0:0:0:0:
402,192,241430,1,0,0:0:0:0:
182,192,241513,1,0,0:0:0:0:
475,192,241513,1,0,0:0:0:0:
256,192,241597,1,0,0:0:0:0:
329,192,241597,1,0,0:0:0:0:
36,192,241597,1,0,0:0:0:0:
109,192,241680,1,0,0:0:0:0:
182,192,241680,1,0,0:0:0:0:
256,192,241763,1,0,0:0:0:0:
329,192,241763,1,0,0:0:0:0:
475,192,241763,1,0,0:0:0:0:
36,192,241847,1,0,0:0:0:0:
402,192,241847,1,0,0:0:0:0:
109,192,241930,1,0,0:0:0:0:
182,192,241930,1,0,0:0:0:0:
256,192,241972,1,0,0:0:0:0:
329,192,241972,1,0,0:0:0:0:
402,192,242013,1,0,0:0:0:0:
475,192,242013,1,0,0:0:0:0:
182,192,242097,1,0,0:0:0:0:
109,192,242097,1,0,0:0:0:0:
36,192,242097,1,0,0:0:0:0:
256,192,242263,1,0,0:0:0:0:
329,192,242263,1,0,0:0:0:0:
475,192,242263,1,0,0:0:0:0:
182,192,242347,1,0,0:0:0:0:
36,192,242347,1,0,0:0:0:0:
475,192,242430,1,0,0:0:0:0:
329,192,242430,1,0,0:0:0:0:
182,192,242472,1,0,0:0:0:0:
36,192,242472,1,0,0:0:0:0:
329,192,242513,1,0,0:0:0:0:
475,192,242513,1,0,0:0:0:0:
182,192,242555,1,0,0:0:0:0:
36,192,242555,1,0,0:0:0:0:
329,192,242597,1,0,0:0:0:0:
475,192,242597,1,0,0:0:0:0:
402,192,242597,1,0,0:0:0:0:
182,192,242680,1,0,0:0:0:0:
36,192,242680,1,0,0:0:0:0:
256,192,242680,1,0,0:0:0:0:
475,192,242763,1,0,0:0:0:0:
402,192,242784,1,0,0:0:0:0:
329,192,242805,1,0,0:0:0:0:
182,192,242826,1,0,0:0:0:0:
109,192,242847,1,0,0:0:0:0:
36,192,242867,1,0,0:0:0:0:
475,192,242888,1,0,0:0:0:0:
402,192,242909,1,0,0:0:0:0:
329,192,242930,1,0,0:0:0:0:
182,192,242951,1,0,0:0:0:0:
109,192,242972,1,0,0:0:0:0:
36,192,242992,1,0,0:0:0:0:
256,192,243013,1,0,0:0:0:0:
329,192,243034,1,0,0:0:0:0:
402,192,243055,1,0,0:0:0:0:
475,192,243076,1,0,0:0:0:0:
182,192,243097,1,0,0:0:0:0:
109,192,243097,1,0,0:0:0:0:
36,192,243097,1,0,0:0:0:0:
256,192,243180,1,0,0:0:0:0:
329,192,243180,1,0,0:0:0:0:
475,192,243263,1,0,0:0:0:0:
402,192,243263,1,0,0:0:0:0:
36,192,243263,1,0,0:0:0:0:
109,192,243347,1,0,0:0:0:0:
329,192,243347,1,0,0:0:0:0:
256,192,243430,1,0,0:0:0:0:
182,192,243430,1,0,0:0:0:0:
475,192,243430,1,0,0:0:0:0:
402,192,243513,1,0,0:0:0:0:
36,192,243513,1,0,0:0:0:0:
109,192,243597,1,0,0:0:0:0:
182,192,243597,1,0,0:0:0:0:
329,192,243597,1,0,0:0:0:0:
256,192,243680,1,0,0:0:0:0:
475,192,243680,1,0,0:0:0:0:
402,192,243763,1,0,0:0:0:0:
329,192,243763,1,0,0:0:0:0:
36,192,243763,1,0,0:0:0:0:
182,192,243763,1,0,0:0:0:0:
109,192,243847,1,0,0:0:0:0:
256,192,243847,1,0,0:0:0:0:
329,192,243930,1,0,0:0:0:0:
475,192,243930,1,0,0:0:0:0:
402,192,243930,1,0,0:0:0:0:
182,192,244013,1,0,0:0:0:0:
36,192,244013,1,0,0:0:0:0:
109,192,244097,1,0,0:0:0:0:
256,192,244097,1,0,0:0:0:0:
402,192,244097,1,0,0:0:0:0:
329,192,244180,1,0,0:0:0:0:
475,192,244180,1,0,0:0:0:0:
256,192,244263,1,0,0:0:0:0:
182,192,244263,1,0,0:0:0:0:
36,192,244263,1,0,0:0:0:0:
329,192,244347,1,0,0:0:0:0:
402,192,244347,1,0,0:0:0:0:
475,192,244430,1,0,0:0:0:0:
256,192,244430,1,0,0:0:0:0:
182,192,244430,1,0,0:0:0:0:
109,192,244430,1,0,0:0:0:0:
36,192,244513,1,0,0:0:0:0:
402,192,244513,1,0,0:0:0:0:
329,192,244597,1,0,0:0:0:0:
256,192,244597,1,0,0:0:0:0:
109,192,244597,1,0,0:0:0:0:
182,192,244680,1,0,0:0:0:0:
475,192,244680,1,0,0:0:0:0:
402,192,244763,1,0,0:0:0:0:
329,192,244763,1,0,0:0:0:0:
36,192,244763,1,0,0:0:0:0:
109,192,244847,1,0,0:0:0:0:
256,192,244847,1,0,0:0:0:0:
182,192,244930,1,0,0:0:0:0:
329,192,244930,1,0,0:0:0:0:
475,192,244930,1,0,0:0:0:0:
402,192,245013,1,0,0:0:0:0:
36,192,245013,1,0,0:0:0:0:
109,192,245097,1,0,0:0:0:0:
182,192,245097,1,0,0:0:0:0:
256,192,245097,1,0,0:0:0:0:
329,192,245097,1,0,0:0:0:0:
475,192,245180,1,0,0:0:0:0:
402,192,245180,1,0,0:0:0:0:
329,192,245263,1,0,0:0:0:0:
36,192,245263,1,0,0:0:0:0:
109,192,245263,1,0,0:0:0:0:
182,192,245347,1,0,0:0:0:0:
475,192,245347,1,0,0:0:0:0:
256,192,245430,1,0,0:0:0:0:
402,192,245430,1,0,0:0:0:0:
329,192,245430,1,0,0:0:0:0:
182,192,245513,1,0,0:0:0:0:
36,192,245513,1,0,0:0:0:0:
109,192,245597,1,0,0:0:0:0:
329,192,245597,1,0,0:0:0:0:
475,192,245597,1,0,0:0:0:0:
402,192,245680,1,0,0:0:0:0:
256,192,245680,1,0,0:0:0:0:
182,192,245763,1,0,0:0:0:0:
109,192,245763,1,0,0:0:0:0:
36,192,245763,1,0,0:0:0:0:
475,192,245763,1,0,0:0:0:0:
329,192,245847,1,0,0:0:0:0:
256,192,245847,1,0,0:0:0:0:
402,192,245930,1,0,0:0:0:0:
182,192,245930,1,0,0:0:0:0:
36,192,245930,1,0,0:0:0:0:
109,192,246013,1,0,0:0:0:0:
475,192,246013,1,0,0:0:0:0:
402,192,246097,1,0,0:0:0:0:
329,192,246097,1,0,0:0:0:0:
182,192,246097,1,0,0:0:0:0:
256,192,246180,1,0,0:0:0:0:
36,192,246180,1,0,0:0:0:0:
109,192,246263,1,0,0:0:0:0:
182,192,246263,1,0,0:0:0:0:
475,192,246263,1,0,0:0:0:0:
402,192,246347,1,0,0:0:0:0:
256,192,246347,1,0,0:0:0:0:
329,192,246430,1,0,0:0:0:0:
182,192,246430,1,0,0:0:0:0:
36,192,246430,1,0,0:0:0:0:
109,192,246430,1,0,0:0:0:0:
402,192,246513,1,0,0:0:0:0:
475,192,246513,1,0,0:0:0:0:
329,192,246597,1,0,0:0:0:0:
256,192,246597,1,0,0:0:0:0:
36,192,246597,1,0,0:0:0:0:
109,192,246680,1,0,0:0:0:0:
182,192,246680,1,0,0:0:0:0:
256,192,246763,1,0,0:0:0:0:
475,192,246763,1,0,0:0:0:0:
402,192,246763,1,0,0:0:0:0:
329,192,246847,1,0,0:0:0:0:
36,192,246847,1,0,0:0:0:0:
109,192,246930,1,0,0:0:0:0:
182,192,246930,1,0,0:0:0:0:
256,192,246930,1,0,0:0:0:0:
329,192,247013,1,0,0:0:0:0:
475,192,247013,1,0,0:0:0:0:
402,192,247097,1,0,0:0:0:0:
256,192,247097,1,0,0:0:0:0:
182,192,247097,1,0,0:0:0:0:
36,192,247097,1,0,0:0:0:0:
109,192,247180,1,0,0:0:0:0:
329,192,247180,1,0,0:0:0:0:
256,192,247263,1,0,0:0:0:0:
402,192,247263,1,0,0:0:0:0:
475,192,247263,1,0,0:0:0:0:
329,192,247347,1,0,0:0:0:0:
182,192,247347,1,0,0:0:0:0:
475,192,247430,1,0,0:0:0:0:
36,192,247430,1,0,0:0:0:0:
402,192,247472,1,0,0:0:0:0:
109,192,247472,1,0,0:0:0:0:
329,192,247513,1,0,0:0:0:0:
182,192,247513,1,0,0:0:0:0:
256,192,247555,1,0,0:0:0:0:
475,192,247597,1,0,0:0:0:0:
109,192,247597,1,0,0:0:0:0:
36,192,247597,1,0,0:0:0:0:
402,192,247597,1,0,0:0:0:0:
475,192,247763,1,0,0:0:0:0:
329,192,247763,1,0,0:0:0:0:
182,192,247847,1,0,0:0:0:0:
36,192,247847,1,0,0:0:0:0:
329,192,247930,1,0,0:0:0:0:
475,192,247930,1,0,0:0:0:0:
182,192,248013,1,0,0:0:0:0:
36,192,248013,1,0,0:0:0:0:
329,192,248097,1,0,0:0:0:0:
402,192,248117,1,0,0:0:0:0:
475,192,248138,1,0,0:0:0:0:
36,192,248159,1,0,0:0:0:0:
109,192,248180,1,0,0:0:0:0:
182,192,248201,1,0,0:0:0:0:
329,192,248222,1,0,0:0:0:0:
402,192,248242,1,0,0:0:0:0:
475,192,248263,1,0,0:0:0:0:
36,192,248284,1,0,0:0:0:0:
109,192,248305,1,0,0:0:0:0:
182,192,248326,1,0,0:0:0:0:
475,192,248347,1,0,0:0:0:0:
402,192,248367,1,0,0:0:0:0:
329,192,248388,1,0,0:0:0:0:
256,192,248409,1,0,0:0:0:0:
182,192,248430,1,0,0:0:0:0:
109,192,248430,1,0,0:0:0:0:
36,192,248430,1,0,0:0:0:0:
475,192,248513,1,0,0:0:0:0:
402,192,248513,1,0,0:0:0:0:
329,192,248597,1,0,0:0:0:0:
256,192,248597,1,0,0:0:0:0:
36,192,248597,1,0,0:0:0:0:
109,192,248680,1,0,0:0:0:0:
182,192,248680,1,0,0:0:0:0:
256,192,248763,1,0,0:0:0:0:
475,192,248763,1,0,0:0:0:0:
329,192,248763,1,0,0:0:0:0:
402,192,248847,1,0,0:0:0:0:
36,192,248847,1,0,0:0:0:0:
109,192,248930,1,0,0:0:0:0:
182,192,248930,1,0,0:0:0:0:
329,192,248930,1,0,0:0:0:0:
256,192,249013,1,0,0:0:0:0:
475,192,249013,1,0,0:0:0:0:
402,192,249097,1,0,0:0:0:0:
329,192,249097,1,0,0:0:0:0:
182,192,249097,1,0,0:0:0:0:
36,192,249097,1,0,0:0:0:0:
109,192,249180,1,0,0:0:0:0:
475,192,249180,1,0,0:0:0:0:
402,192,249263,1,0,0:0:0:0:
182,192,249263,1,0,0:0:0:0:
256,192,249263,1,0,0:0:0:0:
329,192,249347,1,0,0:0:0:0:
36,192,249347,1,0,0:0:0:0:
109,192,249430,1,0,0:0:0:0:
182,192,249430,1,0,0:0:0:0:
475,192,249430,1,0,0:0:0:0:
402,192,249513,1,0,0:0:0:0:
256,192,249513,1,0,0:0:0:0:
329,192,249597,1,0,0:0:0:0:
109,192,249597,1,0,0:0:0:0:
36,192,249597,1,0,0:0:0:0:
182,192,249680,1,0,0:0:0:0:
256,192,249680,1,0,0:0:0:0:
329,192,249763,1,0,0:0:0:0:
402,192,249763,1,0,0:0:0:0:
475,192,249763,1,0,0:0:0:0:
36,192,249763,1,0,0:0:0:0:
109,192,249847,1,0,0:0:0:0:
256,192,249847,1,0,0:0:0:0:
182,192,249930,1,0,0:0:0:0:
402,192,249930,1,0,0:0:0:0:
475,192,249930,1,0,0:0:0:0:
329,192,250013,1,0,0:0:0:0:
256,192,250013,1,0,0:0:0:0:
182,192,250097,1,0,0:0:0:0:
109,192,250097,1,0,0:0:0:0:
36,192,250097,1,0,0:0:0:0:
475,192,250097,1,0,0:0:0:0:
402,192,250180,1,0,0:0:0:0:
256,192,250180,1,0,0:0:0:0:
329,192,250263,1,0,0:0:0:0:
182,192,250263,1,0,0:0:0:0:
36,192,250263,1,0,0:0:0:0:
475,192,250347,1,0,0:0:0:0:
109,192,250347,1,0,0:0:0:0:
182,192,250430,1,0,0:0:0:0:
256,192,250430,1,0,0:0:0:0:
402,192,250430,1,0,0:0:0:0:
329,192,250430,1,0,0:0:0:0:
36,192,250513,1,0,0:0:0:0:
109,192,250513,1,0,0:0:0:0:
182,192,250597,1,0,0:0:0:0:
256,192,250597,1,0,0:0:0:0:
475,192,250597,1,0,0:0:0:0:
402,192,250680,1,0,0:0:0:0:
329,192,250680,1,0,0:0:0:0:
256,192,250763,1,0,0:0:0:0:
36,192,250763,1,0,0:0:0:0:
109,192,250763,1,0,0:0:0:0:
182,192,250847,1,0,0:0:0:0:
475,192,250847,1,0,0:0:0:0:
402,192,250930,1,0,0:0:0:0:
256,192,250930,1,0,0:0:0:0:
329,192,250930,1,0,0:0:0:0:
182,192,251013,1,0,0:0:0:0:
109,192,251013,1,0,0:0:0:0:
36,192,251097,1,0,0:0:0:0:
329,192,251097,1,0,0:0:0:0:
475,192,251097,1,0,0:0:0:0:
256,192,251097,1,0,0:0:0:0:
402,192,251180,1,0,0:0:0:0:
109,192,251180,1,0,0:0:0:0:
182,192,251263,1,0,0:0:0:0:
256,192,251263,1,0,0:0:0:0:
475,192,251263,1,0,0:0:0:0:
402,192,251347,1,0,0:0:0:0:
329,192,251347,1,0,0:0:0:0:
256,192,251430,1,0,0:0:0:0:
182,192,251430,1,0,0:0:0:0:
36,192,251430,1,0,0:0:0:0:
109,192,251513,1,0,0:0:0:0:
475,192,251513,1,0,0:0:0:0:
402,192,251597,1,0,0:0:0:0:
329,192,251597,1,0,0:0:0:0:
182,192,251597,1,0,0:0:0:0:
256,192,251680,1,0,0:0:0:0:
36,192,251680,1,0,0:0:0:0:
109,192,251763,1,0,0:0:0:0:
182,192,251763,1,0,0:0:0:0:
402,192,251763,1,0,0:0:0:0:
475,192,251763,1,0,0:0:0:0:
329,192,251847,1,0,0:0:0:0:
256,192,251847,1,0,0:0:0:0:
182,192,251930,1,0,0:0:0:0:
36,192,251930,1,0,0:0:0:0:
475,192,251930,1,0,0:0:0:0:
402,192,252013,1,0,0:0:0:0:
256,192,252013,1,0,0:0:0:0:
182,192,252097,1,0,0:0:0:0:
109,192,252097,1,0,0:0:0:0:
329,192,252097,1,0,0:0:0:0:
256,192,252180,1,0,0:0:0:0:
36,192,252180,1,0,0:0:0:0:
475,192,252263,1,0,0:0:0:0:
402,192,252263,1,0,0:0:0:0:
329,192,252263,1,0,0:0:0:0:
256,192,252347,1,0,0:0:0:0:
36,192,252347,1,0,0:0:0:0:
109,192,252430,1,0,0:0:0:0:
182,192,252430,1,0,0:0:0:0:
402,192,252430,1,0,0:0:0:0:
475,192,252430,1,0,0:0:0:0:
329,192,252513,1,0,0:0:0:0:
256,192,252513,1,0,0:0:0:0:
182,192,252597,1,0,0:0:0:0:
36,192,252597,1,0,0:0:0:0:
475,192,252597,1,0,0:0:0:0:
402,192,252680,1,0,0:0:0:0:
256,192,252680,1,0,0:0:0:0:
109,192,252763,1,0,0:0:0:0:
182,192,252763,1,0,0:0:0:0:
329,192,252763,1,0,0:0:0:0:
475,192,252847,1,0,0:0:0:0:
36,192,252847,1,0,0:0:0:0:
402,192,252930,1,0,0:0:0:0:
329,192,252930,1,0,0:0:0:0:
109,192,252930,1,0,0:0:0:0:
182,192,253013,1,0,0:0:0:0:
256,192,253013,1,0,0:0:0:0:
329,192,253097,1,0,0:0:0:0:
475,192,253097,1,0,0:0:0:0:
329,192,253180,1,0,0:0:0:0:
475,192,253180,1,0,0:0:0:0:
182,192,253263,1,0,0:0:0:0:
36,192,253263,1,0,0:0:0:0:
182,192,253347,1,0,0:0:0:0:
36,192,253347,1,0,0:0:0:0:
475,192,253430,1,0,0:0:0:0:
402,192,253451,1,0,0:0:0:0:
329,192,253472,1,0,0:0:0:0:
182,192,253492,1,0,0:0:0:0:
109,192,253513,1,0,0:0:0:0:
36,192,253534,1,0,0:0:0:0:
475,192,253555,1,0,0:0:0:0:
402,192,253576,1,0,0:0:0:0:
329,192,253597,1,0,0:0:0:0:
182,192,253617,1,0,0:0:0:0:
109,192,253638,1,0,0:0:0:0:
36,192,253659,1,0,0:0:0:0:
256,192,253680,1,0,0:0:0:0:
329,192,253701,1,0,0:0:0:0:
402,192,253722,1,0,0:0:0:0:
475,192,253742,1,0,0:0:0:0:
36,192,253763,1,0,0:0:0:0:
109,192,253763,1,0,0:0:0:0:
182,192,253763,1,0,0:0:0:0:
256,192,253847,1,0,0:0:0:0:
329,192,253847,1,0,0:0:0:0:
402,192,253930,1,0,0:0:0:0:
36,192,253930,1,0,0:0:0:0:
182,192,253930,1,0,0:0:0:0:
475,192,254013,1,0,0:0:0:0:
109,192,254013,1,0,0:0:0:0:
182,192,254097,1,0,0:0:0:0:
256,192,254097,1,0,0:0:0:0:
402,192,254097,1,0,0:0:0:0:
329,192,254180,1,0,0:0:0:0:
36,192,254180,1,0,0:0:0:0:
475,192,254263,1,0,0:0:0:0:
182,192,254263,1,0,0:0:0:0:
109,192,254263,1,0,0:0:0:0:
329,192,254347,1,0,0:0:0:0:
402,192,254347,1,0,0:0:0:0:
36,192,254430,1,0,0:0:0:0:
475,192,254430,1,0,0:0:0:0:
256,192,254430,1,0,0:0:0:0:
109,192,254430,1,0,0:0:0:0:
402,192,254513,1,0,0:0:0:0:
182,192,254513,1,0,0:0:0:0:
36,192,254597,1,0,0:0:0:0:
256,192,254597,1,0,0:0:0:0:
329,192,254597,1,0,0:0:0:0:
182,192,254680,1,0,0:0:0:0:
109,192,254680,1,0,0:0:0:0:
475,192,254763,1,0,0:0:0:0:
329,192,254763,1,0,0:0:0:0:
256,192,254763,1,0,0:0:0:0:
36,192,254847,1,0,0:0:0:0:
402,192,254847,1,0,0:0:0:0:
329,192,254930,1,0,0:0:0:0:
182,192,254930,1,0,0:0:0:0:
109,192,254930,1,0,0:0:0:0:
475,192,255013,1,0,0:0:0:0:
256,192,255013,1,0,0:0:0:0:
109,192,255097,1,0,0:0:0:0:
36,192,255097,1,0,0:0:0:0:
402,192,255097,1,0,0:0:0:0:
329,192,255097,1,0,0:0:0:0:
256,192,255180,1,0,0:0:0:0:
182,192,255180,1,0,0:0:0:0:
36,192,255263,1,0,0:0:0:0:
329,192,255263,1,0,0:0:0:0:
475,192,255263,1,0,0:0:0:0:
256,192,255347,1,0,0:0:0:0:
109,192,255347,1,0,0:0:0:0:
402,192,255430,1,0,0:0:0:0:
329,192,255430,1,0,0:0:0:0:
182,192,255430,1,0,0:0:0:0:
109,192,255513,1,0,0:0:0:0:
475,192,255513,1,0,0:0:0:0:
182,192,255597,1,0,0:0:0:0:
256,192,255597,1,0,0:0:0:0:
36,192,255597,1,0,0:0:0:0:
402,192,255680,1,0,0:0:0:0:
329,192,255680,1,0,0:0:0:0:
182,192,255763,1,0,0:0:0:0:
36,192,255763,1,0,0:0:0:0:
475,192,255763,1,0,0:0:0:0:
256,192,255763,1,0,0:0:0:0:
402,192,255847,1,0,0:0:0:0:
109,192,255847,1,0,0:0:0:0:
36,192,255930,1,0,0:0:0:0:
256,192,255930,1,0,0:0:0:0:
329,192,255930,1,0,0:0:0:0:
402,192,256013,1,0,0:0:0:0:
475,192,256013,1,0,0:0:0:0:
109,192,256097,1,0,0:0:0:0:
36,192,256097,1,0,0:0:0:0:
329,192,256097,1,0,0:0:0:0:
475,192,256180,1,0,0:0:0:0:
256,192,256180,1,0,0:0:0:0:
36,192,256263,1,0,0:0:0:0:
182,192,256263,1,0,0:0:0:0:
475,192,256347,1,0,0:0:0:0:
329,192,256347,1,0,0:0:0:0:
36,192,256430,1,0,0:0:0:0:
182,192,256430,1,0,0:0:0:0:
256,192,256430,1,0,0:0:0:0:
475,192,256513,1,0,0:0:0:0:
329,192,256513,1,0,0:0:0:0:
36,192,256597,1,0,0:0:0:0:
182,192,256597,1,0,0:0:0:0:
402,192,256597,1,0,0:0:0:0:
329,192,256680,1,0,0:0:0:0:
109,192,256680,1,0,0:0:0:0:
475,192,256763,1,0,0:0:0:0:
182,192,256763,1,0,0:0:0:0:
256,192,256763,1,0,0:0:0:0:
329,192,256847,1,0,0:0:0:0:
402,192,256847,1,0,0:0:0:0:
256,192,256930,1,0,0:0:0:0:
36,192,256930,1,0,0:0:0:0:
109,192,256930,1,0,0:0:0:0:
475,192,257013,1,0,0:0:0:0:
182,192,257013,1,0,0:0:0:0:
256,192,257097,1,0,0:0:0:0:
36,192,257097,1,0,0:0:0:0:
402,192,257097,1,0,0:0:0:0:
329,192,257097,1,0,0:0:0:0:
182,192,257180,1,0,0:0:0:0:
109,192,257180,1,0,0:0:0:0:
475,192,257263,1,0,0:0:0:0:
329,192,257263,1,0,0:0:0:0:
256,192,257263,1,0,0:0:0:0:
182,192,257347,1,0,0:0:0:0:
36,192,257347,1,0,0:0:0:0:
402,192,257430,1,0,0:0:0:0:
329,192,257430,1,0,0:0:0:0:
109,192,257430,1,0,0:0:0:0:
256,192,257513,1,0,0:0:0:0:
182,192,257513,1,0,0:0:0:0:
36,192,257597,1,0,0:0:0:0:
329,192,257597,1,0,0:0:0:0:
475,192,257597,1,0,0:0:0:0:
256,192,257680,1,0,0:0:0:0:
109,192,257680,1,0,0:0:0:0:
329,192,257763,1,0,0:0:0:0:
402,192,257763,1,0,0:0:0:0:
182,192,257763,1,0,0:0:0:0:
36,192,257763,1,0,0:0:0:0:
256,192,257847,1,0,0:0:0:0:
475,192,257847,1,0,0:0:0:0:
36,192,257930,1,0,0:0:0:0:
182,192,257930,1,0,0:0:0:0:
475,192,257972,1,0,0:0:0:0:
329,192,257972,1,0,0:0:0:0:
36,192,258013,1,0,0:0:0:0:
182,192,258013,1,0,0:0:0:0:
475,192,258097,1,0,0:0:0:0:
402,192,258097,1,0,0:0:0:0:
329,192,258097,1,0,0:0:0:0:
36,192,258180,1,0,0:0:0:0:
256,192,258180,1,0,0:0:0:0:
329,192,258263,1,0,0:0:0:0:
109,192,258263,1,0,0:0:0:0:
182,192,258263,1,0,0:0:0:0:
475,192,258347,1,0,0:0:0:0:
402,192,258347,1,0,0:0:0:0:
109,192,258430,1,0,0:0:0:0:
182,192,258430,1,0,0:0:0:0:
402,192,258472,1,0,0:0:0:0:
329,192,258472,1,0,0:0:0:0:
109,192,258513,1,0,0:0:0:0:
182,192,258513,1,0,0:0:0:0:
402,192,258555,1,0,0:0:0:0:
329,192,258555,1,0,0:0:0:0:
36,192,258597,1,0,0:0:0:0:
109,192,258597,1,0,0:0:0:0:
182,192,258597,1,0,0:0:0:0:
475,192,258680,1,0,0:0:0:0:
329,192,258680,1,0,0:0:0:0:
36,192,258763,1,0,0:0:0:0:
256,192,258763,1,0,0:0:0:0:
402,192,258763,1,0,0:0:0:0:
182,192,258847,1,0,0:0:0:0:
109,192,258847,1,0,0:0:0:0:
475,192,258930,1,0,0:0:0:0:
402,192,258951,1,0,0:0:0:0:
329,192,258972,1,0,0:0:0:0:
256,192,258992,1,0,0:0:0:0:
36,192,259013,1,0,0:0:0:0:
109,192,259034,1,0,0:0:0:0:
182,192,259055,1,0,0:0:0:0:
256,192,259076,1,0,0:0:0:0:
475,192,259097,1,0,0:0:0:0:
402,192,259097,1,0,0:0:0:0:
329,192,259097,1,0,0:0:0:0:
36,192,259180,1,0,0:0:0:0:
182,192,259180,1,0,0:0:0:0:
475,192,259263,1,0,0:0:0:0:
256,192,259263,1,0,0:0:0:0:
109,192,259263,1,0,0:0:0:0:
329,192,259347,1,0,0:0:0:0:
402,192,259347,1,0,0:0:0:0:
475,192,259430,1,0,0:0:0:0:
36,192,259430,1,0,0:0:0:0:
256,192,259430,1,0,0:0:0:0:
182,192,259513,1,0,0:0:0:0:
109,192,259513,1,0,0:0:0:0:
475,192,259597,1,0,0:0:0:0:
402,192,259597,1,0,0:0:0:0:
256,192,259597,1,0,0:0:0:0:
36,192,259680,1,0,0:0:0:0:
329,192,259680,1,0,0:0:0:0:
402,192,259763,1,0,0:0:0:0:
475,192,259763,1,0,0:0:0:0:
109,192,259763,1,0,0:0:0:0:
256,192,259763,1,0,0:0:0:0:
329,192,259847,1,0,0:0:0:0:
182,192,259847,1,0,0:0:0:0:
402,192,259930,1,0,0:0:0:0:
36,192,259930,1,0,0:0:0:0:
109,192,259930,1,0,0:0:0:0:
256,192,260013,1,0,0:0:0:0:
182,192,260013,1,0,0:0:0:0:
475,192,260097,1,0,0:0:0:0:
402,192,260097,1,0,0:0:0:0:
329,192,260097,1,0,0:0:0:0:
36,192,260180,1,0,0:0:0:0:
256,192,260180,1,0,0:0:0:0:
475,192,260263,1,0,0:0:0:0:
182,192,260263,1,0,0:0:0:0:
109,192,260263,1,0,0:0:0:0:
256,192,260347,1,0,0:0:0:0:
402,192,260347,1,0,0:0:0:0:
36,192,260430,1,0,0:0:0:0:
475,192,260430,1,0,0:0:0:0:
329,192,260430,1,0,0:0:0:0:
109,192,260430,1,0,0:0:0:0:
256,192,260513,1,0,0:0:0:0:
182,192,260513,1,0,0:0:0:0:
109,192,260597,1,0,0:0:0:0:
475,192,260597,1,0,0:0:0:0:
402,192,260597,1,0,0:0:0:0:
329,192,260680,1,0,0:0:0:0:
182,192,260680,1,0,0:0:0:0:
402,192,260763,1,0,0:0:0:0:
36,192,260763,1,0,0:0:0:0:
109,192,260763,1,0,0:0:0:0:
475,192,260847,1,0,0:0:0:0:
256,192,260847,1,0,0:0:0:0:
182,192,260847,1,0,0:0:0:0:
329,192,260930,1,0,0:0:0:0:
402,192,260930,1,0,0:0:0:0:
36,192,261013,1,0,0:0:0:0:
182,192,261013,1,0,0:0:0:0:
256,192,261013,1,0,0:0:0:0:
475,192,261097,1,0,0:0:0:0:
402,192,261097,1,0,0:0:0:0:
109,192,261097,1,0,0:0:0:0:
329,192,261097,1,0,0:0:0:0:
36,192,261180,1,0,0:0:0:0:
256,192,261180,1,0,0:0:0:0:
475,192,261263,1,0,0:0:0:0:
329,192,261263,1,0,0:0:0:0:
182,192,261263,1,0,0:0:0:0:
402,192,261347,1,0,0:0:0:0:
109,192,261347,1,0,0:0:0:0:
256,192,261430,1,0,0:0:0:0:
36,192,261430,1,0,0:0:0:0:
329,192,261430,1,0,0:0:0:0:
475,192,261513,1,0,0:0:0:0:
182,192,261513,1,0,0:0:0:0:
256,192,261597,1,0,0:0:0:0:
329,192,261597,1,0,0:0:0:0:
402,192,261597,1,0,0:0:0:0:
109,192,261680,1,0,0:0:0:0:
182,192,261680,1,0,0:0:0:0:
329,192,261763,1,0,0:0:0:0:
475,192,261763,1,0,0:0:0:0:
36,192,261763,1,0,0:0:0:0:
256,192,261763,1,0,0:0:0:0:
182,192,261847,1,0,0:0:0:0:
402,192,261847,1,0,0:0:0:0:
329,192,261930,1,0,0:0:0:0:
256,192,261930,1,0,0:0:0:0:
109,192,261930,1,0,0:0:0:0:
475,192,262013,1,0,0:0:0:0:
36,192,262013,1,0,0:0:0:0:
182,192,262097,1,0,0:0:0:0:
329,192,262097,1,0,0:0:0:0:
402,192,262097,1,0,0:0:0:0:
256,192,262180,1,0,0:0:0:0:
109,192,262180,1,0,0:0:0:0:
402,192,262263,1,0,0:0:0:0:
475,192,262263,1,0,0:0:0:0:
329,192,262263,1,0,0:0:0:0:
109,192,262347,1,0,0:0:0:0:
36,192,262347,1,0,0:0:0:0:
475,192,262430,1,0,0:0:0:0:
329,192,262430,1,0,0:0:0:0:
182,192,262430,1,0,0:0:0:0:
256,192,262430,1,0,0:0:0:0:
109,192,262513,1,0,0:0:0:0:
402,192,262513,1,0,0:0:0:0:
475,192,262597,1,0,0:0:0:0:
256,192,262597,1,0,0:0:0:0:
182,192,262597,1,0,0:0:0:0:
329,192,262680,1,0,0:0:0:0:
36,192,262680,1,0,0:0:0:0:
402,192,262763,1,0,0:0:0:0:
109,192,262763,1,0,0:0:0:0:
256,192,262763,1,0,0:0:0:0:
475,192,262847,1,0,0:0:0:0:
182,192,262847,1,0,0:0:0:0:
36,192,262930,1,0,0:0:0:0:
329,192,262930,1,0,0:0:0:0:
256,192,262930,1,0,0:0:0:0:
182,192,263013,1,0,0:0:0:0:
109,192,263013,1,0,0:0:0:0:
475,192,263097,1,0,0:0:0:0:
329,192,263097,1,0,0:0:0:0:
256,192,263097,1,0,0:0:0:0:
402,192,263180,1,0,0:0:0:0:
36,192,263180,1,0,0:0:0:0:
182,192,263263,1,0,0:0:0:0:
109,192,263263,1,0,0:0:0:0:
475,192,263263,1,0,0:0:0:0:
402,192,263305,1,0,0:0:0:0:
256,192,263305,1,0,0:0:0:0:
329,192,263347,1,0,0:0:0:0:
36,192,263430,1,0,0:0:0:0:
109,192,263430,1,0,0:0:0:0:
182,192,263430,1,0,0:0:0:0:
475,192,263597,1,0,0:0:0:0:
329,192,263597,1,0,0:0:0:0:
256,192,263597,1,0,0:0:0:0:
36,192,263680,1,0,0:0:0:0:
182,192,263680,1,0,0:0:0:0:
329,192,263763,1,0,0:0:0:0:
475,192,263763,1,0,0:0:0:0:
36,192,263805,1,0,0:0:0:0:
182,192,263805,1,0,0:0:0:0:
475,192,263847,1,0,0:0:0:0:
329,192,263847,1,0,0:0:0:0:
36,192,263888,1,0,0:0:0:0:
182,192,263888,1,0,0:0:0:0:
402,192,263930,1,0,0:0:0:0:
475,192,263930,1,0,0:0:0:0:
329,192,263930,1,0,0:0:0:0:
256,192,264013,1,0,0:0:0:0:
36,192,264013,1,0,0:0:0:0:
182,192,264013,1,0,0:0:0:0:
475,192,264097,1,0,0:0:0:0:
402,192,264117,1,0,0:0:0:0:
329,192,264138,1,0,0:0:0:0:
182,192,264159,1,0,0:0:0:0:
109,192,264180,1,0,0:0:0:0:
36,192,264201,1,0,0:0:0:0:
475,192,264222,1,0,0:0:0:0:
402,192,264242,1,0,0:0:0:0:
329,192,264263,1,0,0:0:0:0:
182,192,264284,1,0,0:0:0:0:
109,192,264305,1,0,0:0:0:0:
36,192,264326,1,0,0:0:0:0:
256,192,264347,1,0,0:0:0:0:
329,192,264367,1,0,0:0:0:0:
402,192,264388,1,0,0:0:0:0:
475,192,264409,1,0,0:0:0:0:
36,192,264430,1,0,0:0:0:0:
109,192,264430,1,0,0:0:0:0:
182,192,264430,1,0,0:0:0:0:
329,192,264513,1,0,0:0:0:0:
256,192,264513,1,0,0:0:0:0:
36,192,264597,1,0,0:0:0:0:
402,192,264597,1,0,0:0:0:0:
475,192,264597,1,0,0:0:0:0:
329,192,264680,1,0,0:0:0:0:
109,192,264680,1,0,0:0:0:0:
475,192,264763,1,0,0:0:0:0:
182,192,264763,1,0,0:0:0:0:
256,192,264763,1,0,0:0:0:0:
36,192,264847,1,0,0:0:0:0:
402,192,264847,1,0,0:0:0:0:
329,192,264930,1,0,0:0:0:0:
182,192,264930,1,0,0:0:0:0:
109,192,264930,1,0,0:0:0:0:
475,192,265013,1,0,0:0:0:0:
256,192,265013,1,0,0:0:0:0:
36,192,265097,1,0,0:0:0:0:
182,192,265097,1,0,0:0:0:0:
402,192,265097,1,0,0:0:0:0:
329,192,265097,1,0,0:0:0:0:
256,192,265180,1,0,0:0:0:0:
109,192,265180,1,0,0:0:0:0:
402,192,265263,1,0,0:0:0:0:
475,192,265263,1,0,0:0:0:0:
329,192,265263,1,0,0:0:0:0:
36,192,265347,1,0,0:0:0:0:
182,192,265347,1,0,0:0:0:0:
402,192,265430,1,0,0:0:0:0:
256,192,265430,1,0,0:0:0:0:
109,192,265430,1,0,0:0:0:0:
475,192,265513,1,0,0:0:0:0:
329,192,265513,1,0,0:0:0:0:
36,192,265597,1,0,0:0:0:0:
182,192,265597,1,0,0:0:0:0:
256,192,265597,1,0,0:0:0:0:
402,192,265680,1,0,0:0:0:0:
329,192,265680,1,0,0:0:0:0:
182,192,265763,1,0,0:0:0:0:
109,192,265763,1,0,0:0:0:0:
475,192,265763,1,0,0:0:0:0:
256,192,265763,1,0,0:0:0:0:
402,192,265847,1,0,0:0:0:0:
36,192,265847,1,0,0:0:0:0:
109,192,265930,1,0,0:0:0:0:
256,192,265930,1,0,0:0:0:0:
329,192,265930,1,0,0:0:0:0:
475,192,266013,1,0,0:0:0:0:
182,192,266013,1,0,0:0:0:0:
36,192,266097,1,0,0:0:0:0:
329,192,266097,1,0,0:0:0:0:
402,192,266097,1,0,0:0:0:0:
256,192,266180,1,0,0:0:0:0:
109,192,266180,1,0,0:0:0:0:
475,192,266263,1,0,0:0:0:0:
329,192,266263,1,0,0:0:0:0:
182,192,266263,1,0,0:0:0:0:
36,192,266347,1,0,0:0:0:0:
402,192,266347,1,0,0:0:0:0:
256,192,266430,1,0,0:0:0:0:
329,192,266430,1,0,0:0:0:0:
109,192,266430,1,0,0:0:0:0:
182,192,266430,1,0,0:0:0:0:
402,192,266513,1,0,0:0:0:0:
475,192,266513,1,0,0:0:0:0:
109,192,266597,1,0,0:0:0:0:
36,192,266597,1,0,0:0:0:0:
329,192,266597,1,0,0:0:0:0:
475,192,266680,1,0,0:0:0:0:
182,192,266680,1,0,0:0:0:0:
329,192,266763,1,0,0:0:0:0:
402,192,266763,1,0,0:0:0:0:
256,192,266763,1,0,0:0:0:0:
36,192,266847,1,0,0:0:0:0:
182,192,266847,1,0,0:0:0:0:
475,192,266930,1,0,0:0:0:0:
329,192,266930,1,0,0:0:0:0:
109,192,266930,1,0,0:0:0:0:
256,192,267013,1,0,0:0:0:0:
402,192,267013,1,0,0:0:0:0:
36,192,267097,1,0,0:0:0:0:
475,192,267097,1,0,0:0:0:0:
182,192,267097,1,0,0:0:0:0:
109,192,267097,1,0,0:0:0:0:
256,192,267180,1,0,0:0:0:0:
329,192,267180,1,0,0:0:0:0:
36,192,267263,1,0,0:0:0:0:
182,192,267263,1,0,0:0:0:0:
402,192,267263,1,0,0:0:0:0:
475,192,267347,1,0,0:0:0:0:
109,192,267347,1,0,0:0:0:0:
182,192,267430,1,0,0:0:0:0:
329,192,267430,1,0,0:0:0:0:
402,192,267430,1,0,0:0:0:0:
36,192,267513,1,0,0:0:0:0:
256,192,267513,1,0,0:0:0:0:
475,192,267597,1,0,0:0:0:0:
182,192,267597,1,0,0:0:0:0:
109,192,267597,1,0,0:0:0:0:
256,192,267680,1,0,0:0:0:0:
402,192,267680,1,0,0:0:0:0:
36,192,267763,1,0,0:0:0:0:
109,192,267763,1,0,0:0:0:0:
329,192,267763,1,0,0:0:0:0:
182,192,267763,1,0,0:0:0:0:
475,192,267847,1,0,0:0:0:0:
402,192,267847,1,0,0:0:0:0:
36,192,267930,1,0,0:0:0:0:
256,192,267930,1,0,0:0:0:0:
329,192,267930,1,0,0:0:0:0:
182,192,268013,1,0,0:0:0:0:
109,192,268013,1,0,0:0:0:0:
402,192,268097,1,0,0:0:0:0:
475,192,268097,1,0,0:0:0:0:
256,192,268097,1,0,0:0:0:0:
36,192,268180,1,0,0:0:0:0:
329,192,268180,1,0,0:0:0:0:
256,192,268263,1,0,0:0:0:0:
182,192,268263,1,0,0:0:0:0:
109,192,268263,1,0,0:0:0:0:
475,192,268347,1,0,0:0:0:0:
329,192,268347,1,0,0:0:0:0:
182,192,268430,1,0,0:0:0:0:
36,192,268430,1,0,0:0:0:0:
402,192,268430,1,0,0:0:0:0:
256,192,268430,1,0,0:0:0:0:
329,192,268513,1,0,0:0:0:0:
109,192,268513,1,0,0:0:0:0:
475,192,268597,1,0,0:0:0:0:
402,192,268597,1,0,0:0:0:0:
256,192,268597,1,0,0:0:0:0:
182,192,268680,1,0,0:0:0:0:
329,192,268680,1,0,0:0:0:0:
36,192,268763,1,0,0:0:0:0:
475,192,268763,1,0,0:0:0:0:
109,192,268805,1,0,0:0:0:0:
402,192,268805,1,0,0:0:0:0:
182,192,268847,1,0,0:0:0:0:
329,192,268847,1,0,0:0:0:0:
256,192,268888,1,0,0:0:0:0:
475,192,268930,1,0,0:0:0:0:
402,192,268930,1,0,0:0:0:0:
36,192,268930,1,0,0:0:0:0:
109,192,268930,1,0,0:0:0:0:
329,192,269097,1,0,0:0:0:0:
475,192,269097,1,0,0:0:0:0:
36,192,269180,1,0,0:0:0:0:
182,192,269180,1,0,0:0:0:0:
475,192,269263,1,0,0:0:0:0:
329,192,269263,1,0,0:0:0:0:
36,192,269347,1,0,0:0:0:0:
182,192,269347,1,0,0:0:0:0:
329,192,269430,1,0,0:0:0:0:
402,192,269451,1,0,0:0:0:0:
475,192,269472,1,0,0:0:0:0:
36,192,269492,1,0,0:0:0:0:
109,192,269513,1,0,0:0:0:0:
182,192,269534,1,0,0:0:0:0:
329,192,269555,1,0,0:0:0:0:
402,192,269576,1,0,0:0:0:0:
475,192,269597,1,0,0:0:0:0:
36,192,269617,1,0,0:0:0:0:
109,192,269638,1,0,0:0:0:0:
182,192,269659,1,0,0:0:0:0:
475,192,269680,1,0,0:0:0:0:
402,192,269701,1,0,0:0:0:0:
329,192,269722,1,0,0:0:0:0:
256,192,269742,1,0,0:0:0:0:
36,192,269763,1,0,0:0:0:0:
109,192,269763,1,0,0:0:0:0:
182,192,269763,1,0,0:0:0:0:
402,192,269847,1,0,0:0:0:0:
475,192,269847,1,0,0:0:0:0:
36,192,269930,1,0,0:0:0:0:
256,192,269930,1,0,0:0:0:0:
329,192,269930,1,0,0:0:0:0:
182,192,270013,1,0,0:0:0:0:
109,192,270013,1,0,0:0:0:0:
329,192,270097,1,0,0:0:0:0:
475,192,270097,1,0,0:0:0:0:
256,192,270097,1,0,0:0:0:0:
36,192,270180,1,0,0:0:0:0:
402,192,270180,1,0,0:0:0:0:
329,192,270263,1,0,0:0:0:0:
182,192,270263,1,0,0:0:0:0:
109,192,270263,1,0,0:0:0:0:
475,192,270347,1,0,0:0:0:0:
256,192,270347,1,0,0:0:0:0:
182,192,270430,1,0,0:0:0:0:
36,192,270430,1,0,0:0:0:0:
402,192,270430,1,0,0:0:0:0:
329,192,270430,1,0,0:0:0:0:
475,192,270513,1,0,0:0:0:0:
109,192,270513,1,0,0:0:0:0:
256,192,270597,1,0,0:0:0:0:
182,192,270597,1,0,0:0:0:0:
402,192,270597,1,0,0:0:0:0:
36,192,270680,1,0,0:0:0:0:
329,192,270680,1,0,0:0:0:0:
475,192,270763,1,0,0:0:0:0:
182,192,270763,1,0,0:0:0:0:
109,192,270763,1,0,0:0:0:0:
256,192,270847,1,0,0:0:0:0:
402,192,270847,1,0,0:0:0:0:
36,192,270930,1,0,0:0:0:0:
109,192,270930,1,0,0:0:0:0:
329,192,270930,1,0,0:0:0:0:
256,192,271013,1,0,0:0:0:0:
182,192,271013,1,0,0:0:0:0:
475,192,271097,1,0,0:0:0:0:
36,192,271097,1,0,0:0:0:0:
329,192,271097,1,0,0:0:0:0:
402,192,271097,1,0,0:0:0:0:
256,192,271180,1,0,0:0:0:0:
109,192,271180,1,0,0:0:0:0:
475,192,271263,5,0,0:0:0:0:
402,192,271263,1,0,0:0:0:0:
182,192,271263,1,0,0:0:0:0:
256,192,271347,1,0,0:0:0:0:
329,192,271347,1,0,0:0:0:0:
36,192,271430,1,0,0:0:0:0:
475,192,271430,1,0,0:0:0:0:
182,192,271430,1,0,0:0:0:0:
109,192,271430,1,0,0:0:0:0:
256,192,271513,1,0,0:0:0:0:
402,192,271513,1,0,0:0:0:0:
36,192,271597,1,0,0:0:0:0:
182,192,271597,1,0,0:0:0:0:
329,192,271597,1,0,0:0:0:0:
109,192,271680,1,0,0:0:0:0:
475,192,271680,1,0,0:0:0:0:
402,192,271763,1,0,0:0:0:0:
329,192,271763,1,0,0:0:0:0:
182,192,271763,1,0,0:0:0:0:
256,192,271763,1,0,0:0:0:0:
109,192,271847,1,0,0:0:0:0:
36,192,271847,1,0,0:0:0:0:
475,192,271930,1,0,0:0:0:0:
256,192,271930,1,0,0:0:0:0:
182,192,271930,1,0,0:0:0:0:
329,192,272013,1,0,0:0:0:0:
402,192,272013,1,0,0:0:0:0:
109,192,272097,1,0,0:0:0:0:
36,192,272097,1,0,0:0:0:0:
256,192,272097,1,0,0:0:0:0:
475,192,272180,1,0,0:0:0:0:
182,192,272180,1,0,0:0:0:0:
329,192,272263,1,0,0:0:0:0:
256,192,272263,1,0,0:0:0:0:
402,192,272263,1,0,0:0:0:0:
109,192,272347,1,0,0:0:0:0:
182,192,272347,1,0,0:0:0:0:
475,192,272430,1,0,0:0:0:0:
36,192,272430,1,0,0:0:0:0:
109,192,272472,1,0,0:0:0:0:
402,192,272513,1,0,0:0:0:0:
329,192,272555,1,0,0:0:0:0:
256,192,272597,1,0,0:0:0:0:
182,192,272638,1,0,0:0:0:0:
109,192,272680,1,0,0:0:0:0:
182,192,272722,1,0,0:0:0:0:
256,192,272763,1,0,0:0:0:0:
475,192,272763,1,0,0:0:0:0:
402,192,272805,1,0,0:0:0:0:
329,192,272847,1,0,0:0:0:0:
256,192,272888,1,0,0:0:0:0:
182,192,272930,1,0,0:0:0:0:
36,192,272930,1,0,0:0:0:0:
109,192,272972,1,0,0:0:0:0:
182,192,273013,1,0,0:0:0:0:
256,192,273055,1,0,0:0:0:0:
329,192,273097,1,0,0:0:0:0:
36,192,273097,1,0,0:0:0:0:
402,192,273138,1,0,0:0:0:0:
109,192,273138,1,0,0:0:0:0:
475,192,273180,1,0,0:0:0:0:
402,192,273222,1,0,0:0:0:0:
329,192,273263,1,0,0:0:0:0:
182,192,273263,1,0,0:0:0:0:
256,192,273305,1,0,0:0:0:0:
329,192,273347,1,0,0:0:0:0:
402,192,273388,1,0,0:0:0:0:
475,192,273430,1,0,0:0:0:0:
36,192,273430,1,0,0:0:0:0:
109,192,273472,1,0,0:0:0:0:
182,192,273513,1,0,0:0:0:0:
256,192,273555,1,0,0:0:0:0:
329,192,273597,1,0,0:0:0:0:
475,192,273597,1,0,0:0:0:0:
402,192,273638,1,0,0:0:0:0:
329,192,273680,1,0,0:0:0:0:
256,192,273722,1,0,0:0:0:0:
182,192,273763,1,0,0:0:0:0:
36,192,273763,1,0,0:0:0:0:
256,192,273805,1,0,0:0:0:0:
329,192,273847,1,0,0:0:0:0:
402,192,273888,1,0,0:0:0:0:
475,192,273930,1,0,0:0:0:0:
36,192,273930,1,0,0:0:0:0:
109,192,273972,1,0,0:0:0:0:
182,192,274013,1,0,0:0:0:0:
256,192,274055,1,0,0:0:0:0:
329,192,274097,1,0,0:0:0:0:
402,192,274138,1,0,0:0:0:0:
475,192,274180,1,0,0:0:0:0:
36,192,274180,1,0,0:0:0:0:
109,192,274222,1,0,0:0:0:0:
182,192,274263,1,0,0:0:0:0:
256,192,274305,1,0,0:0:0:0:
329,192,274347,1,0,0:0:0:0:
402,192,274388,1,0,0:0:0:0:
475,192,274430,1,0,0:0:0:0:
36,192,274430,1,0,0:0:0:0:
109,192,274451,1,0,0:0:0:0:
182,192,274472,1,0,0:0:0:0:
256,192,274492,1,0,0:0:0:0:
329,192,274513,1,0,0:0:0:0:
402,192,274534,1,0,0:0:0:0:
475,192,274555,1,0,0:0:0:0:
36,192,274576,1,0,0:0:0:0:
109,192,274597,1,0,0:0:0:0:
182,192,274617,1,0,0:0:0:0:
256,192,274638,1,0,0:0:0:0:
329,192,274659,1,0,0:0:0:0:
402,192,274680,1,0,0:0:0:0:
475,192,274701,1,0,0:0:0:0:
36,192,274722,1,0,0:0:0:0:
109,192,274742,1,0,0:0:0:0:
182,192,274763,1,0,0:0:0:0:
256,192,274784,1,0,0:0:0:0:
329,192,274805,1,0,0:0:0:0:
402,192,274826,1,0,0:0:0:0:
475,192,274847,1,0,0:0:0:0:
36,192,274867,1,0,0:0:0:0:
109,192,274888,1,0,0:0:0:0:
182,192,274909,1,0,0:0:0:0:
256,192,274930,1,0,0:0:0:0:
329,192,274951,1,0,0:0:0:0:
402,192,274972,1,0,0:0:0:0:
475,192,274992,1,0,0:0:0:0:
36,192,275013,1,0,0:0:0:0:
109,192,275034,1,0,0:0:0:0:
182,192,275055,1,0,0:0:0:0:
256,192,275076,1,0,0:0:0:0:
475,192,275097,1,0,0:0:0:0:
402,192,275097,1,0,0:0:0:0:
329,192,275097,1,0,0:0:0:0:
329,192,275180,1,0,0:0:0:0:
256,192,275180,1,0,0:0:0:0:
109,192,275263,1,0,0:0:0:0:
36,192,275263,1,0,0:0:0:0:
402,192,275263,1,0,0:0:0:0:
475,192,275263,1,0,0:0:0:0:
182,192,275347,1,0,0:0:0:0:
256,192,275347,1,0,0:0:0:0:
109,192,275430,1,0,0:0:0:0:
36,192,275430,1,0,0:0:0:0:
402,192,275430,1,0,0:0:0:0:
475,192,275430,1,0,0:0:0:0:
329,192,275513,1,0,0:0:0:0:
256,192,275513,1,0,0:0:0:0:
182,192,275597,1,0,0:0:0:0:
109,192,275597,1,0,0:0:0:0:
402,192,275597,1,0,0:0:0:0:
475,192,275597,1,0,0:0:0:0:
329,192,275680,1,0,0:0:0:0:
36,192,275680,1,0,0:0:0:0:
109,192,275763,1,0,0:0:0:0:
182,192,275763,1,0,0:0:0:0:
402,192,275763,1,0,0:0:0:0:
475,192,275763,1,0,0:0:0:0:
329,192,275847,1,0,0:0:0:0:
256,192,275847,1,0,0:0:0:0:
109,192,275930,1,0,0:0:0:0:
36,192,275930,1,0,0:0:0:0:
402,192,275930,1,0,0:0:0:0:
475,192,275930,1,0,0:0:0:0:
182,192,276013,1,0,0:0:0:0:
256,192,276013,1,0,0:0:0:0:
109,192,276097,1,0,0:0:0:0:
36,192,276097,1,0,0:0:0:0:
402,192,276097,1,0,0:0:0:0:
475,192,276097,1,0,0:0:0:0:
329,192,276180,1,0,0:0:0:0:
182,192,276180,1,0,0:0:0:0:
109,192,276263,1,0,0:0:0:0:
36,192,276263,1,0,0:0:0:0:
256,192,276263,1,0,0:0:0:0:
402,192,276263,1,0,0:0:0:0:
475,192,276347,1,0,0:0:0:0:
182,192,276347,1,0,0:0:0:0:
256,192,276388,1,0,0:0:0:0:
402,192,276388,1,0,0:0:0:0:
109,192,276430,1,0,0:0:0:0:
36,192,276430,1,0,0:0:0:0:
329,192,276430,1,0,0:0:0:0:
256,192,276513,1,0,0:0:0:0:
182,192,276513,1,0,0:0:0:0:
109,192,276597,1,0,0:0:0:0:
36,192,276597,1,0,0:0:0:0:
402,192,276597,1,0,0:0:0:0:
475,192,276597,1,0,0:0:0:0:
256,192,276680,1,0,0:0:0:0:
182,192,276680,1,0,0:0:0:0:
329,192,276763,1,0,0:0:0:0:
402,192,276763,1,0,0:0:0:0:
109,192,276763,1,0,0:0:0:0:
36,192,276763,1,0,0:0:0:0:
256,192,276847,1,0,0:0:0:0:
475,192,276847,1,0,0:0:0:0:
182,192,276930,1,0,0:0:0:0:
109,192,276930,1,0,0:0:0:0:
329,192,276930,1,0,0:0:0:0:
402,192,276930,1,0,0:0:0:0:
256,192,277013,1,0,0:0:0:0:
36,192,277013,1,0,0:0:0:0:
109,192,277097,1,0,0:0:0:0:
182,192,277097,1,0,0:0:0:0:
402,192,277097,1,0,0:0:0:0:
475,192,277097,1,0,0:0:0:0:
329,192,277180,1,0,0:0:0:0:
256,192,277180,1,0,0:0:0:0:
109,192,277263,1,0,0:0:0:0:
36,192,277263,1,0,0:0:0:0:
402,192,277263,1,0,0:0:0:0:
475,192,277263,1,0,0:0:0:0:
182,192,277347,1,0,0:0:0:0:
256,192,277347,1,0,0:0:0:0:
402,192,277430,1,0,0:0:0:0:
475,192,277430,1,0,0:0:0:0:
109,192,277430,1,0,0:0:0:0:
36,192,277430,1,0,0:0:0:0:
256,192,277513,1,0,0:0:0:0:
329,192,277513,1,0,0:0:0:0:
475,192,277597,1,0,0:0:0:0:
36,192,277597,1,0,0:0:0:0:
402,192,277638,1,0,0:0:0:0:
109,192,277638,1,0,0:0:0:0:
182,192,277680,1,0,0:0:0:0:
329,192,277680,1,0,0:0:0:0:
256,192,277722,1,0,0:0:0:0:
402,192,277763,1,0,0:0:0:0:
475,192,277763,1,0,0:0:0:0:
109,192,277763,1,0,0:0:0:0:
36,192,277763,1,0,0:0:0:0:
256,192,277847,1,0,0:0:0:0:
329,192,277847,1,0,0:0:0:0:
402,192,277930,1,0,0:0:0:0:
475,192,277930,1,0,0:0:0:0:
182,192,277930,1,0,0:0:0:0:
109,192,277930,1,0,0:0:0:0:
36,192,278013,1,0,0:0:0:0:
256,192,278013,1,0,0:0:0:0:
109,192,278097,1,0,0:0:0:0:
182,192,278097,1,0,0:0:0:0:
329,192,278097,1,0,0:0:0:0:
402,192,278097,1,0,0:0:0:0:
475,192,278180,1,0,0:0:0:0:
256,192,278180,1,0,0:0:0:0:
402,192,278263,1,0,0:0:0:0:
329,192,278263,1,0,0:0:0:0:
182,192,278263,1,0,0:0:0:0:
109,192,278263,1,0,0:0:0:0:
36,192,278347,1,0,0:0:0:0:
256,192,278347,1,0,0:0:0:0:
109,192,278430,1,0,0:0:0:0:
182,192,278430,1,0,0:0:0:0:
402,192,278430,1,0,0:0:0:0:
475,192,278430,1,0,0:0:0:0:
329,192,278513,1,0,0:0:0:0:
256,192,278513,1,0,0:0:0:0:
109,192,278597,1,0,0:0:0:0:
36,192,278597,1,0,0:0:0:0:
402,192,278597,1,0,0:0:0:0:
475,192,278597,1,0,0:0:0:0:
256,192,278680,1,0,0:0:0:0:
182,192,278680,1,0,0:0:0:0:
402,192,278763,1,0,0:0:0:0:
475,192,278763,1,0,0:0:0:0:
109,192,278763,1,0,0:0:0:0:
36,192,278763,1,0,0:0:0:0:
256,192,278847,1,0,0:0:0:0:
329,192,278847,1,0,0:0:0:0:
109,192,278930,1,0,0:0:0:0:
402,192,278930,1,0,0:0:0:0:
475,192,278930,1,0,0:0:0:0:
36,192,279013,1,0,0:0:0:0:
182,192,279013,1,0,0:0:0:0:
256,192,279055,1,0,0:0:0:0:
329,192,279097,1,0,0:0:0:0:
475,192,279097,1,0,0:0:0:0:
475,192,279180,1,0,0:0:0:0:
329,192,279180,1,0,0:0:0:0:
256,192,279222,1,0,0:0:0:0:
182,192,279263,1,0,0:0:0:0:
36,192,279263,1,0,0:0:0:0:
329,192,279347,1,0,0:0:0:0:
402,192,279347,1,0,0:0:0:0:
36,192,279430,1,0,0:0:0:0:
475,192,279430,1,0,0:0:0:0:
402,192,279472,1,0,0:0:0:0:
109,192,279472,1,0,0:0:0:0:
182,192,279513,1,0,0:0:0:0:
329,192,279513,1,0,0:0:0:0:
256,192,279555,1,0,0:0:0:0:
109,192,279597,1,0,0:0:0:0:
36,192,279597,1,0,0:0:0:0:
402,192,279597,1,0,0:0:0:0:
475,192,279597,1,0,0:0:0:0:
329,192,279680,1,0,0:0:0:0:
182,192,279680,1,0,0:0:0:0:
36,192,279763,1,0,0:0:0:0:
109,192,279763,1,0,0:0:0:0:
256,192,279763,1,0,0:0:0:0:
475,192,279847,1,0,0:0:0:0:
329,192,279847,1,0,0:0:0:0:
256,192,279888,1,0,0:0:0:0:
182,192,279930,1,0,0:0:0:0:
36,192,279930,1,0,0:0:0:0:
329,192,280013,1,0,0:0:0:0:
402,192,280013,1,0,0:0:0:0:
475,192,280013,1,0,0:0:0:0:
36,192,280097,1,0,0:0:0:0:
109,192,280117,1,0,0:0:0:0:
182,192,280138,1,0,0:0:0:0:
256,192,280159,1,0,0:0:0:0:
475,192,280180,1,0,0:0:0:0:
402,192,280201,1,0,0:0:0:0:
329,192,280222,1,0,0:0:0:0:
182,192,280242,1,0,0:0:0:0:
109,192,280263,1,0,0:0:0:0:
36,192,280284,1,0,0:0:0:0:
475,192,280305,1,0,0:0:0:0:
402,192,280326,1,0,0:0:0:0:
329,192,280347,1,0,0:0:0:0:
182,192,280367,1,0,0:0:0:0:
109,192,280388,1,0,0:0:0:0:
36,192,280409,1,0,0:0:0:0:
402,192,280430,1,0,0:0:0:0:
475,192,280430,1,0,0:0:0:0:
329,192,280430,1,0,0:0:0:0:
256,192,280513,1,0,0:0:0:0:
182,192,280513,1,0,0:0:0:0:
36,192,280597,1,0,0:0:0:0:
109,192,280597,1,0,0:0:0:0:
402,192,280597,1,0,0:0:0:0:
475,192,280597,1,0,0:0:0:0:
329,192,280680,1,0,0:0:0:0:
256,192,280680,1,0,0:0:0:0:
109,192,280763,1,0,0:0:0:0:
36,192,280763,1,0,0:0:0:0:
402,192,280763,1,0,0:0:0:0:
475,192,280763,1,0,0:0:0:0:
182,192,280847,1,0,0:0:0:0:
256,192,280847,1,0,0:0:0:0:
