osu file format v14

[General]
AudioFilename: audio.mp3
AudioLeadIn: 0
PreviewTime: 231097
Countdown: 0
SampleSet: Soft
StackLeniency: 0.7
Mode: 3
LetterboxInBreaks: 0
SpecialStyle: 0
WidescreenStoryboard: 0

[Editor]
DistanceSpacing: 1.2
BeatDivisor: 6
GridSize: 4
TimelineZoom: 2.899998

[Metadata]
Title:Scattered Faith
TitleUnicode:Scattered Faith
Artist:Kurokotei
ArtistUnicode:黒皇帝
Creator:4hri
Version:Catastrophic Trust
Source:東方Project
Tags:touhou speedcore marathon kurokotei sayaka- hijiri byakuren 感情の摩天楼 emotional skyscraper ~ cosmic mind zun 東方星蓮船 ~ undefined fantastic object stage 6 boss theme
BeatmapID:1126578
BeatmapSetID:523735

[Difficulty]
HPDrainRate:8.5
CircleSize:4
OverallDifficulty:8
ApproachRate:5
SliderMultiplier:1.4
SliderTickRate:1

[Events]
//Background and Video events
0,0,"FAITH.jpg",0,0
//Break Periods
2,60494,64344
//Storyboard Layer 0 (Background)
//Storyboard Layer 1 (Fail)
//Storyboard Layer 2 (Pass)
//Storyboard Layer 3 (Foreground)
//Storyboard Sound Samples

[TimingPoints]
294,187.5,4,2,1,10,1,0
66294,-100,4,2,1,20,0,0
116169,-83.3333333333333,4,2,1,20,0,0
116262,-125,4,2,1,20,0,0
116356,-83.3333333333333,4,2,1,20,0,0
116450,-125,4,2,1,20,0,0
116544,-83.3333333333333,4,2,1,20,0,0
116637,-125,4,2,1,20,0,0
116731,-83.3333333333333,4,2,1,20,0,0
116825,-125,4,2,1,20,0,0
116919,-83.3333333333333,4,2,1,20,0,0
117012,-125,4,2,1,20,0,0
117106,-83.3333333333333,4,2,1,20,0,0
117200,-125,4,2,1,20,0,0
117294,-83.3333333333333,4,2,1,20,0,0
117387,-125,4,2,1,20,0,0
117481,-83.3333333333333,4,2,1,20,0,0
117575,-125,4,2,1,20,0,0
117669,-83.3333333333333,4,2,1,20,0,0
117762,-125,4,2,1,20,0,0
117856,-83.3333333333333,4,2,1,20,0,0
117950,-125,4,2,1,20,0,0
118044,-52.6315789473684,4,2,1,20,0,0
118067,-1000,4,2,1,20,0,0
118090,-52.6315789473684,4,2,1,20,0,0
118114,-1000,4,2,1,20,0,0
118137,-52.6315789473684,4,2,1,20,0,0
118161,-1000,4,2,1,20,0,0
118184,-52.6315789473684,4,2,1,20,0,0
118208,-1000,4,2,1,20,0,0
118231,-52.6315789473684,4,2,1,20,0,0
118254,-1000,4,2,1,20,0,0
118278,-52.6315789473684,4,2,1,20,0,0
118301,-1000,4,2,1,20,0,0
118325,-52.6315789473684,4,2,1,20,0,0
118348,-1000,4,2,1,20,0,0
118372,-52.6315789473684,4,2,1,20,0,0
118395,-1000,4,2,1,20,0,0
118419,-100,4,2,1,20,0,0
118794,-66.6666666666667,4,2,1,20,0,0
118840,-200,4,2,1,20,0,0
118887,-66.6666666666667,4,2,1,20,0,0
118934,-200,4,2,1,20,0,0
118981,-66.6666666666667,4,2,1,20,0,0
119027,-200,4,2,1,20,0,0
119074,-66.6666666666667,4,2,1,20,0,0
119121,-200,4,2,1,20,0,0
119169,-66.6666666666667,4,2,1,20,0,0
119215,-200,4,2,1,20,0,0
119262,-66.6666666666667,4,2,1,20,0,0
119309,-200,4,2,1,20,0,0
119356,-66.6666666666667,4,2,1,20,0,0
119402,-200,4,2,1,20,0,0
119449,-66.6666666666667,4,2,1,20,0,0
119496,-200,4,2,1,20,0,0
119544,-66.6666666666667,4,2,1,20,0,0
119590,-200,4,2,1,20,0,0
119637,-66.6666666666667,4,2,1,20,0,0
119684,-200,4,2,1,20,0,0
119731,-66.6666666666667,4,2,1,20,0,0
119777,-200,4,2,1,20,0,0
119824,-66.6666666666667,4,2,1,20,0,0
119871,-200,4,2,1,20,0,0
119919,-66.6666666666667,4,2,1,20,0,0
119965,-200,4,2,1,20,0,0
120012,-66.6666666666667,4,2,1,20,0,0
120059,-200,4,2,1,20,0,0
120106,-66.6666666666667,4,2,1,20,0,0
120152,-200,4,2,1,20,0,0
120199,-66.6666666666667,4,2,1,20,0,0
120246,-200,4,2,1,20,0,0
120294,-100,4,2,1,20,0,0
128919,-104.166666666667,4,2,1,20,0,0
129012,-107.52688172043,4,2,1,20,0,0
129106,-111.111111111111,4,2,1,20,0,0
129200,-114.942528735632,4,2,1,20,0,0
129294,387.096774193548,4,2,1,5,1,0
129294,-64.5161290322581,4,2,1,5,0,0
130068,387.096774193548,4,2,1,10,1,0
130068,-64.5161290322581,4,2,1,5,0,0
153294,-60.6060606060606,4,2,1,5,0,0
153390,-58.8235294117647,4,2,1,5,0,0
153487,-57.1428571428571,4,2,1,5,0,0
153584,-55.5555555555556,4,2,1,5,0,0
153681,-54.054054054054,4,2,1,5,0,0
153777,-52.6315789473684,4,2,1,5,0,0
153874,-51.2820512820513,4,2,1,5,0,0
153971,-50,4,2,1,5,0,0
154068,193.548387096774,4,2,1,15,1,0
203616,387.096774193548,4,2,1,15,1,0
203616,-48.5436893203883,4,2,1,15,0,0
205164,352.941176470588,4,2,1,16,1,0
205164,-53.1914893617021,4,2,1,16,0,0
206575,324.324324324324,4,2,1,17,1,0
206575,-57.8034682080925,4,2,1,16,0,0
207872,300,4,2,1,18,1,0
207872,-62.5,4,2,1,18,0,0
209072,279.06976744186,4,2,1,19,1,0
209072,-67.1140939597315,4,2,1,19,0,0
210188,260.869565217391,4,2,1,20,1,0
210188,-71.9424460431655,4,2,1,20,0,0
211231,244.897959183673,4,2,1,21,1,0
211231,-76.9230769230769,4,2,1,21,0,0
212210,230.769230769231,4,2,1,22,1,0
212210,-81.3008130081301,4,2,1,22,0,0
213133,218.181818181818,4,2,1,23,1,0
213133,-86.2068965517241,4,2,1,23,0,0
214005,206.896551724138,4,2,1,24,1,0
214005,-90.9090909090909,4,2,1,24,0,0
214832,196.72131147541,4,2,1,25,1,0
214832,-95.2380952380952,4,2,1,25,0,0
215618,187.5,4,2,1,26,1,0
215618,-100,4,2,1,26,0,0
216368,179.10447761194,4,2,1,27,1,0
216368,-104.166666666667,4,2,1,27,0,0
217084,171.428571428571,4,2,1,28,1,0
217084,-109.89010989011,4,2,1,28,0,0
217769,164.383561643836,4,2,1,29,1,0
217769,-113.636363636364,4,2,1,29,0,0
218426,157.894736842105,4,2,1,30,1,0
218426,-119.047619047619,4,2,1,30,0,0
219057,151.898734177215,4,2,1,31,1,0
219057,-123.456790123457,4,2,1,31,0,0
219664,146.341463414634,4,2,1,32,1,0
219664,-128.205128205128,4,2,1,32,0,0
220249,141.176470588235,4,2,1,33,1,0
220249,-131.578947368421,4,2,1,33,0,0
220813,136.363636363636,4,2,1,34,1,0
220813,-136.986301369863,4,2,1,34,0,0
221358,131.868131868132,4,2,1,35,1,0
221358,-142.857142857143,4,2,1,35,0,0
221885,127.659574468085,4,2,1,36,1,0
221885,-147.058823529412,4,2,1,36,0,0
222395,123.711340206186,4,2,1,38,1,0
222395,-151.515151515152,4,2,1,38,0,0
222889,120,4,2,1,40,1,0
222889,-156.25,4,2,1,40,0,0
223369,116.504854368932,4,2,1,20,1,0
223369,-161.290322580645,4,2,1,20,0,0
227097,166.666666666667,4,2,1,10,1,0
227097,-112.359550561798,4,2,1,10,0,0
232430,-112.359550561798,4,2,1,40,0,1
296430,387.096774193548,4,2,1,15,1,0
296430,-33.3333333333333,4,2,1,15,0,0
296526,-35.7142857142857,4,2,1,15,0,0
296623,-38.4615384615385,4,2,1,15,0,0
296720,-41.6666666666667,4,2,1,15,0,0
296817,-45.4545454545455,4,2,1,15,0,0
297204,387.096774193548,4,2,1,10,1,0
297204,-50,4,2,1,10,0,0
321204,352.941176470588,4,2,1,30,1,0
321204,-53.1914893617021,4,2,1,30,0,0
332498,342.857142857143,4,2,1,30,1,0
332498,-54.6448087431694,4,2,1,30,0,0
343469,333.333333333333,4,2,1,20,1,0
343469,-56.1797752808989,4,2,1,20,0,0
362135,166.666666666667,4,2,1,10,1,0
362135,-112.359550561798,4,2,1,10,0,0
367468,-112.359550561798,4,2,1,40,0,1
410134,157.894736842105,4,2,1,45,1,1
410134,-119.047619047619,4,2,1,45,0,1
430344,-119.047619047619,4,2,1,20,0,0
450553,-119.047619047619,4,2,1,20,0,0
470764,-142.857142857143,4,2,1,20,0,0

[HitObjects]
448,192,294,5,0,0:0:0:0:
192,192,481,1,0,0:0:0:0:
320,192,669,1,0,0:0:0:0:
192,192,856,1,0,0:0:0:0:
64,192,1044,1,0,0:0:0:0:
448,192,1231,1,0,0:0:0:0:
320,192,1419,1,0,0:0:0:0:
192,192,1606,1,0,0:0:0:0:
64,192,1794,1,0,0:0:0:0:
320,192,1981,1,0,0:0:0:0:
448,192,2169,1,0,0:0:0:0:
64,192,2356,1,0,0:0:0:0:
192,192,2544,1,0,0:0:0:0:
64,192,2731,1,0,0:0:0:0:
192,192,2919,1,0,0:0:0:0:
320,192,3106,1,0,0:0:0:0:
448,192,3294,1,0,0:0:0:0:
64,192,3481,1,0,0:0:0:0:
192,192,3669,1,0,0:0:0:0:
64,192,3856,1,0,0:0:0:0:
320,192,4044,1,0,0:0:0:0:
448,192,4231,1,0,0:0:0:0:
320,192,4419,1,0,0:0:0:0:
192,192,4606,1,0,0:0:0:0:
320,192,4700,1,0,0:0:0:0:
448,192,4794,1,0,0:0:0:0:
320,192,4981,1,0,0:0:0:0:
192,192,5169,1,0,0:0:0:0:
320,192,5356,1,0,0:0:0:0:
192,192,5544,1,0,0:0:0:0:
64,192,5731,1,0,0:0:0:0:
192,192,5919,1,0,0:0:0:0:
320,192,6106,1,0,0:0:0:0:
448,192,6294,1,0,0:0:0:0:
64,192,6481,1,0,0:0:0:0:
320,192,6669,1,0,0:0:0:0:
64,192,6856,1,0,0:0:0:0:
448,192,7044,1,0,0:0:0:0:
192,192,7231,1,0,0:0:0:0:
320,192,7419,1,0,0:0:0:0:
64,192,7606,1,0,0:0:0:0:
448,192,7794,1,0,0:0:0:0:
64,192,7981,1,0,0:0:0:0:
320,192,8169,1,0,0:0:0:0:
64,192,8356,1,0,0:0:0:0:
448,192,8544,1,0,0:0:0:0:
64,192,8731,1,0,0:0:0:0:
192,192,8919,1,0,0:0:0:0:
320,192,9106,1,0,0:0:0:0:
448,192,9294,1,0,0:0:0:0:
64,192,9481,1,0,0:0:0:0:
320,192,9669,1,0,0:0:0:0:
64,192,9856,1,0,0:0:0:0:
192,192,10044,1,0,0:0:0:0:
64,192,10231,1,0,0:0:0:0:
320,192,10419,1,0,0:0:0:0:
192,192,10606,1,0,0:0:0:0:
320,192,10700,1,0,0:0:0:0:
448,192,10794,1,0,0:0:0:0:
320,192,10981,1,0,0:0:0:0:
64,192,11169,1,0,0:0:0:0:
192,192,11356,1,0,0:0:0:0:
320,192,11544,1,0,0:0:0:0:
192,192,11731,1,0,0:0:0:0:
448,192,11919,1,0,0:0:0:0:
192,192,12106,1,0,0:0:0:0:
64,192,12294,1,0,0:0:0:0:
448,192,12294,1,0,0:0:0:0:
64,192,12481,1,0,0:0:0:0:
192,192,12481,1,0,0:0:0:0:
64,192,12669,1,0,0:0:0:0:
320,192,12669,1,0,0:0:0:0:
192,192,12856,1,0,0:0:0:0:
320,192,13044,1,0,0:0:0:0:
448,192,13044,1,0,0:0:0:0:
320,192,13231,1,0,0:0:0:0:
64,192,13231,1,0,0:0:0:0:
192,192,13419,1,0,0:0:0:0:
448,192,13419,1,0,0:0:0:0:
64,192,13606,1,0,0:0:0:0:
192,192,13606,1,0,0:0:0:0:
320,192,13794,1,0,0:0:0:0:
448,192,13794,1,0,0:0:0:0:
320,192,13981,1,0,0:0:0:0:
64,192,13981,1,0,0:0:0:0:
448,192,14169,1,0,0:0:0:0:
320,192,14169,1,0,0:0:0:0:
192,192,14356,1,0,0:0:0:0:
64,192,14356,1,0,0:0:0:0:
448,192,14450,1,0,0:0:0:0:
192,192,14544,1,0,0:0:0:0:
64,192,14544,1,0,0:0:0:0:
448,192,14637,1,0,0:0:0:0:
192,192,14731,1,0,0:0:0:0:
64,192,14731,1,0,0:0:0:0:
448,192,14919,1,0,0:0:0:0:
192,192,14919,1,0,0:0:0:0:
448,192,15106,1,0,0:0:0:0:
64,192,15106,1,0,0:0:0:0:
320,192,15294,1,0,0:0:0:0:
192,192,15294,1,0,0:0:0:0:
448,192,15481,1,0,0:0:0:0:
192,192,15481,1,0,0:0:0:0:
64,192,15669,1,0,0:0:0:0:
448,192,15669,1,0,0:0:0:0:
64,192,15856,1,0,0:0:0:0:
192,192,15856,1,0,0:0:0:0:
320,192,16044,1,0,0:0:0:0:
192,192,16044,1,0,0:0:0:0:
320,192,16231,1,0,0:0:0:0:
64,192,16231,1,0,0:0:0:0:
192,192,16419,1,0,0:0:0:0:
448,192,16419,1,0,0:0:0:0:
192,192,16606,1,0,0:0:0:0:
64,192,16606,1,0,0:0:0:0:
320,192,16700,1,0,0:0:0:0:
192,192,16794,1,0,0:0:0:0:
448,192,16794,1,0,0:0:0:0:
320,192,16981,1,0,0:0:0:0:
64,192,16981,1,0,0:0:0:0:
448,192,17169,1,0,0:0:0:0:
320,192,17169,1,0,0:0:0:0:
64,192,17356,1,0,0:0:0:0:
192,192,17356,1,0,0:0:0:0:
448,192,17544,1,0,0:0:0:0:
320,192,17544,1,0,0:0:0:0:
64,192,17731,1,0,0:0:0:0:
192,192,17731,1,0,0:0:0:0:
448,192,17919,1,0,0:0:0:0:
192,192,17919,1,0,0:0:0:0:
64,192,18106,1,0,0:0:0:0:
320,192,18106,1,0,0:0:0:0:
448,192,18294,1,0,0:0:0:0:
192,192,18294,1,0,0:0:0:0:
64,192,18481,1,0,0:0:0:0:
448,192,18481,1,0,0:0:0:0:
320,192,18669,1,0,0:0:0:0:
64,192,18856,1,0,0:0:0:0:
192,192,18856,1,0,0:0:0:0:
320,192,18950,1,0,0:0:0:0:
64,192,19044,1,0,0:0:0:0:
448,192,19044,1,0,0:0:0:0:
192,192,19137,1,0,0:0:0:0:
448,192,19231,1,0,0:0:0:0:
64,192,19231,1,0,0:0:0:0:
320,192,19325,1,0,0:0:0:0:
448,192,19419,1,0,0:0:0:0:
320,192,19606,1,0,0:0:0:0:
64,192,19606,1,0,0:0:0:0:
192,192,19700,1,0,0:0:0:0:
448,192,19794,1,0,0:0:0:0:
320,192,19794,1,0,0:0:0:0:
320,192,19981,1,0,0:0:0:0:
64,192,19981,1,0,0:0:0:0:
320,192,20169,1,0,0:0:0:0:
448,192,20169,1,0,0:0:0:0:
192,192,20356,1,0,0:0:0:0:
64,192,20356,1,0,0:0:0:0:
320,192,20450,1,0,0:0:0:0:
64,192,20544,1,0,0:0:0:0:
448,192,20544,1,0,0:0:0:0:
192,192,20637,1,0,0:0:0:0:
448,192,20731,1,0,0:0:0:0:
320,192,20731,1,0,0:0:0:0:
192,192,20919,1,0,0:0:0:0:
448,192,20919,1,0,0:0:0:0:
64,192,21106,1,0,0:0:0:0:
320,192,21106,1,0,0:0:0:0:
192,192,21294,1,0,0:0:0:0:
448,192,21294,1,0,0:0:0:0:
448,192,21481,1,0,0:0:0:0:
192,192,21481,1,0,0:0:0:0:
64,192,21669,1,0,0:0:0:0:
320,192,21669,1,0,0:0:0:0:
192,192,21856,1,0,0:0:0:0:
320,192,21856,1,0,0:0:0:0:
320,192,22044,1,0,0:0:0:0:
64,192,22044,1,0,0:0:0:0:
192,192,22231,1,0,0:0:0:0:
448,192,22231,1,0,0:0:0:0:
64,192,22419,1,0,0:0:0:0:
320,192,22419,1,0,0:0:0:0:
192,192,22606,1,0,0:0:0:0:
320,192,22700,1,0,0:0:0:0:
448,192,22794,1,0,0:0:0:0:
64,192,22794,1,0,0:0:0:0:
192,192,22887,1,0,0:0:0:0:
64,192,22981,1,0,0:0:0:0:
320,192,22981,1,0,0:0:0:0:
320,192,23169,1,0,0:0:0:0:
192,192,23169,1,0,0:0:0:0:
320,192,23356,1,0,0:0:0:0:
448,192,23356,1,0,0:0:0:0:
448,192,23544,1,0,0:0:0:0:
64,192,23544,1,0,0:0:0:0:
192,192,23731,1,0,0:0:0:0:
320,192,23731,1,0,0:0:0:0:
192,192,23919,1,0,0:0:0:0:
448,192,23919,1,0,0:0:0:0:
320,192,24106,1,0,0:0:0:0:
64,192,24106,1,0,0:0:0:0:
192,192,24294,1,8,0:2:0:0:
448,192,24294,1,0,0:0:0:0:
320,192,24294,128,0,24669:0:0:0:0:
64,192,24481,1,0,0:0:0:0:
192,192,24669,1,8,0:2:0:0:
448,192,24669,1,0,0:0:0:0:
64,192,24856,1,0,0:0:0:0:
64,192,25044,1,2,0:2:0:0:
448,192,25044,1,0,0:0:0:0:
320,192,25044,128,0,25419:0:0:0:0:
192,192,25231,1,0,0:0:0:0:
64,192,25419,1,8,0:2:0:0:
448,192,25419,1,0,0:0:0:0:
192,192,25606,1,0,0:0:0:0:
64,192,25606,1,2,0:0:0:0:
320,192,25700,1,0,0:0:0:0:
192,192,25794,1,8,0:2:0:0:
64,192,25794,128,0,26169:0:0:0:0:
448,192,25794,1,0,0:0:0:0:
320,192,25981,1,2,0:0:0:0:
448,192,25981,1,0,0:0:0:0:
192,192,26169,1,8,0:2:0:0:
448,192,26169,1,0,0:0:0:0:
320,192,26356,1,0,0:0:0:0:
192,192,26450,1,0,0:0:0:0:
320,192,26544,1,2,0:0:0:0:
448,192,26544,1,0,0:0:0:0:
64,192,26544,128,0,26919:0:0:0:0:
192,192,26731,1,0,0:0:0:0:
192,192,26919,1,8,0:2:0:0:
448,192,26919,1,0,0:0:0:0:
320,192,27106,1,0,0:0:0:0:
64,192,27294,1,8,0:2:0:0:
192,192,27294,1,0,0:0:0:0:
448,192,27294,128,0,27669:0:0:0:0:
320,192,27481,1,0,0:0:0:0:
64,192,27669,1,8,0:2:0:0:
192,192,27669,1,0,0:0:0:0:
320,192,27856,1,0,0:0:0:0:
64,192,28044,1,2,0:0:0:0:
320,192,28044,1,0,0:0:0:0:
448,192,28044,128,0,28419:0:0:0:0:
320,192,28231,1,0,0:0:0:0:
64,192,28419,1,8,0:2:0:0:
192,192,28419,1,0,0:0:0:0:
448,192,28606,1,0,0:0:0:0:
192,192,28606,1,2,0:0:0:0:
320,192,28700,1,0,0:0:0:0:
64,192,28794,1,8,0:2:0:0:
448,192,28794,128,0,28981:0:0:0:0:
192,192,28794,1,0,0:0:0:0:
192,192,28981,128,0,29169:0:0:0:0:
320,192,28981,1,0,0:0:0:0:
64,192,28981,1,2,0:0:0:0:
320,192,29169,1,8,0:2:0:0:
64,192,29169,128,0,29356:0:0:0:0:
448,192,29169,1,0,0:0:0:0:
448,192,29356,128,0,29544:0:0:0:0:
192,192,29356,1,0,0:0:0:0:
320,192,29544,128,0,29731:0:0:0:0:
192,192,29544,1,0,0:0:0:0:
64,192,29544,1,2,0:0:0:0:
64,192,29731,128,0,29919:0:0:0:0:
448,192,29731,1,0,0:0:0:0:
320,192,29919,1,8,0:2:0:0:
192,192,29919,128,0,30106:0:0:0:0:
448,192,29919,1,0,0:0:0:0:
448,192,30106,128,0,30294:0:0:0:0:
64,192,30106,1,0,0:0:0:0:
320,192,30294,1,0,0:0:0:0:
192,192,30294,1,8,0:0:0:0:
64,192,30294,128,0,30669:0:0:0:0:
448,192,30669,1,0,0:0:0:0:
192,192,30669,1,8,0:0:0:0:
64,192,30856,1,0,0:0:0:0:
320,192,30856,1,0,0:0:0:0:
192,192,30950,1,0,0:0:0:0:
320,192,31044,1,2,0:0:0:0:
448,192,31044,1,0,0:0:0:0:
64,192,31044,128,0,31419:0:0:0:0:
192,192,31231,1,0,0:0:0:0:
192,192,31419,1,8,0:0:0:0:
320,192,31419,1,0,0:0:0:0:
448,192,31606,1,2,0:0:0:0:
64,192,31606,1,0,0:0:0:0:
192,192,31700,1,0,0:0:0:0:
64,192,31794,1,8,0:0:0:0:
320,192,31794,128,0,32169:0:0:0:0:
448,192,31794,1,0,0:0:0:0:
64,192,31981,1,2,0:0:0:0:
192,192,31981,1,0,0:0:0:0:
448,192,32169,1,0,0:0:0:0:
64,192,32169,1,8,0:0:0:0:
320,192,32356,1,0,0:0:0:0:
448,192,32356,1,0,0:0:0:0:
192,192,32450,1,0,0:0:0:0:
448,192,32544,1,2,0:0:0:0:
64,192,32544,1,0,0:0:0:0:
320,192,32544,128,0,32919:0:0:0:0:
448,192,32731,1,0,0:0:0:0:
64,192,32919,1,8,0:0:0:0:
192,192,32919,1,0,0:0:0:0:
320,192,33106,1,0,0:0:0:0:
448,192,33294,1,0,0:0:0:0:
64,192,33294,1,8,0:0:0:0:
192,192,33294,128,0,33669:0:0:0:0:
320,192,33481,1,0,0:0:0:0:
64,192,33669,1,8,0:0:0:0:
448,192,33669,1,0,0:0:0:0:
64,192,33856,1,0,0:0:0:0:
320,192,34044,1,2,0:0:0:0:
448,192,34044,1,0,0:0:0:0:
192,192,34044,128,0,34419:0:0:0:0:
64,192,34419,1,8,0:0:0:0:
448,192,34419,1,0,0:0:0:0:
448,192,34606,1,2,0:0:0:0:
320,192,34606,1,0,0:0:0:0:
192,192,34700,1,0,0:0:0:0:
448,192,34794,128,0,34981:0:0:0:0:
64,192,34794,1,8,0:0:0:0:
320,192,34794,1,0,0:0:0:0:
320,192,34981,128,0,35169:0:0:0:0:
192,192,34981,1,2,0:0:0:0:
64,192,34981,1,0,0:0:0:0:
192,192,35169,1,8,0:0:0:0:
64,192,35169,128,0,35356:0:0:0:0:
448,192,35169,1,0,0:0:0:0:
192,192,35356,128,0,35544:0:0:0:0:
320,192,35356,1,0,0:0:0:0:
448,192,35544,1,0,0:0:0:0:
320,192,35544,1,2,0:0:0:0:
64,192,35544,128,0,35731:0:0:0:0:
320,192,35731,1,0,0:0:0:0:
192,192,35731,1,8,0:0:0:0:
448,192,35731,128,0,35919:0:0:0:0:
192,192,35919,1,0,0:0:0:0:
64,192,35919,1,8,0:0:0:0:
192,192,36012,1,8,0:0:0:0:
320,192,36012,1,0,0:0:0:0:
320,192,36106,1,8,0:0:0:0:
448,192,36106,1,0,0:0:0:0:
64,192,36200,1,8,0:0:0:0:
192,192,36200,1,0,0:0:0:0:
64,192,36294,128,0,36669:0:0:0:0:
192,192,36294,128,0,37419:0:0:0:0:
320,192,36294,1,4,0:0:0:0:
448,192,36294,1,8,0:0:0:0:
448,192,36481,1,0,0:0:0:0:
320,192,36669,1,0,0:0:0:0:
448,192,36856,1,0,0:0:0:0:
64,192,37044,128,0,37419:0:0:0:0:
320,192,37044,1,0,0:0:0:0:
448,192,37231,1,0,0:0:0:0:
320,192,37419,1,0,0:0:0:0:
192,192,37606,1,0,0:0:0:0:
448,192,37794,128,0,38169:0:0:0:0:
64,192,37794,1,0,0:0:0:0:
64,192,38169,1,0,0:0:0:0:
192,192,38356,1,0,0:0:0:0:
64,192,38450,1,0,0:0:0:0:
448,192,38544,128,0,38919:0:0:0:0:
192,192,38544,1,0,0:0:0:0:
320,192,38919,1,0,0:0:0:0:
64,192,38919,1,0,0:0:0:0:
192,192,39106,1,0,0:0:0:0:
192,192,39294,128,0,39669:0:0:0:0:
320,192,39294,1,0,0:0:0:0:
64,192,39294,1,0,0:0:0:0:
448,192,39481,1,0,0:0:0:0:
64,192,39669,1,0,0:0:0:0:
320,192,39669,1,0,0:0:0:0:
320,192,39856,1,0,0:0:0:0:
192,192,40044,128,0,40419:0:0:0:0:
64,192,40044,1,0,0:0:0:0:
448,192,40044,1,0,0:0:0:0:
320,192,40231,1,0,0:0:0:0:
448,192,40419,1,0,0:0:0:0:
64,192,40606,1,0,0:0:0:0:
192,192,40700,1,0,0:0:0:0:
320,192,40794,1,0,0:0:0:0:
448,192,40794,128,0,41169:0:0:0:0:
64,192,40794,1,0,0:0:0:0:
192,192,40981,1,0,0:0:0:0:
320,192,40981,1,0,0:0:0:0:
64,192,41169,1,0,0:0:0:0:
320,192,41169,1,0,0:0:0:0:
448,192,41356,1,0,0:0:0:0:
192,192,41356,1,0,0:0:0:0:
64,192,41544,1,0,0:0:0:0:
448,192,41544,128,0,41919:0:0:0:0:
320,192,41544,1,0,0:0:0:0:
192,192,41731,1,0,0:0:0:0:
320,192,41731,1,0,0:0:0:0:
320,192,41919,1,0,0:0:0:0:
64,192,41919,1,0,0:0:0:0:
192,192,42106,1,0,0:0:0:0:
64,192,42106,1,0,0:0:0:0:
192,192,42294,128,0,42669:0:0:0:0:
448,192,42294,128,0,43419:0:0:0:0:
64,192,42294,1,8,0:0:0:0:
320,192,42294,1,4,0:0:0:0:
320,192,42481,1,0,0:0:0:0:
64,192,42669,1,0,0:0:0:0:
320,192,42856,1,0,0:0:0:0:
192,192,43044,128,0,43419:0:0:0:0:
64,192,43044,1,0,0:0:0:0:
320,192,43231,1,0,0:0:0:0:
64,192,43419,1,0,0:0:0:0:
192,192,43606,1,0,0:0:0:0:
320,192,43700,1,0,0:0:0:0:
448,192,43794,1,0,0:0:0:0:
64,192,43794,128,0,44169:0:0:0:0:
320,192,43981,1,0,0:0:0:0:
192,192,44169,1,0,0:0:0:0:
64,192,44356,1,0,0:0:0:0:
320,192,44356,1,0,0:0:0:0:
192,192,44450,1,0,0:0:0:0:
64,192,44544,128,0,44919:0:0:0:0:
320,192,44544,1,0,0:0:0:0:
448,192,44544,1,0,0:0:0:0:
448,192,44731,1,0,0:0:0:0:
192,192,44731,1,0,0:0:0:0:
320,192,44919,1,0,0:0:0:0:
448,192,44919,1,0,0:0:0:0:
192,192,45106,1,0,0:0:0:0:
320,192,45106,1,0,0:0:0:0:
448,192,45294,128,0,45669:0:0:0:0:
64,192,45294,1,0,0:0:0:0:
320,192,45294,1,0,0:0:0:0:
64,192,45669,1,0,0:0:0:0:
320,192,45856,1,0,0:0:0:0:
192,192,45856,1,0,0:0:0:0:
448,192,46044,128,0,46419:0:0:0:0:
320,192,46044,1,0,0:0:0:0:
64,192,46419,1,0,0:0:0:0:
448,192,46606,1,0,0:0:0:0:
192,192,46606,1,0,0:0:0:0:
320,192,46700,1,0,0:0:0:0:
192,192,46794,128,0,47169:0:0:0:0:
64,192,46794,1,0,0:0:0:0:
448,192,46794,1,0,0:0:0:0:
320,192,46981,1,0,0:0:0:0:
448,192,46981,1,0,0:0:0:0:
320,192,47169,1,0,0:0:0:0:
64,192,47169,1,0,0:0:0:0:
320,192,47356,1,0,0:0:0:0:
192,192,47356,1,0,0:0:0:0:
64,192,47544,1,0,0:0:0:0:
192,192,47544,128,0,47919:0:0:0:0:
448,192,47544,1,0,0:0:0:0:
320,192,47731,1,0,0:0:0:0:
64,192,47731,1,0,0:0:0:0:
448,192,47919,1,0,0:0:0:0:
320,192,47919,1,0,0:0:0:0:
64,192,48106,1,0,0:0:0:0:
192,192,48106,1,0,0:0:0:0:
320,192,48294,1,4,0:0:0:0:
448,192,48294,128,0,48669:0:0:0:0:
192,192,48294,128,0,49419:0:0:0:0:
64,192,48294,1,8,0:0:0:0:
64,192,48481,1,0,0:0:0:0:
320,192,48669,1,0,0:0:0:0:
64,192,48856,1,0,0:0:0:0:
448,192,49044,128,0,49419:0:0:0:0:
320,192,49044,1,0,0:0:0:0:
64,192,49231,1,0,0:0:0:0:
320,192,49419,1,0,0:0:0:0:
192,192,49606,1,0,0:0:0:0:
320,192,49794,1,0,0:0:0:0:
64,192,49794,128,0,50169:0:0:0:0:
448,192,49981,1,0,0:0:0:0:
192,192,50169,1,0,0:0:0:0:
64,192,50356,1,0,0:0:0:0:
448,192,50356,1,0,0:0:0:0:
320,192,50450,1,0,0:0:0:0:
64,192,50544,128,0,50919:0:0:0:0:
448,192,50544,1,0,0:0:0:0:
192,192,50544,1,0,0:0:0:0:
192,192,50731,1,0,0:0:0:0:
448,192,50919,1,0,0:0:0:0:
320,192,50919,1,0,0:0:0:0:
448,192,51106,1,0,0:0:0:0:
64,192,51294,128,0,51669:0:0:0:0:
320,192,51294,128,0,52419:0:0:0:0:
448,192,51294,1,8,0:0:0:0:
192,192,51294,1,4,0:0:0:0:
192,192,51481,1,0,0:0:0:0:
448,192,51669,1,0,0:0:0:0:
192,192,51856,1,0,0:0:0:0:
64,192,52044,128,0,52419:0:0:0:0:
448,192,52044,1,0,0:0:0:0:
192,192,52231,1,0,0:0:0:0:
448,192,52419,1,0,0:0:0:0:
64,192,52606,1,0,0:0:0:0:
192,192,52606,1,0,0:0:0:0:
320,192,52700,1,0,0:0:0:0:
64,192,52794,1,0,0:0:0:0:
192,192,52794,128,0,53169:0:0:0:0:
448,192,52794,1,0,0:0:0:0:
448,192,52981,1,0,0:0:0:0:
320,192,52981,1,0,0:0:0:0:
448,192,53169,1,0,0:0:0:0:
64,192,53169,1,0,0:0:0:0:
64,192,53356,1,0,0:0:0:0:
192,192,53356,1,0,0:0:0:0:
320,192,53544,1,0,0:0:0:0:
192,192,53544,128,0,53919:0:0:0:0:
448,192,53544,1,0,0:0:0:0:
448,192,53731,1,0,0:0:0:0:
64,192,53731,1,0,0:0:0:0:
320,192,53919,1,0,0:0:0:0:
64,192,53919,1,0,0:0:0:0:
320,192,54106,1,0,0:0:0:0:
448,192,54106,1,0,0:0:0:0:
320,192,54294,1,4,0:0:0:0:
448,192,54294,128,0,54669:0:0:0:0:
64,192,54294,128,0,55419:0:0:0:0:
192,192,54294,1,8,0:0:0:0:
192,192,54481,1,0,0:0:0:0:
320,192,54669,1,0,0:0:0:0:
192,192,54856,1,0,0:0:0:0:
448,192,55044,128,0,55419:0:0:0:0:
320,192,55044,1,0,0:0:0:0:
192,192,55231,1,0,0:0:0:0:
320,192,55419,1,0,0:0:0:0:
64,192,55606,1,0,0:0:0:0:
192,192,55700,1,0,0:0:0:0:
64,192,55794,128,0,56169:0:0:0:0:
320,192,55794,128,0,56919:0:0:0:0:
448,192,55794,1,4,0:0:0:0:
192,192,55794,1,8,0:0:0:0:
192,192,55981,1,0,0:0:0:0:
448,192,56169,1,0,0:0:0:0:
192,192,56356,1,0,0:0:0:0:
64,192,56544,128,0,56919:0:0:0:0:
448,192,56544,1,0,0:0:0:0:
192,192,56731,1,0,0:0:0:0:
448,192,56919,1,0,0:0:0:0:
64,192,57106,1,0,0:0:0:0:
320,192,57106,1,0,0:0:0:0:
448,192,57294,1,8,0:0:0:0:
320,192,57294,128,0,57669:0:0:0:0:
64,192,57294,128,0,57856:0:0:0:0:
192,192,57294,1,4,0:0:0:0:
192,192,57481,1,0,0:0:0:0:
448,192,57669,1,0,0:0:0:0:
320,192,57856,1,0,0:0:0:0:
320,192,58044,128,0,58419:0:0:0:0:
448,192,58044,128,0,58606:0:0:0:0:
64,192,58044,1,8,0:0:0:0:
192,192,58044,1,4,0:0:0:0:
192,192,58231,1,0,0:0:0:0:
64,192,58419,1,0,0:0:0:0:
64,192,58606,1,0,0:0:0:0:
192,192,58606,1,0,0:0:0:0:
320,192,58700,1,0,0:0:0:0:
64,192,58794,128,0,59169:0:0:0:0:
192,192,58794,1,8,0:0:0:0:
448,192,58794,1,4,0:0:0:0:
448,192,58887,128,0,59075:0:0:0:0:
320,192,58981,1,0,0:0:0:0:
448,192,59169,1,4,0:0:0:0:
192,192,59169,1,8,0:0:0:0:
320,192,59262,128,0,59450:0:0:0:0:
64,192,59356,1,0,0:0:0:0:
64,192,59544,128,0,59919:0:0:0:0:
448,192,59544,1,4,0:0:0:0:
192,192,59544,1,8,0:0:0:0:
448,192,59637,128,0,59825:0:0:0:0:
320,192,59731,1,0,0:0:0:0:
192,192,59919,1,8,0:0:0:0:
448,192,59919,1,4,0:0:0:0:
320,192,60012,128,0,60200:0:0:0:0:
192,192,60106,1,0,0:0:0:0:
448,192,60294,1,0,0:0:0:0:
64,192,60294,1,8,0:0:0:0:
320,192,60294,1,0,0:0:0:0:
64,192,66294,132,0,67419:0:0:0:0:
192,192,66294,1,8,0:0:0:0:
448,192,66294,1,4,0:0:0:0:
320,192,66481,1,0,0:0:0:0:
448,192,66575,1,0,0:0:0:0:
448,192,66669,1,0,0:0:0:0:
192,192,66669,1,0,0:0:0:0:
320,192,66669,1,2,0:0:0:0:
192,192,66762,1,0,0:0:0:0:
320,192,66856,1,0,0:0:0:0:
192,192,67044,1,0,0:0:0:0:
448,192,67044,1,0,0:0:0:0:
320,192,67137,1,0,0:0:0:0:
192,192,67231,1,8,0:0:0:0:
448,192,67419,128,0,67794:0:0:0:0:
320,192,67419,1,0,0:0:0:0:
192,192,67419,1,2,0:0:0:0:
192,192,67606,1,0,0:0:0:0:
320,192,67700,1,0,0:0:0:0:
192,192,67794,128,0,69294:0:0:0:0:
64,192,67794,1,8,0:0:0:0:
64,192,67981,1,0,0:0:0:0:
320,192,68075,1,0,0:0:0:0:
448,192,68169,1,2,0:0:0:0:
320,192,68169,1,0,0:0:0:0:
64,192,68169,1,0,0:0:0:0:
64,192,68262,1,0,0:0:0:0:
448,192,68356,1,0,0:0:0:0:
64,192,68544,1,0,0:0:0:0:
320,192,68544,1,0,0:0:0:0:
320,192,68637,1,0,0:0:0:0:
448,192,68731,1,8,0:0:0:0:
448,192,68919,1,0,0:0:0:0:
320,192,68919,1,2,0:0:0:0:
64,192,68919,1,0,0:0:0:0:
320,192,69106,1,0,0:0:0:0:
448,192,69200,1,0,0:0:0:0:
320,192,69294,128,0,70044:0:0:0:0:
448,192,69294,1,0,0:0:0:0:
64,192,69294,1,8,0:0:0:0:
192,192,69481,1,0,0:0:0:0:
448,192,69575,1,0,0:0:0:0:
64,192,69669,1,0,0:0:0:0:
448,192,69669,1,0,0:0:0:0:
192,192,69669,1,2,0:0:0:0:
64,192,69762,1,0,0:0:0:0:
448,192,69856,1,0,0:0:0:0:
448,192,70044,128,0,70325:0:0:0:0:
192,192,70044,1,0,0:0:0:0:
64,192,70044,1,0,0:0:0:0:
320,192,70137,1,0,0:0:0:0:
192,192,70231,1,8,0:0:0:0:
64,192,70325,128,0,70606:0:0:0:0:
192,192,70419,1,0,0:0:0:0:
320,192,70419,1,2,0:0:0:0:
448,192,70419,1,0,0:0:0:0:
320,192,70606,128,0,70794:0:0:0:0:
448,192,70794,128,0,71544:0:0:0:0:
192,192,70794,1,8,0:0:0:0:
64,192,70794,128,0,70981:0:0:0:0:
320,192,70981,128,0,71169:0:0:0:0:
192,192,71169,128,0,71356:0:0:0:0:
64,192,71169,1,2,0:0:0:0:
64,192,71356,128,0,71544:0:0:0:0:
320,192,71356,1,0,0:0:0:0:
192,192,71544,128,0,72294:0:0:0:0:
320,192,71544,128,0,71731:0:0:0:0:
64,192,71731,128,0,71919:0:0:0:0:
448,192,71731,1,8,0:0:0:0:
320,192,71919,128,0,72106:0:0:0:0:
448,192,71919,1,2,0:0:0:0:
448,192,72106,128,0,72294:0:0:0:0:
64,192,72106,1,0,0:0:0:0:
64,192,72294,128,0,73419:0:0:0:0:
320,192,72294,1,8,0:0:0:0:
192,192,72387,1,0,0:0:0:0:
320,192,72481,1,0,0:0:0:0:
448,192,72575,1,0,0:0:0:0:
192,192,72669,1,0,0:0:0:0:
320,192,72669,1,2,0:0:0:0:
448,192,72669,1,0,0:0:0:0:
192,192,72762,1,0,0:0:0:0:
448,192,72856,1,0,0:0:0:0:
192,192,72950,1,0,0:0:0:0:
192,192,73044,1,0,0:0:0:0:
448,192,73044,1,0,0:0:0:0:
320,192,73137,1,0,0:0:0:0:
448,192,73231,1,8,0:0:0:0:
192,192,73231,1,0,0:0:0:0:
448,192,73419,128,0,73794:0:0:0:0:
192,192,73419,1,0,0:0:0:0:
320,192,73419,1,2,0:0:0:0:
64,192,73512,1,0,0:0:0:0:
320,192,73606,1,0,0:0:0:0:
64,192,73606,1,0,0:0:0:0:
64,192,73794,1,0,0:0:0:0:
320,192,73794,1,8,0:0:0:0:
192,192,73794,128,0,74544:0:0:0:0:
320,192,73887,1,0,0:0:0:0:
64,192,73981,1,0,0:0:0:0:
448,192,74075,1,0,0:0:0:0:
448,192,74169,1,0,0:0:0:0:
64,192,74169,1,0,0:0:0:0:
320,192,74169,1,2,0:0:0:0:
64,192,74262,1,0,0:0:0:0:
448,192,74356,1,0,0:0:0:0:
320,192,74356,1,0,0:0:0:0:
64,192,74450,1,0,0:0:0:0:
448,192,74544,1,0,0:0:0:0:
320,192,74544,128,0,74919:0:0:0:0:
64,192,74544,1,0,0:0:0:0:
192,192,74731,1,8,0:0:0:0:
448,192,74919,128,0,75106:0:0:0:0:
64,192,74919,1,0,0:0:0:0:
192,192,74919,1,2,0:0:0:0:
64,192,75106,1,0,0:0:0:0:
192,192,75106,1,0,0:0:0:0:
320,192,75200,1,0,0:0:0:0:
64,192,75294,128,0,75481:0:0:0:0:
448,192,75294,1,0,0:0:0:0:
192,192,75294,1,8,0:0:0:0:
192,192,75481,128,0,75669:0:0:0:0:
320,192,75481,1,0,0:0:0:0:
64,192,75669,128,0,75856:0:0:0:0:
320,192,75669,1,2,0:0:0:0:
448,192,75669,1,0,0:0:0:0:
448,192,75856,128,0,76044:0:0:0:0:
320,192,75856,1,0,0:0:0:0:
192,192,76044,128,0,76231:0:0:0:0:
64,192,76044,1,0,0:0:0:0:
320,192,76231,128,0,76419:0:0:0:0:
448,192,76231,1,8,0:0:0:0:
64,192,76419,1,2,0:0:0:0:
448,192,76419,1,0,0:0:0:0:
320,192,76606,1,0,0:0:0:0:
448,192,76606,1,8,0:0:0:0:
192,192,76606,128,0,76794:0:0:0:0:
320,192,76700,1,0,0:0:0:0:
448,192,76700,1,8,0:0:0:0:
64,192,76794,128,0,76981:0:0:0:0:
320,192,76794,1,0,0:0:0:0:
448,192,76794,1,8,0:0:0:0:
448,192,76981,128,0,77169:0:0:0:0:
320,192,76981,1,0,0:0:0:0:
64,192,77169,128,0,77356:0:0:0:0:
192,192,77169,1,0,0:0:0:0:
320,192,77169,1,8,0:0:0:0:
448,192,77356,128,0,77544:0:0:0:0:
192,192,77356,1,0,0:0:0:0:
64,192,77544,128,0,77731:0:0:0:0:
320,192,77544,1,8,0:0:0:0:
192,192,77544,1,0,0:0:0:0:
320,192,77637,1,0,0:0:0:0:
192,192,77731,128,0,77919:0:0:0:0:
448,192,77731,1,0,0:0:0:0:
320,192,77919,128,0,78106:0:0:0:0:
448,192,77919,1,0,0:0:0:0:
64,192,77919,1,8,0:0:0:0:
192,192,78012,1,0,0:0:0:0:
448,192,78106,128,0,78294:0:0:0:0:
64,192,78106,1,0,0:0:0:0:
64,192,78294,128,0,78481:0:0:0:0:
192,192,78294,1,0,0:0:0:0:
320,192,78294,1,0,0:0:0:0:
320,192,78387,1,0,0:0:0:0:
192,192,78481,128,0,78669:0:0:0:0:
448,192,78481,1,0,0:0:0:0:
448,192,78669,128,0,78856:0:0:0:0:
320,192,78669,1,0,0:0:0:0:
64,192,78669,1,0,0:0:0:0:
192,192,78762,1,0,0:0:0:0:
320,192,78856,128,0,79044:0:0:0:0:
64,192,78856,1,8,0:0:0:0:
192,192,79044,1,8,0:0:0:0:
448,192,79044,1,0,0:0:0:0:
320,192,79137,1,0,0:0:0:0:
64,192,79137,1,8,0:0:0:0:
192,192,79231,1,0,0:0:0:0:
64,192,79231,1,8,0:0:0:0:
320,192,79325,1,8,0:0:0:0:
448,192,79325,1,0,0:0:0:0:
192,192,79419,1,8,0:0:0:0:
320,192,79419,1,0,0:0:0:0:
448,192,79512,1,0,0:0:0:0:
64,192,79512,1,8,0:0:0:0:
192,192,79606,1,0,0:0:0:0:
320,192,79653,1,0,0:0:0:0:
192,192,79700,1,0,0:0:0:0:
320,192,79747,1,0,0:0:0:0:
64,192,79794,1,8,0:0:0:0:
448,192,79794,1,4,0:0:0:0:
192,192,79794,1,0,0:0:0:0:
320,192,79887,1,0,0:0:0:0:
448,192,79981,1,0,0:0:0:0:
64,192,79981,1,8,0:0:0:0:
192,192,80075,1,0,0:0:0:0:
320,192,80169,1,8,0:0:0:0:
448,192,80169,1,0,0:0:0:0:
64,192,80262,1,0,0:0:0:0:
448,192,80356,1,0,0:0:0:0:
192,192,80356,1,8,0:0:0:0:
320,192,80450,1,0,0:0:0:0:
64,192,80544,1,8,0:0:0:0:
448,192,80544,1,0,0:0:0:0:
192,192,80544,1,0,0:0:0:0:
320,192,80637,1,0,0:0:0:0:
64,192,80731,1,8,0:0:0:0:
192,192,80731,1,0,0:0:0:0:
448,192,80825,1,0,0:0:0:0:
320,192,80919,1,0,0:0:0:0:
64,192,80919,1,8,0:0:0:0:
192,192,81012,1,0,0:0:0:0:
448,192,81106,1,0,0:0:0:0:
320,192,81106,1,8,0:0:0:0:
64,192,81200,1,8,0:0:0:0:
192,192,81200,1,0,0:0:0:0:
448,192,81294,1,0,0:0:0:0:
64,192,81294,1,8,0:0:0:0:
320,192,81294,1,0,0:0:0:0:
192,192,81387,1,0,0:0:0:0:
448,192,81481,1,0,0:0:0:0:
64,192,81481,1,8,0:0:0:0:
320,192,81575,1,0,0:0:0:0:
448,192,81669,1,0,0:0:0:0:
64,192,81669,1,8,0:0:0:0:
192,192,81762,1,0,0:0:0:0:
320,192,81856,1,8,0:0:0:0:
448,192,81856,1,0,0:0:0:0:
192,192,81950,1,0,0:0:0:0:
448,192,82044,1,0,0:0:0:0:
64,192,82044,1,8,0:0:0:0:
320,192,82044,1,0,0:0:0:0:
192,192,82137,1,0,0:0:0:0:
448,192,82231,1,0,0:0:0:0:
64,192,82231,1,8,0:0:0:0:
320,192,82325,1,0,0:0:0:0:
64,192,82419,1,8,0:0:0:0:
192,192,82419,1,0,0:0:0:0:
320,192,82512,1,8,0:0:0:0:
448,192,82512,1,0,0:0:0:0:
64,192,82559,1,8,0:0:0:0:
192,192,82559,1,0,0:0:0:0:
448,192,82606,1,0,0:0:0:0:
320,192,82606,1,8,0:0:0:0:
192,192,82700,1,0,0:0:0:0:
64,192,82700,1,8,0:0:0:0:
64,192,82794,1,8,0:0:0:0:
448,192,82794,1,0,0:0:0:0:
320,192,82794,1,0,0:0:0:0:
192,192,82887,1,0,0:0:0:0:
448,192,82981,1,0,0:0:0:0:
320,192,82981,1,8,0:0:0:0:
64,192,83075,1,0,0:0:0:0:
192,192,83169,1,8,0:0:0:0:
448,192,83169,1,0,0:0:0:0:
320,192,83262,1,0,0:0:0:0:
64,192,83356,1,8,0:0:0:0:
448,192,83356,1,0,0:0:0:0:
320,192,83450,1,0,0:0:0:0:
64,192,83544,1,8,0:0:0:0:
448,192,83544,1,0,0:0:0:0:
192,192,83544,1,0,0:0:0:0:
320,192,83637,1,0,0:0:0:0:
64,192,83731,1,8,0:0:0:0:
192,192,83731,1,0,0:0:0:0:
320,192,83825,1,0,0:0:0:0:
64,192,83919,1,8,0:0:0:0:
448,192,83919,1,0,0:0:0:0:
192,192,84012,1,0,0:0:0:0:
64,192,84106,1,8,0:0:0:0:
320,192,84106,1,0,0:0:0:0:
448,192,84200,1,0,0:0:0:0:
192,192,84200,1,8,0:0:0:0:
320,192,84294,1,0,0:0:0:0:
64,192,84294,1,8,0:0:0:0:
448,192,84294,1,0,0:0:0:0:
192,192,84387,1,0,0:0:0:0:
320,192,84481,1,8,0:0:0:0:
448,192,84481,1,0,0:0:0:0:
192,192,84575,1,0,0:0:0:0:
64,192,84669,1,8,0:0:0:0:
448,192,84669,1,0,0:0:0:0:
320,192,84762,1,0,0:0:0:0:
448,192,84856,1,0,0:0:0:0:
64,192,84856,1,0,0:0:0:0:
192,192,84950,1,0,0:0:0:0:
448,192,85044,1,0,0:0:0:0:
320,192,85044,1,8,0:0:0:0:
64,192,85044,1,0,0:0:0:0:
448,192,85137,1,0,0:0:0:0:
320,192,85137,1,8,0:0:0:0:
192,192,85231,1,0,0:0:0:0:
64,192,85231,1,8,0:0:0:0:
192,192,85325,1,0,0:0:0:0:
64,192,85325,1,8,0:0:0:0:
448,192,85419,1,0,0:0:0:0:
320,192,85442,1,0,0:0:0:0:
64,192,85465,1,0,0:0:0:0:
192,192,85489,1,0,0:0:0:0:
448,192,85512,1,0,0:0:0:0:
320,192,85536,1,0,0:0:0:0:
64,192,85559,1,0,0:0:0:0:
192,192,85583,1,0,0:0:0:0:
448,192,85606,1,0,0:0:0:0:
320,192,85629,1,0,0:0:0:0:
192,192,85653,1,0,0:0:0:0:
64,192,85676,1,0,0:0:0:0:
448,192,85700,1,0,0:0:0:0:
320,192,85723,1,0,0:0:0:0:
192,192,85747,1,0,0:0:0:0:
64,192,85770,1,0,0:0:0:0:
320,192,85794,1,8,0:0:0:0:
448,192,85794,1,4,0:0:0:0:
192,192,85887,1,0,0:0:0:0:
64,192,85981,1,8,0:0:0:0:
320,192,85981,1,0,0:0:0:0:
448,192,86075,1,0,0:0:0:0:
192,192,86169,1,8,0:0:0:0:
320,192,86169,1,0,0:0:0:0:
64,192,86262,1,0,0:0:0:0:
448,192,86356,1,0,0:0:0:0:
192,192,86356,1,8,0:0:0:0:
320,192,86450,1,0,0:0:0:0:
64,192,86544,1,8,0:0:0:0:
448,192,86544,1,0,0:0:0:0:
192,192,86544,1,0,0:0:0:0:
320,192,86637,1,0,0:0:0:0:
192,192,86731,1,0,0:0:0:0:
64,192,86731,1,8,0:0:0:0:
448,192,86825,1,0,0:0:0:0:
64,192,86919,1,8,0:0:0:0:
320,192,86919,1,0,0:0:0:0:
192,192,87012,1,0,0:0:0:0:
448,192,87106,1,0,0:0:0:0:
64,192,87106,1,8,0:0:0:0:
192,192,87200,1,8,0:0:0:0:
320,192,87200,1,0,0:0:0:0:
448,192,87294,1,0,0:0:0:0:
64,192,87294,1,8,0:0:0:0:
320,192,87294,1,0,0:0:0:0:
192,192,87387,1,0,0:0:0:0:
448,192,87481,1,0,0:0:0:0:
320,192,87481,1,8,0:0:0:0:
64,192,87575,1,0,0:0:0:0:
448,192,87669,1,0,0:0:0:0:
192,192,87669,1,8,0:0:0:0:
320,192,87762,1,0,0:0:0:0:
192,192,87856,1,0,0:0:0:0:
64,192,87856,1,8,0:0:0:0:
320,192,87950,1,0,0:0:0:0:
192,192,88044,1,0,0:0:0:0:
448,192,88044,1,0,0:0:0:0:
64,192,88044,1,8,0:0:0:0:
320,192,88137,1,0,0:0:0:0:
64,192,88231,1,8,0:0:0:0:
448,192,88231,1,0,0:0:0:0:
320,192,88325,1,0,0:0:0:0:
192,192,88419,1,0,0:0:0:0:
64,192,88419,1,8,0:0:0:0:
448,192,88512,1,0,0:0:0:0:
320,192,88512,1,8,0:0:0:0:
192,192,88559,1,0,0:0:0:0:
64,192,88559,1,8,0:0:0:0:
320,192,88606,1,8,0:0:0:0:
448,192,88606,1,0,0:0:0:0:
192,192,88700,1,0,0:0:0:0:
64,192,88700,1,8,0:0:0:0:
64,192,88794,1,0,0:0:0:0:
320,192,88794,1,8,0:0:0:0:
448,192,88794,1,0,0:0:0:0:
192,192,88887,1,0,0:0:0:0:
320,192,88981,1,8,0:0:0:0:
448,192,88981,1,0,0:0:0:0:
64,192,89075,1,0,0:0:0:0:
192,192,89169,1,8,0:0:0:0:
448,192,89169,1,0,0:0:0:0:
320,192,89262,1,0,0:0:0:0:
64,192,89356,1,8,0:0:0:0:
448,192,89356,1,0,0:0:0:0:
192,192,89450,1,0,0:0:0:0:
448,192,89544,1,0,0:0:0:0:
64,192,89544,1,8,0:0:0:0:
320,192,89544,1,0,0:0:0:0:
192,192,89637,1,0,0:0:0:0:
448,192,89731,1,0,0:0:0:0:
320,192,89731,1,8,0:0:0:0:
64,192,89825,1,0,0:0:0:0:
320,192,89919,1,0,0:0:0:0:
192,192,89919,1,8,0:0:0:0:
448,192,90012,1,0,0:0:0:0:
64,192,90106,1,8,0:0:0:0:
192,192,90106,1,0,0:0:0:0:
320,192,90200,1,8,0:0:0:0:
448,192,90200,1,0,0:0:0:0:
192,192,90294,1,0,0:0:0:0:
448,192,90294,1,0,0:0:0:0:
64,192,90294,1,8,0:0:0:0:
320,192,90387,1,0,0:0:0:0:
448,192,90481,1,0,0:0:0:0:
64,192,90481,1,8,0:0:0:0:
192,192,90575,1,0,0:0:0:0:
320,192,90669,1,8,0:0:0:0:
448,192,90669,1,0,0:0:0:0:
192,192,90762,1,0,0:0:0:0:
64,192,90856,1,8,0:0:0:0:
448,192,90856,1,0,0:0:0:0:
192,192,90950,1,0,0:0:0:0:
320,192,91044,1,8,0:0:0:0:
448,192,91044,1,0,0:0:0:0:
64,192,91044,1,0,0:0:0:0:
320,192,91137,1,8,0:0:0:0:
448,192,91137,1,0,0:0:0:0:
320,192,91231,1,0,0:0:0:0:
192,192,91231,1,8,0:0:0:0:
64,192,91325,1,8,0:0:0:0:
448,192,91325,1,0,0:0:0:0:
192,192,91419,1,0,0:0:0:0:
64,192,91419,1,8,0:0:0:0:
448,192,91419,128,0,91606:0:0:0:0:
320,192,91512,128,0,91606:0:0:0:0:
64,192,91606,1,8,0:0:0:0:
192,192,91606,1,0,0:0:0:0:
64,192,91700,1,8,0:0:0:0:
192,192,91700,1,0,0:0:0:0:
64,192,91794,1,8,0:0:0:0:
192,192,91794,1,0,0:0:0:0:
448,192,91794,1,4,0:0:0:0:
320,192,91887,1,0,0:0:0:0:
64,192,91981,1,8,0:0:0:0:
192,192,91981,1,0,0:0:0:0:
448,192,92075,1,0,0:0:0:0:
320,192,92169,1,0,0:0:0:0:
64,192,92169,1,8,0:0:0:0:
192,192,92262,1,0,0:0:0:0:
320,192,92356,1,8,0:0:0:0:
448,192,92356,1,0,0:0:0:0:
192,192,92450,1,0,0:0:0:0:
448,192,92544,1,0,0:0:0:0:
64,192,92544,1,0,0:0:0:0:
320,192,92544,1,8,0:0:0:0:
192,192,92637,1,0,0:0:0:0:
64,192,92731,1,8,0:0:0:0:
320,192,92731,1,0,0:0:0:0:
448,192,92825,1,0,0:0:0:0:
320,192,92919,1,0,0:0:0:0:
192,192,92919,1,8,0:0:0:0:
64,192,93012,1,0,0:0:0:0:
320,192,93106,1,0,0:0:0:0:
192,192,93106,1,8,0:0:0:0:
448,192,93200,1,0,0:0:0:0:
64,192,93200,1,0,0:0:0:0:
320,192,93294,1,0,0:0:0:0:
448,192,93294,1,0,0:0:0:0:
192,192,93294,1,8,0:0:0:0:
64,192,93387,1,0,0:0:0:0:
192,192,93481,1,8,0:0:0:0:
448,192,93481,1,0,0:0:0:0:
320,192,93575,1,0,0:0:0:0:
64,192,93669,1,8,0:0:0:0:
448,192,93669,1,0,0:0:0:0:
192,192,93762,1,0,0:0:0:0:
448,192,93856,1,0,0:0:0:0:
64,192,93856,1,8,0:0:0:0:
320,192,93950,1,0,0:0:0:0:
448,192,94044,1,0,0:0:0:0:
192,192,94044,1,0,0:0:0:0:
64,192,94044,1,8,0:0:0:0:
320,192,94137,1,0,0:0:0:0:
448,192,94231,1,0,0:0:0:0:
64,192,94231,1,8,0:0:0:0:
192,192,94325,1,0,0:0:0:0:
320,192,94419,1,8,0:0:0:0:
448,192,94419,1,0,0:0:0:0:
192,192,94512,1,0,0:0:0:0:
64,192,94512,1,8,0:0:0:0:
320,192,94559,1,8,0:0:0:0:
448,192,94559,1,0,0:0:0:0:
64,192,94606,1,8,0:0:0:0:
192,192,94606,1,0,0:0:0:0:
320,192,94700,1,8,0:0:0:0:
448,192,94700,1,0,0:0:0:0:
448,192,94794,1,0,0:0:0:0:
192,192,94794,1,0,0:0:0:0:
64,192,94794,1,8,0:0:0:0:
320,192,94887,1,0,0:0:0:0:
64,192,94981,1,8,0:0:0:0:
192,192,94981,1,0,0:0:0:0:
448,192,95075,1,0,0:0:0:0:
64,192,95169,1,8,0:0:0:0:
320,192,95169,1,0,0:0:0:0:
192,192,95262,1,0,0:0:0:0:
320,192,95356,1,8,0:0:0:0:
448,192,95356,1,0,0:0:0:0:
192,192,95450,1,0,0:0:0:0:
64,192,95544,1,0,0:0:0:0:
320,192,95544,1,8,0:0:0:0:
448,192,95544,1,0,0:0:0:0:
192,192,95637,1,0,0:0:0:0:
320,192,95731,1,8,0:0:0:0:
448,192,95731,1,0,0:0:0:0:
64,192,95825,1,0,0:0:0:0:
192,192,95919,1,8,0:0:0:0:
448,192,95919,1,0,0:0:0:0:
320,192,96012,1,0,0:0:0:0:
64,192,96106,1,8,0:0:0:0:
448,192,96106,1,0,0:0:0:0:
192,192,96200,1,8,0:0:0:0:
320,192,96200,1,0,0:0:0:0:
64,192,96294,1,8,0:0:0:0:
192,192,96294,1,0,0:0:0:0:
448,192,96294,1,0,0:0:0:0:
320,192,96387,1,0,0:0:0:0:
64,192,96481,1,8,0:0:0:0:
448,192,96481,1,0,0:0:0:0:
192,192,96575,1,0,0:0:0:0:
448,192,96669,1,0,0:0:0:0:
320,192,96669,1,8,0:0:0:0:
64,192,96762,1,0,0:0:0:0:
192,192,96856,1,0,0:0:0:0:
320,192,96856,1,8,0:0:0:0:
448,192,96950,1,0,0:0:0:0:
192,192,97044,1,0,0:0:0:0:
64,192,97044,1,8,0:0:0:0:
320,192,97044,1,0,0:0:0:0:
320,192,97137,1,8,0:0:0:0:
448,192,97137,1,0,0:0:0:0:
64,192,97231,1,8,0:0:0:0:
192,192,97231,1,0,0:0:0:0:
320,192,97325,1,8,0:0:0:0:
448,192,97325,1,0,0:0:0:0:
64,192,97419,1,0,0:0:0:0:
192,192,97442,1,0,0:0:0:0:
320,192,97465,1,0,0:0:0:0:
448,192,97489,1,0,0:0:0:0:
64,192,97512,1,0,0:0:0:0:
192,192,97536,1,0,0:0:0:0:
320,192,97559,1,0,0:0:0:0:
448,192,97583,1,0,0:0:0:0:
64,192,97606,1,0,0:0:0:0:
192,192,97629,1,0,0:0:0:0:
448,192,97653,1,0,0:0:0:0:
320,192,97676,1,0,0:0:0:0:
64,192,97700,1,0,0:0:0:0:
192,192,97723,1,0,0:0:0:0:
448,192,97747,1,0,0:0:0:0:
320,192,97770,1,0,0:0:0:0:
192,192,97794,1,0,0:0:0:0:
64,192,97794,1,12,0:0:0:0:
320,192,97887,1,0,0:0:0:0:
192,192,97981,1,8,0:0:0:0:
448,192,97981,1,0,0:0:0:0:
64,192,98075,1,0,0:0:0:0:
448,192,98169,1,0,0:0:0:0:
320,192,98169,1,8,0:0:0:0:
192,192,98262,1,0,0:0:0:0:
448,192,98356,1,0,0:0:0:0:
64,192,98356,1,8,0:0:0:0:
320,192,98450,1,0,0:0:0:0:
192,192,98544,1,0,0:0:0:0:
448,192,98544,1,0,0:0:0:0:
64,192,98544,1,8,0:0:0:0:
320,192,98637,1,0,0:0:0:0:
64,192,98731,1,8,0:0:0:0:
448,192,98731,1,0,0:0:0:0:
192,192,98825,1,0,0:0:0:0:
64,192,98919,1,8,0:0:0:0:
448,192,98919,1,0,0:0:0:0:
320,192,99012,1,0,0:0:0:0:
64,192,99106,1,8,0:0:0:0:
192,192,99106,1,0,0:0:0:0:
320,192,99200,1,8,0:0:0:0:
448,192,99200,1,0,0:0:0:0:
192,192,99294,1,0,0:0:0:0:
448,192,99294,1,0,0:0:0:0:
64,192,99294,1,8,0:0:0:0:
320,192,99387,1,0,0:0:0:0:
448,192,99481,1,0,0:0:0:0:
192,192,99481,1,8,0:0:0:0:
64,192,99575,1,0,0:0:0:0:
192,192,99669,1,8,0:0:0:0:
320,192,99669,1,0,0:0:0:0:
448,192,99762,1,0,0:0:0:0:
192,192,99856,1,0,0:0:0:0:
64,192,99856,1,8,0:0:0:0:
320,192,99950,1,0,0:0:0:0:
448,192,100044,1,0,0:0:0:0:
64,192,100044,1,8,0:0:0:0:
192,192,100044,1,0,0:0:0:0:
320,192,100137,1,0,0:0:0:0:
448,192,100231,1,0,0:0:0:0:
64,192,100231,1,8,0:0:0:0:
192,192,100325,1,0,0:0:0:0:
320,192,100419,1,8,0:0:0:0:
448,192,100419,1,0,0:0:0:0:
192,192,100512,1,0,0:0:0:0:
64,192,100512,1,8,0:0:0:0:
320,192,100559,1,8,0:0:0:0:
448,192,100559,1,0,0:0:0:0:
192,192,100606,1,0,0:0:0:0:
64,192,100606,1,8,0:0:0:0:
320,192,100700,1,8,0:0:0:0:
448,192,100700,1,0,0:0:0:0:
64,192,100794,1,12,0:0:0:0:
192,192,100794,1,0,0:0:0:0:
448,192,100840,1,0,0:0:0:0:
320,192,100887,1,0,0:0:0:0:
192,192,100934,1,0,0:0:0:0:
64,192,100981,1,0,0:0:0:0:
320,192,101028,1,0,0:0:0:0:
448,192,101075,1,0,0:0:0:0:
192,192,101122,1,0,0:0:0:0:
64,192,101169,1,0,0:0:0:0:
448,192,101215,1,0,0:0:0:0:
320,192,101262,1,0,0:0:0:0:
64,192,101309,1,0,0:0:0:0:
192,192,101356,1,0,0:0:0:0:
320,192,101403,1,0,0:0:0:0:
448,192,101450,1,0,0:0:0:0:
192,192,101497,1,0,0:0:0:0:
64,192,101544,1,0,0:0:0:0:
448,192,101590,1,0,0:0:0:0:
320,192,101637,1,0,0:0:0:0:
64,192,101684,1,0,0:0:0:0:
192,192,101731,1,0,0:0:0:0:
320,192,101778,1,0,0:0:0:0:
448,192,101825,1,0,0:0:0:0:
64,192,101872,1,0,0:0:0:0:
192,192,101919,1,0,0:0:0:0:
448,192,101965,1,0,0:0:0:0:
320,192,102012,1,0,0:0:0:0:
192,192,102059,1,0,0:0:0:0:
64,192,102106,1,0,0:0:0:0:
448,192,102153,1,0,0:0:0:0:
192,192,102200,1,0,0:0:0:0:
320,192,102247,1,0,0:0:0:0:
64,192,102294,1,4,0:0:0:0:
192,192,102340,1,0,0:0:0:0:
448,192,102387,1,0,0:0:0:0:
320,192,102434,1,0,0:0:0:0:
64,192,102481,1,0,0:0:0:0:
192,192,102528,1,0,0:0:0:0:
448,192,102575,1,0,0:0:0:0:
320,192,102622,1,0,0:0:0:0:
64,192,102669,1,0,0:0:0:0:
192,192,102715,1,0,0:0:0:0:
448,192,102762,1,0,0:0:0:0:
320,192,102809,1,0,0:0:0:0:
64,192,102856,1,0,0:0:0:0:
192,192,102903,1,0,0:0:0:0:
448,192,102950,1,0,0:0:0:0:
320,192,102997,1,0,0:0:0:0:
64,192,103044,1,4,0:0:0:0:
192,192,103075,1,0,0:0:0:0:
448,192,103106,1,0,0:0:0:0:
320,192,103137,1,0,0:0:0:0:
64,192,103169,1,0,0:0:0:0:
192,192,103200,1,0,0:0:0:0:
448,192,103231,1,0,0:0:0:0:
320,192,103262,1,0,0:0:0:0:
64,192,103294,1,0,0:0:0:0:
192,192,103325,1,0,0:0:0:0:
448,192,103356,1,0,0:0:0:0:
320,192,103387,1,0,0:0:0:0:
64,192,103419,1,0,0:0:0:0:
192,192,103450,1,0,0:0:0:0:
448,192,103481,1,0,0:0:0:0:
320,192,103512,1,0,0:0:0:0:
64,192,103544,1,0,0:0:0:0:
192,192,103575,1,0,0:0:0:0:
448,192,103606,1,0,0:0:0:0:
320,192,103637,1,0,0:0:0:0:
64,192,103669,1,0,0:0:0:0:
192,192,103700,1,0,0:0:0:0:
448,192,103731,1,0,0:0:0:0:
320,192,103762,1,0,0:0:0:0:
64,192,103794,1,4,0:0:0:0:
192,192,103794,1,8,0:0:0:0:
448,192,103887,1,0,0:0:0:0:
448,192,103981,1,0,0:0:0:0:
64,192,103981,1,8,0:0:0:0:
448,192,104075,1,0,0:0:0:0:
448,192,104169,1,0,0:0:0:0:
320,192,104169,1,8,0:0:0:0:
64,192,104262,1,0,0:0:0:0:
192,192,104356,1,8,0:0:0:0:
320,192,104356,1,0,0:0:0:0:
448,192,104450,1,0,0:0:0:0:
64,192,104544,1,0,0:0:0:0:
192,192,104544,1,8,0:0:0:0:
64,192,104637,1,0,0:0:0:0:
64,192,104731,1,0,0:0:0:0:
320,192,104731,1,8,0:0:0:0:
64,192,104825,1,0,0:0:0:0:
64,192,104919,1,0,0:0:0:0:
448,192,104919,1,8,0:0:0:0:
192,192,105012,1,0,0:0:0:0:
320,192,105106,1,8,0:0:0:0:
64,192,105106,1,0,0:0:0:0:
448,192,105200,1,0,0:0:0:0:
64,192,105294,1,8,0:0:0:0:
320,192,105294,1,0,0:0:0:0:
320,192,105387,1,0,0:0:0:0:
320,192,105481,1,0,0:0:0:0:
192,192,105481,1,8,0:0:0:0:
320,192,105575,1,0,0:0:0:0:
320,192,105669,1,0,0:0:0:0:
64,192,105669,1,8,0:0:0:0:
448,192,105762,1,0,0:0:0:0:
192,192,105856,1,0,0:0:0:0:
64,192,105856,1,8,0:0:0:0:
320,192,105950,1,0,0:0:0:0:
192,192,106044,1,0,0:0:0:0:
64,192,106044,1,8,0:0:0:0:
320,192,106137,1,0,0:0:0:0:
448,192,106231,1,0,0:0:0:0:
64,192,106231,1,8,0:0:0:0:
192,192,106325,1,0,0:0:0:0:
320,192,106419,1,8,0:0:0:0:
448,192,106419,1,0,0:0:0:0:
192,192,106512,1,0,0:0:0:0:
448,192,106606,1,0,0:0:0:0:
64,192,106606,1,8,0:0:0:0:
192,192,106700,1,8,0:0:0:0:
320,192,106700,1,0,0:0:0:0:
64,192,106794,1,8,0:0:0:0:
448,192,106794,1,0,0:0:0:0:
448,192,106887,1,0,0:0:0:0:
448,192,106981,1,0,0:0:0:0:
192,192,106981,1,8,0:0:0:0:
448,192,107075,1,0,0:0:0:0:
448,192,107169,1,0,0:0:0:0:
64,192,107169,1,8,0:0:0:0:
320,192,107262,1,0,0:0:0:0:
192,192,107356,1,0,0:0:0:0:
64,192,107356,1,8,0:0:0:0:
320,192,107450,1,0,0:0:0:0:
448,192,107544,1,8,0:0:0:0:
192,192,107544,1,0,0:0:0:0:
192,192,107637,1,0,0:0:0:0:
192,192,107731,1,0,0:0:0:0:
64,192,107731,1,8,0:0:0:0:
192,192,107825,1,0,0:0:0:0:
192,192,107919,1,0,0:0:0:0:
448,192,107919,1,8,0:0:0:0:
64,192,108012,1,0,0:0:0:0:
320,192,108106,1,8,0:0:0:0:
192,192,108106,1,0,0:0:0:0:
448,192,108200,128,0,108387:0:0:0:0:
64,192,108200,1,0,0:0:0:0:
192,192,108294,1,8,0:0:0:0:
64,192,108387,128,0,108481:0:0:0:0:
320,192,108387,1,0,0:0:0:0:
192,192,108481,128,0,108575:0:0:0:0:
448,192,108481,1,8,0:0:0:0:
320,192,108575,128,0,108669:0:0:0:0:
64,192,108575,1,0,0:0:0:0:
448,192,108669,128,0,108809:0:0:0:0:
192,192,108669,1,8,0:0:0:0:
64,192,108762,1,0,0:0:0:0:
320,192,108809,1,0,0:0:0:0:
192,192,108856,1,8,0:0:0:0:
448,192,108950,128,0,109419:0:0:0:0:
64,192,108950,1,0,0:0:0:0:
192,192,109044,1,8,0:0:0:0:
320,192,109044,1,0,0:0:0:0:
64,192,109231,1,8,0:0:0:0:
320,192,109231,1,0,0:0:0:0:
320,192,109419,1,0,0:0:0:0:
64,192,109419,1,8,0:0:0:0:
192,192,109512,1,0,0:0:0:0:
64,192,109512,1,8,0:0:0:0:
320,192,109559,1,8,0:0:0:0:
448,192,109559,1,0,0:0:0:0:
192,192,109606,1,0,0:0:0:0:
64,192,109606,1,8,0:0:0:0:
320,192,109700,1,8,0:0:0:0:
448,192,109700,1,0,0:0:0:0:
64,192,109794,1,4,0:0:0:0:
192,192,109794,1,0,0:0:0:0:
448,192,109794,1,8,0:0:0:0:
192,192,109887,1,0,0:0:0:0:
192,192,109981,1,0,0:0:0:0:
320,192,109981,1,8,0:0:0:0:
192,192,110075,1,0,0:0:0:0:
192,192,110169,1,0,0:0:0:0:
64,192,110169,1,8,0:0:0:0:
448,192,110262,1,0,0:0:0:0:
64,192,110356,1,0,0:0:0:0:
320,192,110356,1,8,0:0:0:0:
192,192,110450,1,0,0:0:0:0:
320,192,110544,1,0,0:0:0:0:
64,192,110544,1,8,0:0:0:0:
320,192,110637,1,0,0:0:0:0:
320,192,110731,1,0,0:0:0:0:
448,192,110731,1,8,0:0:0:0:
320,192,110825,1,0,0:0:0:0:
192,192,110919,1,8,0:0:0:0:
320,192,110919,1,0,0:0:0:0:
64,192,111012,1,0,0:0:0:0:
320,192,111106,1,8,0:0:0:0:
448,192,111106,1,0,0:0:0:0:
64,192,111200,1,0,0:0:0:0:
192,192,111294,128,0,111387:0:0:0:0:
320,192,111294,1,8,0:0:0:0:
64,192,111387,128,0,111481:0:0:0:0:
448,192,111387,1,0,0:0:0:0:
192,192,111481,128,0,111575:0:0:0:0:
320,192,111481,1,8,0:0:0:0:
448,192,111575,128,0,111669:0:0:0:0:
64,192,111575,1,0,0:0:0:0:
320,192,111669,128,0,111762:0:0:0:0:
64,192,111669,1,8,0:0:0:0:
192,192,111762,128,0,111856:0:0:0:0:
448,192,111762,1,0,0:0:0:0:
64,192,111856,128,0,111950:0:0:0:0:
320,192,111856,1,8,0:0:0:0:
448,192,111950,128,0,112419:0:0:0:0:
192,192,111950,1,0,0:0:0:0:
64,192,112044,1,8,0:0:0:0:
320,192,112044,1,0,0:0:0:0:
64,192,112231,1,8,0:0:0:0:
320,192,112231,1,0,0:0:0:0:
64,192,112419,1,8,0:0:0:0:
320,192,112419,1,0,0:0:0:0:
192,192,112512,1,0,0:0:0:0:
448,192,112606,1,0,0:0:0:0:
320,192,112606,1,8,0:0:0:0:
64,192,112700,1,8,0:0:0:0:
192,192,112700,1,0,0:0:0:0:
64,192,112794,1,8,0:0:0:0:
320,192,112794,1,0,0:0:0:0:
320,192,112887,1,0,0:0:0:0:
320,192,112981,1,0,0:0:0:0:
448,192,112981,1,8,0:0:0:0:
320,192,113075,1,0,0:0:0:0:
192,192,113169,1,8,0:0:0:0:
320,192,113169,1,0,0:0:0:0:
64,192,113262,1,0,0:0:0:0:
192,192,113356,1,8,0:0:0:0:
448,192,113356,1,0,0:0:0:0:
320,192,113450,1,0,0:0:0:0:
448,192,113544,1,8,0:0:0:0:
64,192,113544,1,0,0:0:0:0:
64,192,113637,1,0,0:0:0:0:
64,192,113731,1,0,0:0:0:0:
192,192,113731,1,8,0:0:0:0:
64,192,113825,1,0,0:0:0:0:
64,192,113919,1,0,0:0:0:0:
448,192,113919,1,8,0:0:0:0:
320,192,114012,1,0,0:0:0:0:
192,192,114106,1,0,0:0:0:0:
64,192,114106,1,8,0:0:0:0:
448,192,114200,1,0,0:0:0:0:
320,192,114200,1,8,0:0:0:0:
64,192,114294,1,0,0:0:0:0:
192,192,114340,1,0,0:0:0:0:
448,192,114387,1,0,0:0:0:0:
320,192,114434,1,0,0:0:0:0:
192,192,114481,1,0,0:0:0:0:
64,192,114528,1,0,0:0:0:0:
320,192,114575,1,0,0:0:0:0:
448,192,114622,1,0,0:0:0:0:
192,192,114669,1,0,0:0:0:0:
64,192,114715,1,0,0:0:0:0:
320,192,114762,1,0,0:0:0:0:
448,192,114809,1,0,0:0:0:0:
64,192,114856,1,0,0:0:0:0:
192,192,114903,1,0,0:0:0:0:
320,192,114950,1,0,0:0:0:0:
448,192,114997,1,0,0:0:0:0:
64,192,115044,1,0,0:0:0:0:
192,192,115044,1,0,0:0:0:0:
320,192,115090,1,0,0:0:0:0:
448,192,115137,1,0,0:0:0:0:
64,192,115137,1,0,0:0:0:0:
192,192,115184,1,0,0:0:0:0:
320,192,115231,1,0,0:0:0:0:
448,192,115231,1,0,0:0:0:0:
64,192,115278,1,0,0:0:0:0:
192,192,115325,1,0,0:0:0:0:
448,192,115325,1,0,0:0:0:0:
320,192,115372,1,0,0:0:0:0:
64,192,115419,1,0,0:0:0:0:
192,192,115442,1,0,0:0:0:0:
448,192,115465,1,0,0:0:0:0:
320,192,115489,1,0,0:0:0:0:
64,192,115512,1,0,0:0:0:0:
192,192,115536,1,0,0:0:0:0:
448,192,115559,1,0,0:0:0:0:
320,192,115583,1,0,0:0:0:0:
64,192,115606,1,0,0:0:0:0:
192,192,115629,1,0,0:0:0:0:
448,192,115653,1,0,0:0:0:0:
320,192,115676,1,0,0:0:0:0:
64,192,115700,1,0,0:0:0:0:
192,192,115723,1,0,0:0:0:0:
448,192,115747,1,0,0:0:0:0:
320,192,115770,1,0,0:0:0:0:
192,192,115794,1,12,0:0:0:0:
64,192,115794,128,0,116356:0:0:0:0:
320,192,116169,1,0,0:0:0:0:
448,192,116169,1,2,0:0:0:0:
448,192,116356,128,0,117294:0:0:0:0:
320,192,116356,1,0,0:0:0:0:
64,192,116544,128,0,117856:0:0:0:0:
320,192,116544,1,0,0:0:0:0:
320,192,116731,1,0,0:0:0:0:
192,192,116731,1,8,0:0:0:0:
320,192,116919,1,0,0:0:0:0:
192,192,116919,1,2,0:0:0:0:
320,192,117106,1,0,0:0:0:0:
192,192,117294,128,0,117856:0:0:0:0:
320,192,117294,1,8,0:0:0:0:
448,192,117481,1,0,0:0:0:0:
448,192,117669,1,0,0:0:0:0:
320,192,117669,1,2,0:0:0:0:
448,192,117856,1,0,0:0:0:0:
320,192,117856,128,0,118044:0:0:0:0:
192,192,117950,128,0,118419:0:0:0:0:
64,192,118044,128,0,118794:0:0:0:0:
448,192,118044,128,0,118325:0:0:0:0:
320,192,118231,1,8,0:0:0:0:
448,192,118419,128,0,118794:0:0:0:0:
320,192,118419,1,2,0:0:0:0:
192,192,118606,1,0,0:0:0:0:
320,192,118794,128,0,119356:0:0:0:0:
192,192,118794,1,8,0:0:0:0:
64,192,118887,1,0,0:0:0:0:
192,192,118981,1,0,0:0:0:0:
448,192,119075,1,0,0:0:0:0:
192,192,119169,1,2,0:0:0:0:
448,192,119262,1,0,0:0:0:0:
192,192,119356,128,0,119544:0:0:0:0:
64,192,119356,1,0,0:0:0:0:
448,192,119450,1,0,0:0:0:0:
64,192,119544,128,0,119919:0:0:0:0:
320,192,119544,1,0,0:0:0:0:
192,192,119637,1,0,0:0:0:0:
320,192,119731,1,8,0:0:0:0:
448,192,119825,1,0,0:0:0:0:
192,192,119919,128,0,120106:0:0:0:0:
320,192,119919,1,2,0:0:0:0:
448,192,120012,1,0,0:0:0:0:
64,192,120106,1,8,0:0:0:0:
320,192,120106,128,0,120294:0:0:0:0:
448,192,120200,1,0,0:0:0:0:
64,192,120294,1,12,0:0:0:0:
192,192,120294,1,0,0:0:0:0:
448,192,120294,1,0,0:0:0:0:
64,192,120387,1,0,0:0:0:0:
192,192,120434,1,0,0:0:0:0:
448,192,120481,1,0,0:0:0:0:
320,192,120481,1,0,0:0:0:0:
192,192,120575,1,0,0:0:0:0:
64,192,120669,1,0,0:0:0:0:
448,192,120669,1,0,0:0:0:0:
320,192,120762,1,0,0:0:0:0:
448,192,120856,1,0,0:0:0:0:
64,192,120950,1,0,0:0:0:0:
192,192,120997,1,0,0:0:0:0:
320,192,121044,1,8,0:0:0:0:
448,192,121044,1,0,0:0:0:0:
192,192,121137,1,0,0:0:0:0:
320,192,121231,1,0,0:0:0:0:
64,192,121231,1,0,0:0:0:0:
448,192,121325,1,0,0:0:0:0:
320,192,121419,1,0,0:0:0:0:
192,192,121419,1,0,0:0:0:0:
64,192,121512,1,0,0:0:0:0:
192,192,121606,1,0,0:0:0:0:
320,192,121700,1,0,0:0:0:0:
192,192,121747,1,0,0:0:0:0:
64,192,121794,1,8,0:0:0:0:
448,192,121794,1,4,0:0:0:0:
192,192,121887,1,0,0:0:0:0:
64,192,121981,1,0,0:0:0:0:
448,192,121981,1,0,0:0:0:0:
320,192,122075,1,0,0:0:0:0:
192,192,122169,1,0,0:0:0:0:
64,192,122169,1,0,0:0:0:0:
320,192,122262,1,0,0:0:0:0:
448,192,122356,1,0,0:0:0:0:
192,192,122450,1,0,0:0:0:0:
320,192,122497,1,0,0:0:0:0:
64,192,122544,1,8,0:0:0:0:
448,192,122544,1,0,0:0:0:0:
320,192,122637,1,0,0:0:0:0:
64,192,122731,1,0,0:0:0:0:
192,192,122731,1,0,0:0:0:0:
320,192,122825,1,0,0:0:0:0:
448,192,122919,1,0,0:0:0:0:
64,192,122919,1,8,0:0:0:0:
192,192,122919,1,0,0:0:0:0:
320,192,123012,1,0,0:0:0:0:
64,192,123106,1,0,0:0:0:0:
192,192,123153,1,0,0:0:0:0:
320,192,123200,1,0,0:0:0:0:
448,192,123247,1,0,0:0:0:0:
320,192,123294,1,0,0:0:0:0:
192,192,123294,1,0,0:0:0:0:
64,192,123294,1,12,0:0:0:0:
192,192,123387,1,0,0:0:0:0:
320,192,123481,1,0,0:0:0:0:
448,192,123481,1,0,0:0:0:0:
64,192,123481,1,8,0:0:0:0:
320,192,123575,1,0,0:0:0:0:
192,192,123669,1,0,0:0:0:0:
64,192,123669,1,0,0:0:0:0:
448,192,123669,1,8,0:0:0:0:
64,192,123762,1,0,0:0:0:0:
192,192,123856,1,0,0:0:0:0:
320,192,123856,1,0,0:0:0:0:
448,192,123856,1,8,0:0:0:0:
64,192,123950,1,0,0:0:0:0:
192,192,123997,1,0,0:0:0:0:
64,192,124044,1,0,0:0:0:0:
320,192,124044,1,0,0:0:0:0:
448,192,124044,1,12,0:0:0:0:
192,192,124137,1,0,0:0:0:0:
64,192,124231,1,0,0:0:0:0:
320,192,124231,1,0,0:0:0:0:
448,192,124231,1,8,0:0:0:0:
320,192,124325,1,0,0:0:0:0:
448,192,124419,1,0,0:0:0:0:
192,192,124419,1,0,0:0:0:0:
64,192,124419,1,8,0:0:0:0:
448,192,124512,1,0,0:0:0:0:
192,192,124606,1,0,0:0:0:0:
64,192,124606,1,8,0:0:0:0:
448,192,124700,1,0,0:0:0:0:
320,192,124747,1,0,0:0:0:0:
64,192,124794,1,12,0:0:0:0:
192,192,124794,1,0,0:0:0:0:
64,192,124887,1,8,0:0:0:0:
448,192,124887,1,0,0:0:0:0:
192,192,124981,1,8,0:0:0:0:
320,192,124981,1,0,0:0:0:0:
448,192,125075,1,0,0:0:0:0:
64,192,125075,1,8,0:0:0:0:
320,192,125169,1,8,0:0:0:0:
448,192,125169,1,4,0:0:0:0:
64,192,125262,1,8,0:0:0:0:
192,192,125262,1,0,0:0:0:0:
448,192,125356,1,0,0:0:0:0:
320,192,125356,1,8,0:0:0:0:
64,192,125450,1,8,0:0:0:0:
192,192,125450,1,0,0:0:0:0:
448,192,125544,1,4,0:0:0:0:
320,192,125575,1,0,0:0:0:0:
64,192,125606,1,0,0:0:0:0:
192,192,125637,1,0,0:0:0:0:
448,192,125669,1,0,0:0:0:0:
320,192,125700,1,0,0:0:0:0:
64,192,125731,1,0,0:0:0:0:
192,192,125762,1,0,0:0:0:0:
448,192,125794,1,0,0:0:0:0:
320,192,125825,1,0,0:0:0:0:
64,192,125856,1,0,0:0:0:0:
192,192,125887,1,0,0:0:0:0:
448,192,125919,1,0,0:0:0:0:
320,192,125950,1,0,0:0:0:0:
192,192,125981,1,0,0:0:0:0:
64,192,126012,1,0,0:0:0:0:
320,192,126044,1,0,0:0:0:0:
448,192,126075,1,0,0:0:0:0:
64,192,126106,1,0,0:0:0:0:
192,192,126137,1,0,0:0:0:0:
320,192,126169,1,0,0:0:0:0:
448,192,126200,1,0,0:0:0:0:
192,192,126231,1,0,0:0:0:0:
64,192,126262,1,0,0:0:0:0:
448,192,126294,128,0,128544:0:0:0:0:
320,192,126294,1,0,0:0:0:0:
64,192,127794,128,0,128544:0:0:0:0:
448,192,128731,128,0,129294:0:0:0:0:
64,192,128731,128,0,129294:0:0:0:0:
192,192,129294,1,4,0:0:0:0:
320,192,129294,1,8,0:0:0:0:
320,192,129874,1,0,0:0:0:0:
64,192,130455,1,0,0:0:0:0:
448,192,130842,1,0,0:0:0:0:
192,192,131422,1,0,0:0:0:0:
448,192,131616,1,0,0:0:0:0:
320,192,132003,1,0,0:0:0:0:
64,192,132197,1,0,0:0:0:0:
448,192,132390,1,0,0:0:0:0:
448,192,132971,1,0,0:0:0:0:
192,192,133551,1,0,0:0:0:0:
64,192,133745,1,0,0:0:0:0:
448,192,133938,1,0,0:0:0:0:
192,192,134326,1,0,0:0:0:0:
448,192,134713,1,0,0:0:0:0:
192,192,134713,128,0,135487:0:0:0:0:
64,192,135100,1,0,0:0:0:0:
320,192,135487,1,0,0:0:0:0:
320,192,136068,1,0,0:0:0:0:
192,192,136648,1,0,0:0:0:0:
448,192,137035,1,0,0:0:0:0:
320,192,137616,1,0,0:0:0:0:
448,192,137809,1,0,0:0:0:0:
320,192,138197,1,0,0:0:0:0:
192,192,138390,1,0,0:0:0:0:
64,192,138584,1,0,0:0:0:0:
192,192,138971,1,0,0:0:0:0:
448,192,139358,1,0,0:0:0:0:
64,192,139745,1,0,0:0:0:0:
320,192,140132,1,0,0:0:0:0:
192,192,140519,1,0,0:0:0:0:
448,192,140906,1,0,0:0:0:0:
64,192,141293,1,0,0:0:0:0:
192,192,141680,1,0,0:0:0:0:
192,192,142261,1,0,0:0:0:0:
64,192,142842,1,0,0:0:0:0:
448,192,143229,1,0,0:0:0:0:
320,192,143809,1,0,0:0:0:0:
448,192,144003,1,0,0:0:0:0:
192,192,144390,1,0,0:0:0:0:
64,192,144584,1,0,0:0:0:0:
448,192,144777,1,0,0:0:0:0:
448,192,145358,1,0,0:0:0:0:
64,192,145938,1,0,0:0:0:0:
192,192,146132,1,0,0:0:0:0:
448,192,146326,1,0,0:0:0:0:
320,192,146713,1,0,0:0:0:0:
192,192,147100,1,0,0:0:0:0:
64,192,147487,1,0,0:0:0:0:
192,192,147874,1,0,0:0:0:0:
192,192,148455,1,0,0:0:0:0:
64,192,149035,1,0,0:0:0:0:
448,192,149422,1,0,0:0:0:0:
64,192,150003,1,0,0:0:0:0:
448,192,150197,1,0,0:0:0:0:
192,192,150584,1,0,0:0:0:0:
320,192,150777,1,0,0:0:0:0:
64,192,150971,1,0,0:0:0:0:
448,192,151358,1,0,0:0:0:0:
192,192,151745,1,0,0:0:0:0:
64,192,152132,1,0,0:0:0:0:
320,192,152519,1,0,0:0:0:0:
64,192,152519,128,0,152809:0:0:0:0:
448,192,152713,1,0,0:0:0:0:
64,192,152906,128,0,153293:0:0:0:0:
320,192,152906,1,0,0:0:0:0:
192,192,153100,1,0,0:0:0:0:
448,192,153293,1,0,0:0:0:0:
320,192,153293,128,0,153584:0:0:0:0:
64,192,153487,1,0,0:0:0:0:
192,192,153680,1,0,0:0:0:0:
320,192,153680,128,0,154067:0:0:0:0:
448,192,153874,1,0,0:0:0:0:
64,192,154068,1,12,0:0:0:0:
192,192,154068,128,0,154648:0:0:0:0:
448,192,154068,1,0,0:0:0:0:
320,192,154261,1,0,0:0:0:0:
64,192,154455,1,8,0:0:0:0:
320,192,154648,128,0,154842:0:0:0:0:
448,192,154842,1,0,0:0:0:0:
64,192,154842,1,2,0:0:0:0:
320,192,155035,1,0,0:0:0:0:
64,192,155229,128,0,155422:0:0:0:0:
192,192,155229,1,8,0:0:0:0:
192,192,155422,128,0,155616:0:0:0:0:
448,192,155422,1,0,0:0:0:0:
320,192,155422,1,2,0:0:0:0:
64,192,155616,1,8,0:0:0:0:
320,192,155616,128,0,155809:0:0:0:0:
448,192,155809,128,0,156003:0:0:0:0:
64,192,155809,1,2,0:0:0:0:
192,192,155809,1,0,0:0:0:0:
64,192,156003,1,8,0:0:0:0:
320,192,156003,128,0,156197:0:0:0:0:
192,192,156197,1,0,0:0:0:0:
448,192,156197,128,0,156390:0:0:0:0:
320,192,156390,1,0,0:0:0:0:
64,192,156390,1,2,0:0:0:0:
320,192,156584,1,0,0:0:0:0:
64,192,156777,128,0,156971:0:0:0:0:
448,192,156777,1,8,0:0:0:0:
192,192,156971,128,0,157164:0:0:0:0:
320,192,156971,1,0,0:0:0:0:
64,192,157164,1,8,0:0:0:0:
320,192,157164,128,0,157358:0:0:0:0:
448,192,157358,1,0,0:0:0:0:
192,192,157358,128,0,157551:0:0:0:0:
64,192,157551,1,8,0:0:0:0:
320,192,157551,128,0,157745:0:0:0:0:
192,192,157745,1,0,0:0:0:0:
448,192,157745,128,0,157842:0:0:0:0:
64,192,157938,1,0,0:0:0:0:
320,192,157938,1,2,0:0:0:0:
448,192,157938,128,0,158035:0:0:0:0:
448,192,158132,128,0,158229:0:0:0:0:
64,192,158326,1,8,0:0:0:0:
448,192,158326,128,0,158713:0:0:0:0:
192,192,158519,1,0,0:0:0:0:
320,192,158519,1,2,0:0:0:0:
64,192,158713,1,8,0:0:0:0:
448,192,158906,1,2,0:0:0:0:
320,192,158906,1,0,0:0:0:0:
192,192,159100,1,8,0:0:0:0:
320,192,159293,1,0,0:0:0:0:
64,192,159487,128,0,159874:0:0:0:0:
448,192,159487,1,0,0:0:0:0:
192,192,159487,1,2,0:0:0:0:
320,192,159680,1,0,0:0:0:0:
320,192,159874,128,0,160261:0:0:0:0:
192,192,159874,1,8,0:0:0:0:
448,192,160068,1,0,0:0:0:0:
192,192,160261,1,8,0:0:0:0:
448,192,160261,128,0,160551:0:0:0:0:
64,192,160455,1,0,0:0:0:0:
448,192,160648,128,0,160842:0:0:0:0:
192,192,160648,1,8,0:0:0:0:
320,192,160842,1,0,0:0:0:0:
448,192,161035,1,0,0:0:0:0:
64,192,161035,1,2,0:0:0:0:
192,192,161229,1,0,0:0:0:0:
320,192,161422,1,8,0:0:0:0:
448,192,161422,128,0,161616:0:0:0:0:
64,192,161616,1,2,0:0:0:0:
320,192,161616,1,0,0:0:0:0:
320,192,161809,128,0,162003:0:0:0:0:
192,192,161809,1,8,0:0:0:0:
64,192,162003,128,0,162197:0:0:0:0:
192,192,162003,1,2,0:0:0:0:
448,192,162003,1,0,0:0:0:0:
448,192,162197,128,0,162390:0:0:0:0:
320,192,162197,1,8,0:0:0:0:
320,192,162390,128,0,162584:0:0:0:0:
192,192,162390,1,0,0:0:0:0:
448,192,162584,1,0,0:0:0:0:
64,192,162584,1,2,0:0:0:0:
192,192,162584,128,0,162777:0:0:0:0:
64,192,162777,128,0,162971:0:0:0:0:
320,192,162971,1,8,0:0:0:0:
192,192,162971,128,0,163164:0:0:0:0:
448,192,163164,128,0,163358:0:0:0:0:
64,192,163358,1,8,0:0:0:0:
448,192,163551,128,0,163745:0:0:0:0:
192,192,163551,1,0,0:0:0:0:
64,192,163745,1,8,0:0:0:0:
320,192,163745,128,0,163938:0:0:0:0:
64,192,163938,128,0,164132:0:0:0:0:
192,192,163938,1,0,0:0:0:0:
448,192,164132,1,2,0:0:0:0:
192,192,164132,1,0,0:0:0:0:
320,192,164132,128,0,164326:0:0:0:0:
448,192,164326,1,0,0:0:0:0:
192,192,164519,1,8,0:0:0:0:
64,192,164519,128,0,164713:0:0:0:0:
320,192,164713,1,2,0:0:0:0:
448,192,164713,1,0,0:0:0:0:
64,192,164906,1,8,0:0:0:0:
320,192,164906,128,0,165100:0:0:0:0:
192,192,165100,1,2,0:0:0:0:
448,192,165100,1,0,0:0:0:0:
64,192,165293,1,8,0:0:0:0:
320,192,165293,1,0,0:0:0:0:
448,192,165293,128,0,165487:0:0:0:0:
192,192,165487,1,0,0:0:0:0:
320,192,165680,1,2,0:0:0:0:
448,192,165680,1,0,0:0:0:0:
64,192,165680,128,0,166068:0:0:0:0:
192,192,166068,1,8,0:0:0:0:
320,192,166068,128,0,166455:0:0:0:0:
64,192,166261,1,0,0:0:0:0:
192,192,166455,1,8,0:0:0:0:
448,192,166455,128,0,166745:0:0:0:0:
64,192,166842,1,8,0:0:0:0:
448,192,166842,128,0,167132:0:0:0:0:
320,192,167035,1,0,0:0:0:0:
320,192,167229,1,2,0:0:0:0:
192,192,167229,1,0,0:0:0:0:
448,192,167229,128,0,167616:0:0:0:0:
64,192,167616,1,8,0:0:0:0:
192,192,167616,128,0,167809:0:0:0:0:
448,192,167809,1,0,0:0:0:0:
320,192,167809,1,2,0:0:0:0:
64,192,168003,128,0,168197:0:0:0:0:
320,192,168003,1,8,0:0:0:0:
192,192,168197,1,2,0:0:0:0:
448,192,168197,1,0,0:0:0:0:
320,192,168197,128,0,168390:0:0:0:0:
192,192,168390,1,8,0:0:0:0:
64,192,168390,128,0,168584:0:0:0:0:
448,192,168584,128,0,169164:0:0:0:0:
192,192,168777,1,2,0:0:0:0:
64,192,168777,1,0,0:0:0:0:
320,192,168971,1,0,0:0:0:0:
192,192,169164,128,0,169358:0:0:0:0:
64,192,169164,1,8,0:0:0:0:
320,192,169358,128,0,169551:0:0:0:0:
64,192,169551,128,0,169745:0:0:0:0:
448,192,169551,1,8,0:0:0:0:
448,192,169745,128,0,169938:0:0:0:0:
320,192,169745,1,0,0:0:0:0:
192,192,169938,1,8,0:0:0:0:
64,192,169938,128,0,170132:0:0:0:0:
448,192,170132,1,0,0:0:0:0:
192,192,170132,128,0,170326:0:0:0:0:
64,192,170326,1,0,0:0:0:0:
448,192,170326,128,0,170519:0:0:0:0:
320,192,170326,1,2,0:0:0:0:
320,192,170519,128,0,170713:0:0:0:0:
192,192,170519,1,0,0:0:0:0:
64,192,170713,1,8,0:0:0:0:
192,192,170713,128,0,170906:0:0:0:0:
64,192,170906,1,2,0:0:0:0:
320,192,170906,128,0,171293:0:0:0:0:
448,192,170906,1,0,0:0:0:0:
192,192,171100,1,8,0:0:0:0:
448,192,171293,1,0,0:0:0:0:
64,192,171293,1,2,0:0:0:0:
192,192,171293,128,0,171487:0:0:0:0:
64,192,171487,128,0,171680:0:0:0:0:
320,192,171487,1,8,0:0:0:0:
448,192,171680,128,0,171874:0:0:0:0:
192,192,171680,1,0,0:0:0:0:
320,192,171874,128,0,172067:0:0:0:0:
192,192,171874,1,2,0:0:0:0:
64,192,171874,1,0,0:0:0:0:
448,192,172067,128,0,172261:0:0:0:0:
192,192,172067,1,0,0:0:0:0:
64,192,172261,1,8,0:0:0:0:
192,192,172261,128,0,172455:0:0:0:0:
64,192,172455,128,0,172648:0:0:0:0:
448,192,172648,1,8,0:0:0:0:
320,192,172648,128,0,173422:0:0:0:0:
192,192,172842,1,0,0:0:0:0:
448,192,173035,1,8,0:0:0:0:
448,192,173229,128,0,173422:0:0:0:0:
192,192,173422,1,2,0:0:0:0:
64,192,173422,1,0,0:0:0:0:
192,192,173616,1,0,0:0:0:0:
64,192,173809,128,0,174003:0:0:0:0:
448,192,173809,1,8,0:0:0:0:
320,192,174003,128,0,174197:0:0:0:0:
448,192,174003,1,0,0:0:0:0:
192,192,174003,1,2,0:0:0:0:
64,192,174197,1,8,0:0:0:0:
448,192,174197,128,0,174487:0:0:0:0:
192,192,174390,1,2,0:0:0:0:
320,192,174390,1,0,0:0:0:0:
64,192,174584,1,8,0:0:0:0:
448,192,174584,128,0,174680:0:0:0:0:
192,192,174777,1,0,0:0:0:0:
448,192,174777,128,0,174874:0:0:0:0:
320,192,174971,1,2,0:0:0:0:
64,192,174971,1,0,0:0:0:0:
448,192,174971,128,0,175358:0:0:0:0:
64,192,175358,128,0,175745:0:0:0:0:
192,192,175358,1,8,0:0:0:0:
320,192,175551,1,0,0:0:0:0:
448,192,175745,128,0,176326:0:0:0:0:
320,192,175745,1,8,0:0:0:0:
64,192,176132,1,8,0:0:0:0:
192,192,176326,128,0,176906:0:0:0:0:
320,192,176326,1,0,0:0:0:0:
448,192,176519,1,2,0:0:0:0:
64,192,176519,1,0,0:0:0:0:
64,192,176906,128,0,177293:0:0:0:0:
320,192,176906,1,8,0:0:0:0:
192,192,177100,1,0,0:0:0:0:
448,192,177100,1,2,0:0:0:0:
448,192,177293,1,8,0:0:0:0:
192,192,177293,128,0,177680:0:0:0:0:
320,192,177487,1,2,0:0:0:0:
64,192,177487,1,0,0:0:0:0:
320,192,177680,1,8,0:0:0:0:
192,192,177874,1,0,0:0:0:0:
64,192,178067,1,0,0:0:0:0:
320,192,178067,1,2,0:0:0:0:
448,192,178067,128,0,178455:0:0:0:0:
192,192,178261,1,8,0:0:0:0:
192,192,178455,1,0,0:0:0:0:
64,192,178455,1,8,0:0:0:0:
64,192,178551,1,8,0:0:0:0:
192,192,178551,1,0,0:0:0:0:
64,192,178648,1,8,0:0:0:0:
192,192,178648,1,0,0:0:0:0:
64,192,178745,1,8,0:0:0:0:
192,192,178745,1,0,0:0:0:0:
448,192,178842,1,12,0:0:0:0:
64,192,178842,1,8,0:0:0:0:
192,192,178842,1,0,0:0:0:0:
320,192,178842,128,0,179229:0:0:0:0:
192,192,179035,1,0,0:0:0:0:
64,192,179229,1,0,0:0:0:0:
448,192,179422,128,0,180003:0:0:0:0:
320,192,179616,128,0,180003:0:0:0:0:
64,192,179616,1,0,0:0:0:0:
192,192,179809,1,0,0:0:0:0:
64,192,180003,128,0,180197:0:0:0:0:
192,192,180197,128,0,180390:0:0:0:0:
448,192,180390,128,0,180777:0:0:0:0:
320,192,180390,1,0,0:0:0:0:
64,192,180584,128,0,180777:0:0:0:0:
320,192,180777,128,0,180971:0:0:0:0:
192,192,180777,1,0,0:0:0:0:
448,192,180971,128,0,181551:0:0:0:0:
64,192,181164,128,0,181551:0:0:0:0:
320,192,181551,128,0,181938:0:0:0:0:
192,192,181745,128,0,181938:0:0:0:0:
64,192,181938,128,0,182326:0:0:0:0:
448,192,181938,128,0,182326:0:0:0:0:
320,192,182132,128,0,182519:0:0:0:0:
192,192,182326,128,0,182713:0:0:0:0:
448,192,182519,128,0,182616:0:0:0:0:
448,192,182713,128,0,182809:0:0:0:0:
64,192,182713,128,0,183100:0:0:0:0:
448,192,182906,128,0,183003:0:0:0:0:
448,192,183100,128,0,183487:0:0:0:0:
192,192,183100,128,0,183293:0:0:0:0:
64,192,183293,128,0,183487:0:0:0:0:
320,192,183487,128,0,183874:0:0:0:0:
192,192,183487,128,0,183680:0:0:0:0:
448,192,183680,128,0,183874:0:0:0:0:
192,192,183874,128,0,184261:0:0:0:0:
448,192,184067,128,0,184261:0:0:0:0:
64,192,184261,128,0,184648:0:0:0:0:
320,192,184261,128,0,184648:0:0:0:0:
192,192,184648,128,0,185035:0:0:0:0:
448,192,184842,1,0,0:0:0:0:
320,192,185035,128,0,185422:0:0:0:0:
64,192,185035,1,12,0:0:0:0:
448,192,185035,128,0,185229:0:0:0:0:
64,192,185229,1,0,0:0:0:0:
448,192,185422,128,0,185616:0:0:0:0:
192,192,185422,1,0,0:0:0:0:
64,192,185616,1,0,0:0:0:0:
320,192,185616,128,0,185809:0:0:0:0:
448,192,185809,128,0,186003:0:0:0:0:
64,192,185809,128,0,186197:0:0:0:0:
192,192,186197,128,0,186390:0:0:0:0:
320,192,186197,1,0,0:0:0:0:
448,192,186390,1,0,0:0:0:0:
192,192,186584,128,0,186777:0:0:0:0:
448,192,186584,128,0,186971:0:0:0:0:
320,192,186777,128,0,187164:0:0:0:0:
64,192,186971,128,0,187358:0:0:0:0:
192,192,187164,128,0,187551:0:0:0:0:
320,192,187358,128,0,187745:0:0:0:0:
448,192,187358,1,0,0:0:0:0:
448,192,187551,128,0,187938:0:0:0:0:
192,192,187745,128,0,188132:0:0:0:0:
64,192,187938,128,0,188132:0:0:0:0:
448,192,188132,1,0,0:0:0:0:
320,192,188132,128,0,188519:0:0:0:0:
64,192,188326,128,0,188519:0:0:0:0:
192,192,188519,128,0,188906:0:0:0:0:
448,192,188713,128,0,188906:0:0:0:0:
64,192,188906,128,0,189293:0:0:0:0:
320,192,188906,128,0,189487:0:0:0:0:
192,192,189100,128,0,189293:0:0:0:0:
448,192,189293,128,0,189680:0:0:0:0:
192,192,189390,1,0,0:0:0:0:
64,192,189487,128,0,189584:0:0:0:0:
192,192,189680,128,0,189874:0:0:0:0:
320,192,189680,128,0,190067:0:0:0:0:
448,192,189874,128,0,190067:0:0:0:0:
64,192,190067,1,0,0:0:0:0:
192,192,190067,128,0,190455:0:0:0:0:
64,192,190261,1,0,0:0:0:0:
320,192,190261,128,0,190455:0:0:0:0:
448,192,190455,128,0,190842:0:0:0:0:
64,192,190455,128,0,190842:0:0:0:0:
192,192,190842,128,0,191229:0:0:0:0:
320,192,191035,1,0,0:0:0:0:
64,192,191229,128,0,191519:0:0:0:0:
320,192,191229,1,12,0:0:0:0:
448,192,191229,128,0,191616:0:0:0:0:
192,192,191422,1,0,0:0:0:0:
64,192,191616,128,0,191906:0:0:0:0:
320,192,191616,1,0,0:0:0:0:
448,192,191809,1,0,0:0:0:0:
64,192,192003,128,0,192390:0:0:0:0:
448,192,192003,128,0,192390:0:0:0:0:
320,192,192197,1,0,0:0:0:0:
320,192,192390,128,0,192584:0:0:0:0:
192,192,192390,1,0,0:0:0:0:
448,192,192584,1,0,0:0:0:0:
448,192,192777,128,0,192971:0:0:0:0:
320,192,192777,1,0,0:0:0:0:
192,192,192777,128,0,193164:0:0:0:0:
448,192,193164,128,0,193358:0:0:0:0:
320,192,193164,1,0,0:0:0:0:
64,192,193358,128,0,193938:0:0:0:0:
192,192,193551,1,0,0:0:0:0:
448,192,193551,128,0,193938:0:0:0:0:
320,192,193938,128,0,194326:0:0:0:0:
192,192,194132,128,0,194326:0:0:0:0:
448,192,194326,128,0,194713:0:0:0:0:
64,192,194326,1,12,0:0:0:0:
64,192,194519,128,0,194906:0:0:0:0:
320,192,194519,1,0,0:0:0:0:
320,192,194713,128,0,195100:0:0:0:0:
192,192,194713,1,0,0:0:0:0:
192,192,194906,128,0,195293:0:0:0:0:
64,192,195100,128,0,195487:0:0:0:0:
448,192,195100,1,0,0:0:0:0:
320,192,195293,128,0,195487:0:0:0:0:
448,192,195293,1,0,0:0:0:0:
448,192,195487,128,0,196067:0:0:0:0:
192,192,195487,1,0,0:0:0:0:
192,192,195680,128,0,195874:0:0:0:0:
320,192,195874,1,0,0:0:0:0:
64,192,195874,128,0,196261:0:0:0:0:
320,192,196067,128,0,196261:0:0:0:0:
448,192,196261,128,0,196648:0:0:0:0:
320,192,196455,128,0,196648:0:0:0:0:
192,192,196648,128,0,196842:0:0:0:0:
64,192,196648,128,0,197035:0:0:0:0:
320,192,196842,128,0,197229:0:0:0:0:
448,192,197035,1,0,0:0:0:0:
448,192,197229,128,0,197422:0:0:0:0:
320,192,197422,1,12,0:0:0:0:
192,192,197422,128,0,198197:0:0:0:0:
64,192,197422,128,0,197809:0:0:0:0:
320,192,197616,1,0,0:0:0:0:
448,192,198003,128,0,198584:0:0:0:0:
320,192,198003,1,0,0:0:0:0:
64,192,198197,128,0,198584:0:0:0:0:
320,192,198584,128,0,198777:0:0:0:0:
192,192,198584,1,0,0:0:0:0:
192,192,198777,128,0,198971:0:0:0:0:
64,192,198971,128,0,200132:0:0:0:0:
320,192,198971,1,12,0:0:0:0:
448,192,198971,128,0,199358:0:0:0:0:
192,192,199164,1,0,0:0:0:0:
320,192,199358,1,0,0:0:0:0:
448,192,199551,1,0,0:0:0:0:
320,192,199745,128,0,200132:0:0:0:0:
448,192,200132,128,0,200519:0:0:0:0:
64,192,200519,128,0,202067:0:0:0:0:
192,192,200519,128,0,202067:0:0:0:0:
320,192,200519,1,12,0:0:0:0:
320,192,201293,1,12,0:0:0:0:
448,192,201293,1,4,0:0:0:0:
448,192,202067,1,4,0:0:0:0:
320,192,202067,1,8,0:0:0:0:
64,192,202197,1,0,0:0:0:0:
192,192,202326,1,0,0:0:0:0:
64,192,202455,1,0,0:0:0:0:
320,192,202455,1,12,0:0:0:0:
448,192,202584,1,0,0:0:0:0:
64,192,202713,1,0,0:0:0:0:
192,192,202842,1,0,0:0:0:0:
448,192,202842,1,12,0:0:0:0:
320,192,202971,1,0,0:0:0:0:
448,192,203100,1,0,0:0:0:0:
64,192,203229,1,12,0:0:0:0:
320,192,203229,1,0,0:0:0:0:
192,192,203358,1,0,0:0:0:0:
320,192,203487,1,0,0:0:0:0:
448,192,203616,1,8,0:0:0:0:
192,192,203616,1,2,0:0:0:0:
64,192,203616,1,4,0:0:0:0:
448,192,204003,1,0,0:0:0:0:
320,192,204003,1,0,0:0:0:0:
192,192,204390,1,2,0:0:0:0:
320,192,204390,1,0,0:0:0:0:
64,192,204777,1,0,0:0:0:0:
192,192,204777,1,0,0:0:0:0:
64,192,205164,1,4,0:0:0:0:
320,192,205164,1,2,0:0:0:0:
448,192,205164,1,8,0:0:0:0:
192,192,205516,1,0,0:0:0:0:
448,192,205516,1,0,0:0:0:0:
192,192,205869,1,2,0:0:0:0:
64,192,205869,1,0,0:0:0:0:
320,192,206222,1,0,0:0:0:0:
448,192,206222,1,0,0:0:0:0:
320,192,206575,1,8,0:0:0:0:
192,192,206575,1,2,0:0:0:0:
64,192,206575,1,4,0:0:0:0:
320,192,206899,1,0,0:0:0:0:
448,192,206899,1,0,0:0:0:0:
320,192,207223,1,2,0:0:0:0:
64,192,207223,1,0,0:0:0:0:
64,192,207547,1,0,0:0:0:0:
448,192,207547,1,0,0:0:0:0:
192,192,207872,1,4,0:0:0:0:
320,192,207872,1,2,0:0:0:0:
448,192,207872,1,8,0:0:0:0:
320,192,208172,1,0,0:0:0:0:
64,192,208172,1,0,0:0:0:0:
192,192,208472,1,2,0:0:0:0:
448,192,208472,1,0,0:0:0:0:
320,192,208772,1,0,0:0:0:0:
448,192,208772,1,0,0:0:0:0:
64,192,209072,1,4,0:0:0:0:
192,192,209072,1,2,0:0:0:0:
448,192,209072,1,8,0:0:0:0:
320,192,209351,1,0,0:0:0:0:
448,192,209351,1,0,0:0:0:0:
320,192,209630,1,0,0:0:0:0:
64,192,209630,1,2,0:0:0:0:
64,192,209909,1,0,0:0:0:0:
192,192,209909,1,0,0:0:0:0:
192,192,210188,1,4,0:0:0:0:
320,192,210188,1,2,0:0:0:0:
448,192,210188,1,8,0:0:0:0:
64,192,210448,1,0,0:0:0:0:
448,192,210448,1,0,0:0:0:0:
64,192,210709,1,0,0:0:0:0:
192,192,210709,1,2,0:0:0:0:
192,192,210970,1,0,0:0:0:0:
448,192,210970,1,0,0:0:0:0:
64,192,211231,1,4,0:0:0:0:
320,192,211231,1,2,0:0:0:0:
448,192,211231,1,8,0:0:0:0:
192,192,211475,1,0,0:0:0:0:
64,192,211475,1,0,0:0:0:0:
320,192,211720,1,2,0:0:0:0:
448,192,211720,1,0,0:0:0:0:
448,192,211965,1,0,0:0:0:0:
64,192,211965,1,0,0:0:0:0:
64,192,212210,1,4,0:0:0:0:
192,192,212210,1,2,0:0:0:0:
448,192,212210,1,8,0:0:0:0:
320,192,212440,1,0,0:0:0:0:
192,192,212440,1,0,0:0:0:0:
320,192,212671,1,2,0:0:0:0:
448,192,212671,1,0,0:0:0:0:
448,192,212902,1,0,0:0:0:0:
64,192,212902,1,0,0:0:0:0:
448,192,213133,1,8,0:0:0:0:
320,192,213133,1,2,0:0:0:0:
64,192,213133,1,4,0:0:0:0:
320,192,213351,1,0,0:0:0:0:
192,192,213351,1,0,0:0:0:0:
448,192,213569,1,0,0:0:0:0:
192,192,213569,1,2,0:0:0:0:
64,192,213787,1,0,0:0:0:0:
448,192,213787,1,0,0:0:0:0:
64,192,214005,1,4,0:0:0:0:
192,192,214005,1,2,0:0:0:0:
320,192,214005,1,8,0:0:0:0:
448,192,214211,1,0,0:0:0:0:
64,192,214211,1,0,0:0:0:0:
320,192,214418,1,0,0:0:0:0:
64,192,214418,1,2,0:0:0:0:
320,192,214625,1,0,0:0:0:0:
448,192,214625,1,0,0:0:0:0:
64,192,214832,1,4,0:0:0:0:
192,192,214832,1,2,0:0:0:0:
448,192,214832,1,8,0:0:0:0:
320,192,215028,1,0,0:0:0:0:
64,192,215028,1,0,0:0:0:0:
192,192,215225,1,2,0:0:0:0:
320,192,215225,1,0,0:0:0:0:
320,192,215422,1,0,0:0:0:0:
448,192,215422,1,0,0:0:0:0:
64,192,215618,1,4,0:0:0:0:
448,192,215618,1,8,0:0:0:0:
192,192,215618,1,2,0:0:0:0:
192,192,215805,1,0,0:0:0:0:
64,192,215805,1,0,0:0:0:0:
320,192,215993,1,2,0:0:0:0:
448,192,215993,1,0,0:0:0:0:
192,192,216180,1,0,0:0:0:0:
320,192,216180,1,0,0:0:0:0:
192,192,216368,1,2,0:0:0:0:
448,192,216368,1,8,0:0:0:0:
64,192,216368,1,4,0:0:0:0:
320,192,216547,1,0,0:0:0:0:
64,192,216547,1,0,0:0:0:0:
320,192,216726,1,2,0:0:0:0:
448,192,216726,1,0,0:0:0:0:
192,192,216905,1,0,0:0:0:0:
64,192,216905,1,0,0:0:0:0:
448,192,217084,1,8,0:0:0:0:
320,192,217084,1,2,0:0:0:0:
192,192,217084,1,4,0:0:0:0:
448,192,217255,1,0,0:0:0:0:
64,192,217255,1,0,0:0:0:0:
192,192,217426,1,2,0:0:0:0:
320,192,217426,1,0,0:0:0:0:
320,192,217598,1,0,0:0:0:0:
448,192,217598,1,0,0:0:0:0:
192,192,217769,1,2,0:0:0:0:
448,192,217769,1,8,0:0:0:0:
64,192,217769,1,4,0:0:0:0:
64,192,217933,1,0,0:0:0:0:
320,192,217933,1,0,0:0:0:0:
192,192,218097,1,2,0:0:0:0:
320,192,218097,1,0,0:0:0:0:
64,192,218262,1,0,0:0:0:0:
448,192,218262,1,0,0:0:0:0:
192,192,218426,1,4,0:0:0:0:
320,192,218426,1,2,0:0:0:0:
448,192,218426,1,8,0:0:0:0:
64,192,218583,1,0,0:0:0:0:
192,192,218583,1,0,0:0:0:0:
64,192,218741,1,2,0:0:0:0:
448,192,218741,1,0,0:0:0:0:
192,192,218899,1,0,0:0:0:0:
448,192,218899,1,0,0:0:0:0:
320,192,219057,1,8,0:0:0:0:
192,192,219057,1,2,0:0:0:0:
64,192,219057,1,4,0:0:0:0:
320,192,219208,1,0,0:0:0:0:
448,192,219208,1,0,0:0:0:0:
448,192,219360,1,0,0:0:0:0:
64,192,219360,1,2,0:0:0:0:
192,192,219512,1,0,0:0:0:0:
64,192,219512,1,0,0:0:0:0:
192,192,219664,1,4,0:0:0:0:
448,192,219664,1,8,0:0:0:0:
320,192,219664,1,2,0:0:0:0:
320,192,219810,1,0,0:0:0:0:
448,192,219810,1,0,0:0:0:0:
192,192,219956,1,0,0:0:0:0:
64,192,219956,1,2,0:0:0:0:
320,192,220103,1,0,0:0:0:0:
448,192,220103,1,0,0:0:0:0:
64,192,220249,1,4,0:0:0:0:
192,192,220249,1,2,0:0:0:0:
448,192,220249,1,8,0:0:0:0:
64,192,220390,1,0,0:0:0:0:
192,192,220390,1,0,0:0:0:0:
320,192,220531,1,2,0:0:0:0:
448,192,220531,1,0,0:0:0:0:
192,192,220672,1,0,0:0:0:0:
64,192,220672,1,0,0:0:0:0:
192,192,220813,1,4,0:0:0:0:
320,192,220813,1,2,0:0:0:0:
448,192,220813,1,8,0:0:0:0:
64,192,220949,1,0,0:0:0:0:
320,192,220949,1,0,0:0:0:0:
192,192,221085,1,2,0:0:0:0:
448,192,221085,1,0,0:0:0:0:
64,192,221222,1,0,0:0:0:0:
448,192,221222,1,0,0:0:0:0:
192,192,221358,1,2,0:0:0:0:
320,192,221358,1,8,0:0:0:0:
64,192,221358,1,4,0:0:0:0:
320,192,221489,1,0,0:0:0:0:
448,192,221489,1,0,0:0:0:0:
64,192,221621,1,2,0:0:0:0:
448,192,221621,1,0,0:0:0:0:
320,192,221753,1,0,0:0:0:0:
192,192,221753,1,0,0:0:0:0:
192,192,221885,1,2,0:0:0:0:
64,192,221885,1,4,0:0:0:0:
448,192,221885,1,8,0:0:0:0:
320,192,222012,1,0,0:0:0:0:
448,192,222012,1,0,0:0:0:0:
64,192,222140,1,2,0:0:0:0:
320,192,222140,1,0,0:0:0:0:
192,192,222267,5,0,0:0:0:0:
64,192,222267,1,0,0:0:0:0:
320,192,222395,1,2,0:0:0:0:
192,192,222395,1,4,0:0:0:0:
448,192,222395,1,8,0:0:0:0:
448,192,222518,1,0,0:0:0:0:
64,192,222518,1,0,0:0:0:0:
192,192,222642,1,2,0:0:0:0:
64,192,222642,1,0,0:0:0:0:
320,192,222766,1,0,0:0:0:0:
448,192,222766,1,0,0:0:0:0:
192,192,222889,1,2,0:0:0:0:
448,192,222889,1,0,0:0:0:0:
64,192,222889,1,4,0:0:0:0:
64,192,223009,1,0,0:0:0:0:
192,192,223009,1,0,0:0:0:0:
320,192,223129,1,2,0:0:0:0:
448,192,223129,1,0,0:0:0:0:
320,192,223249,1,0,0:0:0:0:
192,192,223249,1,0,0:0:0:0:
192,192,223369,1,0,0:0:0:0:
64,192,223369,128,0,223485:0:0:0:0:
448,192,223369,1,4,0:0:0:0:
320,192,223485,1,8,0:0:0:0:
448,192,223485,1,0,0:0:0:0:
64,192,223602,1,8,0:0:0:0:
192,192,223602,128,0,223718:0:0:0:0:
448,192,223718,1,0,0:0:0:0:
320,192,223718,1,8,0:0:0:0:
192,192,223835,1,8,0:0:0:0:
64,192,223835,128,0,223951:0:0:0:0:
448,192,223835,1,4,0:0:0:0:
320,192,223951,1,8,0:0:0:0:
448,192,223951,1,0,0:0:0:0:
64,192,224068,1,8,0:0:0:0:
192,192,224068,128,0,224184:0:0:0:0:
320,192,224184,1,8,0:0:0:0:
448,192,224184,1,0,0:0:0:0:
64,192,224301,1,12,0:0:0:0:
448,192,224301,128,0,224417:0:0:0:0:
192,192,224301,1,0,0:0:0:0:
320,192,224417,1,0,0:0:0:0:
192,192,224417,1,8,0:0:0:0:
448,192,224534,1,8,0:0:0:0:
64,192,224534,128,0,224650:0:0:0:0:
320,192,224650,1,8,0:0:0:0:
192,192,224650,1,0,0:0:0:0:
64,192,224767,1,12,0:0:0:0:
448,192,224767,128,0,224883:0:0:0:0:
192,192,224767,1,0,0:0:0:0:
320,192,224883,1,0,0:0:0:0:
192,192,224883,1,8,0:0:0:0:
448,192,225000,1,8,0:0:0:0:
64,192,225000,128,0,225116:0:0:0:0:
320,192,225116,1,8,0:0:0:0:
192,192,225116,1,0,0:0:0:0:
64,192,225233,1,4,0:0:0:0:
192,192,225233,1,8,0:0:0:0:
320,192,225291,1,8,0:0:0:0:
448,192,225291,1,0,0:0:0:0:
64,192,225349,1,0,0:0:0:0:
192,192,225349,1,8,0:0:0:0:
320,192,225407,1,8,0:0:0:0:
448,192,225407,1,0,0:0:0:0:
192,192,225466,1,8,0:0:0:0:
64,192,225466,128,0,225582:0:0:0:0:
320,192,225582,1,8,0:0:0:0:
448,192,225582,1,0,0:0:0:0:
64,192,225699,1,12,0:0:0:0:
192,192,225699,128,0,225815:0:0:0:0:
320,192,225815,1,8,0:0:0:0:
448,192,225815,1,0,0:0:0:0:
192,192,225932,1,12,0:0:0:0:
64,192,225932,128,0,226048:0:0:0:0:
448,192,226048,1,0,0:0:0:0:
320,192,226048,1,8,0:0:0:0:
64,192,226165,1,12,0:0:0:0:
192,192,226165,1,0,0:0:0:0:
320,192,226223,1,0,0:0:0:0:
448,192,226223,1,8,0:0:0:0:
64,192,226281,1,8,0:0:0:0:
192,192,226281,1,0,0:0:0:0:
320,192,226339,1,0,0:0:0:0:
448,192,226339,1,8,0:0:0:0:
64,192,226398,1,8,0:0:0:0:
192,192,226398,1,0,0:0:0:0:
448,192,226456,1,8,0:0:0:0:
320,192,226456,1,0,0:0:0:0:
64,192,226514,1,8,0:0:0:0:
192,192,226514,1,0,0:0:0:0:
448,192,226572,1,8,0:0:0:0:
320,192,226572,1,0,0:0:0:0:
64,192,226631,1,4,0:0:0:0:
192,192,226631,1,8,0:0:0:0:
320,192,226689,1,0,0:0:0:0:
448,192,226689,1,8,0:0:0:0:
64,192,226747,1,8,0:0:0:0:
192,192,226747,1,0,0:0:0:0:
320,192,226805,1,0,0:0:0:0:
448,192,226805,1,8,0:0:0:0:
64,192,226864,1,4,0:0:0:0:
192,192,226864,1,8,0:0:0:0:
448,192,226922,1,8,0:0:0:0:
320,192,226922,1,0,0:0:0:0:
64,192,226980,1,8,0:0:0:0:
192,192,226980,1,0,0:0:0:0:
448,192,227038,1,8,0:0:0:0:
320,192,227038,1,0,0:0:0:0:
192,192,227097,128,0,231097:0:0:0:0:
64,192,227097,128,0,231097:0:0:0:0:
320,192,231097,128,0,231763:0:0:0:0:
448,192,231763,128,0,232263:0:0:0:0:
192,192,231763,128,0,231930:0:0:0:0:
64,192,231930,128,0,232097:0:0:0:0:
192,192,232097,128,0,232263:0:0:0:0:
320,192,232263,1,0,0:0:0:0:
64,192,232430,1,8,0:0:0:0:
320,192,232430,1,0,0:0:0:0:
448,192,232430,1,4,0:0:0:0:
192,192,232513,1,0,0:0:0:0:
64,192,232597,1,0,0:0:0:0:
192,192,232597,1,8,0:0:0:0:
448,192,232680,1,0,0:0:0:0:
448,192,232763,1,8,0:0:0:0:
192,192,232763,1,0,0:0:0:0:
320,192,232847,1,0,0:0:0:0:
64,192,232930,1,0,0:0:0:0:
320,192,232930,1,8,0:0:0:0:
192,192,233013,1,0,0:0:0:0:
448,192,233097,1,0,0:0:0:0:
192,192,233097,1,8,0:0:0:0:
320,192,233180,1,0,0:0:0:0:
320,192,233263,1,8,0:0:0:0:
448,192,233263,1,0,0:0:0:0:
64,192,233347,1,0,0:0:0:0:
64,192,233430,1,8,0:0:0:0:
192,192,233430,1,0,0:0:0:0:
448,192,233430,1,0,0:0:0:0:
320,192,233513,1,0,0:0:0:0:
320,192,233597,1,8,0:0:0:0:
448,192,233597,1,0,0:0:0:0:
64,192,233597,1,0,0:0:0:0:
192,192,233680,1,0,0:0:0:0:
192,192,233763,1,8,0:0:0:0:
448,192,233763,1,0,0:0:0:0:
320,192,233763,1,0,0:0:0:0:
64,192,233847,1,0,0:0:0:0:
64,192,233930,1,8,0:0:0:0:
448,192,233930,1,0,0:0:0:0:
320,192,234013,1,0,0:0:0:0:
192,192,234097,1,0,0:0:0:0:
320,192,234097,1,8,0:0:0:0:
448,192,234180,1,0,0:0:0:0:
448,192,234263,1,8,0:0:0:0:
64,192,234263,1,0,0:0:0:0:
192,192,234347,1,0,0:0:0:0:
192,192,234430,1,8,0:0:0:0:
320,192,234430,1,0,0:0:0:0:
448,192,234513,1,0,0:0:0:0:
448,192,234597,1,8,0:0:0:0:
64,192,234597,1,0,0:0:0:0:
320,192,234680,1,0,0:0:0:0:
64,192,234763,1,0,0:0:0:0:
320,192,234763,1,8,0:0:0:0:
448,192,234763,1,0,0:0:0:0:
192,192,234847,1,0,0:0:0:0:
64,192,234930,1,0,0:0:0:0:
320,192,234930,1,8,0:0:0:0:
448,192,234930,1,0,0:0:0:0:
320,192,235013,1,0,0:0:0:0:
192,192,235013,1,8,0:0:0:0:
192,192,235097,1,0,0:0:0:0:
448,192,235097,1,0,0:0:0:0:
64,192,235097,1,8,0:0:0:0:
320,192,235180,1,0,0:0:0:0:
64,192,235263,1,0,0:0:0:0:
320,192,235263,1,8,0:0:0:0:
448,192,235347,1,0,0:0:0:0:
448,192,235430,1,8,0:0:0:0:
192,192,235430,1,0,0:0:0:0:
320,192,235513,1,0,0:0:0:0:
320,192,235597,1,8,0:0:0:0:
64,192,235597,1,0,0:0:0:0:
448,192,235597,1,0,0:0:0:0:
192,192,235680,1,0,0:0:0:0:
192,192,235763,1,8,0:0:0:0:
448,192,235763,1,0,0:0:0:0:
320,192,235847,1,0,0:0:0:0:
320,192,235930,1,8,0:0:0:0:
64,192,235930,1,0,0:0:0:0:
192,192,236013,1,0,0:0:0:0:
192,192,236097,1,8,0:0:0:0:
448,192,236097,1,0,0:0:0:0:
320,192,236180,1,0,0:0:0:0:
320,192,236263,1,8,0:0:0:0:
192,192,236263,1,0,0:0:0:0:
64,192,236347,1,0,0:0:0:0:
64,192,236430,1,8,0:0:0:0:
448,192,236430,1,0,0:0:0:0:
320,192,236513,1,0,0:0:0:0:
64,192,236597,1,8,0:0:0:0:
192,192,236597,1,0,0:0:0:0:
320,192,236638,1,8,0:0:0:0:
448,192,236638,1,0,0:0:0:0:
192,192,236680,1,0,0:0:0:0:
64,192,236680,1,8,0:0:0:0:
320,192,236763,1,8,0:0:0:0:
448,192,236763,1,0,0:0:0:0:
448,192,236847,1,0,0:0:0:0:
64,192,236930,1,8,0:0:0:0:
320,192,236930,1,0,0:0:0:0:
192,192,237013,1,0,0:0:0:0:
320,192,237097,1,8,0:0:0:0:
448,192,237097,1,0,0:0:0:0:
192,192,237138,1,0,0:0:0:0:
64,192,237138,1,8,0:0:0:0:
320,192,237180,1,8,0:0:0:0:
448,192,237180,1,0,0:0:0:0:
192,192,237222,1,0,0:0:0:0:
64,192,237222,1,8,0:0:0:0:
320,192,237263,1,8,0:0:0:0:
448,192,237263,1,0,0:0:0:0:
192,192,237347,1,0,0:0:0:0:
64,192,237347,1,8,0:0:0:0:
64,192,237430,1,8,0:0:0:0:
448,192,237430,1,0,0:0:0:0:
320,192,237513,1,0,0:0:0:0:
64,192,237597,1,0,0:0:0:0:
192,192,237624,1,0,0:0:0:0:
448,192,237652,1,0,0:0:0:0:
320,192,237680,1,0,0:0:0:0:
64,192,237708,1,0,0:0:0:0:
192,192,237735,1,0,0:0:0:0:
320,192,237763,1,8,0:0:0:0:
448,192,237763,1,4,0:0:0:0:
64,192,237847,1,0,0:0:0:0:
64,192,237930,1,8,0:0:0:0:
192,192,237930,1,0,0:0:0:0:
448,192,238013,1,0,0:0:0:0:
448,192,238097,1,8,0:0:0:0:
192,192,238097,1,0,0:0:0:0:
320,192,238180,1,0,0:0:0:0:
320,192,238263,1,8,0:0:0:0:
64,192,238263,1,0,0:0:0:0:
192,192,238347,1,0,0:0:0:0:
192,192,238430,1,8,0:0:0:0:
320,192,238430,1,0,0:0:0:0:
448,192,238513,1,0,0:0:0:0:
448,192,238597,1,8,0:0:0:0:
64,192,238597,1,0,0:0:0:0:
320,192,238680,1,0,0:0:0:0:
192,192,238763,1,8,0:0:0:0:
448,192,238763,1,0,0:0:0:0:
320,192,238763,1,0,0:0:0:0:
64,192,238847,1,0,0:0:0:0:
64,192,238930,1,8,0:0:0:0:
320,192,238930,1,0,0:0:0:0:
192,192,239013,1,0,0:0:0:0:
192,192,239097,1,8,0:0:0:0:
448,192,239097,1,0,0:0:0:0:
64,192,239097,1,0,0:0:0:0:
320,192,239180,1,0,0:0:0:0:
320,192,239263,1,8,0:0:0:0:
192,192,239263,1,0,0:0:0:0:
448,192,239263,1,0,0:0:0:0:
64,192,239347,1,0,0:0:0:0:
64,192,239430,1,8,0:0:0:0:
448,192,239430,1,0,0:0:0:0:
320,192,239430,1,0,0:0:0:0:
192,192,239513,1,0,0:0:0:0:
192,192,239597,1,8,0:0:0:0:
320,192,239597,1,0,0:0:0:0:
64,192,239597,1,0,0:0:0:0:
448,192,239680,1,0,0:0:0:0:
448,192,239763,1,0,0:0:0:0:
64,192,239763,1,0,0:0:0:0:
320,192,239763,1,8,0:0:0:0:
192,192,239847,1,0,0:0:0:0:
192,192,239930,1,8,0:0:0:0:
64,192,239930,1,0,0:0:0:0:
320,192,240013,1,8,0:0:0:0:
448,192,240013,1,0,0:0:0:0:
64,192,240097,1,0,0:0:0:0:
192,192,240097,1,8,0:0:0:0:
448,192,240180,1,0,0:0:0:0:
448,192,240263,1,0,0:0:0:0:
64,192,240263,1,0,0:0:0:0:
320,192,240263,1,8,0:0:0:0:
320,192,240347,1,0,0:0:0:0:
192,192,240347,1,8,0:0:0:0:
64,192,240430,1,8,0:0:0:0:
448,192,240430,1,0,0:0:0:0:
320,192,240513,1,0,0:0:0:0:
320,192,240597,1,8,0:0:0:0:
448,192,240597,1,0,0:0:0:0:
192,192,240680,1,0,0:0:0:0:
192,192,240763,1,8,0:0:0:0:
64,192,240763,1,0,0:0:0:0:
448,192,240847,1,0,0:0:0:0:
448,192,240930,1,8,0:0:0:0:
320,192,240930,1,0,0:0:0:0:
64,192,241013,1,0,0:0:0:0:
64,192,241097,1,8,0:0:0:0:
448,192,241097,1,0,0:0:0:0:
192,192,241180,1,0,0:0:0:0:
448,192,241263,1,0,0:0:0:0:
192,192,241263,1,8,0:0:0:0:
320,192,241347,1,0,0:0:0:0:
320,192,241430,1,8,0:0:0:0:
64,192,241430,1,0,0:0:0:0:
192,192,241513,1,0,0:0:0:0:
192,192,241597,1,8,0:0:0:0:
320,192,241597,1,0,0:0:0:0:
448,192,241680,1,0,0:0:0:0:
448,192,241763,1,8,0:0:0:0:
64,192,241763,1,0,0:0:0:0:
320,192,241847,1,0,0:0:0:0:
64,192,241930,1,8,0:0:0:0:
192,192,241930,1,0,0:0:0:0:
320,192,241972,1,8,0:0:0:0:
448,192,241972,1,0,0:0:0:0:
192,192,242013,1,0,0:0:0:0:
64,192,242013,1,8,0:0:0:0:
320,192,242097,1,8,0:0:0:0:
448,192,242097,1,0,0:0:0:0:
320,192,242263,1,8,0:0:0:0:
448,192,242263,1,0,0:0:0:0:
192,192,242347,1,0,0:0:0:0:
64,192,242347,1,8,0:0:0:0:
320,192,242430,1,8,0:0:0:0:
448,192,242430,1,0,0:0:0:0:
192,192,242472,1,0,0:0:0:0:
64,192,242472,1,8,0:0:0:0:
320,192,242513,1,8,0:0:0:0:
448,192,242513,1,0,0:0:0:0:
192,192,242555,1,0,0:0:0:0:
64,192,242555,1,8,0:0:0:0:
320,192,242597,1,8,0:0:0:0:
448,192,242597,1,0,0:0:0:0:
320,192,242680,1,8,0:0:0:0:
448,192,242680,1,0,0:0:0:0:
64,192,242763,1,0,0:0:0:0:
192,192,242791,1,0,0:0:0:0:
320,192,242819,1,0,0:0:0:0:
448,192,242847,1,0,0:0:0:0:
64,192,242874,1,0,0:0:0:0:
192,192,242902,1,0,0:0:0:0:
320,192,242930,1,0,0:0:0:0:
448,192,242958,1,0,0:0:0:0:
64,192,242985,1,0,0:0:0:0:
192,192,243013,1,0,0:0:0:0:
320,192,243041,1,0,0:0:0:0:
448,192,243069,1,0,0:0:0:0:
192,192,243097,1,0,0:0:0:0:
64,192,243097,1,12,0:0:0:0:
320,192,243180,1,0,0:0:0:0:
448,192,243263,1,0,0:0:0:0:
320,192,243263,1,8,0:0:0:0:
64,192,243347,1,0,0:0:0:0:
448,192,243430,1,0,0:0:0:0:
64,192,243430,1,8,0:0:0:0:
192,192,243513,1,0,0:0:0:0:
192,192,243597,1,8,0:0:0:0:
320,192,243597,1,0,0:0:0:0:
448,192,243680,1,0,0:0:0:0:
448,192,243763,1,8,0:0:0:0:
64,192,243763,1,0,0:0:0:0:
192,192,243847,1,0,0:0:0:0:
192,192,243930,1,8,0:0:0:0:
320,192,243930,1,0,0:0:0:0:
448,192,244013,1,0,0:0:0:0:
448,192,244097,1,8,0:0:0:0:
64,192,244097,1,0,0:0:0:0:
192,192,244097,1,0,0:0:0:0:
320,192,244180,1,0,0:0:0:0:
320,192,244263,1,8,0:0:0:0:
448,192,244263,1,0,0:0:0:0:
64,192,244347,1,0,0:0:0:0:
64,192,244430,1,8,0:0:0:0:
320,192,244430,1,0,0:0:0:0:
448,192,244430,1,0,0:0:0:0:
192,192,244513,1,0,0:0:0:0:
448,192,244597,1,0,0:0:0:0:
192,192,244597,1,8,0:0:0:0:
64,192,244680,1,0,0:0:0:0:
64,192,244763,1,8,0:0:0:0:
448,192,244763,1,0,0:0:0:0:
320,192,244847,1,0,0:0:0:0:
320,192,244930,1,8,0:0:0:0:
64,192,244930,1,0,0:0:0:0:
192,192,244930,1,0,0:0:0:0:
448,192,245013,1,0,0:0:0:0:
192,192,245097,1,0,0:0:0:0:
448,192,245097,1,8,0:0:0:0:
320,192,245180,1,0,0:0:0:0:
320,192,245263,1,8,0:0:0:0:
192,192,245263,1,0,0:0:0:0:
64,192,245347,1,0,0:0:0:0:
64,192,245430,1,8,0:0:0:0:
192,192,245430,1,0,0:0:0:0:
320,192,245430,1,0,0:0:0:0:
448,192,245513,1,0,0:0:0:0:
64,192,245597,1,8,0:0:0:0:
192,192,245597,1,0,0:0:0:0:
320,192,245597,1,0,0:0:0:0:
448,192,245680,1,0,0:0:0:0:
64,192,245680,1,8,0:0:0:0:
448,192,245763,1,0,0:0:0:0:
192,192,245763,1,8,0:0:0:0:
320,192,245763,1,0,0:0:0:0:
64,192,245847,1,0,0:0:0:0:
448,192,245930,1,0,0:0:0:0:
320,192,245930,1,0,0:0:0:0:
64,192,245930,1,8,0:0:0:0:
192,192,246013,1,0,0:0:0:0:
192,192,246097,1,8,0:0:0:0:
448,192,246097,1,0,0:0:0:0:
64,192,246097,1,0,0:0:0:0:
320,192,246180,1,0,0:0:0:0:
320,192,246263,1,8,0:0:0:0:
64,192,246263,1,0,0:0:0:0:
192,192,246263,1,0,0:0:0:0:
448,192,246347,1,0,0:0:0:0:
448,192,246430,1,8,0:0:0:0:
320,192,246430,1,0,0:0:0:0:
64,192,246430,1,0,0:0:0:0:
192,192,246513,1,0,0:0:0:0:
64,192,246597,1,0,0:0:0:0:
192,192,246597,1,8,0:0:0:0:
448,192,246597,1,0,0:0:0:0:
320,192,246680,1,0,0:0:0:0:
320,192,246763,1,8,0:0:0:0:
64,192,246763,1,0,0:0:0:0:
192,192,246847,1,0,0:0:0:0:
192,192,246930,1,8,0:0:0:0:
448,192,246930,1,0,0:0:0:0:
320,192,246930,1,0,0:0:0:0:
64,192,247013,1,0,0:0:0:0:
64,192,247097,1,8,0:0:0:0:
192,192,247097,1,0,0:0:0:0:
320,192,247097,128,0,247263:0:0:0:0:
448,192,247097,128,0,247263:0:0:0:0:
192,192,247347,1,0,0:0:0:0:
64,192,247347,1,8,0:0:0:0:
320,192,247430,1,8,0:0:0:0:
448,192,247430,1,0,0:0:0:0:
192,192,247472,1,0,0:0:0:0:
64,192,247472,1,8,0:0:0:0:
320,192,247513,1,8,0:0:0:0:
448,192,247513,1,0,0:0:0:0:
192,192,247555,1,0,0:0:0:0:
64,192,247555,1,8,0:0:0:0:
320,192,247597,1,8,0:0:0:0:
448,192,247597,1,0,0:0:0:0:
64,192,247763,1,8,0:0:0:0:
192,192,247763,1,0,0:0:0:0:
448,192,247847,1,0,0:0:0:0:
320,192,247847,1,8,0:0:0:0:
64,192,247930,1,8,0:0:0:0:
192,192,247930,1,0,0:0:0:0:
320,192,248013,1,8,0:0:0:0:
448,192,248013,1,0,0:0:0:0:
64,192,248097,1,0,0:0:0:0:
192,192,248124,1,0,0:0:0:0:
320,192,248152,1,0,0:0:0:0:
448,192,248180,1,0,0:0:0:0:
64,192,248208,1,0,0:0:0:0:
192,192,248235,1,0,0:0:0:0:
320,192,248263,1,0,0:0:0:0:
448,192,248291,1,0,0:0:0:0:
64,192,248319,1,0,0:0:0:0:
192,192,248347,1,0,0:0:0:0:
320,192,248374,1,0,0:0:0:0:
448,192,248402,1,0,0:0:0:0:
192,192,248430,1,8,0:0:0:0:
64,192,248430,1,4,0:0:0:0:
320,192,248513,1,0,0:0:0:0:
320,192,248597,1,8,0:0:0:0:
448,192,248597,1,0,0:0:0:0:
64,192,248680,1,0,0:0:0:0:
64,192,248763,1,8,0:0:0:0:
448,192,248763,1,0,0:0:0:0:
320,192,248847,1,0,0:0:0:0:
320,192,248930,1,8,0:0:0:0:
192,192,248930,1,0,0:0:0:0:
448,192,249013,1,0,0:0:0:0:
448,192,249097,1,8,0:0:0:0:
64,192,249097,1,0,0:0:0:0:
192,192,249180,1,0,0:0:0:0:
192,192,249263,1,8,0:0:0:0:
448,192,249263,1,0,0:0:0:0:
320,192,249347,1,0,0:0:0:0:
320,192,249430,1,8,0:0:0:0:
64,192,249430,1,0,0:0:0:0:
192,192,249430,1,0,0:0:0:0:
448,192,249513,1,0,0:0:0:0:
448,192,249597,1,8,0:0:0:0:
64,192,249597,1,0,0:0:0:0:
320,192,249597,1,0,0:0:0:0:
192,192,249680,1,0,0:0:0:0:
448,192,249763,1,0,0:0:0:0:
192,192,249763,1,8,0:0:0:0:
64,192,249763,1,0,0:0:0:0:
320,192,249847,1,0,0:0:0:0:
320,192,249930,1,8,0:0:0:0:
192,192,249930,1,0,0:0:0:0:
64,192,250013,1,0,0:0:0:0:
64,192,250097,1,8,0:0:0:0:
320,192,250097,1,0,0:0:0:0:
192,192,250180,1,0,0:0:0:0:
448,192,250263,1,0,0:0:0:0:
192,192,250263,1,8,0:0:0:0:
64,192,250347,1,0,0:0:0:0:
64,192,250430,1,8,0:0:0:0:
448,192,250430,1,0,0:0:0:0:
320,192,250513,1,0,0:0:0:0:
320,192,250597,1,8,0:0:0:0:
192,192,250597,1,0,0:0:0:0:
448,192,250680,1,0,0:0:0:0:
448,192,250763,1,8,0:0:0:0:
64,192,250763,1,0,0:0:0:0:
192,192,250763,1,0,0:0:0:0:
320,192,250847,1,0,0:0:0:0:
64,192,250930,1,0,0:0:0:0:
192,192,250930,1,8,0:0:0:0:
448,192,251013,1,0,0:0:0:0:
320,192,251013,1,8,0:0:0:0:
64,192,251097,1,0,0:0:0:0:
448,192,251097,1,0,0:0:0:0:
192,192,251097,1,8,0:0:0:0:
320,192,251180,1,0,0:0:0:0:
192,192,251263,1,0,0:0:0:0:
320,192,251263,1,8,0:0:0:0:
64,192,251347,1,0,0:0:0:0:
64,192,251430,1,8,0:0:0:0:
448,192,251430,1,0,0:0:0:0:
192,192,251513,1,0,0:0:0:0:
320,192,251597,1,0,0:0:0:0:
192,192,251597,1,8,0:0:0:0:
64,192,251597,1,0,0:0:0:0:
448,192,251680,1,0,0:0:0:0:
64,192,251763,1,0,0:0:0:0:
448,192,251763,1,8,0:0:0:0:
192,192,251847,1,0,0:0:0:0:
192,192,251930,1,8,0:0:0:0:
448,192,251930,1,0,0:0:0:0:
320,192,252013,1,0,0:0:0:0:
320,192,252097,1,8,0:0:0:0:
64,192,252097,1,0,0:0:0:0:
448,192,252097,1,0,0:0:0:0:
192,192,252180,1,0,0:0:0:0:
320,192,252263,1,0,0:0:0:0:
192,192,252263,1,8,0:0:0:0:
448,192,252347,1,0,0:0:0:0:
448,192,252430,1,8,0:0:0:0:
64,192,252430,1,0,0:0:0:0:
192,192,252513,1,0,0:0:0:0:
192,192,252597,1,8,0:0:0:0:
448,192,252597,1,0,0:0:0:0:
320,192,252680,1,0,0:0:0:0:
320,192,252763,1,8,0:0:0:0:
64,192,252763,1,0,0:0:0:0:
448,192,252847,1,0,0:0:0:0:
448,192,252930,1,8,0:0:0:0:
64,192,252930,1,0,0:0:0:0:
320,192,253013,1,0,0:0:0:0:
64,192,253097,1,0,0:0:0:0:
192,192,253097,1,8,0:0:0:0:
320,192,253180,1,8,0:0:0:0:
448,192,253180,1,0,0:0:0:0:
64,192,253263,1,0,0:0:0:0:
192,192,253263,1,8,0:0:0:0:
320,192,253347,1,8,0:0:0:0:
448,192,253347,1,0,0:0:0:0:
64,192,253430,1,0,0:0:0:0:
192,192,253458,1,0,0:0:0:0:
320,192,253485,1,0,0:0:0:0:
448,192,253513,1,0,0:0:0:0:
64,192,253541,1,0,0:0:0:0:
192,192,253569,1,0,0:0:0:0:
320,192,253597,1,0,0:0:0:0:
448,192,253624,1,0,0:0:0:0:
64,192,253652,1,0,0:0:0:0:
192,192,253680,1,0,0:0:0:0:
320,192,253708,1,0,0:0:0:0:
448,192,253735,1,0,0:0:0:0:
64,192,253763,1,4,0:0:0:0:
192,192,253763,1,8,0:0:0:0:
320,192,253847,1,0,0:0:0:0:
320,192,253930,1,8,0:0:0:0:
448,192,253930,1,0,0:0:0:0:
192,192,254013,1,0,0:0:0:0:
192,192,254097,1,8,0:0:0:0:
64,192,254097,1,0,0:0:0:0:
448,192,254180,1,0,0:0:0:0:
448,192,254263,1,8,0:0:0:0:
64,192,254263,1,0,0:0:0:0:
192,192,254347,1,0,0:0:0:0:
192,192,254430,1,8,0:0:0:0:
320,192,254430,1,0,0:0:0:0:
448,192,254513,1,0,0:0:0:0:
448,192,254597,1,8,0:0:0:0:
192,192,254597,1,0,0:0:0:0:
64,192,254680,1,0,0:0:0:0:
64,192,254763,1,8,0:0:0:0:
320,192,254763,1,0,0:0:0:0:
192,192,254763,1,0,0:0:0:0:
448,192,254847,1,0,0:0:0:0:
448,192,254930,1,8,0:0:0:0:
64,192,254930,1,0,0:0:0:0:
320,192,254930,1,0,0:0:0:0:
192,192,255013,1,0,0:0:0:0:
192,192,255097,1,8,0:0:0:0:
448,192,255097,1,0,0:0:0:0:
320,192,255097,1,0,0:0:0:0:
64,192,255180,1,0,0:0:0:0:
64,192,255263,1,8,0:0:0:0:
448,192,255263,1,0,0:0:0:0:
320,192,255347,1,0,0:0:0:0:
320,192,255430,1,8,0:0:0:0:
192,192,255430,1,0,0:0:0:0:
448,192,255513,1,0,0:0:0:0:
448,192,255597,1,8,0:0:0:0:
192,192,255597,1,0,0:0:0:0:
64,192,255680,1,0,0:0:0:0:
64,192,255763,1,8,0:0:0:0:
320,192,255763,1,0,0:0:0:0:
448,192,255847,1,0,0:0:0:0:
192,192,255930,1,0,0:0:0:0:
448,192,255930,1,8,0:0:0:0:
64,192,256013,1,0,0:0:0:0:
192,192,256097,1,0,0:0:0:0:
64,192,256097,1,8,0:0:0:0:
448,192,256097,1,0,0:0:0:0:
320,192,256180,1,0,0:0:0:0:
64,192,256263,1,0,0:0:0:0:
448,192,256263,1,0,0:0:0:0:
192,192,256263,1,8,0:0:0:0:
192,192,256347,1,0,0:0:0:0:
320,192,256347,1,8,0:0:0:0:
448,192,256430,1,8,0:0:0:0:
64,192,256430,1,0,0:0:0:0:
320,192,256430,1,0,0:0:0:0:
192,192,256513,1,0,0:0:0:0:
448,192,256597,1,0,0:0:0:0:
192,192,256597,1,8,0:0:0:0:
320,192,256680,1,0,0:0:0:0:
192,192,256763,1,0,0:0:0:0:
320,192,256763,1,8,0:0:0:0:
64,192,256847,1,0,0:0:0:0:
64,192,256930,1,8,0:0:0:0:
320,192,256930,1,0,0:0:0:0:
192,192,256930,1,0,0:0:0:0:
448,192,257013,1,0,0:0:0:0:
192,192,257097,1,0,0:0:0:0:
448,192,257097,1,8,0:0:0:0:
64,192,257180,1,0,0:0:0:0:
448,192,257263,1,0,0:0:0:0:
64,192,257263,1,8,0:0:0:0:
320,192,257347,1,0,0:0:0:0:
192,192,257430,1,0,0:0:0:0:
320,192,257430,1,8,0:0:0:0:
64,192,257513,1,0,0:0:0:0:
64,192,257597,1,8,0:0:0:0:
320,192,257597,1,0,0:0:0:0:
448,192,257680,1,0,0:0:0:0:
192,192,257763,1,0,0:0:0:0:
448,192,257763,1,8,0:0:0:0:
320,192,257847,1,0,0:0:0:0:
64,192,257930,1,0,0:0:0:0:
192,192,257930,1,8,0:0:0:0:
320,192,257972,1,8,0:0:0:0:
448,192,257972,1,0,0:0:0:0:
192,192,258013,1,8,0:0:0:0:
64,192,258013,1,0,0:0:0:0:
320,192,258097,1,8,0:0:0:0:
448,192,258097,1,0,0:0:0:0:
192,192,258180,1,0,0:0:0:0:
448,192,258263,1,0,0:0:0:0:
64,192,258263,1,8,0:0:0:0:
320,192,258347,1,0,0:0:0:0:
64,192,258430,1,8,0:0:0:0:
192,192,258430,1,0,0:0:0:0:
320,192,258472,1,8,0:0:0:0:
448,192,258472,1,0,0:0:0:0:
192,192,258513,1,0,0:0:0:0:
64,192,258513,1,8,0:0:0:0:
320,192,258555,1,8,0:0:0:0:
448,192,258555,1,0,0:0:0:0:
64,192,258597,1,8,0:0:0:0:
192,192,258597,1,0,0:0:0:0:
320,192,258680,1,8,0:0:0:0:
448,192,258680,1,0,0:0:0:0:
64,192,258763,1,8,0:0:0:0:
192,192,258763,1,0,0:0:0:0:
320,192,258847,1,0,0:0:0:0:
64,192,258930,1,0,0:0:0:0:
192,192,258958,1,0,0:0:0:0:
448,192,258985,1,0,0:0:0:0:
320,192,259013,1,0,0:0:0:0:
64,192,259041,1,0,0:0:0:0:
192,192,259069,1,0,0:0:0:0:
448,192,259097,1,4,0:0:0:0:
320,192,259097,1,8,0:0:0:0:
64,192,259180,1,0,0:0:0:0:
64,192,259263,1,8,0:0:0:0:
192,192,259263,1,0,0:0:0:0:
448,192,259347,1,0,0:0:0:0:
320,192,259430,1,0,0:0:0:0:
448,192,259430,1,8,0:0:0:0:
192,192,259513,1,0,0:0:0:0:
448,192,259597,1,0,0:0:0:0:
192,192,259597,1,8,0:0:0:0:
320,192,259680,1,0,0:0:0:0:
320,192,259763,1,8,0:0:0:0:
64,192,259763,1,0,0:0:0:0:
192,192,259847,1,0,0:0:0:0:
192,192,259930,1,8,0:0:0:0:
64,192,259930,1,0,0:0:0:0:
448,192,260013,1,0,0:0:0:0:
448,192,260097,1,8,0:0:0:0:
64,192,260097,1,0,0:0:0:0:
192,192,260180,1,0,0:0:0:0:
192,192,260263,1,8,0:0:0:0:
320,192,260263,1,0,0:0:0:0:
448,192,260347,1,0,0:0:0:0:
64,192,260430,1,0,0:0:0:0:
448,192,260430,1,8,0:0:0:0:
192,192,260430,1,0,0:0:0:0:
320,192,260513,1,0,0:0:0:0:
320,192,260597,1,8,0:0:0:0:
448,192,260597,1,0,0:0:0:0:
64,192,260597,1,0,0:0:0:0:
192,192,260680,1,0,0:0:0:0:
192,192,260763,1,8,0:0:0:0:
448,192,260763,1,0,0:0:0:0:
320,192,260763,1,0,0:0:0:0:
64,192,260847,1,0,0:0:0:0:
64,192,260930,1,8,0:0:0:0:
320,192,260930,1,0,0:0:0:0:
192,192,260930,1,0,0:0:0:0:
448,192,261013,1,0,0:0:0:0:
448,192,261097,1,8,0:0:0:0:
64,192,261097,1,0,0:0:0:0:
320,192,261097,1,0,0:0:0:0:
192,192,261180,1,0,0:0:0:0:
192,192,261263,1,8,0:0:0:0:
448,192,261263,1,0,0:0:0:0:
320,192,261347,1,0,0:0:0:0:
64,192,261347,1,0,0:0:0:0:
448,192,261430,1,0,0:0:0:0:
192,192,261430,1,8,0:0:0:0:
64,192,261513,1,0,0:0:0:0:
448,192,261597,1,0,0:0:0:0:
320,192,261597,1,0,0:0:0:0:
192,192,261597,1,8,0:0:0:0:
320,192,261680,1,8,0:0:0:0:
192,192,261680,1,0,0:0:0:0:
448,192,261763,1,8,0:0:0:0:
64,192,261763,1,0,0:0:0:0:
320,192,261847,1,0,0:0:0:0:
320,192,261930,1,8,0:0:0:0:
448,192,261930,1,0,0:0:0:0:
192,192,262013,1,0,0:0:0:0:
192,192,262097,1,8,0:0:0:0:
448,192,262097,1,0,0:0:0:0:
64,192,262180,1,0,0:0:0:0:
64,192,262263,1,8,0:0:0:0:
320,192,262263,1,0,0:0:0:0:
192,192,262347,1,0,0:0:0:0:
192,192,262430,1,8,0:0:0:0:
448,192,262430,1,0,0:0:0:0:
320,192,262513,1,0,0:0:0:0:
320,192,262597,1,8,0:0:0:0:
448,192,262597,1,0,0:0:0:0:
64,192,262680,1,0,0:0:0:0:
64,192,262763,1,8,0:0:0:0:
192,192,262763,1,0,0:0:0:0:
448,192,262847,1,0,0:0:0:0:
448,192,262930,1,8,0:0:0:0:
64,192,262930,1,0,0:0:0:0:
192,192,263013,1,0,0:0:0:0:
192,192,263097,1,8,0:0:0:0:
448,192,263097,1,0,0:0:0:0:
320,192,263180,1,0,0:0:0:0:
64,192,263263,1,8,0:0:0:0:
192,192,263263,1,0,0:0:0:0:
320,192,263305,1,8,0:0:0:0:
448,192,263305,1,0,0:0:0:0:
192,192,263347,1,0,0:0:0:0:
64,192,263347,1,8,0:0:0:0:
320,192,263430,1,8,0:0:0:0:
448,192,263430,1,0,0:0:0:0:
64,192,263597,1,8,0:0:0:0:
192,192,263597,1,0,0:0:0:0:
64,192,263680,1,8,0:0:0:0:
192,192,263680,1,0,0:0:0:0:
320,192,263763,1,8,0:0:0:0:
448,192,263763,1,0,0:0:0:0:
192,192,263805,1,0,0:0:0:0:
64,192,263805,1,8,0:0:0:0:
320,192,263847,1,8,0:0:0:0:
448,192,263847,1,0,0:0:0:0:
192,192,263888,1,0,0:0:0:0:
64,192,263888,1,8,0:0:0:0:
320,192,263930,1,8,0:0:0:0:
448,192,263930,1,0,0:0:0:0:
320,192,264013,1,8,0:0:0:0:
448,192,264013,1,0,0:0:0:0:
192,192,264097,1,0,0:0:0:0:
64,192,264124,1,0,0:0:0:0:
448,192,264152,1,0,0:0:0:0:
320,192,264180,1,0,0:0:0:0:
192,192,264208,1,0,0:0:0:0:
64,192,264235,1,0,0:0:0:0:
192,192,264319,1,0,0:0:0:0:
64,192,264347,1,0,0:0:0:0:
320,192,264374,1,0,0:0:0:0:
448,192,264402,1,0,0:0:0:0:
192,192,264430,1,8,0:0:0:0:
64,192,264430,1,4,0:0:0:0:
320,192,264513,1,0,0:0:0:0:
320,192,264597,1,8,0:0:0:0:
448,192,264597,1,0,0:0:0:0:
64,192,264680,1,0,0:0:0:0:
64,192,264763,1,8,0:0:0:0:
448,192,264763,1,0,0:0:0:0:
192,192,264847,1,0,0:0:0:0:
192,192,264930,1,8,0:0:0:0:
448,192,264930,1,0,0:0:0:0:
320,192,265013,1,0,0:0:0:0:
320,192,265097,1,8,0:0:0:0:
64,192,265097,1,0,0:0:0:0:
448,192,265180,1,0,0:0:0:0:
448,192,265263,1,8,0:0:0:0:
192,192,265263,1,0,0:0:0:0:
64,192,265347,1,0,0:0:0:0:
64,192,265430,1,8,0:0:0:0:
320,192,265430,1,0,0:0:0:0:
192,192,265430,1,0,0:0:0:0:
448,192,265513,1,0,0:0:0:0:
448,192,265597,1,8,0:0:0:0:
320,192,265597,1,0,0:0:0:0:
64,192,265680,1,0,0:0:0:0:
64,192,265763,1,8,0:0:0:0:
448,192,265763,1,0,0:0:0:0:
320,192,265763,1,0,0:0:0:0:
192,192,265847,1,0,0:0:0:0:
192,192,265930,1,8,0:0:0:0:
320,192,265930,1,0,0:0:0:0:
448,192,266013,1,0,0:0:0:0:
448,192,266097,1,8,0:0:0:0:
64,192,266097,1,0,0:0:0:0:
320,192,266180,1,0,0:0:0:0:
320,192,266263,1,8,0:0:0:0:
192,192,266263,1,0,0:0:0:0:
448,192,266263,1,0,0:0:0:0:
64,192,266347,1,0,0:0:0:0:
64,192,266430,1,8,0:0:0:0:
320,192,266430,1,0,0:0:0:0:
192,192,266513,1,0,0:0:0:0:
192,192,266597,1,8,0:0:0:0:
448,192,266597,1,0,0:0:0:0:
320,192,266680,1,0,0:0:0:0:
320,192,266763,1,8,0:0:0:0:
64,192,266763,1,0,0:0:0:0:
448,192,266763,1,0,0:0:0:0:
192,192,266847,1,0,0:0:0:0:
448,192,266930,1,0,0:0:0:0:
64,192,266930,1,0,0:0:0:0:
320,192,266930,1,8,0:0:0:0:
320,192,267013,1,0,0:0:0:0:
192,192,267013,1,8,0:0:0:0:
64,192,267097,1,8,0:0:0:0:
448,192,267097,1,0,0:0:0:0:
192,192,267097,1,0,0:0:0:0:
320,192,267180,1,0,0:0:0:0:
320,192,267263,1,8,0:0:0:0:
448,192,267263,1,0,0:0:0:0:
64,192,267263,1,0,0:0:0:0:
192,192,267347,1,0,0:0:0:0:
192,192,267430,1,8,0:0:0:0:
448,192,267430,1,0,0:0:0:0:
320,192,267430,1,0,0:0:0:0:
64,192,267513,1,0,0:0:0:0:
64,192,267597,1,8,0:0:0:0:
448,192,267597,1,0,0:0:0:0:
192,192,267597,1,0,0:0:0:0:
320,192,267680,1,0,0:0:0:0:
192,192,267763,1,0,0:0:0:0:
320,192,267763,1,8,0:0:0:0:
448,192,267763,1,0,0:0:0:0:
64,192,267847,1,0,0:0:0:0:
448,192,267930,1,0,0:0:0:0:
64,192,267930,1,8,0:0:0:0:
320,192,267930,1,0,0:0:0:0:
192,192,268013,1,0,0:0:0:0:
64,192,268097,1,0,0:0:0:0:
192,192,268097,1,8,0:0:0:0:
448,192,268180,1,0,0:0:0:0:
448,192,268263,1,8,0:0:0:0:
192,192,268263,1,0,0:0:0:0:
64,192,268263,1,0,0:0:0:0:
320,192,268347,1,0,0:0:0:0:
64,192,268430,128,0,268597:0:0:0:0:
192,192,268430,128,0,268597:0:0:0:0:
448,192,268430,1,0,0:0:0:0:
320,192,268430,1,8,0:0:0:0:
448,192,268597,1,0,0:0:0:0:
320,192,268680,1,8,0:0:0:0:
448,192,268680,1,0,0:0:0:0:
192,192,268763,1,8,0:0:0:0:
64,192,268763,1,0,0:0:0:0:
448,192,268805,1,0,0:0:0:0:
320,192,268805,1,8,0:0:0:0:
192,192,268847,1,8,0:0:0:0:
64,192,268847,1,0,0:0:0:0:
320,192,268888,1,8,0:0:0:0:
448,192,268888,1,0,0:0:0:0:
64,192,268930,1,0,0:0:0:0:
192,192,268930,1,8,0:0:0:0:
320,192,269097,1,8,0:0:0:0:
448,192,269097,1,0,0:0:0:0:
192,192,269180,1,8,0:0:0:0:
64,192,269180,1,0,0:0:0:0:
320,192,269263,1,8,0:0:0:0:
448,192,269263,1,0,0:0:0:0:
192,192,269347,1,8,0:0:0:0:
64,192,269347,1,0,0:0:0:0:
448,192,269430,1,0,0:0:0:0:
320,192,269458,1,0,0:0:0:0:
192,192,269485,1,0,0:0:0:0:
64,192,269513,1,0,0:0:0:0:
448,192,269541,1,0,0:0:0:0:
320,192,269569,1,0,0:0:0:0:
192,192,269597,1,0,0:0:0:0:
64,192,269624,1,0,0:0:0:0:
448,192,269652,1,0,0:0:0:0:
320,192,269680,1,0,0:0:0:0:
192,192,269708,1,0,0:0:0:0:
64,192,269735,1,0,0:0:0:0:
320,192,269763,1,8,0:0:0:0:
448,192,269763,1,4,0:0:0:0:
192,192,269847,1,0,0:0:0:0:
64,192,269930,1,0,0:0:0:0:
192,192,269930,1,8,0:0:0:0:
448,192,270013,1,0,0:0:0:0:
448,192,270097,1,8,0:0:0:0:
64,192,270097,1,0,0:0:0:0:
320,192,270180,1,0,0:0:0:0:
320,192,270263,1,8,0:0:0:0:
192,192,270263,1,0,0:0:0:0:
64,192,270347,1,0,0:0:0:0:
64,192,270430,1,8,0:0:0:0:
448,192,270430,1,0,0:0:0:0:
192,192,270513,1,0,0:0:0:0:
192,192,270597,1,8,0:0:0:0:
448,192,270597,1,0,0:0:0:0:
320,192,270680,1,0,0:0:0:0:
320,192,270763,1,8,0:0:0:0:
64,192,270763,1,0,0:0:0:0:
192,192,270763,1,0,0:0:0:0:
448,192,270847,1,0,0:0:0:0:
448,192,270930,1,8,0:0:0:0:
64,192,270930,1,0,0:0:0:0:
320,192,270930,1,0,0:0:0:0:
192,192,271013,1,0,0:0:0:0:
192,192,271097,1,8,0:0:0:0:
64,192,271097,1,0,0:0:0:0:
448,192,271097,1,0,0:0:0:0:
320,192,271180,1,0,0:0:0:0:
320,192,271263,1,8,0:0:0:0:
64,192,271263,1,0,0:0:0:0:
192,192,271347,1,0,0:0:0:0:
192,192,271430,1,8,0:0:0:0:
448,192,271430,1,0,0:0:0:0:
64,192,271513,1,0,0:0:0:0:
64,192,271597,1,8,0:0:0:0:
448,192,271597,1,0,0:0:0:0:
320,192,271680,1,0,0:0:0:0:
320,192,271763,1,8,0:0:0:0:
192,192,271763,1,0,0:0:0:0:
64,192,271847,1,0,0:0:0:0:
64,192,271930,1,8,0:0:0:0:
448,192,271930,1,0,0:0:0:0:
320,192,272013,1,0,0:0:0:0:
320,192,272097,1,8,0:0:0:0:
448,192,272097,1,0,0:0:0:0:
64,192,272097,1,0,0:0:0:0:
192,192,272180,1,0,0:0:0:0:
192,192,272263,1,8,0:0:0:0:
64,192,272263,1,0,0:0:0:0:
320,192,272347,1,8,0:0:0:0:
448,192,272347,1,0,0:0:0:0:
64,192,272430,1,0,0:0:0:0:
192,192,272472,1,0,0:0:0:0:
320,192,272513,1,0,0:0:0:0:
448,192,272555,1,0,0:0:0:0:
192,192,272597,1,0,0:0:0:0:
64,192,272638,1,0,0:0:0:0:
320,192,272680,1,0,0:0:0:0:
448,192,272722,1,0,0:0:0:0:
64,192,272763,1,0,0:0:0:0:
192,192,272805,1,0,0:0:0:0:
320,192,272847,1,0,0:0:0:0:
448,192,272888,1,0,0:0:0:0:
192,192,272930,1,0,0:0:0:0:
64,192,272972,1,0,0:0:0:0:
320,192,273013,1,0,0:0:0:0:
448,192,273055,1,0,0:0:0:0:
192,192,273097,1,0,0:0:0:0:
64,192,273138,1,0,0:0:0:0:
448,192,273180,1,0,0:0:0:0:
320,192,273222,1,0,0:0:0:0:
192,192,273263,1,0,0:0:0:0:
64,192,273305,1,0,0:0:0:0:
320,192,273347,1,0,0:0:0:0:
448,192,273388,1,0,0:0:0:0:
192,192,273430,1,0,0:0:0:0:
64,192,273472,1,0,0:0:0:0:
320,192,273513,1,0,0:0:0:0:
448,192,273555,1,0,0:0:0:0:
64,192,273597,1,0,0:0:0:0:
192,192,273638,1,0,0:0:0:0:
448,192,273680,1,0,0:0:0:0:
320,192,273722,1,0,0:0:0:0:
64,192,273763,1,0,0:0:0:0:
192,192,273805,1,0,0:0:0:0:
320,192,273847,1,0,0:0:0:0:
448,192,273888,1,0,0:0:0:0:
64,192,273930,1,0,0:0:0:0:
192,192,273972,1,0,0:0:0:0:
320,192,274013,1,0,0:0:0:0:
448,192,274055,1,0,0:0:0:0:
64,192,274097,1,0,0:0:0:0:
192,192,274138,1,0,0:0:0:0:
320,192,274180,1,0,0:0:0:0:
448,192,274222,1,0,0:0:0:0:
64,192,274263,1,0,0:0:0:0:
192,192,274305,1,0,0:0:0:0:
320,192,274347,1,0,0:0:0:0:
448,192,274388,1,0,0:0:0:0:
64,192,274430,1,0,0:0:0:0:
192,192,274458,1,0,0:0:0:0:
448,192,274485,1,0,0:0:0:0:
320,192,274513,1,0,0:0:0:0:
64,192,274541,1,0,0:0:0:0:
192,192,274569,1,0,0:0:0:0:
448,192,274597,1,0,0:0:0:0:
320,192,274624,1,0,0:0:0:0:
64,192,274652,1,0,0:0:0:0:
192,192,274680,1,0,0:0:0:0:
448,192,274708,1,0,0:0:0:0:
320,192,274735,1,0,0:0:0:0:
64,192,274763,1,0,0:0:0:0:
192,192,274791,1,0,0:0:0:0:
448,192,274819,1,0,0:0:0:0:
320,192,274847,1,0,0:0:0:0:
64,192,274874,1,0,0:0:0:0:
192,192,274902,1,0,0:0:0:0:
448,192,274930,1,0,0:0:0:0:
320,192,274958,1,0,0:0:0:0:
64,192,274985,1,0,0:0:0:0:
192,192,275013,1,0,0:0:0:0:
448,192,275041,1,0,0:0:0:0:
320,192,275069,1,0,0:0:0:0:
192,192,275097,1,8,0:0:0:0:
64,192,275097,1,4,0:0:0:0:
320,192,275180,1,8,0:0:0:0:
448,192,275180,1,0,0:0:0:0:
320,192,275263,1,0,0:0:0:0:
192,192,275263,1,8,0:0:0:0:
64,192,275347,1,8,0:0:0:0:
448,192,275347,1,0,0:0:0:0:
192,192,275430,1,8,0:0:0:0:
448,192,275430,1,0,0:0:0:0:
320,192,275513,1,0,0:0:0:0:
192,192,275513,1,8,0:0:0:0:
64,192,275597,1,8,0:0:0:0:
320,192,275597,1,0,0:0:0:0:
64,192,275680,1,8,0:0:0:0:
448,192,275680,1,0,0:0:0:0:
192,192,275763,1,8,0:0:0:0:
448,192,275763,1,0,0:0:0:0:
64,192,275847,1,8,0:0:0:0:
192,192,275847,1,0,0:0:0:0:
64,192,275930,1,8,0:0:0:0:
320,192,275930,1,0,0:0:0:0:
448,192,276013,1,0,0:0:0:0:
320,192,276013,1,8,0:0:0:0:
448,192,276097,1,0,0:0:0:0:
192,192,276097,1,8,0:0:0:0:
64,192,276180,1,8,0:0:0:0:
320,192,276180,1,0,0:0:0:0:
64,192,276263,1,8,0:0:0:0:
192,192,276263,1,0,0:0:0:0:
320,192,276347,1,8,0:0:0:0:
448,192,276347,1,0,0:0:0:0:
64,192,276388,1,8,0:0:0:0:
192,192,276388,1,0,0:0:0:0:
320,192,276430,1,8,0:0:0:0:
448,192,276430,1,0,0:0:0:0:
192,192,276513,1,0,0:0:0:0:
64,192,276513,1,8,0:0:0:0:
192,192,276597,1,8,0:0:0:0:
448,192,276597,1,0,0:0:0:0:
64,192,276680,1,8,0:0:0:0:
320,192,276680,1,0,0:0:0:0:
320,192,276763,1,0,0:0:0:0:
192,192,276763,1,8,0:0:0:0:
448,192,276847,1,0,0:0:0:0:
192,192,276847,1,8,0:0:0:0:
64,192,276930,1,8,0:0:0:0:
448,192,276930,1,0,0:0:0:0:
320,192,277013,1,0,0:0:0:0:
192,192,277013,1,8,0:0:0:0:
448,192,277097,1,0,0:0:0:0:
64,192,277097,1,8,0:0:0:0:
64,192,277180,1,8,0:0:0:0:
320,192,277180,1,0,0:0:0:0:
192,192,277263,1,8,0:0:0:0:
320,192,277263,1,0,0:0:0:0:
448,192,277347,1,0,0:0:0:0:
192,192,277347,1,8,0:0:0:0:
320,192,277430,1,0,0:0:0:0:
64,192,277430,1,8,0:0:0:0:
320,192,277513,1,8,0:0:0:0:
448,192,277513,1,0,0:0:0:0:
64,192,277597,1,8,0:0:0:0:
192,192,277597,1,0,0:0:0:0:
320,192,277638,1,8,0:0:0:0:
448,192,277638,1,0,0:0:0:0:
64,192,277680,1,8,0:0:0:0:
192,192,277680,1,0,0:0:0:0:
320,192,277722,1,8,0:0:0:0:
448,192,277722,1,0,0:0:0:0:
64,192,277763,1,8,0:0:0:0:
192,192,277763,1,0,0:0:0:0:
320,192,277847,1,8,0:0:0:0:
448,192,277847,1,0,0:0:0:0:
64,192,277930,1,8,0:0:0:0:
320,192,277930,1,0,0:0:0:0:
64,192,278013,1,8,0:0:0:0:
192,192,278013,1,0,0:0:0:0:
192,192,278097,1,8,0:0:0:0:
448,192,278097,1,0,0:0:0:0:
448,192,278180,1,0,0:0:0:0:
320,192,278180,1,8,0:0:0:0:
320,192,278263,1,0,0:0:0:0:
64,192,278263,1,8,0:0:0:0:
64,192,278347,1,8,0:0:0:0:
192,192,278347,1,0,0:0:0:0:
448,192,278430,1,0,0:0:0:0:
320,192,278430,1,8,0:0:0:0:
448,192,278513,1,0,0:0:0:0:
64,192,278513,1,8,0:0:0:0:
64,192,278597,1,8,0:0:0:0:
192,192,278597,1,0,0:0:0:0:
448,192,278680,1,0,0:0:0:0:
192,192,278680,1,8,0:0:0:0:
320,192,278763,1,0,0:0:0:0:
64,192,278763,1,8,0:0:0:0:
448,192,278847,1,0,0:0:0:0:
64,192,278847,1,8,0:0:0:0:
320,192,278930,1,8,0:0:0:0:
448,192,278930,1,0,0:0:0:0:
192,192,279013,1,0,0:0:0:0:
64,192,279013,1,8,0:0:0:0:
320,192,279055,1,8,0:0:0:0:
448,192,279055,1,0,0:0:0:0:
64,192,279097,1,8,0:0:0:0:
192,192,279097,1,0,0:0:0:0:
320,192,279180,1,8,0:0:0:0:
448,192,279180,1,0,0:0:0:0:
192,192,279222,1,0,0:0:0:0:
64,192,279222,1,8,0:0:0:0:
320,192,279263,1,8,0:0:0:0:
448,192,279263,1,0,0:0:0:0:
320,192,279347,1,8,0:0:0:0:
448,192,279347,1,0,0:0:0:0:
192,192,279430,1,0,0:0:0:0:
64,192,279430,1,8,0:0:0:0:
320,192,279472,1,8,0:0:0:0:
448,192,279472,1,0,0:0:0:0:
192,192,279513,1,0,0:0:0:0:
64,192,279513,1,8,0:0:0:0:
320,192,279555,1,8,0:0:0:0:
448,192,279555,1,0,0:0:0:0:
192,192,279597,1,0,0:0:0:0:
64,192,279597,1,8,0:0:0:0:
320,192,279680,1,8,0:0:0:0:
448,192,279680,1,0,0:0:0:0:
192,192,279763,1,0,0:0:0:0:
64,192,279763,1,8,0:0:0:0:
320,192,279847,1,8,0:0:0:0:
448,192,279847,1,0,0:0:0:0:
192,192,279888,1,0,0:0:0:0:
64,192,279888,1,8,0:0:0:0:
320,192,279930,1,8,0:0:0:0:
448,192,279930,1,0,0:0:0:0:
320,192,280013,1,8,0:0:0:0:
448,192,280013,1,0,0:0:0:0:
64,192,280097,1,0,0:0:0:0:
192,192,280124,1,0,0:0:0:0:
320,192,280152,1,0,0:0:0:0:
448,192,280180,1,0,0:0:0:0:
64,192,280208,1,0,0:0:0:0:
192,192,280235,1,0,0:0:0:0:
320,192,280263,1,0,0:0:0:0:
448,192,280291,1,0,0:0:0:0:
64,192,280319,1,0,0:0:0:0:
192,192,280347,1,0,0:0:0:0:
320,192,280374,1,0,0:0:0:0:
448,192,280402,1,0,0:0:0:0:
64,192,280430,1,4,0:0:0:0:
192,192,280430,1,8,0:0:0:0:
448,192,280513,1,0,0:0:0:0:
64,192,280513,1,8,0:0:0:0:
192,192,280597,1,8,0:0:0:0:
448,192,280597,1,0,0:0:0:0:
320,192,280680,1,0,0:0:0:0:
192,192,280680,1,8,0:0:0:0:
64,192,280763,1,8,0:0:0:0:
320,192,280763,1,0,0:0:0:0:
448,192,280847,1,0,0:0:0:0:
64,192,280847,1,8,0:0:0:0:
192,192,280930,1,8,0:0:0:0:
320,192,280930,1,0,0:0:0:0:
448,192,281013,1,0,0:0:0:0:
192,192,281013,1,8,0:0:0:0:
64,192,281097,1,8,0:0:0:0:
320,192,281097,1,0,0:0:0:0:
448,192,281180,1,0,0:0:0:0:
64,192,281180,1,8,0:0:0:0:
192,192,281263,1,8,0:0:0:0:
320,192,281263,1,0,0:0:0:0:
448,192,281347,1,0,0:0:0:0:
320,192,281347,1,8,0:0:0:0:
192,192,281430,1,0,0:0:0:0:
64,192,281430,1,8,0:0:0:0:
64,192,281513,1,8,0:0:0:0:
448,192,281513,1,0,0:0:0:0:
448,192,281597,1,0,0:0:0:0:
320,192,281597,1,8,0:0:0:0:
64,192,281680,1,8,0:0:0:0:
192,192,281680,1,0,0:0:0:0:
320,192,281722,1,8,0:0:0:0:
448,192,281722,1,0,0:0:0:0:
192,192,281763,1,0,0:0:0:0:
64,192,281763,1,8,0:0:0:0:
320,192,281847,1,8,0:0:0:0:
448,192,281847,1,0,0:0:0:0:
192,192,281930,1,8,0:0:0:0:
448,192,281930,1,0,0:0:0:0:
64,192,282013,1,8,0:0:0:0:
192,192,282013,1,0,0:0:0:0:
64,192,282097,1,8,0:0:0:0:
320,192,282097,1,0,0:0:0:0:
192,192,282180,1,8,0:0:0:0:
320,192,282180,1,0,0:0:0:0:
64,192,282263,1,8,0:0:0:0:
448,192,282263,1,0,0:0:0:0:
64,192,282347,1,8,0:0:0:0:
192,192,282347,1,0,0:0:0:0:
448,192,282430,1,0,0:0:0:0:
192,192,282430,1,8,0:0:0:0:
448,192,282513,1,0,0:0:0:0:
320,192,282513,1,8,0:0:0:0:
320,192,282597,1,0,0:0:0:0:
64,192,282597,1,8,0:0:0:0:
448,192,282680,1,0,0:0:0:0:
192,192,282680,1,8,0:0:0:0:
448,192,282763,1,0,0:0:0:0:
64,192,282763,1,8,0:0:0:0:
192,192,282847,1,0,0:0:0:0:
64,192,282847,1,8,0:0:0:0:
320,192,282930,1,8,0:0:0:0:
448,192,282930,1,0,0:0:0:0:
64,192,282972,1,8,0:0:0:0:
192,192,282972,1,0,0:0:0:0:
320,192,283013,1,8,0:0:0:0:
448,192,283013,1,0,0:0:0:0:
192,192,283055,1,0,0:0:0:0:
64,192,283055,1,8,0:0:0:0:
320,192,283097,1,8,0:0:0:0:
448,192,283097,1,0,0:0:0:0:
192,192,283180,1,0,0:0:0:0:
64,192,283180,1,8,0:0:0:0:
64,192,283263,1,8,0:0:0:0:
448,192,283263,1,0,0:0:0:0:
448,192,283347,1,0,0:0:0:0:
192,192,283347,1,8,0:0:0:0:
192,192,283430,1,8,0:0:0:0:
320,192,283430,1,0,0:0:0:0:
320,192,283513,1,0,0:0:0:0:
64,192,283513,1,8,0:0:0:0:
64,192,283597,1,8,0:0:0:0:
448,192,283597,1,0,0:0:0:0:
192,192,283680,1,8,0:0:0:0:
320,192,283680,1,0,0:0:0:0:
64,192,283763,1,8,0:0:0:0:
192,192,283763,1,0,0:0:0:0:
320,192,283847,1,8,0:0:0:0:
448,192,283847,1,0,0:0:0:0:
448,192,283930,1,0,0:0:0:0:
192,192,283930,1,8,0:0:0:0:
64,192,284013,1,8,0:0:0:0:
192,192,284013,1,0,0:0:0:0:
64,192,284097,1,8,0:0:0:0:
320,192,284097,1,0,0:0:0:0:
448,192,284180,1,0,0:0:0:0:
320,192,284180,1,8,0:0:0:0:
192,192,284263,1,0,0:0:0:0:
64,192,284263,1,8,0:0:0:0:
320,192,284347,1,8,0:0:0:0:
448,192,284347,1,0,0:0:0:0:
192,192,284388,1,0,0:0:0:0:
64,192,284388,1,8,0:0:0:0:
448,192,284430,1,0,0:0:0:0:
320,192,284458,1,0,0:0:0:0:
192,192,284485,1,0,0:0:0:0:
64,192,284513,1,0,0:0:0:0:
448,192,284597,1,0,0:0:0:0:
320,192,284597,1,8,0:0:0:0:
64,192,284680,1,0,0:0:0:0:
192,192,284708,1,0,0:0:0:0:
320,192,284735,1,0,0:0:0:0:
448,192,284763,1,0,0:0:0:0:
192,192,284847,1,0,0:0:0:0:
64,192,284847,1,8,0:0:0:0:
448,192,284930,1,0,0:0:0:0:
320,192,284951,1,0,0:0:0:0:
192,192,284972,1,0,0:0:0:0:
64,192,284992,1,0,0:0:0:0:
448,192,285013,1,0,0:0:0:0:
320,192,285034,1,0,0:0:0:0:
192,192,285055,1,0,0:0:0:0:
64,192,285076,1,0,0:0:0:0:
320,192,285097,1,8,0:0:0:0:
448,192,285097,1,0,0:0:0:0:
64,192,285180,1,8,0:0:0:0:
192,192,285180,1,0,0:0:0:0:
448,192,285263,1,0,0:0:0:0:
320,192,285263,1,8,0:0:0:0:
64,192,285347,1,8,0:0:0:0:
192,192,285347,1,0,0:0:0:0:
320,192,285430,1,0,0:0:0:0:
448,192,285458,1,0,0:0:0:0:
192,192,285485,1,0,0:0:0:0:
64,192,285513,1,0,0:0:0:0:
320,192,285541,1,0,0:0:0:0:
448,192,285569,1,0,0:0:0:0:
192,192,285597,1,0,0:0:0:0:
64,192,285624,1,0,0:0:0:0:
320,192,285652,1,0,0:0:0:0:
448,192,285680,1,0,0:0:0:0:
192,192,285708,1,0,0:0:0:0:
64,192,285735,1,0,0:0:0:0:
448,192,285763,1,4,0:0:0:0:
320,192,285763,1,8,0:0:0:0:
320,192,285847,1,0,0:0:0:0:
64,192,285847,1,8,0:0:0:0:
64,192,285930,1,8,0:0:0:0:
192,192,285930,1,0,0:0:0:0:
448,192,286013,1,0,0:0:0:0:
320,192,286013,1,8,0:0:0:0:
320,192,286097,1,0,0:0:0:0:
192,192,286097,1,8,0:0:0:0:
192,192,286180,1,0,0:0:0:0:
64,192,286180,1,8,0:0:0:0:
448,192,286263,1,0,0:0:0:0:
64,192,286263,1,8,0:0:0:0:
192,192,286347,1,8,0:0:0:0:
448,192,286347,1,0,0:0:0:0:
192,192,286430,1,8,0:0:0:0:
320,192,286430,1,0,0:0:0:0:
64,192,286513,1,8,0:0:0:0:
320,192,286513,1,0,0:0:0:0:
448,192,286597,1,0,0:0:0:0:
64,192,286597,1,8,0:0:0:0:
192,192,286680,1,8,0:0:0:0:
448,192,286680,1,0,0:0:0:0:
320,192,286763,1,0,0:0:0:0:
64,192,286763,1,8,0:0:0:0:
64,192,286847,1,8,0:0:0:0:
448,192,286847,1,0,0:0:0:0:
448,192,286930,1,0,0:0:0:0:
320,192,286930,1,8,0:0:0:0:
64,192,287013,1,8,0:0:0:0:
192,192,287013,1,0,0:0:0:0:
320,192,287055,1,8,0:0:0:0:
448,192,287055,1,0,0:0:0:0:
192,192,287097,1,0,0:0:0:0:
64,192,287097,1,8,0:0:0:0:
320,192,287180,1,8,0:0:0:0:
448,192,287180,1,0,0:0:0:0:
320,192,287263,1,0,0:0:0:0:
64,192,287263,1,8,0:0:0:0:
64,192,287347,1,8,0:0:0:0:
192,192,287347,1,0,0:0:0:0:
448,192,287430,1,0,0:0:0:0:
192,192,287430,1,8,0:0:0:0:
320,192,287513,1,8,0:0:0:0:
448,192,287513,1,0,0:0:0:0:
320,192,287597,1,0,0:0:0:0:
64,192,287597,1,8,0:0:0:0:
448,192,287680,1,0,0:0:0:0:
192,192,287680,1,8,0:0:0:0:
64,192,287763,1,8,0:0:0:0:
192,192,287763,1,0,0:0:0:0:
320,192,287847,1,8,0:0:0:0:
448,192,287847,1,0,0:0:0:0:
320,192,287930,1,0,0:0:0:0:
64,192,287930,1,8,0:0:0:0:
448,192,288013,1,0,0:0:0:0:
192,192,288013,1,8,0:0:0:0:
320,192,288097,1,8,0:0:0:0:
448,192,288097,1,0,0:0:0:0:
192,192,288180,1,0,0:0:0:0:
64,192,288180,1,8,0:0:0:0:
320,192,288263,1,8,0:0:0:0:
448,192,288263,1,0,0:0:0:0:
192,192,288305,1,0,0:0:0:0:
64,192,288305,1,8,0:0:0:0:
320,192,288347,1,8,0:0:0:0:
448,192,288347,1,0,0:0:0:0:
192,192,288388,1,0,0:0:0:0:
64,192,288388,1,8,0:0:0:0:
320,192,288430,1,8,0:0:0:0:
448,192,288430,1,4,0:0:0:0:
192,192,288513,1,0,0:0:0:0:
64,192,288513,1,8,0:0:0:0:
64,192,288597,1,8,0:0:0:0:
448,192,288597,1,0,0:0:0:0:
320,192,288680,1,0,0:0:0:0:
192,192,288680,1,8,0:0:0:0:
448,192,288763,1,0,0:0:0:0:
320,192,288763,1,8,0:0:0:0:
64,192,288847,1,8,0:0:0:0:
192,192,288847,1,0,0:0:0:0:
64,192,288930,1,8,0:0:0:0:
448,192,288930,1,0,0:0:0:0:
448,192,289013,1,0,0:0:0:0:
192,192,289013,1,8,0:0:0:0:
320,192,289097,1,0,0:0:0:0:
192,192,289097,1,8,0:0:0:0:
64,192,289180,1,8,0:0:0:0:
320,192,289180,1,0,0:0:0:0:
64,192,289263,1,8,0:0:0:0:
448,192,289263,1,0,0:0:0:0:
192,192,289347,1,8,0:0:0:0:
448,192,289347,1,0,0:0:0:0:
320,192,289430,1,0,0:0:0:0:
192,192,289430,1,8,0:0:0:0:
64,192,289513,1,8,0:0:0:0:
448,192,289513,1,0,0:0:0:0:
192,192,289597,1,0,0:0:0:0:
64,192,289597,1,8,0:0:0:0:
320,192,289680,1,8,0:0:0:0:
448,192,289680,1,0,0:0:0:0:
64,192,289722,1,8,0:0:0:0:
192,192,289722,1,0,0:0:0:0:
320,192,289763,1,8,0:0:0:0:
448,192,289763,1,0,0:0:0:0:
64,192,289847,1,8,0:0:0:0:
192,192,289847,1,0,0:0:0:0:
320,192,289888,1,8,0:0:0:0:
448,192,289888,1,0,0:0:0:0:
192,192,289930,1,0,0:0:0:0:
64,192,289930,1,8,0:0:0:0:
192,192,290013,1,0,0:0:0:0:
64,192,290013,1,8,0:0:0:0:
320,192,290097,1,8,0:0:0:0:
448,192,290097,1,0,0:0:0:0:
192,192,290138,1,0,0:0:0:0:
64,192,290138,1,8,0:0:0:0:
320,192,290180,1,8,0:0:0:0:
448,192,290180,1,0,0:0:0:0:
192,192,290222,1,0,0:0:0:0:
64,192,290222,1,8,0:0:0:0:
320,192,290263,1,8,0:0:0:0:
448,192,290263,1,0,0:0:0:0:
192,192,290347,1,0,0:0:0:0:
64,192,290347,1,8,0:0:0:0:
448,192,290430,1,0,0:0:0:0:
320,192,290430,1,8,0:0:0:0:
192,192,290513,1,0,0:0:0:0:
64,192,290513,1,8,0:0:0:0:
320,192,290555,1,8,0:0:0:0:
448,192,290555,1,0,0:0:0:0:
64,192,290597,1,8,0:0:0:0:
192,192,290597,1,0,0:0:0:0:
192,192,290680,1,0,0:0:0:0:
64,192,290680,1,8,0:0:0:0:
448,192,290763,1,0,0:0:0:0:
320,192,290791,1,0,0:0:0:0:
192,192,290819,1,0,0:0:0:0:
64,192,290847,1,0,0:0:0:0:
448,192,290874,1,0,0:0:0:0:
320,192,290902,1,0,0:0:0:0:
192,192,290930,1,0,0:0:0:0:
64,192,290958,1,0,0:0:0:0:
448,192,290985,1,0,0:0:0:0:
320,192,291013,1,0,0:0:0:0:
192,192,291041,1,0,0:0:0:0:
64,192,291069,1,0,0:0:0:0:
320,192,291097,1,8,0:0:0:0:
448,192,291097,1,4,0:0:0:0:
448,192,291180,1,0,0:0:0:0:
192,192,291180,1,8,0:0:0:0:
64,192,291263,1,8,0:0:0:0:
192,192,291263,1,0,0:0:0:0:
320,192,291347,1,8,0:0:0:0:
448,192,291347,1,0,0:0:0:0:
64,192,291430,1,8,0:0:0:0:
320,192,291430,1,0,0:0:0:0:
192,192,291513,1,8,0:0:0:0:
448,192,291513,1,0,0:0:0:0:
64,192,291597,1,8,0:0:0:0:
448,192,291597,1,0,0:0:0:0:
320,192,291680,1,0,0:0:0:0:
64,192,291680,1,8,0:0:0:0:
192,192,291763,1,8,0:0:0:0:
320,192,291763,1,0,0:0:0:0:
192,192,291847,1,8,0:0:0:0:
448,192,291847,1,0,0:0:0:0:
448,192,291930,1,0,0:0:0:0:
64,192,291930,1,8,0:0:0:0:
64,192,292013,1,8,0:0:0:0:
320,192,292013,1,0,0:0:0:0:
192,192,292097,1,8,0:0:0:0:
320,192,292097,1,0,0:0:0:0:
448,192,292180,1,0,0:0:0:0:
64,192,292180,1,8,0:0:0:0:
320,192,292263,1,0,0:0:0:0:
448,192,292263,1,8,0:0:0:0:
64,192,292347,1,8,0:0:0:0:
192,192,292347,1,0,0:0:0:0:
320,192,292388,1,8,0:0:0:0:
448,192,292388,1,0,0:0:0:0:
192,192,292430,1,0,0:0:0:0:
64,192,292430,1,12,0:0:0:0:
448,192,292513,1,0,0:0:0:0:
320,192,292513,1,8,0:0:0:0:
64,192,292597,1,8,0:0:0:0:
448,192,292597,1,0,0:0:0:0:
64,192,292680,1,8,0:0:0:0:
320,192,292680,1,0,0:0:0:0:
320,192,292763,1,0,0:0:0:0:
192,192,292763,1,8,0:0:0:0:
448,192,292847,1,0,0:0:0:0:
192,192,292847,1,8,0:0:0:0:
64,192,292930,1,8,0:0:0:0:
448,192,292930,1,0,0:0:0:0:
320,192,293013,1,0,0:0:0:0:
64,192,293013,1,8,0:0:0:0:
448,192,293097,1,0,0:0:0:0:
192,192,293097,1,8,0:0:0:0:
320,192,293180,1,0,0:0:0:0:
192,192,293180,1,8,0:0:0:0:
64,192,293263,1,8,0:0:0:0:
320,192,293263,1,0,0:0:0:0:
448,192,293347,1,0,0:0:0:0:
64,192,293347,1,8,0:0:0:0:
192,192,293430,1,8,0:0:0:0:
448,192,293430,1,0,0:0:0:0:
192,192,293513,1,0,0:0:0:0:
64,192,293513,1,8,0:0:0:0:
320,192,293597,1,8,0:0:0:0:
448,192,293597,1,0,0:0:0:0:
192,192,293638,1,0,0:0:0:0:
64,192,293638,1,8,0:0:0:0:
448,192,293680,1,0,0:0:0:0:
320,192,293680,1,8,0:0:0:0:
192,192,293722,1,0,0:0:0:0:
64,192,293722,1,8,0:0:0:0:
320,192,293763,1,4,0:0:0:0:
448,192,293805,1,0,0:0:0:0:
64,192,293847,1,0,0:0:0:0:
192,192,293888,1,0,0:0:0:0:
320,192,293930,1,0,0:0:0:0:
64,192,293972,1,0,0:0:0:0:
192,192,294013,1,0,0:0:0:0:
320,192,294055,1,0,0:0:0:0:
448,192,294097,1,0,0:0:0:0:
192,192,294138,1,0,0:0:0:0:
64,192,294180,1,0,0:0:0:0:
320,192,294222,1,0,0:0:0:0:
448,192,294263,1,0,0:0:0:0:
64,192,294305,1,0,0:0:0:0:
192,192,294347,1,0,0:0:0:0:
448,192,294388,1,0,0:0:0:0:
320,192,294430,1,4,0:0:0:0:
192,192,294472,1,0,0:0:0:0:
64,192,294513,1,0,0:0:0:0:
320,192,294555,1,0,0:0:0:0:
448,192,294597,1,0,0:0:0:0:
192,192,294638,1,0,0:0:0:0:
64,192,294680,1,0,0:0:0:0:
448,192,294722,1,0,0:0:0:0:
320,192,294763,1,0,0:0:0:0:
192,192,294805,1,0,0:0:0:0:
64,192,294847,1,0,0:0:0:0:
320,192,294888,1,0,0:0:0:0:
448,192,294930,1,0,0:0:0:0:
192,192,294972,1,0,0:0:0:0:
320,192,295013,1,0,0:0:0:0:
448,192,295055,1,0,0:0:0:0:
64,192,295097,1,4,0:0:0:0:
192,192,295138,1,0,0:0:0:0:
448,192,295180,1,0,0:0:0:0:
320,192,295222,1,0,0:0:0:0:
64,192,295263,1,0,0:0:0:0:
192,192,295305,1,0,0:0:0:0:
448,192,295347,1,0,0:0:0:0:
320,192,295388,1,0,0:0:0:0:
64,192,295430,1,4,0:0:0:0:
192,192,295472,1,0,0:0:0:0:
448,192,295513,1,0,0:0:0:0:
320,192,295555,1,0,0:0:0:0:
64,192,295597,1,0,0:0:0:0:
192,192,295638,1,0,0:0:0:0:
448,192,295680,1,0,0:0:0:0:
320,192,295722,1,0,0:0:0:0:
64,192,295763,1,4,0:0:0:0:
192,192,295791,1,0,0:0:0:0:
448,192,295819,1,0,0:0:0:0:
320,192,295847,1,0,0:0:0:0:
64,192,295874,1,0,0:0:0:0:
192,192,295902,1,0,0:0:0:0:
448,192,295930,1,0,0:0:0:0:
320,192,295958,1,0,0:0:0:0:
64,192,295985,1,0,0:0:0:0:
192,192,296013,1,0,0:0:0:0:
448,192,296041,1,0,0:0:0:0:
320,192,296069,1,0,0:0:0:0:
64,192,296097,1,4,0:0:0:0:
192,192,296124,1,0,0:0:0:0:
448,192,296152,1,0,0:0:0:0:
320,192,296180,1,0,0:0:0:0:
64,192,296208,1,0,0:0:0:0:
192,192,296235,1,0,0:0:0:0:
448,192,296263,1,0,0:0:0:0:
320,192,296291,1,0,0:0:0:0:
64,192,296319,1,0,0:0:0:0:
192,192,296347,1,0,0:0:0:0:
448,192,296374,1,0,0:0:0:0:
320,192,296402,1,0,0:0:0:0:
192,192,296430,128,0,296817:0:0:0:0:
64,192,296430,128,0,296817:0:0:0:0:
64,192,297204,1,0,0:0:0:0:
448,192,297204,1,0,0:0:0:0:
64,192,297591,1,0,0:0:0:0:
320,192,297784,1,0,0:0:0:0:
448,192,297978,1,0,0:0:0:0:
192,192,298365,1,0,0:0:0:0:
192,192,298752,1,0,0:0:0:0:
64,192,299139,1,0,0:0:0:0:
448,192,299139,1,0,0:0:0:0:
320,192,299187,1,0,0:0:0:0:
192,192,299236,1,0,0:0:0:0:
320,192,299284,1,0,0:0:0:0:
448,192,299333,1,0,0:0:0:0:
64,192,299333,1,0,0:0:0:0:
192,192,299381,1,0,0:0:0:0:
320,192,299429,1,0,0:0:0:0:
192,192,299478,1,0,0:0:0:0:
64,192,299526,1,0,0:0:0:0:
448,192,299526,1,0,0:0:0:0:
320,192,299913,1,0,0:0:0:0:
192,192,299913,1,0,0:0:0:0:
64,192,300107,1,0,0:0:0:0:
448,192,300107,1,0,0:0:0:0:
192,192,300300,1,0,0:0:0:0:
320,192,300300,1,0,0:0:0:0:
448,192,300687,1,0,0:0:0:0:
64,192,300687,1,0,0:0:0:0:
192,192,301462,1,0,0:0:0:0:
64,192,301462,1,0,0:0:0:0:
320,192,301849,1,0,0:0:0:0:
64,192,301849,1,0,0:0:0:0:
448,192,302236,1,0,0:0:0:0:
192,192,302236,1,0,0:0:0:0:
448,192,302429,1,0,0:0:0:0:
64,192,302623,1,0,0:0:0:0:
448,192,303010,1,0,0:0:0:0:
192,192,303397,1,0,0:0:0:0:
192,192,303591,1,0,0:0:0:0:
64,192,303784,1,0,0:0:0:0:
448,192,303784,1,0,0:0:0:0:
320,192,303833,1,0,0:0:0:0:
192,192,303881,1,0,0:0:0:0:
448,192,303929,1,0,0:0:0:0:
64,192,303978,1,0,0:0:0:0:
320,192,304026,1,0,0:0:0:0:
192,192,304074,1,0,0:0:0:0:
448,192,304123,1,0,0:0:0:0:
64,192,304171,1,0,0:0:0:0:
320,192,304171,1,0,0:0:0:0:
448,192,304365,1,0,0:0:0:0:
320,192,304558,1,0,0:0:0:0:
64,192,304752,1,0,0:0:0:0:
448,192,304945,1,0,0:0:0:0:
64,192,305139,1,0,0:0:0:0:
192,192,305333,1,0,0:0:0:0:
320,192,305526,1,0,0:0:0:0:
64,192,305720,1,0,0:0:0:0:
448,192,305720,1,0,0:0:0:0:
192,192,306107,1,0,0:0:0:0:
448,192,306107,1,0,0:0:0:0:
320,192,306397,1,0,0:0:0:0:
192,192,306397,1,0,0:0:0:0:
192,192,307462,1,0,0:0:0:0:
64,192,308042,1,0,0:0:0:0:
320,192,308429,1,0,0:0:0:0:
64,192,308429,1,0,0:0:0:0:
448,192,308816,1,0,0:0:0:0:
320,192,309204,1,0,0:0:0:0:
320,192,309542,128,0,309639:0:0:0:0:
448,192,309591,128,0,309639:0:0:0:0:
448,192,309784,1,0,0:0:0:0:
448,192,309978,1,0,0:0:0:0:
64,192,309978,1,0,0:0:0:0:
320,192,310026,1,0,0:0:0:0:
192,192,310074,1,0,0:0:0:0:
64,192,310123,1,0,0:0:0:0:
192,192,310171,1,0,0:0:0:0:
320,192,310220,1,0,0:0:0:0:
448,192,310268,1,0,0:0:0:0:
320,192,310316,1,0,0:0:0:0:
192,192,310365,1,0,0:0:0:0:
64,192,310365,1,0,0:0:0:0:
192,192,310607,1,0,0:0:0:0:
320,192,310752,1,0,0:0:0:0:
448,192,310800,1,0,0:0:0:0:
64,192,310945,1,0,0:0:0:0:
64,192,311526,1,0,0:0:0:0:
192,192,311526,1,0,0:0:0:0:
320,192,311720,1,0,0:0:0:0:
448,192,311913,1,0,0:0:0:0:
64,192,311913,1,0,0:0:0:0:
192,192,312107,1,0,0:0:0:0:
64,192,312300,1,0,0:0:0:0:
448,192,312494,1,0,0:0:0:0:
64,192,312687,1,0,0:0:0:0:
64,192,312881,1,0,0:0:0:0:
448,192,312881,1,0,0:0:0:0:
192,192,313074,1,0,0:0:0:0:
320,192,313099,1,0,0:0:0:0:
448,192,313268,1,0,0:0:0:0:
320,192,313655,1,0,0:0:0:0:
64,192,313849,1,0,0:0:0:0:
192,192,313849,1,0,0:0:0:0:
448,192,314042,1,0,0:0:0:0:
320,192,314236,1,0,0:0:0:0:
192,192,314429,1,0,0:0:0:0:
64,192,314623,1,0,0:0:0:0:
448,192,314623,1,0,0:0:0:0:
192,192,314816,1,0,0:0:0:0:
448,192,315010,1,0,0:0:0:0:
320,192,315204,1,0,0:0:0:0:
448,192,315300,128,0,316365:0:0:0:0:
192,192,315397,1,0,0:0:0:0:
320,192,315784,1,0,0:0:0:0:
64,192,315978,1,0,0:0:0:0:
192,192,316171,1,0,0:0:0:0:
320,192,316171,1,0,0:0:0:0:
64,192,316365,1,0,0:0:0:0:
448,192,316558,1,0,0:0:0:0:
320,192,316752,1,0,0:0:0:0:
64,192,316945,1,0,0:0:0:0:
448,192,316994,1,0,0:0:0:0:
192,192,317042,1,0,0:0:0:0:
320,192,317091,1,0,0:0:0:0:
64,192,317139,1,0,0:0:0:0:
448,192,317187,1,0,0:0:0:0:
192,192,317236,1,0,0:0:0:0:
320,192,317284,1,0,0:0:0:0:
64,192,317333,1,0,0:0:0:0:
192,192,317720,1,0,0:0:0:0:
448,192,318107,1,0,0:0:0:0:
448,192,318494,1,0,0:0:0:0:
320,192,318687,1,0,0:0:0:0:
448,192,318881,1,0,0:0:0:0:
320,192,319074,1,0,0:0:0:0:
64,192,319268,1,0,0:0:0:0:
448,192,321204,128,0,321292:0:0:0:0:
64,192,321204,1,12,0:0:0:0:
192,192,321292,1,0,0:0:0:0:
448,192,321380,128,0,321468:0:0:0:0:
320,192,321380,1,0,0:0:0:0:
64,192,321468,1,0,0:0:0:0:
448,192,321556,128,0,321645:0:0:0:0:
192,192,321556,1,2,0:0:0:0:
320,192,321556,1,0,0:0:0:0:
64,192,321645,1,0,0:0:0:0:
448,192,321733,128,0,321821:0:0:0:0:
320,192,321733,1,0,0:0:0:0:
192,192,321821,1,0,0:0:0:0:
448,192,321909,128,0,321998:0:0:0:0:
64,192,321909,1,0,0:0:0:0:
192,192,321998,1,0,0:0:0:0:
64,192,322086,128,0,322262:0:0:0:0:
320,192,322086,1,8,0:0:0:0:
448,192,322174,1,0,0:0:0:0:
320,192,322262,1,0,0:0:0:0:
192,192,322262,1,2,0:0:0:0:
448,192,322351,1,0,0:0:0:0:
192,192,322439,128,0,322704:0:0:0:0:
320,192,322439,1,0,0:0:0:0:
448,192,322527,1,0,0:0:0:0:
64,192,322615,1,8,0:0:0:0:
320,192,322704,1,0,0:0:0:0:
192,192,322792,128,0,322880:0:0:0:0:
448,192,322792,1,0,0:0:0:0:
320,192,322880,1,0,0:0:0:0:
192,192,322968,128,0,323056:0:0:0:0:
448,192,322968,1,0,0:0:0:0:
64,192,322968,1,2,0:0:0:0:
320,192,323056,1,0,0:0:0:0:
192,192,323145,128,0,323233:0:0:0:0:
64,192,323145,1,0,0:0:0:0:
448,192,323233,1,0,0:0:0:0:
192,192,323321,128,0,323409:0:0:0:0:
64,192,323321,1,0,0:0:0:0:
320,192,323409,1,0,0:0:0:0:
64,192,323498,128,0,323674:0:0:0:0:
448,192,323498,1,8,0:0:0:0:
320,192,323586,1,0,0:0:0:0:
192,192,323674,1,0,0:0:0:0:
448,192,323674,1,2,0:0:0:0:
64,192,323762,1,0,0:0:0:0:
320,192,323851,128,0,323939:0:0:0:0:
448,192,323851,1,0,0:0:0:0:
192,192,323939,1,0,0:0:0:0:
64,192,324027,1,8,0:0:0:0:
448,192,324027,128,0,324115:0:0:0:0:
192,192,324115,1,0,0:0:0:0:
320,192,324204,1,0,0:0:0:0:
448,192,324204,128,0,324292:0:0:0:0:
192,192,324292,1,0,0:0:0:0:
448,192,324380,128,0,324468:0:0:0:0:
320,192,324380,1,2,0:0:0:0:
64,192,324380,1,0,0:0:0:0:
192,192,324468,1,0,0:0:0:0:
448,192,324556,128,0,324645:0:0:0:0:
320,192,324556,1,0,0:0:0:0:
64,192,324645,1,0,0:0:0:0:
192,192,324733,1,0,0:0:0:0:
448,192,324733,128,0,324821:0:0:0:0:
320,192,324821,1,0,0:0:0:0:
448,192,324909,128,0,325086:0:0:0:0:
192,192,324909,1,8,0:0:0:0:
64,192,324998,1,0,0:0:0:0:
192,192,325086,1,0,0:0:0:0:
320,192,325086,1,2,0:0:0:0:
64,192,325174,1,0,0:0:0:0:
192,192,325262,128,0,326145:0:0:0:0:
320,192,325262,1,0,0:0:0:0:
448,192,325439,1,8,0:0:0:0:
64,192,325439,1,0,0:0:0:0:
320,192,325615,1,0,0:0:0:0:
320,192,325792,1,2,0:0:0:0:
64,192,325792,1,0,0:0:0:0:
448,192,325792,1,0,0:0:0:0:
448,192,325968,1,0,0:0:0:0:
64,192,326321,1,8,0:0:0:0:
320,192,326321,1,0,0:0:0:0:
192,192,326498,128,0,326674:0:0:0:0:
320,192,326498,1,2,0:0:0:0:
448,192,326498,1,0,0:0:0:0:
448,192,326674,1,0,0:0:0:0:
64,192,326674,1,0,0:0:0:0:
64,192,326851,1,8,0:0:0:0:
320,192,326851,128,0,326939:0:0:0:0:
448,192,326939,1,0,0:0:0:0:
320,192,327027,128,0,327115:0:0:0:0:
192,192,327027,1,0,0:0:0:0:
64,192,327115,1,0,0:0:0:0:
192,192,327204,1,0,0:0:0:0:
320,192,327204,128,0,327292:0:0:0:0:
448,192,327204,1,2,0:0:0:0:
64,192,327292,1,0,0:0:0:0:
320,192,327380,128,0,327468:0:0:0:0:
448,192,327380,1,0,0:0:0:0:
192,192,327468,1,0,0:0:0:0:
320,192,327556,128,0,327645:0:0:0:0:
64,192,327556,1,0,0:0:0:0:
192,192,327645,1,0,0:0:0:0:
448,192,327733,1,8,0:0:0:0:
64,192,327733,128,0,327909:0:0:0:0:
320,192,327821,1,0,0:0:0:0:
192,192,327909,1,0,0:0:0:0:
448,192,327909,1,2,0:0:0:0:
64,192,327998,1,0,0:0:0:0:
448,192,328086,128,0,328351:0:0:0:0:
320,192,328086,1,0,0:0:0:0:
192,192,328174,1,0,0:0:0:0:
64,192,328262,1,8,0:0:0:0:
192,192,328351,1,0,0:0:0:0:
320,192,328439,1,0,0:0:0:0:
448,192,328439,128,0,328527:0:0:0:0:
192,192,328527,1,0,0:0:0:0:
448,192,328615,128,0,328704:0:0:0:0:
64,192,328615,1,2,0:0:0:0:
320,192,328615,1,0,0:0:0:0:
192,192,328704,1,0,0:0:0:0:
64,192,328792,1,0,0:0:0:0:
448,192,328792,128,0,328880:0:0:0:0:
192,192,328880,1,0,0:0:0:0:
320,192,328968,1,0,0:0:0:0:
448,192,328968,128,0,329056:0:0:0:0:
192,192,329056,1,0,0:0:0:0:
320,192,329145,128,0,329321:0:0:0:0:
64,192,329145,1,8,0:0:0:0:
448,192,329233,1,0,0:0:0:0:
192,192,329321,1,2,0:0:0:0:
64,192,329321,1,0,0:0:0:0:
448,192,329409,1,0,0:0:0:0:
320,192,329498,128,0,329851:0:0:0:0:
192,192,329498,1,0,0:0:0:0:
64,192,329586,1,0,0:0:0:0:
448,192,329674,1,8,0:0:0:0:
64,192,329851,128,0,330027:0:0:0:0:
192,192,329851,1,0,0:0:0:0:
192,192,330027,128,0,330204:0:0:0:0:
320,192,330027,1,2,0:0:0:0:
448,192,330027,1,0,0:0:0:0:
448,192,330204,128,0,330380:0:0:0:0:
320,192,330204,1,0,0:0:0:0:
320,192,330380,128,0,330556:0:0:0:0:
192,192,330380,1,0,0:0:0:0:
64,192,330468,1,0,0:0:0:0:
192,192,330556,1,8,0:0:0:0:
448,192,330645,128,0,330821:0:0:0:0:
64,192,330645,1,0,0:0:0:0:
320,192,330733,1,2,0:0:0:0:
192,192,330733,1,0,0:0:0:0:
64,192,330909,128,0,331704:0:0:0:0:
320,192,330909,1,0,0:0:0:0:
192,192,331086,1,8,0:0:0:0:
320,192,331086,1,0,0:0:0:0:
448,192,331262,1,0,0:0:0:0:
448,192,331439,1,2,0:0:0:0:
320,192,331439,1,0,0:0:0:0:
192,192,331439,1,0,0:0:0:0:
192,192,331615,1,0,0:0:0:0:
448,192,331615,1,0,0:0:0:0:
320,192,331704,1,0,0:0:0:0:
448,192,331792,1,0,0:0:0:0:
320,192,331880,1,0,0:0:0:0:
192,192,331968,1,8,0:0:0:0:
64,192,332056,1,0,0:0:0:0:
192,192,332145,128,0,332321:0:0:0:0:
320,192,332145,1,2,0:0:0:0:
448,192,332145,1,0,0:0:0:0:
320,192,332321,128,0,332498:0:0:0:0:
448,192,332321,1,0,0:0:0:0:
64,192,332321,1,8,0:0:0:0:
64,192,332498,1,12,0:0:0:0:
448,192,332498,128,0,332583:0:0:0:0:
192,192,332583,1,0,0:0:0:0:
448,192,332669,128,0,332755:0:0:0:0:
320,192,332669,1,0,0:0:0:0:
64,192,332755,1,0,0:0:0:0:
448,192,332840,128,0,332926:0:0:0:0:
320,192,332840,1,2,0:0:0:0:
192,192,332840,1,0,0:0:0:0:
64,192,332926,1,0,0:0:0:0:
448,192,333012,128,0,333098:0:0:0:0:
320,192,333012,1,0,0:0:0:0:
192,192,333098,1,0,0:0:0:0:
448,192,333183,128,0,333269:0:0:0:0:
64,192,333183,1,0,0:0:0:0:
192,192,333269,1,0,0:0:0:0:
64,192,333355,128,0,333526:0:0:0:0:
320,192,333355,1,8,0:0:0:0:
448,192,333440,1,0,0:0:0:0:
192,192,333526,1,0,0:0:0:0:
320,192,333526,1,2,0:0:0:0:
448,192,333612,1,0,0:0:0:0:
192,192,333698,128,0,333955:0:0:0:0:
320,192,333698,1,0,0:0:0:0:
64,192,333783,1,0,0:0:0:0:
320,192,333869,1,8,0:0:0:0:
448,192,333955,1,0,0:0:0:0:
192,192,334040,128,0,334126:0:0:0:0:
64,192,334040,1,0,0:0:0:0:
320,192,334126,1,0,0:0:0:0:
192,192,334212,128,0,334298:0:0:0:0:
448,192,334212,1,2,0:0:0:0:
64,192,334212,1,0,0:0:0:0:
320,192,334298,1,0,0:0:0:0:
192,192,334383,128,0,334469:0:0:0:0:
448,192,334383,1,0,0:0:0:0:
320,192,334469,1,0,0:0:0:0:
192,192,334555,128,0,334640:0:0:0:0:
64,192,334555,1,0,0:0:0:0:
320,192,334640,1,0,0:0:0:0:
64,192,334726,128,0,334898:0:0:0:0:
448,192,334726,1,8,0:0:0:0:
320,192,334812,1,0,0:0:0:0:
192,192,334898,1,0,0:0:0:0:
448,192,334898,1,2,0:0:0:0:
320,192,334983,1,0,0:0:0:0:
192,192,335069,128,0,335240:0:0:0:0:
64,192,335069,1,0,0:0:0:0:
448,192,335155,1,0,0:0:0:0:
320,192,335240,128,0,335412:0:0:0:0:
448,192,335240,1,0,0:0:0:0:
64,192,335240,1,8,0:0:0:0:
448,192,335412,128,0,335583:0:0:0:0:
192,192,335412,1,0,0:0:0:0:
320,192,335583,128,0,335755:0:0:0:0:
64,192,335583,1,0,0:0:0:0:
192,192,335583,1,2,0:0:0:0:
192,192,335755,128,0,335926:0:0:0:0:
448,192,335755,1,0,0:0:0:0:
64,192,335926,128,0,336098:0:0:0:0:
448,192,335926,1,0,0:0:0:0:
448,192,336098,128,0,336269:0:0:0:0:
320,192,336098,1,8,0:0:0:0:
320,192,336269,128,0,336440:0:0:0:0:
192,192,336269,1,2,0:0:0:0:
64,192,336269,1,0,0:0:0:0:
448,192,336440,128,0,337298:0:0:0:0:
192,192,336440,1,0,0:0:0:0:
64,192,336612,1,8,0:0:0:0:
192,192,336783,1,0,0:0:0:0:
64,192,336955,1,2,0:0:0:0:
320,192,336955,1,0,0:0:0:0:
192,192,337126,1,0,0:0:0:0:
320,192,337469,1,8,0:0:0:0:
64,192,337640,128,0,337812:0:0:0:0:
192,192,337640,1,2,0:0:0:0:
448,192,337640,1,0,0:0:0:0:
320,192,337812,1,0,0:0:0:0:
192,192,337812,128,0,337983:0:0:0:0:
448,192,337983,1,12,0:0:0:0:
320,192,337983,128,0,338069:0:0:0:0:
64,192,338069,1,0,0:0:0:0:
320,192,338155,128,0,338240:0:0:0:0:
448,192,338155,1,0,0:0:0:0:
192,192,338240,1,0,0:0:0:0:
320,192,338326,128,0,338412:0:0:0:0:
64,192,338326,1,0,0:0:0:0:
448,192,338326,1,2,0:0:0:0:
192,192,338412,1,0,0:0:0:0:
320,192,338498,128,0,338583:0:0:0:0:
448,192,338498,1,0,0:0:0:0:
64,192,338583,1,0,0:0:0:0:
320,192,338669,128,0,338755:0:0:0:0:
192,192,338669,1,0,0:0:0:0:
64,192,338755,1,0,0:0:0:0:
192,192,338840,128,0,339012:0:0:0:0:
448,192,338840,1,8,0:0:0:0:
320,192,338926,1,0,0:0:0:0:
64,192,339012,1,0,0:0:0:0:
448,192,339012,1,2,0:0:0:0:
320,192,339098,1,0,0:0:0:0:
448,192,339183,128,0,339440:0:0:0:0:
192,192,339183,1,0,0:0:0:0:
64,192,339269,1,0,0:0:0:0:
320,192,339355,1,12,0:0:0:0:
64,192,339440,1,0,0:0:0:0:
448,192,339526,128,0,339612:0:0:0:0:
192,192,339526,1,0,0:0:0:0:
320,192,339612,1,0,0:0:0:0:
448,192,339698,128,0,339783:0:0:0:0:
64,192,339698,1,0,0:0:0:0:
192,192,339698,1,0,0:0:0:0:
320,192,339783,1,0,0:0:0:0:
448,192,339869,128,0,339955:0:0:0:0:
64,192,339869,1,0,0:0:0:0:
192,192,339955,1,0,0:0:0:0:
448,192,340040,128,0,340126:0:0:0:0:
320,192,340040,1,0,0:0:0:0:
192,192,340126,1,0,0:0:0:0:
320,192,340212,128,0,340383:0:0:0:0:
64,192,340212,1,8,0:0:0:0:
448,192,340298,1,0,0:0:0:0:
64,192,340383,1,0,0:0:0:0:
192,192,340383,1,0,0:0:0:0:
320,192,340555,1,0,0:0:0:0:
64,192,340555,1,8,0:0:0:0:
192,192,340555,1,0,0:0:0:0:
448,192,340555,128,0,340726:0:0:0:0:
64,192,340640,1,8,0:0:0:0:
192,192,340640,1,0,0:0:0:0:
320,192,340726,128,0,340898:0:0:0:0:
192,192,340726,1,4,0:0:0:0:
64,192,340726,1,8,0:0:0:0:
64,192,340898,128,0,341069:0:0:0:0:
192,192,340898,1,0,0:0:0:0:
448,192,341069,128,0,341240:0:0:0:0:
320,192,341069,1,0,0:0:0:0:
192,192,341069,1,0,0:0:0:0:
320,192,341240,128,0,341412:0:0:0:0:
192,192,341240,1,0,0:0:0:0:
64,192,341326,1,0,0:0:0:0:
448,192,341412,1,12,0:0:0:0:
64,192,341412,1,0,0:0:0:0:
192,192,341412,128,0,341583:0:0:0:0:
448,192,341498,1,0,0:0:0:0:
64,192,341583,128,0,341755:0:0:0:0:
320,192,341583,1,0,0:0:0:0:
448,192,341755,128,0,341926:0:0:0:0:
192,192,341755,1,0,0:0:0:0:
320,192,341755,1,8,0:0:0:0:
64,192,341926,128,0,342440:0:0:0:0:
192,192,341926,128,0,342440:0:0:0:0:
320,192,341926,1,0,0:0:0:0:
320,192,342098,1,4,0:0:0:0:
448,192,342098,1,8,0:0:0:0:
320,192,342269,1,0,0:0:0:0:
448,192,342269,1,8,0:0:0:0:
320,192,342440,1,0,0:0:0:0:
448,192,342440,1,12,0:0:0:0:
320,192,342612,1,8,0:0:0:0:
192,192,342612,1,0,0:0:0:0:
320,192,342783,1,0,0:0:0:0:
448,192,342783,1,12,0:0:0:0:
192,192,342869,1,8,0:0:0:0:
64,192,342869,1,0,0:0:0:0:
448,192,342955,1,8,0:0:0:0:
320,192,342955,1,0,0:0:0:0:
192,192,343040,1,8,0:0:0:0:
64,192,343040,1,0,0:0:0:0:
320,192,343126,1,0,0:0:0:0:
448,192,343126,1,12,0:0:0:0:
192,192,343212,1,8,0:0:0:0:
64,192,343212,1,0,0:0:0:0:
448,192,343298,1,8,0:0:0:0:
320,192,343298,1,0,0:0:0:0:
192,192,343383,1,8,0:0:0:0:
64,192,343383,1,0,0:0:0:0:
64,192,343469,1,12,0:0:0:0:
448,192,343469,128,0,343635:0:0:0:0:
320,192,343469,128,0,344469:0:0:0:0:
64,192,343802,128,0,343969:0:0:0:0:
64,192,344135,128,0,344246:0:0:0:0:
192,192,344135,1,0,0:0:0:0:
192,192,344246,128,0,344357:0:0:0:0:
64,192,344357,128,0,344469:0:0:0:0:
192,192,344469,128,0,344635:0:0:0:0:
448,192,344469,128,0,344802:0:0:0:0:
192,192,344802,128,0,346135:0:0:0:0:
64,192,344802,1,0,0:0:0:0:
320,192,344802,128,0,345052:0:0:0:0:
64,192,345135,128,0,345469:0:0:0:0:
448,192,345302,1,8,0:0:0:0:
320,192,345469,1,0,0:0:0:0:
448,192,345469,1,0,0:0:0:0:
64,192,346135,128,0,346802:0:0:0:0:
448,192,346135,128,0,346246:0:0:0:0:
320,192,346135,1,8,0:0:0:0:
320,192,346246,128,0,346357:0:0:0:0:
448,192,346357,128,0,346469:0:0:0:0:
320,192,346469,128,0,346635:0:0:0:0:
192,192,346802,128,0,347052:0:0:0:0:
320,192,346802,1,0,0:0:0:0:
448,192,346802,1,0,0:0:0:0:
320,192,347052,128,0,347302:0:0:0:0:
64,192,347135,128,0,347302:0:0:0:0:
448,192,347302,128,0,347469:0:0:0:0:
192,192,347302,128,0,347385:0:0:0:0:
64,192,347469,128,0,348135:0:0:0:0:
192,192,347469,128,0,347552:0:0:0:0:
320,192,347469,1,8,0:0:0:0:
192,192,347635,128,0,347719:0:0:0:0:
320,192,347719,1,8,0:0:0:0:
448,192,347719,1,0,0:0:0:0:
320,192,347802,128,0,347885:0:0:0:0:
192,192,347969,1,8,0:0:0:0:
448,192,347969,1,0,0:0:0:0:
448,192,348135,128,0,348802:0:0:0:0:
320,192,348135,1,0,0:0:0:0:
192,192,348135,1,0,0:0:0:0:
64,192,348802,128,0,349469:0:0:0:0:
192,192,348802,1,8,0:0:0:0:
320,192,348802,128,0,348969:0:0:0:0:
448,192,349135,128,0,349302:0:0:0:0:
320,192,349469,1,0,0:0:0:0:
192,192,349469,1,0,0:0:0:0:
448,192,349469,128,0,349580:0:0:0:0:
320,192,349580,128,0,349691:0:0:0:0:
448,192,349691,128,0,349802:0:0:0:0:
192,192,349802,128,0,350135:0:0:0:0:
320,192,349802,128,0,349969:0:0:0:0:
448,192,350135,128,0,350802:0:0:0:0:
320,192,350135,1,0,0:0:0:0:
64,192,350135,128,0,350302:0:0:0:0:
192,192,350469,128,0,350635:0:0:0:0:
64,192,350635,1,8,0:0:0:0:
320,192,350635,1,0,0:0:0:0:
64,192,350802,128,0,351135:0:0:0:0:
192,192,350802,1,0,0:0:0:0:
320,192,350802,1,0,0:0:0:0:
192,192,350969,1,0,0:0:0:0:
448,192,350969,1,0,0:0:0:0:
320,192,351135,1,2,0:0:0:0:
448,192,351135,1,8,0:0:0:0:
192,192,351135,128,0,351469:0:0:0:0:
448,192,351219,1,8,0:0:0:0:
320,192,351219,1,2,0:0:0:0:
448,192,351302,1,8,0:0:0:0:
320,192,351302,1,2,0:0:0:0:
448,192,351385,1,8,0:0:0:0:
320,192,351385,1,2,0:0:0:0:
64,192,351469,128,0,351635:0:0:0:0:
448,192,351469,1,12,0:0:0:0:
320,192,351469,1,2,0:0:0:0:
320,192,351635,128,0,351802:0:0:0:0:
448,192,351635,1,0,0:0:0:0:
448,192,351802,128,0,351969:0:0:0:0:
192,192,351802,1,2,0:0:0:0:
64,192,351802,1,8,0:0:0:0:
64,192,351969,128,0,352135:0:0:0:0:
192,192,351969,1,0,0:0:0:0:
192,192,352135,128,0,352302:0:0:0:0:
448,192,352135,1,0,0:0:0:0:
320,192,352135,1,8,0:0:0:0:
64,192,352302,128,0,352635:0:0:0:0:
320,192,352302,1,0,0:0:0:0:
192,192,352469,1,8,0:0:0:0:
448,192,352469,1,2,0:0:0:0:
192,192,352635,1,0,0:0:0:0:
320,192,352635,1,0,0:0:0:0:
448,192,352719,1,0,0:0:0:0:
192,192,352802,128,0,352969:0:0:0:0:
320,192,352802,1,0,0:0:0:0:
64,192,352802,1,8,0:0:0:0:
320,192,352969,128,0,353135:0:0:0:0:
64,192,352969,1,0,0:0:0:0:
448,192,353135,128,0,353302:0:0:0:0:
192,192,353135,1,2,0:0:0:0:
64,192,353135,1,8,0:0:0:0:
64,192,353302,128,0,353469:0:0:0:0:
320,192,353302,1,0,0:0:0:0:
448,192,353469,128,0,353635:0:0:0:0:
320,192,353469,1,0,0:0:0:0:
192,192,353469,1,8,0:0:0:0:
64,192,353635,128,0,353969:0:0:0:0:
192,192,353635,1,0,0:0:0:0:
320,192,353802,1,8,0:0:0:0:
448,192,353802,1,2,0:0:0:0:
448,192,353969,1,0,0:0:0:0:
192,192,353969,1,0,0:0:0:0:
320,192,354052,1,0,0:0:0:0:
64,192,354135,128,0,354302:0:0:0:0:
448,192,354135,1,0,0:0:0:0:
192,192,354135,1,8,0:0:0:0:
448,192,354302,128,0,354469:0:0:0:0:
320,192,354302,1,0,0:0:0:0:
64,192,354469,128,0,354635:0:0:0:0:
192,192,354469,1,8,0:0:0:0:
320,192,354469,1,2,0:0:0:0:
320,192,354635,128,0,354802:0:0:0:0:
448,192,354635,1,0,0:0:0:0:
192,192,354802,128,0,354969:0:0:0:0:
64,192,354802,1,8,0:0:0:0:
448,192,354802,1,0,0:0:0:0:
64,192,354969,128,0,355302:0:0:0:0:
448,192,354969,1,0,0:0:0:0:
192,192,355135,1,8,0:0:0:0:
320,192,355135,1,2,0:0:0:0:
320,192,355302,1,0,0:0:0:0:
448,192,355302,1,0,0:0:0:0:
192,192,355385,1,0,0:0:0:0:
64,192,355469,128,0,355635:0:0:0:0:
320,192,355469,1,8,0:0:0:0:
448,192,355469,1,2,0:0:0:0:
448,192,355635,128,0,355802:0:0:0:0:
192,192,355635,1,0,0:0:0:0:
192,192,355802,128,0,355969:0:0:0:0:
64,192,355802,1,8,0:0:0:0:
320,192,355802,1,2,0:0:0:0:
320,192,355969,128,0,356135:0:0:0:0:
448,192,355969,1,0,0:0:0:0:
448,192,356135,128,0,356302:0:0:0:0:
192,192,356135,1,0,0:0:0:0:
64,192,356135,1,8,0:0:0:0:
64,192,356302,128,0,356469:0:0:0:0:
320,192,356302,1,0,0:0:0:0:
192,192,356302,1,8,0:0:0:0:
192,192,356469,1,8,0:0:0:0:
320,192,356469,1,2,0:0:0:0:
448,192,356552,1,2,0:0:0:0:
320,192,356552,1,8,0:0:0:0:
192,192,356635,1,2,0:0:0:0:
64,192,356635,1,8,0:0:0:0:
320,192,356719,1,8,0:0:0:0:
448,192,356719,1,2,0:0:0:0:
192,192,356802,1,2,0:0:0:0:
448,192,356802,128,0,356969:0:0:0:0:
64,192,356802,1,12,0:0:0:0:
192,192,356969,128,0,357135:0:0:0:0:
320,192,356969,1,0,0:0:0:0:
64,192,357135,128,0,357302:0:0:0:0:
448,192,357135,1,2,0:0:0:0:
320,192,357135,1,8,0:0:0:0:
448,192,357302,128,0,357469:0:0:0:0:
192,192,357302,1,0,0:0:0:0:
192,192,357469,128,0,357635:0:0:0:0:
320,192,357469,1,0,0:0:0:0:
64,192,357469,1,8,0:0:0:0:
320,192,357635,128,0,357969:0:0:0:0:
448,192,357635,1,0,0:0:0:0:
192,192,357802,1,2,0:0:0:0:
64,192,357802,1,8,0:0:0:0:
448,192,357969,1,0,0:0:0:0:
64,192,357969,1,0,0:0:0:0:
192,192,358052,1,0,0:0:0:0:
64,192,358135,128,0,358302:0:0:0:0:
448,192,358135,1,4,0:0:0:0:
320,192,358135,1,8,0:0:0:0:
320,192,358302,128,0,358469:0:0:0:0:
448,192,358302,1,0,0:0:0:0:
448,192,358469,128,0,358635:0:0:0:0:
192,192,358469,1,2,0:0:0:0:
64,192,358469,1,8,0:0:0:0:
192,192,358635,128,0,358802:0:0:0:0:
320,192,358635,1,0,0:0:0:0:
320,192,358802,128,0,358969:0:0:0:0:
448,192,358802,1,0,0:0:0:0:
64,192,358802,1,8,0:0:0:0:
192,192,358969,1,0,0:0:0:0:
64,192,358969,128,0,359302:0:0:0:0:
320,192,359135,1,8,0:0:0:0:
448,192,359135,1,2,0:0:0:0:
192,192,359302,1,8,0:0:0:0:
320,192,359302,1,0,0:0:0:0:
320,192,359385,1,8,0:0:0:0:
448,192,359385,1,0,0:0:0:0:
448,192,359469,1,0,0:0:0:0:
64,192,359469,1,8,0:0:0:0:
192,192,359469,1,0,0:0:0:0:
64,192,359635,1,8,0:0:0:0:
320,192,359635,1,0,0:0:0:0:
192,192,359635,1,0,0:0:0:0:
192,192,359802,1,0,0:0:0:0:
448,192,359802,1,0,0:0:0:0:
64,192,359802,1,8,0:0:0:0:
320,192,359969,1,0,0:0:0:0:
192,192,359969,1,0,0:0:0:0:
64,192,359969,1,8,0:0:0:0:
192,192,360135,1,8,0:0:0:0:
320,192,360135,1,0,0:0:0:0:
448,192,360135,1,4,0:0:0:0:
64,192,360302,1,8,0:0:0:0:
320,192,360302,1,0,0:0:0:0:
448,192,360302,1,0,0:0:0:0:
320,192,360469,1,0,0:0:0:0:
64,192,360469,1,8,0:0:0:0:
192,192,360469,1,0,0:0:0:0:
320,192,360635,1,0,0:0:0:0:
448,192,360635,1,0,0:0:0:0:
64,192,360635,1,8,0:0:0:0:
64,192,360802,1,8,0:0:0:0:
448,192,360802,1,0,0:0:0:0:
192,192,360802,1,0,0:0:0:0:
320,192,360802,1,0,0:0:0:0:
448,192,360969,1,0,0:0:0:0:
320,192,360969,1,8,0:0:0:0:
64,192,361052,1,8,0:0:0:0:
192,192,361052,1,0,0:0:0:0:
320,192,361135,1,8,0:0:0:0:
448,192,361135,1,4,0:0:0:0:
64,192,361219,1,12,0:0:0:0:
192,192,361219,1,0,0:0:0:0:
192,192,361302,1,0,0:0:0:0:
64,192,361302,1,12,0:0:0:0:
448,192,361385,1,4,0:0:0:0:
320,192,361385,1,8,0:0:0:0:
320,192,361469,128,0,361719:0:0:0:0:
192,192,361469,128,0,361802:0:0:0:0:
64,192,361469,128,0,366135:0:0:0:0:
448,192,361469,128,0,366135:0:0:0:0:
320,192,361802,128,0,361885:0:0:0:0:
192,192,361885,128,0,361969:0:0:0:0:
320,192,361969,128,0,362052:0:0:0:0:
192,192,362052,128,0,362135:0:0:0:0:
320,192,362135,128,0,366135:0:0:0:0:
192,192,366135,128,0,366801:0:0:0:0:
320,192,366801,128,0,367301:0:0:0:0:
64,192,366801,128,0,366968:0:0:0:0:
448,192,366968,128,0,367135:0:0:0:0:
192,192,367135,128,0,367301:0:0:0:0:
64,192,367301,1,0,0:0:0:0:
192,192,367468,1,8,0:0:0:0:
448,192,367468,1,4,0:0:0:0:
320,192,367468,1,0,0:0:0:0:
64,192,367551,1,0,0:0:0:0:
320,192,367635,1,0,0:0:0:0:
64,192,367635,1,8,0:0:0:0:
448,192,367718,1,0,0:0:0:0:
448,192,367801,1,8,0:0:0:0:
64,192,367801,1,0,0:0:0:0:
192,192,367885,1,0,0:0:0:0:
320,192,367968,1,0,0:0:0:0:
192,192,367968,1,8,0:0:0:0:
448,192,368051,1,0,0:0:0:0:
192,192,368135,1,0,0:0:0:0:
448,192,368135,1,8,0:0:0:0:
64,192,368218,1,0,0:0:0:0:
448,192,368301,1,0,0:0:0:0:
64,192,368301,1,8,0:0:0:0:
320,192,368385,1,0,0:0:0:0:
192,192,368468,1,0,0:0:0:0:
320,192,368468,1,8,0:0:0:0:
448,192,368468,1,0,0:0:0:0:
64,192,368551,1,0,0:0:0:0:
320,192,368635,1,0,0:0:0:0:
64,192,368635,1,8,0:0:0:0:
192,192,368635,1,0,0:0:0:0:
448,192,368718,1,0,0:0:0:0:
448,192,368801,1,8,0:0:0:0:
64,192,368801,1,0,0:0:0:0:
320,192,368801,1,0,0:0:0:0:
192,192,368885,1,0,0:0:0:0:
192,192,368968,1,8,0:0:0:0:
448,192,368968,1,0,0:0:0:0:
320,192,369051,1,0,0:0:0:0:
192,192,369135,1,0,0:0:0:0:
320,192,369135,1,8,0:0:0:0:
64,192,369218,1,0,0:0:0:0:
64,192,369301,1,8,0:0:0:0:
320,192,369301,1,0,0:0:0:0:
448,192,369385,1,0,0:0:0:0:
448,192,369468,1,8,0:0:0:0:
64,192,369468,1,0,0:0:0:0:
192,192,369551,1,0,0:0:0:0:
320,192,369635,1,0,0:0:0:0:
192,192,369635,1,8,0:0:0:0:
448,192,369718,1,0,0:0:0:0:
64,192,369801,1,0,0:0:0:0:
448,192,369801,1,8,0:0:0:0:
320,192,369801,1,0,0:0:0:0:
192,192,369885,1,0,0:0:0:0:
64,192,369968,1,0,0:0:0:0:
320,192,369968,1,8,0:0:0:0:
448,192,369968,1,0,0:0:0:0:
192,192,370051,1,8,0:0:0:0:
320,192,370051,1,0,0:0:0:0:
192,192,370135,1,0,0:0:0:0:
64,192,370135,1,8,0:0:0:0:
448,192,370135,1,0,0:0:0:0:
320,192,370218,1,0,0:0:0:0:
64,192,370301,1,0,0:0:0:0:
320,192,370301,1,8,0:0:0:0:
448,192,370385,1,0,0:0:0:0:
448,192,370468,1,8,0:0:0:0:
64,192,370468,1,0,0:0:0:0:
192,192,370551,1,0,0:0:0:0:
192,192,370635,1,8,0:0:0:0:
320,192,370635,1,0,0:0:0:0:
448,192,370635,1,0,0:0:0:0:
64,192,370718,1,0,0:0:0:0:
64,192,370801,1,8,0:0:0:0:
320,192,370801,1,0,0:0:0:0:
448,192,370885,1,0,0:0:0:0:
448,192,370968,1,8,0:0:0:0:
192,192,370968,1,0,0:0:0:0:
64,192,371051,1,0,0:0:0:0:
448,192,371135,1,0,0:0:0:0:
64,192,371135,1,8,0:0:0:0:
320,192,371218,1,0,0:0:0:0:
192,192,371301,1,0,0:0:0:0:
320,192,371301,1,8,0:0:0:0:
64,192,371385,1,0,0:0:0:0:
64,192,371468,1,8,0:0:0:0:
448,192,371468,1,0,0:0:0:0:
320,192,371551,1,0,0:0:0:0:
64,192,371635,1,8,0:0:0:0:
192,192,371635,1,0,0:0:0:0:
320,192,371676,1,8,0:0:0:0:
448,192,371676,1,0,0:0:0:0:
192,192,371718,1,0,0:0:0:0:
64,192,371718,1,8,0:0:0:0:
320,192,371801,1,8,0:0:0:0:
448,192,371801,1,0,0:0:0:0:
192,192,371968,1,0,0:0:0:0:
64,192,371968,1,8,0:0:0:0:
64,192,372135,1,8,0:0:0:0:
192,192,372135,1,0,0:0:0:0:
320,192,372176,1,8,0:0:0:0:
448,192,372176,1,0,0:0:0:0:
192,192,372218,1,0,0:0:0:0:
64,192,372218,1,8,0:0:0:0:
320,192,372260,1,8,0:0:0:0:
448,192,372260,1,0,0:0:0:0:
192,192,372301,1,0,0:0:0:0:
64,192,372301,1,8,0:0:0:0:
320,192,372385,1,8,0:0:0:0:
448,192,372385,1,0,0:0:0:0:
64,192,372468,1,8,0:0:0:0:
192,192,372468,1,0,0:0:0:0:
448,192,372635,1,0,0:0:0:0:
320,192,372662,1,0,0:0:0:0:
64,192,372690,1,0,0:0:0:0:
192,192,372718,1,0,0:0:0:0:
448,192,372746,1,0,0:0:0:0:
320,192,372773,1,0,0:0:0:0:
192,192,372801,1,8,0:0:0:0:
64,192,372801,1,4,0:0:0:0:
448,192,372885,1,0,0:0:0:0:
64,192,372968,1,0,0:0:0:0:
448,192,372968,1,8,0:0:0:0:
320,192,373051,1,0,0:0:0:0:
64,192,373135,1,0,0:0:0:0:
320,192,373135,1,8,0:0:0:0:
192,192,373218,1,0,0:0:0:0:
192,192,373301,1,8,0:0:0:0:
448,192,373301,1,0,0:0:0:0:
320,192,373385,1,0,0:0:0:0:
320,192,373468,1,8,0:0:0:0:
192,192,373468,1,0,0:0:0:0:
64,192,373551,1,0,0:0:0:0:
320,192,373635,1,0,0:0:0:0:
64,192,373635,1,8,0:0:0:0:
448,192,373718,1,0,0:0:0:0:
448,192,373801,1,8,0:0:0:0:
192,192,373801,1,0,0:0:0:0:
64,192,373885,1,0,0:0:0:0:
64,192,373968,1,8,0:0:0:0:
320,192,373968,1,0,0:0:0:0:
192,192,374051,1,0,0:0:0:0:
320,192,374135,1,0,0:0:0:0:
192,192,374135,1,8,0:0:0:0:
64,192,374135,1,0,0:0:0:0:
448,192,374218,1,0,0:0:0:0:
448,192,374301,1,8,0:0:0:0:
192,192,374301,1,0,0:0:0:0:
320,192,374301,1,0,0:0:0:0:
64,192,374385,1,0,0:0:0:0:
64,192,374468,1,8,0:0:0:0:
320,192,374468,1,0,0:0:0:0:
192,192,374468,1,0,0:0:0:0:
448,192,374551,1,0,0:0:0:0:
64,192,374635,1,0,0:0:0:0:
448,192,374635,1,8,0:0:0:0:
320,192,374635,1,0,0:0:0:0:
192,192,374718,1,0,0:0:0:0:
320,192,374801,1,0,0:0:0:0:
192,192,374801,1,8,0:0:0:0:
64,192,374801,1,0,0:0:0:0:
448,192,374885,1,0,0:0:0:0:
448,192,374968,1,8,0:0:0:0:
320,192,374968,1,0,0:0:0:0:
64,192,375051,1,0,0:0:0:0:
192,192,375051,1,0,0:0:0:0:
64,192,375135,1,8,0:0:0:0:
448,192,375135,1,0,0:0:0:0:
320,192,375218,1,0,0:0:0:0:
64,192,375301,1,0,0:0:0:0:
192,192,375301,1,8,0:0:0:0:
448,192,375301,1,0,0:0:0:0:
448,192,375385,1,0,0:0:0:0:
320,192,375385,1,8,0:0:0:0:
64,192,375468,1,0,0:0:0:0:
192,192,375468,1,8,0:0:0:0:
320,192,375551,1,0,0:0:0:0:
192,192,375635,1,0,0:0:0:0:
320,192,375635,1,8,0:0:0:0:
64,192,375718,1,0,0:0:0:0:
320,192,375801,1,0,0:0:0:0:
64,192,375801,1,8,0:0:0:0:
448,192,375885,1,0,0:0:0:0:
448,192,375968,1,8,0:0:0:0:
64,192,375968,1,0,0:0:0:0:
192,192,376051,1,0,0:0:0:0:
448,192,376135,1,0,0:0:0:0:
192,192,376135,1,8,0:0:0:0:
320,192,376218,1,0,0:0:0:0:
320,192,376301,1,8,0:0:0:0:
192,192,376301,1,0,0:0:0:0:
64,192,376385,1,0,0:0:0:0:
320,192,376468,1,0,0:0:0:0:
64,192,376468,1,8,0:0:0:0:
448,192,376551,1,0,0:0:0:0:
64,192,376635,1,0,0:0:0:0:
448,192,376635,1,8,0:0:0:0:
192,192,376718,1,0,0:0:0:0:
192,192,376801,1,8,0:0:0:0:
448,192,376801,1,0,0:0:0:0:
320,192,376885,1,0,0:0:0:0:
64,192,376968,1,8,0:0:0:0:
192,192,376968,1,0,0:0:0:0:
320,192,377010,1,8,0:0:0:0:
448,192,377010,1,0,0:0:0:0:
192,192,377051,1,0,0:0:0:0:
64,192,377051,1,8,0:0:0:0:
192,192,377135,1,0,0:0:0:0:
64,192,377135,1,8,0:0:0:0:
448,192,377301,1,0,0:0:0:0:
320,192,377301,1,8,0:0:0:0:
192,192,377385,1,0,0:0:0:0:
64,192,377385,1,8,0:0:0:0:
320,192,377468,1,8,0:0:0:0:
448,192,377468,1,0,0:0:0:0:
192,192,377510,1,0,0:0:0:0:
64,192,377510,1,8,0:0:0:0:
448,192,377551,1,0,0:0:0:0:
320,192,377551,1,8,0:0:0:0:
192,192,377593,1,0,0:0:0:0:
64,192,377593,1,8,0:0:0:0:
320,192,377635,1,8,0:0:0:0:
448,192,377635,1,0,0:0:0:0:
192,192,377718,1,0,0:0:0:0:
64,192,377718,1,8,0:0:0:0:
448,192,377801,1,0,0:0:0:0:
320,192,377829,1,0,0:0:0:0:
64,192,377857,1,0,0:0:0:0:
192,192,377885,1,0,0:0:0:0:
448,192,377912,1,0,0:0:0:0:
320,192,377940,1,0,0:0:0:0:
64,192,377968,1,0,0:0:0:0:
192,192,377996,1,0,0:0:0:0:
448,192,378023,1,0,0:0:0:0:
320,192,378051,1,0,0:0:0:0:
64,192,378079,1,0,0:0:0:0:
192,192,378107,1,0,0:0:0:0:
320,192,378135,1,8,0:0:0:0:
448,192,378135,1,4,0:0:0:0:
64,192,378218,1,0,0:0:0:0:
320,192,378301,1,0,0:0:0:0:
64,192,378301,1,8,0:0:0:0:
192,192,378385,1,0,0:0:0:0:
192,192,378468,1,8,0:0:0:0:
320,192,378468,1,0,0:0:0:0:
448,192,378551,1,0,0:0:0:0:
192,192,378635,1,0,0:0:0:0:
448,192,378635,1,8,0:0:0:0:
64,192,378718,1,0,0:0:0:0:
64,192,378801,1,8,0:0:0:0:
448,192,378801,1,0,0:0:0:0:
320,192,378885,1,0,0:0:0:0:
320,192,378968,1,8,0:0:0:0:
192,192,378968,1,0,0:0:0:0:
64,192,379051,1,0,0:0:0:0:
320,192,379135,1,0,0:0:0:0:
64,192,379135,1,8,0:0:0:0:
192,192,379135,1,0,0:0:0:0:
448,192,379218,1,0,0:0:0:0:
448,192,379301,1,8,0:0:0:0:
192,192,379301,1,0,0:0:0:0:
320,192,379385,1,0,0:0:0:0:
192,192,379468,1,0,0:0:0:0:
320,192,379468,1,8,0:0:0:0:
448,192,379468,1,0,0:0:0:0:
64,192,379551,1,0,0:0:0:0:
448,192,379635,1,0,0:0:0:0:
64,192,379635,1,8,0:0:0:0:
192,192,379718,1,0,0:0:0:0:
320,192,379801,1,0,0:0:0:0:
192,192,379801,1,8,0:0:0:0:
448,192,379885,1,0,0:0:0:0:
448,192,379968,1,8,0:0:0:0:
192,192,379968,1,0,0:0:0:0:
320,192,379968,1,0,0:0:0:0:
64,192,380051,1,0,0:0:0:0:
320,192,380135,1,0,0:0:0:0:
64,192,380135,1,8,0:0:0:0:
448,192,380218,1,0,0:0:0:0:
448,192,380301,1,8,0:0:0:0:
192,192,380301,1,0,0:0:0:0:
64,192,380385,1,0,0:0:0:0:
64,192,380468,1,8,0:0:0:0:
448,192,380468,1,0,0:0:0:0:
320,192,380468,1,0,0:0:0:0:
192,192,380551,1,0,0:0:0:0:
64,192,380635,1,0,0:0:0:0:
448,192,380635,1,0,0:0:0:0:
320,192,380635,1,8,0:0:0:0:
320,192,380718,1,0,0:0:0:0:
192,192,380718,1,8,0:0:0:0:
64,192,380801,1,8,0:0:0:0:
448,192,380801,1,0,0:0:0:0:
192,192,380801,1,0,0:0:0:0:
320,192,380885,1,0,0:0:0:0:
320,192,380968,1,8,0:0:0:0:
448,192,380968,1,0,0:0:0:0:
64,192,380968,1,0,0:0:0:0:
192,192,381051,1,0,0:0:0:0:
64,192,381135,1,0,0:0:0:0:
192,192,381135,1,8,0:0:0:0:
448,192,381135,1,0,0:0:0:0:
320,192,381218,1,0,0:0:0:0:
320,192,381301,1,8,0:0:0:0:
192,192,381301,1,0,0:0:0:0:
64,192,381301,1,0,0:0:0:0:
448,192,381385,1,0,0:0:0:0:
448,192,381468,1,8,0:0:0:0:
320,192,381468,1,0,0:0:0:0:
192,192,381468,1,0,0:0:0:0:
64,192,381551,1,0,0:0:0:0:
192,192,381635,1,0,0:0:0:0:
64,192,381635,1,8,0:0:0:0:
320,192,381635,1,0,0:0:0:0:
448,192,381718,1,0,0:0:0:0:
448,192,381801,1,8,0:0:0:0:
64,192,381801,1,0,0:0:0:0:
192,192,381885,1,0,0:0:0:0:
192,192,381968,1,8,0:0:0:0:
320,192,381968,1,0,0:0:0:0:
64,192,381968,1,0,0:0:0:0:
448,192,382051,1,0,0:0:0:0:
448,192,382135,1,8,0:0:0:0:
192,192,382135,128,0,382301:0:0:0:0:
64,192,382135,128,0,382301:0:0:0:0:
320,192,382135,1,0,0:0:0:0:
320,192,382385,1,8,0:0:0:0:
448,192,382385,1,0,0:0:0:0:
192,192,382468,1,0,0:0:0:0:
64,192,382468,1,8,0:0:0:0:
320,192,382510,1,8,0:0:0:0:
448,192,382510,1,0,0:0:0:0:
192,192,382551,1,0,0:0:0:0:
64,192,382551,1,8,0:0:0:0:
320,192,382593,1,8,0:0:0:0:
448,192,382593,1,0,0:0:0:0:
192,192,382635,1,0,0:0:0:0:
64,192,382635,1,8,0:0:0:0:
64,192,382801,1,8,0:0:0:0:
192,192,382801,1,0,0:0:0:0:
320,192,382885,1,8,0:0:0:0:
448,192,382885,1,0,0:0:0:0:
192,192,382968,1,0,0:0:0:0:
64,192,382968,1,8,0:0:0:0:
320,192,383051,1,8,0:0:0:0:
448,192,383051,1,0,0:0:0:0:
64,192,383135,1,0,0:0:0:0:
192,192,383162,1,0,0:0:0:0:
320,192,383190,1,0,0:0:0:0:
448,192,383218,1,0,0:0:0:0:
64,192,383246,1,0,0:0:0:0:
192,192,383273,1,0,0:0:0:0:
320,192,383301,1,0,0:0:0:0:
448,192,383329,1,0,0:0:0:0:
192,192,383357,1,0,0:0:0:0:
64,192,383385,1,0,0:0:0:0:
448,192,383412,1,0,0:0:0:0:
320,192,383440,1,0,0:0:0:0:
64,192,383468,1,4,0:0:0:0:
192,192,383468,1,8,0:0:0:0:
448,192,383551,1,0,0:0:0:0:
64,192,383635,1,0,0:0:0:0:
448,192,383635,1,8,0:0:0:0:
320,192,383718,1,0,0:0:0:0:
320,192,383801,1,8,0:0:0:0:
64,192,383801,1,0,0:0:0:0:
448,192,383885,1,0,0:0:0:0:
448,192,383968,1,8,0:0:0:0:
192,192,383968,1,0,0:0:0:0:
64,192,384051,1,0,0:0:0:0:
320,192,384135,1,0,0:0:0:0:
64,192,384135,1,8,0:0:0:0:
448,192,384218,1,0,0:0:0:0:
448,192,384301,1,8,0:0:0:0:
192,192,384301,1,0,0:0:0:0:
320,192,384385,1,0,0:0:0:0:
320,192,384468,1,8,0:0:0:0:
192,192,384468,1,0,0:0:0:0:
448,192,384468,1,0,0:0:0:0:
64,192,384551,1,0,0:0:0:0:
320,192,384635,1,0,0:0:0:0:
64,192,384635,1,8,0:0:0:0:
448,192,384635,1,0,0:0:0:0:
192,192,384718,1,0,0:0:0:0:
320,192,384801,1,0,0:0:0:0:
192,192,384801,1,8,0:0:0:0:
64,192,384801,1,0,0:0:0:0:
448,192,384885,1,0,0:0:0:0:
64,192,384968,1,0,0:0:0:0:
448,192,384968,1,8,0:0:0:0:
320,192,385051,1,0,0:0:0:0:
320,192,385135,1,8,0:0:0:0:
64,192,385135,1,0,0:0:0:0:
192,192,385218,1,0,0:0:0:0:
192,192,385301,1,8,0:0:0:0:
448,192,385301,1,0,0:0:0:0:
64,192,385385,1,0,0:0:0:0:
64,192,385468,1,8,0:0:0:0:
448,192,385468,1,0,0:0:0:0:
320,192,385551,1,0,0:0:0:0:
320,192,385635,1,8,0:0:0:0:
192,192,385635,1,0,0:0:0:0:
448,192,385718,1,0,0:0:0:0:
64,192,385801,1,0,0:0:0:0:
448,192,385801,1,8,0:0:0:0:
192,192,385801,1,0,0:0:0:0:
320,192,385885,1,0,0:0:0:0:
64,192,385968,1,0,0:0:0:0:
192,192,385968,1,8,0:0:0:0:
320,192,386051,1,8,0:0:0:0:
448,192,386051,1,0,0:0:0:0:
64,192,386135,1,0,0:0:0:0:
192,192,386135,1,8,0:0:0:0:
448,192,386135,1,0,0:0:0:0:
320,192,386218,1,0,0:0:0:0:
192,192,386301,1,0,0:0:0:0:
320,192,386301,1,8,0:0:0:0:
448,192,386385,1,0,0:0:0:0:
64,192,386468,1,0,0:0:0:0:
448,192,386468,1,8,0:0:0:0:
192,192,386551,1,0,0:0:0:0:
192,192,386635,1,8,0:0:0:0:
448,192,386635,1,0,0:0:0:0:
320,192,386635,1,0,0:0:0:0:
64,192,386718,1,0,0:0:0:0:
64,192,386801,1,8,0:0:0:0:
320,192,386801,1,0,0:0:0:0:
448,192,386885,1,0,0:0:0:0:
64,192,386968,1,0,0:0:0:0:
448,192,386968,1,8,0:0:0:0:
192,192,387051,1,0,0:0:0:0:
320,192,387135,1,0,0:0:0:0:
192,192,387135,1,8,0:0:0:0:
64,192,387135,1,0,0:0:0:0:
448,192,387218,1,0,0:0:0:0:
448,192,387301,1,8,0:0:0:0:
192,192,387301,1,0,0:0:0:0:
64,192,387385,1,0,0:0:0:0:
320,192,387468,1,0,0:0:0:0:
64,192,387468,1,8,0:0:0:0:
448,192,387551,1,0,0:0:0:0:
320,192,387635,1,0,0:0:0:0:
448,192,387635,1,8,0:0:0:0:
192,192,387718,1,0,0:0:0:0:
192,192,387801,1,8,0:0:0:0:
64,192,387801,1,0,0:0:0:0:
448,192,387885,1,0,0:0:0:0:
64,192,387968,1,0,0:0:0:0:
448,192,387968,1,8,0:0:0:0:
192,192,388051,1,0,0:0:0:0:
320,192,388135,1,8,0:0:0:0:
448,192,388135,1,0,0:0:0:0:
192,192,388218,1,8,0:0:0:0:
64,192,388218,1,0,0:0:0:0:
320,192,388301,1,8,0:0:0:0:
448,192,388301,1,0,0:0:0:0:
64,192,388385,1,0,0:0:0:0:
192,192,388385,1,8,0:0:0:0:
448,192,388468,1,0,0:0:0:0:
320,192,388496,1,0,0:0:0:0:
64,192,388523,1,0,0:0:0:0:
192,192,388551,1,0,0:0:0:0:
448,192,388579,1,0,0:0:0:0:
320,192,388607,1,0,0:0:0:0:
64,192,388635,1,0,0:0:0:0:
192,192,388662,1,0,0:0:0:0:
448,192,388690,1,0,0:0:0:0:
320,192,388718,1,0,0:0:0:0:
192,192,388746,1,0,0:0:0:0:
64,192,388773,1,0,0:0:0:0:
320,192,388801,1,8,0:0:0:0:
448,192,388801,1,4,0:0:0:0:
192,192,388885,1,0,0:0:0:0:
64,192,388968,1,0,0:0:0:0:
192,192,388968,1,8,0:0:0:0:
448,192,389051,1,0,0:0:0:0:
448,192,389135,1,8,0:0:0:0:
192,192,389135,1,0,0:0:0:0:
320,192,389218,1,0,0:0:0:0:
320,192,389301,1,8,0:0:0:0:
64,192,389301,1,0,0:0:0:0:
448,192,389385,1,0,0:0:0:0:
192,192,389468,1,0,0:0:0:0:
448,192,389468,1,8,0:0:0:0:
64,192,389551,1,0,0:0:0:0:
448,192,389635,1,0,0:0:0:0:
64,192,389635,1,8,0:0:0:0:
320,192,389718,1,0,0:0:0:0:
320,192,389801,1,8,0:0:0:0:
64,192,389801,1,0,0:0:0:0:
448,192,389801,1,0,0:0:0:0:
192,192,389885,1,0,0:0:0:0:
448,192,389968,1,0,0:0:0:0:
192,192,389968,1,8,0:0:0:0:
64,192,389968,1,0,0:0:0:0:
320,192,390051,1,0,0:0:0:0:
320,192,390135,1,8,0:0:0:0:
64,192,390135,1,0,0:0:0:0:
192,192,390135,1,0,0:0:0:0:
448,192,390218,1,0,0:0:0:0:
64,192,390301,1,0,0:0:0:0:
448,192,390301,1,8,0:0:0:0:
192,192,390385,1,0,0:0:0:0:
320,192,390468,1,0,0:0:0:0:
192,192,390468,1,8,0:0:0:0:
448,192,390551,1,0,0:0:0:0:
64,192,390635,1,0,0:0:0:0:
448,192,390635,1,8,0:0:0:0:
320,192,390718,1,0,0:0:0:0:
320,192,390801,1,8,0:0:0:0:
64,192,390801,1,0,0:0:0:0:
192,192,390885,1,0,0:0:0:0:
192,192,390968,1,8,0:0:0:0:
448,192,390968,1,0,0:0:0:0:
320,192,391051,1,0,0:0:0:0:
64,192,391135,1,0,0:0:0:0:
448,192,391135,1,8,0:0:0:0:
192,192,391135,1,0,0:0:0:0:
320,192,391218,1,0,0:0:0:0:
448,192,391301,1,0,0:0:0:0:
64,192,391301,1,0,0:0:0:0:
192,192,391301,1,8,0:0:0:0:
192,192,391385,1,0,0:0:0:0:
320,192,391385,1,8,0:0:0:0:
320,192,391468,1,0,0:0:0:0:
448,192,391468,1,8,0:0:0:0:
64,192,391468,1,0,0:0:0:0:
192,192,391551,1,0,0:0:0:0:
448,192,391635,1,0,0:0:0:0:
192,192,391635,1,8,0:0:0:0:
64,192,391718,1,0,0:0:0:0:
448,192,391801,1,0,0:0:0:0:
64,192,391801,1,8,0:0:0:0:
320,192,391885,1,0,0:0:0:0:
192,192,391968,1,0,0:0:0:0:
320,192,391968,1,8,0:0:0:0:
448,192,391968,1,0,0:0:0:0:
64,192,392051,1,0,0:0:0:0:
320,192,392135,1,0,0:0:0:0:
64,192,392135,1,8,0:0:0:0:
448,192,392218,1,0,0:0:0:0:
448,192,392301,1,8,0:0:0:0:
64,192,392301,1,0,0:0:0:0:
192,192,392385,1,0,0:0:0:0:
192,192,392468,1,8,0:0:0:0:
320,192,392468,1,0,0:0:0:0:
64,192,392551,1,0,0:0:0:0:
64,192,392635,1,8,0:0:0:0:
320,192,392635,1,0,0:0:0:0:
448,192,392718,1,0,0:0:0:0:
192,192,392801,1,0,0:0:0:0:
448,192,392801,1,8,0:0:0:0:
320,192,392885,1,0,0:0:0:0:
64,192,392968,1,0,0:0:0:0:
192,192,392968,1,8,0:0:0:0:
320,192,393010,1,8,0:0:0:0:
448,192,393010,1,0,0:0:0:0:
192,192,393051,1,8,0:0:0:0:
64,192,393051,1,0,0:0:0:0:
192,192,393135,1,8,0:0:0:0:
64,192,393135,1,0,0:0:0:0:
448,192,393301,1,0,0:0:0:0:
320,192,393301,1,8,0:0:0:0:
448,192,393468,1,0,0:0:0:0:
320,192,393468,1,8,0:0:0:0:
64,192,393510,1,0,0:0:0:0:
192,192,393510,1,8,0:0:0:0:
320,192,393551,1,8,0:0:0:0:
448,192,393551,1,0,0:0:0:0:
192,192,393593,1,8,0:0:0:0:
64,192,393593,1,0,0:0:0:0:
320,192,393635,1,8,0:0:0:0:
448,192,393635,1,0,0:0:0:0:
320,192,393718,1,8,0:0:0:0:
448,192,393718,1,0,0:0:0:0:
64,192,393801,1,0,0:0:0:0:
192,192,393801,1,8,0:0:0:0:
448,192,393968,1,0,0:0:0:0:
320,192,393996,1,0,0:0:0:0:
64,192,394023,1,0,0:0:0:0:
192,192,394051,1,0,0:0:0:0:
320,192,394079,1,0,0:0:0:0:
448,192,394107,1,0,0:0:0:0:
192,192,394135,1,8,0:0:0:0:
64,192,394135,1,4,0:0:0:0:
320,192,394218,1,0,0:0:0:0:
448,192,394301,1,0,0:0:0:0:
320,192,394301,1,8,0:0:0:0:
192,192,394385,1,0,0:0:0:0:
192,192,394468,1,8,0:0:0:0:
64,192,394468,1,0,0:0:0:0:
448,192,394551,1,0,0:0:0:0:
448,192,394635,1,8,0:0:0:0:
192,192,394635,1,0,0:0:0:0:
64,192,394718,1,0,0:0:0:0:
64,192,394801,1,8,0:0:0:0:
448,192,394801,1,0,0:0:0:0:
320,192,394885,1,0,0:0:0:0:
320,192,394968,1,8,0:0:0:0:
64,192,394968,1,0,0:0:0:0:
192,192,395051,1,0,0:0:0:0:
192,192,395135,1,8,0:0:0:0:
320,192,395135,1,0,0:0:0:0:
448,192,395218,1,0,0:0:0:0:
448,192,395301,1,8,0:0:0:0:
192,192,395301,1,0,0:0:0:0:
64,192,395385,1,0,0:0:0:0:
64,192,395468,1,8,0:0:0:0:
448,192,395468,1,0,0:0:0:0:
192,192,395468,1,0,0:0:0:0:
320,192,395551,1,0,0:0:0:0:
320,192,395635,1,8,0:0:0:0:
64,192,395635,1,0,0:0:0:0:
448,192,395635,1,0,0:0:0:0:
192,192,395718,1,0,0:0:0:0:
192,192,395801,1,8,0:0:0:0:
320,192,395801,1,0,0:0:0:0:
64,192,395801,1,0,0:0:0:0:
448,192,395885,1,0,0:0:0:0:
448,192,395968,1,8,0:0:0:0:
64,192,395968,1,0,0:0:0:0:
192,192,395968,1,0,0:0:0:0:
320,192,396051,1,0,0:0:0:0:
320,192,396135,1,8,0:0:0:0:
192,192,396135,1,0,0:0:0:0:
448,192,396135,1,0,0:0:0:0:
64,192,396218,1,0,0:0:0:0:
64,192,396301,1,8,0:0:0:0:
192,192,396301,1,0,0:0:0:0:
448,192,396385,1,0,0:0:0:0:
320,192,396385,1,0,0:0:0:0:
448,192,396468,1,8,0:0:0:0:
64,192,396468,1,0,0:0:0:0:
320,192,396551,1,0,0:0:0:0:
192,192,396635,1,8,0:0:0:0:
64,192,396635,1,0,0:0:0:0:
448,192,396635,1,0,0:0:0:0:
448,192,396718,1,0,0:0:0:0:
320,192,396718,1,8,0:0:0:0:
192,192,396801,1,8,0:0:0:0:
64,192,396801,1,0,0:0:0:0:
320,192,396885,1,0,0:0:0:0:
64,192,396968,1,0,0:0:0:0:
320,192,396968,1,8,0:0:0:0:
192,192,397051,1,0,0:0:0:0:
192,192,397135,1,8,0:0:0:0:
448,192,397135,1,0,0:0:0:0:
64,192,397218,1,0,0:0:0:0:
320,192,397301,1,0,0:0:0:0:
64,192,397301,1,8,0:0:0:0:
448,192,397385,1,0,0:0:0:0:
448,192,397468,1,8,0:0:0:0:
64,192,397468,1,0,0:0:0:0:
192,192,397551,1,0,0:0:0:0:
448,192,397635,1,0,0:0:0:0:
192,192,397635,1,8,0:0:0:0:
320,192,397718,1,0,0:0:0:0:
320,192,397801,1,8,0:0:0:0:
64,192,397801,1,0,0:0:0:0:
448,192,397885,1,0,0:0:0:0:
448,192,397968,1,8,0:0:0:0:
192,192,397968,1,0,0:0:0:0:
64,192,398051,1,0,0:0:0:0:
64,192,398135,1,8,0:0:0:0:
448,192,398135,1,0,0:0:0:0:
320,192,398218,1,0,0:0:0:0:
64,192,398301,1,0,0:0:0:0:
192,192,398301,1,8,0:0:0:0:
320,192,398343,1,8,0:0:0:0:
448,192,398343,1,0,0:0:0:0:
192,192,398385,1,8,0:0:0:0:
64,192,398385,1,0,0:0:0:0:
320,192,398468,1,8,0:0:0:0:
448,192,398468,1,0,0:0:0:0:
64,192,398635,1,0,0:0:0:0:
192,192,398635,1,8,0:0:0:0:
320,192,398718,1,8,0:0:0:0:
448,192,398718,1,0,0:0:0:0:
64,192,398801,1,0,0:0:0:0:
192,192,398801,1,8,0:0:0:0:
320,192,398843,1,8,0:0:0:0:
448,192,398843,1,0,0:0:0:0:
192,192,398885,1,8,0:0:0:0:
64,192,398885,1,0,0:0:0:0:
320,192,398926,1,8,0:0:0:0:
448,192,398926,1,0,0:0:0:0:
192,192,398968,1,8,0:0:0:0:
64,192,398968,1,0,0:0:0:0:
448,192,399051,1,0,0:0:0:0:
320,192,399051,1,8,0:0:0:0:
192,192,399135,1,0,0:0:0:0:
64,192,399162,1,0,0:0:0:0:
320,192,399190,1,0,0:0:0:0:
448,192,399218,1,0,0:0:0:0:
192,192,399246,1,0,0:0:0:0:
64,192,399273,1,0,0:0:0:0:
448,192,399301,1,0,0:0:0:0:
320,192,399329,1,0,0:0:0:0:
192,192,399357,1,0,0:0:0:0:
64,192,399385,1,0,0:0:0:0:
320,192,399412,1,0,0:0:0:0:
448,192,399440,1,0,0:0:0:0:
192,192,399468,1,8,0:0:0:0:
64,192,399468,1,4,0:0:0:0:
320,192,399551,1,0,0:0:0:0:
320,192,399635,1,8,0:0:0:0:
448,192,399635,1,0,0:0:0:0:
192,192,399718,1,0,0:0:0:0:
192,192,399801,1,8,0:0:0:0:
64,192,399801,1,0,0:0:0:0:
320,192,399885,1,0,0:0:0:0:
448,192,399968,1,0,0:0:0:0:
320,192,399968,1,8,0:0:0:0:
64,192,400051,1,0,0:0:0:0:
448,192,400135,1,0,0:0:0:0:
64,192,400135,1,8,0:0:0:0:
192,192,400218,1,0,0:0:0:0:
192,192,400301,1,8,0:0:0:0:
448,192,400301,1,0,0:0:0:0:
320,192,400385,1,0,0:0:0:0:
64,192,400468,1,0,0:0:0:0:
320,192,400468,1,8,0:0:0:0:
192,192,400468,1,0,0:0:0:0:
448,192,400551,1,0,0:0:0:0:
64,192,400635,1,0,0:0:0:0:
448,192,400635,1,8,0:0:0:0:
320,192,400718,1,0,0:0:0:0:
192,192,400801,1,0,0:0:0:0:
320,192,400801,1,8,0:0:0:0:
448,192,400801,1,0,0:0:0:0:
64,192,400885,1,0,0:0:0:0:
448,192,400968,1,0,0:0:0:0:
64,192,400968,1,8,0:0:0:0:
192,192,401051,1,0,0:0:0:0:
192,192,401135,1,8,0:0:0:0:
320,192,401135,1,0,0:0:0:0:
64,192,401218,1,0,0:0:0:0:
64,192,401301,1,8,0:0:0:0:
320,192,401301,1,0,0:0:0:0:
192,192,401301,1,0,0:0:0:0:
448,192,401385,1,0,0:0:0:0:
448,192,401468,1,8,0:0:0:0:
192,192,401468,1,0,0:0:0:0:
64,192,401551,1,0,0:0:0:0:
64,192,401635,1,8,0:0:0:0:
448,192,401635,1,0,0:0:0:0:
192,192,401718,1,0,0:0:0:0:
192,192,401801,1,8,0:0:0:0:
448,192,401801,1,0,0:0:0:0:
64,192,401801,1,0,0:0:0:0:
320,192,401885,1,0,0:0:0:0:
64,192,401968,1,0,0:0:0:0:
192,192,401968,1,8,0:0:0:0:
448,192,401968,1,0,0:0:0:0:
320,192,402051,1,8,0:0:0:0:
448,192,402051,1,0,0:0:0:0:
64,192,402135,1,0,0:0:0:0:
192,192,402135,1,8,0:0:0:0:
320,192,402135,1,0,0:0:0:0:
448,192,402218,1,0,0:0:0:0:
64,192,402301,1,0,0:0:0:0:
448,192,402301,1,8,0:0:0:0:
320,192,402301,1,0,0:0:0:0:
192,192,402385,1,0,0:0:0:0:
448,192,402468,1,0,0:0:0:0:
192,192,402468,1,8,0:0:0:0:
320,192,402468,1,0,0:0:0:0:
64,192,402551,1,0,0:0:0:0:
64,192,402635,1,8,0:0:0:0:
320,192,402635,1,0,0:0:0:0:
192,192,402635,1,0,0:0:0:0:
448,192,402718,1,0,0:0:0:0:
448,192,402801,1,8,0:0:0:0:
64,192,402801,1,0,0:0:0:0:
320,192,402801,1,0,0:0:0:0:
192,192,402885,1,0,0:0:0:0:
192,192,402968,1,8,0:0:0:0:
64,192,402968,1,0,0:0:0:0:
448,192,402968,1,0,0:0:0:0:
320,192,403051,1,0,0:0:0:0:
448,192,403135,1,0,0:0:0:0:
320,192,403135,1,8,0:0:0:0:
64,192,403218,1,0,0:0:0:0:
64,192,403301,1,8,0:0:0:0:
320,192,403301,1,0,0:0:0:0:
448,192,403301,1,0,0:0:0:0:
192,192,403385,1,0,0:0:0:0:
192,192,403468,1,8,0:0:0:0:
64,192,403468,1,0,0:0:0:0:
320,192,403468,128,0,403635:0:0:0:0:
448,192,403468,128,0,403635:0:0:0:0:
64,192,403635,1,0,0:0:0:0:
192,192,403718,1,8,0:0:0:0:
64,192,403718,1,0,0:0:0:0:
320,192,403801,1,8,0:0:0:0:
448,192,403801,1,0,0:0:0:0:
192,192,403843,1,8,0:0:0:0:
64,192,403843,1,0,0:0:0:0:
320,192,403885,1,8,0:0:0:0:
448,192,403885,1,0,0:0:0:0:
192,192,403926,1,8,0:0:0:0:
64,192,403926,1,0,0:0:0:0:
320,192,403968,1,8,0:0:0:0:
448,192,403968,1,0,0:0:0:0:
64,192,404135,1,0,0:0:0:0:
192,192,404135,1,8,0:0:0:0:
448,192,404218,1,0,0:0:0:0:
320,192,404218,1,8,0:0:0:0:
192,192,404301,1,8,0:0:0:0:
64,192,404301,1,0,0:0:0:0:
320,192,404385,1,8,0:0:0:0:
448,192,404385,1,0,0:0:0:0:
64,192,404468,1,0,0:0:0:0:
192,192,404496,1,0,0:0:0:0:
320,192,404523,1,0,0:0:0:0:
448,192,404551,1,0,0:0:0:0:
64,192,404579,1,0,0:0:0:0:
192,192,404607,1,0,0:0:0:0:
448,192,404635,1,0,0:0:0:0:
320,192,404662,1,0,0:0:0:0:
192,192,404690,1,0,0:0:0:0:
64,192,404718,1,0,0:0:0:0:
448,192,404746,1,0,0:0:0:0:
320,192,404773,1,0,0:0:0:0:
192,192,404801,1,8,0:0:0:0:
64,192,404801,1,4,0:0:0:0:
448,192,404885,1,0,0:0:0:0:
64,192,404968,1,0,0:0:0:0:
448,192,404968,1,8,0:0:0:0:
192,192,405051,1,0,0:0:0:0:
320,192,405135,1,0,0:0:0:0:
192,192,405135,1,8,0:0:0:0:
64,192,405218,1,0,0:0:0:0:
64,192,405301,1,8,0:0:0:0:
448,192,405301,1,0,0:0:0:0:
320,192,405385,1,0,0:0:0:0:
320,192,405468,1,8,0:0:0:0:
64,192,405468,1,0,0:0:0:0:
192,192,405551,1,0,0:0:0:0:
192,192,405635,1,8,0:0:0:0:
448,192,405635,1,0,0:0:0:0:
64,192,405718,1,0,0:0:0:0:
64,192,405801,1,8,0:0:0:0:
448,192,405801,1,0,0:0:0:0:
320,192,405801,1,0,0:0:0:0:
192,192,405885,1,0,0:0:0:0:
320,192,405968,1,0,0:0:0:0:
192,192,405968,1,8,0:0:0:0:
64,192,405968,1,0,0:0:0:0:
448,192,406051,1,0,0:0:0:0:
448,192,406135,1,8,0:0:0:0:
64,192,406135,1,0,0:0:0:0:
192,192,406135,1,0,0:0:0:0:
320,192,406218,1,0,0:0:0:0:
64,192,406301,1,0,0:0:0:0:
320,192,406301,1,8,0:0:0:0:
192,192,406385,1,0,0:0:0:0:
192,192,406468,1,8,0:0:0:0:
448,192,406468,1,0,0:0:0:0:
64,192,406551,1,0,0:0:0:0:
448,192,406635,1,0,0:0:0:0:
64,192,406635,1,8,0:0:0:0:
320,192,406718,1,0,0:0:0:0:
64,192,406801,1,0,0:0:0:0:
320,192,406801,1,8,0:0:0:0:
448,192,406885,1,0,0:0:0:0:
192,192,406968,1,0,0:0:0:0:
448,192,406968,1,8,0:0:0:0:
64,192,407051,1,0,0:0:0:0:
64,192,407135,1,8,0:0:0:0:
448,192,407135,1,0,0:0:0:0:
192,192,407135,1,0,0:0:0:0:
320,192,407218,1,0,0:0:0:0:
64,192,407301,1,0,0:0:0:0:
192,192,407301,1,8,0:0:0:0:
320,192,407385,1,8,0:0:0:0:
448,192,407385,1,0,0:0:0:0:
64,192,407468,1,0,0:0:0:0:
192,192,407510,1,0,0:0:0:0:
320,192,407551,1,0,0:0:0:0:
448,192,407593,1,0,0:0:0:0:
192,192,407635,1,0,0:0:0:0:
64,192,407676,1,0,0:0:0:0:
320,192,407718,1,0,0:0:0:0:
448,192,407760,1,0,0:0:0:0:
64,192,407801,1,0,0:0:0:0:
192,192,407843,1,0,0:0:0:0:
320,192,407885,1,0,0:0:0:0:
448,192,407926,1,0,0:0:0:0:
192,192,407968,1,0,0:0:0:0:
64,192,408010,1,0,0:0:0:0:
448,192,408051,1,0,0:0:0:0:
320,192,408093,1,0,0:0:0:0:
192,192,408135,1,0,0:0:0:0:
64,192,408176,1,0,0:0:0:0:
320,192,408218,1,0,0:0:0:0:
448,192,408260,1,0,0:0:0:0:
64,192,408301,1,0,0:0:0:0:
192,192,408343,1,0,0:0:0:0:
320,192,408385,1,0,0:0:0:0:
448,192,408426,1,0,0:0:0:0:
192,192,408468,1,0,0:0:0:0:
64,192,408510,1,0,0:0:0:0:
448,192,408551,1,0,0:0:0:0:
320,192,408593,1,0,0:0:0:0:
64,192,408635,1,0,0:0:0:0:
192,192,408676,1,0,0:0:0:0:
320,192,408718,1,0,0:0:0:0:
448,192,408760,1,0,0:0:0:0:
192,192,408801,1,0,0:0:0:0:
64,192,408843,1,0,0:0:0:0:
320,192,408885,1,0,0:0:0:0:
448,192,408926,1,0,0:0:0:0:
192,192,408968,1,0,0:0:0:0:
64,192,409010,1,0,0:0:0:0:
320,192,409051,1,0,0:0:0:0:
448,192,409093,1,0,0:0:0:0:
192,192,409135,1,0,0:0:0:0:
64,192,409176,1,0,0:0:0:0:
320,192,409218,1,0,0:0:0:0:
448,192,409260,1,0,0:0:0:0:
192,192,409301,1,0,0:0:0:0:
64,192,409343,1,0,0:0:0:0:
320,192,409385,1,0,0:0:0:0:
448,192,409426,1,0,0:0:0:0:
64,192,409468,1,0,0:0:0:0:
192,192,409496,1,0,0:0:0:0:
448,192,409523,1,0,0:0:0:0:
320,192,409551,1,0,0:0:0:0:
64,192,409579,1,0,0:0:0:0:
192,192,409607,1,0,0:0:0:0:
448,192,409635,1,0,0:0:0:0:
320,192,409662,1,0,0:0:0:0:
64,192,409690,1,0,0:0:0:0:
192,192,409718,1,0,0:0:0:0:
448,192,409746,1,0,0:0:0:0:
320,192,409773,1,0,0:0:0:0:
64,192,409801,1,0,0:0:0:0:
192,192,409829,1,0,0:0:0:0:
448,192,409857,1,0,0:0:0:0:
320,192,409885,1,0,0:0:0:0:
64,192,409912,1,0,0:0:0:0:
192,192,409940,1,0,0:0:0:0:
448,192,409968,1,0,0:0:0:0:
320,192,409996,1,0,0:0:0:0:
64,192,410023,1,0,0:0:0:0:
192,192,410051,1,0,0:0:0:0:
448,192,410079,1,0,0:0:0:0:
320,192,410107,1,0,0:0:0:0:
64,192,410134,1,4,0:0:0:0:
192,192,410134,1,8,0:0:0:0:
448,192,410212,1,0,0:0:0:0:
64,192,410212,1,8,0:0:0:0:
192,192,410291,1,8,0:0:0:0:
448,192,410291,1,0,0:0:0:0:
320,192,410370,1,0,0:0:0:0:
192,192,410370,1,8,0:0:0:0:
64,192,410449,1,8,0:0:0:0:
320,192,410449,1,0,0:0:0:0:
64,192,410528,1,8,0:0:0:0:
448,192,410528,1,0,0:0:0:0:
192,192,410607,1,8,0:0:0:0:
448,192,410607,1,0,0:0:0:0:
320,192,410686,1,0,0:0:0:0:
192,192,410686,1,8,0:0:0:0:
64,192,410765,1,8,0:0:0:0:
320,192,410765,1,0,0:0:0:0:
64,192,410844,1,8,0:0:0:0:
192,192,410844,1,0,0:0:0:0:
448,192,410923,1,0,0:0:0:0:
192,192,410923,1,8,0:0:0:0:
64,192,411002,1,8,0:0:0:0:
448,192,411002,1,0,0:0:0:0:
320,192,411081,1,0,0:0:0:0:
64,192,411081,1,8,0:0:0:0:
320,192,411160,1,0,0:0:0:0:
192,192,411160,1,8,0:0:0:0:
192,192,411239,1,0,0:0:0:0:
64,192,411239,1,8,0:0:0:0:
320,192,411318,1,8,0:0:0:0:
448,192,411318,1,0,0:0:0:0:
64,192,411357,1,8,0:0:0:0:
192,192,411357,1,0,0:0:0:0:
320,192,411397,1,8,0:0:0:0:
448,192,411397,1,0,0:0:0:0:
64,192,411476,1,8,0:0:0:0:
192,192,411476,1,0,0:0:0:0:
64,192,411555,1,8,0:0:0:0:
320,192,411555,1,0,0:0:0:0:
320,192,411634,1,8,0:0:0:0:
448,192,411634,1,0,0:0:0:0:
448,192,411712,1,0,0:0:0:0:
192,192,411712,1,8,0:0:0:0:
64,192,411791,1,8,0:0:0:0:
192,192,411791,1,0,0:0:0:0:
448,192,411870,1,0,0:0:0:0:
64,192,411870,1,8,0:0:0:0:
448,192,411949,1,0,0:0:0:0:
192,192,411949,1,8,0:0:0:0:
320,192,412028,1,0,0:0:0:0:
192,192,412028,1,8,0:0:0:0:
64,192,412107,1,8,0:0:0:0:
320,192,412107,1,0,0:0:0:0:
448,192,412186,1,0,0:0:0:0:
64,192,412186,1,8,0:0:0:0:
192,192,412265,1,8,0:0:0:0:
448,192,412265,1,0,0:0:0:0:
320,192,412344,1,0,0:0:0:0:
64,192,412344,1,8,0:0:0:0:
64,192,412423,1,8,0:0:0:0:
192,192,412423,1,0,0:0:0:0:
320,192,412502,1,8,0:0:0:0:
448,192,412502,1,0,0:0:0:0:
192,192,412541,1,0,0:0:0:0:
64,192,412541,1,8,0:0:0:0:
320,192,412581,1,8,0:0:0:0:
448,192,412581,1,0,0:0:0:0:
192,192,412620,1,0,0:0:0:0:
64,192,412620,1,8,0:0:0:0:
320,192,412660,1,8,0:0:0:0:
448,192,412660,1,0,0:0:0:0:
64,192,412739,1,8,0:0:0:0:
192,192,412739,1,0,0:0:0:0:
448,192,412818,1,0,0:0:0:0:
64,192,412818,1,8,0:0:0:0:
192,192,412897,1,8,0:0:0:0:
448,192,412897,1,0,0:0:0:0:
320,192,412976,1,0,0:0:0:0:
192,192,412976,1,8,0:0:0:0:
64,192,413055,1,8,0:0:0:0:
320,192,413055,1,0,0:0:0:0:
64,192,413134,1,8,0:0:0:0:
448,192,413134,1,0,0:0:0:0:
448,192,413212,1,0,0:0:0:0:
192,192,413212,1,8,0:0:0:0:
320,192,413291,1,0,0:0:0:0:
192,192,413291,1,8,0:0:0:0:
64,192,413370,1,8,0:0:0:0:
448,192,413370,1,0,0:0:0:0:
64,192,413449,1,8,0:0:0:0:
192,192,413449,1,0,0:0:0:0:
448,192,413528,1,0,0:0:0:0:
192,192,413528,1,8,0:0:0:0:
448,192,413607,1,0,0:0:0:0:
64,192,413607,1,8,0:0:0:0:
320,192,413686,1,0,0:0:0:0:
192,192,413686,1,8,0:0:0:0:
192,192,413765,1,0,0:0:0:0:
64,192,413765,1,8,0:0:0:0:
320,192,413844,1,8,0:0:0:0:
448,192,413844,1,0,0:0:0:0:
64,192,413884,1,8,0:0:0:0:
192,192,413884,1,0,0:0:0:0:
320,192,413923,1,8,0:0:0:0:
448,192,413923,1,0,0:0:0:0:
192,192,414002,1,0,0:0:0:0:
64,192,414002,1,8,0:0:0:0:
320,192,414041,1,8,0:0:0:0:
448,192,414041,1,0,0:0:0:0:
64,192,414081,1,8,0:0:0:0:
192,192,414081,1,0,0:0:0:0:
192,192,414160,1,0,0:0:0:0:
64,192,414160,1,8,0:0:0:0:
448,192,414239,1,0,0:0:0:0:
320,192,414239,1,8,0:0:0:0:
192,192,414278,1,0,0:0:0:0:
64,192,414278,1,8,0:0:0:0:
448,192,414318,1,0,0:0:0:0:
320,192,414318,1,8,0:0:0:0:
192,192,414357,1,0,0:0:0:0:
64,192,414357,1,8,0:0:0:0:
320,192,414397,1,8,0:0:0:0:
448,192,414397,1,0,0:0:0:0:
192,192,414476,1,0,0:0:0:0:
64,192,414476,1,8,0:0:0:0:
320,192,414555,1,8,0:0:0:0:
448,192,414555,1,0,0:0:0:0:
64,192,414634,1,8,0:0:0:0:
192,192,414634,1,0,0:0:0:0:
320,192,414673,1,8,0:0:0:0:
448,192,414673,1,0,0:0:0:0:
192,192,414712,1,0,0:0:0:0:
64,192,414712,1,8,0:0:0:0:
192,192,414791,1,0,0:0:0:0:
64,192,414791,1,8,0:0:0:0:
448,192,414870,1,0,0:0:0:0:
320,192,414897,1,0,0:0:0:0:
64,192,414923,1,0,0:0:0:0:
192,192,414949,1,0,0:0:0:0:
448,192,414976,1,0,0:0:0:0:
320,192,415002,1,0,0:0:0:0:
64,192,415028,1,0,0:0:0:0:
192,192,415055,1,0,0:0:0:0:
448,192,415081,1,0,0:0:0:0:
320,192,415107,1,0,0:0:0:0:
64,192,415134,1,0,0:0:0:0:
192,192,415160,1,0,0:0:0:0:
320,192,415186,1,8,0:0:0:0:
448,192,415186,1,4,0:0:0:0:
448,192,415265,1,0,0:0:0:0:
64,192,415265,1,8,0:0:0:0:
64,192,415344,1,8,0:0:0:0:
192,192,415344,1,0,0:0:0:0:
448,192,415423,1,0,0:0:0:0:
192,192,415423,1,8,0:0:0:0:
448,192,415502,1,0,0:0:0:0:
320,192,415502,1,8,0:0:0:0:
64,192,415581,1,8,0:0:0:0:
320,192,415581,1,0,0:0:0:0:
64,192,415660,1,8,0:0:0:0:
448,192,415660,1,0,0:0:0:0:
448,192,415739,1,0,0:0:0:0:
192,192,415739,1,8,0:0:0:0:
320,192,415818,1,0,0:0:0:0:
192,192,415818,1,8,0:0:0:0:
64,192,415897,1,8,0:0:0:0:
448,192,415897,1,0,0:0:0:0:
192,192,415976,1,8,0:0:0:0:
320,192,415976,1,0,0:0:0:0:
64,192,416055,1,8,0:0:0:0:
320,192,416055,1,0,0:0:0:0:
448,192,416134,1,0,0:0:0:0:
64,192,416134,1,8,0:0:0:0:
192,192,416212,1,8,0:0:0:0:
320,192,416212,1,0,0:0:0:0:
448,192,416291,1,0,0:0:0:0:
320,192,416291,1,8,0:0:0:0:
192,192,416370,1,0,0:0:0:0:
64,192,416370,1,8,0:0:0:0:
320,192,416410,1,8,0:0:0:0:
448,192,416410,1,0,0:0:0:0:
192,192,416449,1,0,0:0:0:0:
64,192,416449,1,8,0:0:0:0:
320,192,416528,1,8,0:0:0:0:
448,192,416528,1,0,0:0:0:0:
448,192,416607,1,0,0:0:0:0:
64,192,416607,1,8,0:0:0:0:
64,192,416686,1,8,0:0:0:0:
320,192,416686,1,0,0:0:0:0:
192,192,416765,1,8,0:0:0:0:
320,192,416765,1,0,0:0:0:0:
448,192,416844,1,0,0:0:0:0:
192,192,416844,1,8,0:0:0:0:
448,192,416923,1,0,0:0:0:0:
64,192,416923,1,8,0:0:0:0:
64,192,417002,1,8,0:0:0:0:
320,192,417002,1,0,0:0:0:0:
192,192,417081,1,8,0:0:0:0:
320,192,417081,1,0,0:0:0:0:
448,192,417160,1,0,0:0:0:0:
192,192,417160,1,8,0:0:0:0:
64,192,417239,1,8,0:0:0:0:
320,192,417239,1,0,0:0:0:0:
64,192,417318,1,8,0:0:0:0:
448,192,417318,1,0,0:0:0:0:
448,192,417397,1,0,0:0:0:0:
320,192,417397,1,8,0:0:0:0:
192,192,417476,1,0,0:0:0:0:
64,192,417476,1,8,0:0:0:0:
320,192,417555,1,8,0:0:0:0:
448,192,417555,1,0,0:0:0:0:
192,192,417594,1,0,0:0:0:0:
64,192,417594,1,8,0:0:0:0:
448,192,417634,1,0,0:0:0:0:
320,192,417634,1,8,0:0:0:0:
192,192,417673,1,0,0:0:0:0:
64,192,417673,1,8,0:0:0:0:
448,192,417712,1,0,0:0:0:0:
320,192,417712,1,8,0:0:0:0:
192,192,417791,1,0,0:0:0:0:
64,192,417791,1,8,0:0:0:0:
64,192,417870,1,8,0:0:0:0:
320,192,417870,1,0,0:0:0:0:
192,192,417949,1,8,0:0:0:0:
448,192,417949,1,0,0:0:0:0:
320,192,418028,1,0,0:0:0:0:
192,192,418028,1,8,0:0:0:0:
64,192,418107,1,8,0:0:0:0:
448,192,418107,1,0,0:0:0:0:
192,192,418186,1,8,0:0:0:0:
448,192,418186,1,0,0:0:0:0:
320,192,418265,1,0,0:0:0:0:
64,192,418265,1,8,0:0:0:0:
64,192,418344,1,8,0:0:0:0:
448,192,418344,1,0,0:0:0:0:
320,192,418423,1,0,0:0:0:0:
192,192,418423,1,8,0:0:0:0:
64,192,418502,1,8,0:0:0:0:
192,192,418502,1,0,0:0:0:0:
320,192,418581,1,0,0:0:0:0:
448,192,418581,1,0,0:0:0:0:
64,192,418660,1,8,0:0:0:0:
320,192,418660,1,0,0:0:0:0:
192,192,418739,1,8,0:0:0:0:
448,192,418739,1,0,0:0:0:0:
320,192,418818,1,8,0:0:0:0:
448,192,418818,1,0,0:0:0:0:
64,192,418897,1,8,0:0:0:0:
192,192,418897,1,0,0:0:0:0:
320,192,418936,1,8,0:0:0:0:
448,192,418936,1,0,0:0:0:0:
64,192,418976,1,0,0:0:0:0:
192,192,419002,1,0,0:0:0:0:
320,192,419028,1,0,0:0:0:0:
448,192,419055,1,0,0:0:0:0:
192,192,419134,1,0,0:0:0:0:
64,192,419134,1,8,0:0:0:0:
448,192,419212,1,0,0:0:0:0:
320,192,419239,1,0,0:0:0:0:
192,192,419265,1,0,0:0:0:0:
64,192,419291,1,0,0:0:0:0:
320,192,419370,1,8,0:0:0:0:
448,192,419370,1,0,0:0:0:0:
64,192,419449,1,0,0:0:0:0:
192,192,419469,1,0,0:0:0:0:
320,192,419489,1,0,0:0:0:0:
448,192,419509,1,0,0:0:0:0:
64,192,419528,1,0,0:0:0:0:
192,192,419548,1,0,0:0:0:0:
320,192,419568,1,0,0:0:0:0:
448,192,419587,1,0,0:0:0:0:
64,192,419607,1,8,0:0:0:0:
192,192,419607,1,0,0:0:0:0:
320,192,419686,1,8,0:0:0:0:
448,192,419686,1,0,0:0:0:0:
192,192,419765,1,0,0:0:0:0:
64,192,419765,1,8,0:0:0:0:
320,192,419844,1,8,0:0:0:0:
448,192,419844,1,0,0:0:0:0:
64,192,419923,1,0,0:0:0:0:
192,192,419949,1,0,0:0:0:0:
448,192,419976,1,0,0:0:0:0:
320,192,420002,1,0,0:0:0:0:
64,192,420028,1,0,0:0:0:0:
192,192,420055,1,0,0:0:0:0:
448,192,420081,1,0,0:0:0:0:
320,192,420107,1,0,0:0:0:0:
64,192,420140,1,0,0:0:0:0:
192,192,420160,1,0,0:0:0:0:
448,192,420186,1,0,0:0:0:0:
320,192,420212,1,0,0:0:0:0:
192,192,420239,1,8,0:0:0:0:
64,192,420239,1,4,0:0:0:0:
64,192,420318,1,8,0:0:0:0:
448,192,420318,1,0,0:0:0:0:
448,192,420397,1,0,0:0:0:0:
320,192,420397,1,8,0:0:0:0:
320,192,420476,1,0,0:0:0:0:
64,192,420476,1,8,0:0:0:0:
64,192,420555,1,8,0:0:0:0:
192,192,420555,1,0,0:0:0:0:
192,192,420634,1,8,0:0:0:0:
448,192,420634,1,0,0:0:0:0:
448,192,420712,1,0,0:0:0:0:
320,192,420712,1,8,0:0:0:0:
64,192,420791,1,8,0:0:0:0:
320,192,420791,1,0,0:0:0:0:
192,192,420870,1,8,0:0:0:0:
448,192,420870,1,0,0:0:0:0:
192,192,420949,1,0,0:0:0:0:
64,192,420949,1,8,0:0:0:0:
64,192,421028,1,8,0:0:0:0:
320,192,421028,1,0,0:0:0:0:
448,192,421107,1,0,0:0:0:0:
320,192,421107,1,8,0:0:0:0:
448,192,421186,1,0,0:0:0:0:
192,192,421186,1,8,0:0:0:0:
64,192,421265,1,8,0:0:0:0:
192,192,421265,1,0,0:0:0:0:
64,192,421344,1,8,0:0:0:0:
320,192,421344,1,0,0:0:0:0:
320,192,421423,1,8,0:0:0:0:
448,192,421423,1,0,0:0:0:0:
192,192,421462,1,0,0:0:0:0:
64,192,421462,1,8,0:0:0:0:
320,192,421502,1,8,0:0:0:0:
448,192,421502,1,0,0:0:0:0:
192,192,421581,1,0,0:0:0:0:
64,192,421581,1,8,0:0:0:0:
64,192,421660,1,8,0:0:0:0:
448,192,421660,1,0,0:0:0:0:
448,192,421739,1,0,0:0:0:0:
320,192,421739,1,8,0:0:0:0:
64,192,421818,1,8,0:0:0:0:
320,192,421818,1,0,0:0:0:0:
192,192,421897,1,0,0:0:0:0:
64,192,421897,1,8,0:0:0:0:
320,192,421976,1,8,0:0:0:0:
448,192,421976,1,0,0:0:0:0:
448,192,422055,1,0,0:0:0:0:
192,192,422055,1,8,0:0:0:0:
64,192,422134,1,8,0:0:0:0:
320,192,422134,1,0,0:0:0:0:
64,192,422212,1,8,0:0:0:0:
448,192,422212,1,0,0:0:0:0:
448,192,422291,1,0,0:0:0:0:
320,192,422291,1,8,0:0:0:0:
192,192,422370,1,0,0:0:0:0:
64,192,422370,1,8,0:0:0:0:
64,192,422449,1,8,0:0:0:0:
320,192,422449,1,0,0:0:0:0:
320,192,422528,1,8,0:0:0:0:
448,192,422528,1,0,0:0:0:0:
64,192,422607,1,8,0:0:0:0:
192,192,422607,1,0,0:0:0:0:
448,192,422647,1,0,0:0:0:0:
320,192,422647,1,8,0:0:0:0:
64,192,422686,1,8,0:0:0:0:
192,192,422686,1,0,0:0:0:0:
320,192,422726,1,8,0:0:0:0:
448,192,422726,1,0,0:0:0:0:
192,192,422765,1,0,0:0:0:0:
64,192,422765,1,12,0:0:0:0:
448,192,422844,1,0,0:0:0:0:
320,192,422844,1,8,0:0:0:0:
64,192,422923,1,8,0:0:0:0:
320,192,422923,1,0,0:0:0:0:
192,192,423002,1,0,0:0:0:0:
64,192,423002,1,8,0:0:0:0:
448,192,423081,1,0,0:0:0:0:
192,192,423081,1,8,0:0:0:0:
320,192,423160,1,8,0:0:0:0:
448,192,423160,1,0,0:0:0:0:
320,192,423239,1,0,0:0:0:0:
64,192,423239,1,8,0:0:0:0:
64,192,423318,1,8,0:0:0:0:
192,192,423318,1,0,0:0:0:0:
192,192,423397,1,8,0:0:0:0:
448,192,423397,1,0,0:0:0:0:
448,192,423476,1,0,0:0:0:0:
320,192,423476,1,8,0:0:0:0:
64,192,423555,1,8,0:0:0:0:
192,192,423555,1,0,0:0:0:0:
192,192,423634,1,8,0:0:0:0:
448,192,423634,1,0,0:0:0:0:
64,192,423712,1,8,0:0:0:0:
448,192,423712,1,0,0:0:0:0:
64,192,423791,1,8,0:0:0:0:
320,192,423791,1,0,0:0:0:0:
320,192,423870,1,8,0:0:0:0:
448,192,423870,1,0,0:0:0:0:
64,192,423949,1,8,0:0:0:0:
192,192,423949,1,0,0:0:0:0:
320,192,423989,1,8,0:0:0:0:
448,192,423989,1,0,0:0:0:0:
192,192,424028,1,0,0:0:0:0:
64,192,424028,1,8,0:0:0:0:
448,192,424107,1,0,0:0:0:0:
320,192,424107,1,8,0:0:0:0:
192,192,424147,1,0,0:0:0:0:
64,192,424147,1,8,0:0:0:0:
320,192,424186,1,8,0:0:0:0:
448,192,424186,1,0,0:0:0:0:
320,192,424265,1,8,0:0:0:0:
448,192,424265,1,0,0:0:0:0:
64,192,424344,1,8,0:0:0:0:
192,192,424344,1,0,0:0:0:0:
320,192,424384,1,8,0:0:0:0:
448,192,424384,1,0,0:0:0:0:
192,192,424423,1,0,0:0:0:0:
64,192,424423,1,8,0:0:0:0:
320,192,424462,1,8,0:0:0:0:
448,192,424462,1,0,0:0:0:0:
192,192,424502,1,0,0:0:0:0:
64,192,424502,1,8,0:0:0:0:
320,192,424581,1,8,0:0:0:0:
448,192,424581,1,0,0:0:0:0:
64,192,424660,1,8,0:0:0:0:
192,192,424660,1,0,0:0:0:0:
320,192,424739,1,8,0:0:0:0:
448,192,424739,1,0,0:0:0:0:
192,192,424778,1,0,0:0:0:0:
64,192,424778,1,8,0:0:0:0:
320,192,424818,1,8,0:0:0:0:
448,192,424818,1,0,0:0:0:0:
320,192,424897,1,8,0:0:0:0:
448,192,424897,1,0,0:0:0:0:
64,192,424976,1,0,0:0:0:0:
192,192,425002,1,0,0:0:0:0:
320,192,425028,1,0,0:0:0:0:
448,192,425055,1,0,0:0:0:0:
64,192,425081,1,0,0:0:0:0:
192,192,425107,1,0,0:0:0:0:
448,192,425134,1,0,0:0:0:0:
320,192,425160,1,0,0:0:0:0:
64,192,425186,1,0,0:0:0:0:
192,192,425212,1,0,0:0:0:0:
448,192,425239,1,0,0:0:0:0:
320,192,425265,1,0,0:0:0:0:
64,192,425291,1,4,0:0:0:0:
192,192,425291,1,8,0:0:0:0:
320,192,425370,1,0,0:0:0:0:
64,192,425370,1,8,0:0:0:0:
192,192,425449,1,8,0:0:0:0:
448,192,425449,1,0,0:0:0:0:
64,192,425528,1,8,0:0:0:0:
192,192,425528,1,0,0:0:0:0:
64,192,425607,1,8,0:0:0:0:
448,192,425607,1,0,0:0:0:0:
192,192,425686,1,8,0:0:0:0:
320,192,425686,1,0,0:0:0:0:
448,192,425765,1,0,0:0:0:0:
192,192,425765,1,8,0:0:0:0:
64,192,425844,1,8,0:0:0:0:
320,192,425844,1,0,0:0:0:0:
192,192,425923,1,0,0:0:0:0:
64,192,425923,1,8,0:0:0:0:
192,192,426002,1,8,0:0:0:0:
448,192,426002,1,0,0:0:0:0:
448,192,426081,1,0,0:0:0:0:
320,192,426081,1,8,0:0:0:0:
64,192,426160,1,8,0:0:0:0:
320,192,426160,1,0,0:0:0:0:
192,192,426239,1,0,0:0:0:0:
64,192,426239,1,8,0:0:0:0:
192,192,426318,1,8,0:0:0:0:
448,192,426318,1,0,0:0:0:0:
320,192,426397,1,0,0:0:0:0:
64,192,426397,1,8,0:0:0:0:
320,192,426476,1,8,0:0:0:0:
448,192,426476,1,0,0:0:0:0:
192,192,426515,1,0,0:0:0:0:
64,192,426515,1,8,0:0:0:0:
320,192,426555,1,8,0:0:0:0:
448,192,426555,1,4,0:0:0:0:
64,192,426634,1,8,0:0:0:0:
192,192,426634,1,0,0:0:0:0:
192,192,426712,1,8,0:0:0:0:
448,192,426712,1,0,0:0:0:0:
320,192,426791,1,0,0:0:0:0:
64,192,426791,1,8,0:0:0:0:
64,192,426870,1,8,0:0:0:0:
192,192,426870,1,0,0:0:0:0:
448,192,426949,1,0,0:0:0:0:
192,192,426949,1,8,0:0:0:0:
320,192,427028,1,8,0:0:0:0:
448,192,427028,1,0,0:0:0:0:
64,192,427107,1,8,0:0:0:0:
320,192,427107,1,0,0:0:0:0:
192,192,427186,1,0,0:0:0:0:
64,192,427186,1,8,0:0:0:0:
192,192,427265,1,8,0:0:0:0:
448,192,427265,1,0,0:0:0:0:
320,192,427344,1,0,0:0:0:0:
64,192,427344,1,8,0:0:0:0:
448,192,427423,1,0,0:0:0:0:
320,192,427423,1,8,0:0:0:0:
448,192,427502,1,0,0:0:0:0:
192,192,427502,1,8,0:0:0:0:
64,192,427581,1,8,0:0:0:0:
192,192,427581,1,0,0:0:0:0:
320,192,427660,1,8,0:0:0:0:
448,192,427660,1,0,0:0:0:0:
192,192,427699,1,0,0:0:0:0:
64,192,427699,1,8,0:0:0:0:
320,192,427739,1,8,0:0:0:0:
448,192,427739,1,0,0:0:0:0:
192,192,427778,1,0,0:0:0:0:
64,192,427778,1,8,0:0:0:0:
320,192,427818,1,4,0:0:0:0:
448,192,427857,1,0,0:0:0:0:
192,192,427897,1,0,0:0:0:0:
64,192,427936,1,0,0:0:0:0:
448,192,427976,1,0,0:0:0:0:
320,192,428015,1,0,0:0:0:0:
192,192,428055,1,0,0:0:0:0:
64,192,428094,1,0,0:0:0:0:
320,192,428134,1,0,0:0:0:0:
448,192,428173,1,0,0:0:0:0:
192,192,428212,1,0,0:0:0:0:
64,192,428252,1,0,0:0:0:0:
448,192,428291,1,0,0:0:0:0:
320,192,428331,1,0,0:0:0:0:
192,192,428370,1,0,0:0:0:0:
64,192,428410,1,0,0:0:0:0:
320,192,428449,1,4,0:0:0:0:
448,192,428489,1,0,0:0:0:0:
192,192,428528,1,0,0:0:0:0:
64,192,428568,1,0,0:0:0:0:
320,192,428607,1,0,0:0:0:0:
448,192,428647,1,0,0:0:0:0:
64,192,428686,1,0,0:0:0:0:
192,192,428726,1,0,0:0:0:0:
448,192,428765,1,0,0:0:0:0:
320,192,428805,1,0,0:0:0:0:
64,192,428844,1,0,0:0:0:0:
192,192,428884,1,0,0:0:0:0:
320,192,428923,1,0,0:0:0:0:
448,192,428962,1,0,0:0:0:0:
192,192,429002,1,0,0:0:0:0:
320,192,429041,1,0,0:0:0:0:
64,192,429081,1,4,0:0:0:0:
192,192,429120,1,0,0:0:0:0:
448,192,429160,1,0,0:0:0:0:
320,192,429199,1,0,0:0:0:0:
64,192,429239,1,0,0:0:0:0:
192,192,429278,1,0,0:0:0:0:
448,192,429318,1,0,0:0:0:0:
320,192,429357,1,0,0:0:0:0:
64,192,429397,1,4,0:0:0:0:
192,192,429436,1,0,0:0:0:0:
448,192,429476,1,0,0:0:0:0:
320,192,429515,1,0,0:0:0:0:
64,192,429555,1,0,0:0:0:0:
192,192,429594,1,0,0:0:0:0:
448,192,429633,1,0,0:0:0:0:
320,192,429673,1,0,0:0:0:0:
64,192,429712,1,4,0:0:0:0:
192,192,429739,1,0,0:0:0:0:
448,192,429765,1,0,0:0:0:0:
320,192,429791,1,0,0:0:0:0:
64,192,429818,1,0,0:0:0:0:
192,192,429844,1,0,0:0:0:0:
448,192,429870,1,0,0:0:0:0:
320,192,429897,1,0,0:0:0:0:
64,192,429923,1,0,0:0:0:0:
192,192,429949,1,0,0:0:0:0:
448,192,429976,1,0,0:0:0:0:
320,192,430002,1,0,0:0:0:0:
64,192,430028,1,4,0:0:0:0:
192,192,430055,1,0,0:0:0:0:
448,192,430081,1,0,0:0:0:0:
320,192,430107,1,0,0:0:0:0:
64,192,430133,1,0,0:0:0:0:
192,192,430160,1,0,0:0:0:0:
448,192,430186,1,0,0:0:0:0:
320,192,430212,1,0,0:0:0:0:
64,192,430239,1,0,0:0:0:0:
192,192,430265,1,0,0:0:0:0:
448,192,430291,1,0,0:0:0:0:
320,192,430318,1,0,0:0:0:0:
192,192,430344,128,0,430818:0:0:0:0:
64,192,430344,128,0,430818:0:0:0:0:
448,192,430976,1,0,0:0:0:0:
64,192,430976,128,0,431291:0:0:0:0:
192,192,431055,1,0,0:0:0:0:
320,192,431133,1,0,0:0:0:0:
448,192,431212,1,0,0:0:0:0:
192,192,431291,128,0,431449:0:0:0:0:
320,192,431291,1,0,0:0:0:0:
448,192,431370,1,0,0:0:0:0:
320,192,431449,128,0,431607:0:0:0:0:
64,192,431449,1,0,0:0:0:0:
192,192,431528,1,0,0:0:0:0:
448,192,431607,128,0,432555:0:0:0:0:
64,192,431607,1,0,0:0:0:0:
192,192,431686,1,0,0:0:0:0:
320,192,431765,1,0,0:0:0:0:
192,192,431844,1,0,0:0:0:0:
64,192,431923,1,0,0:0:0:0:
192,192,432002,1,0,0:0:0:0:
320,192,432081,1,0,0:0:0:0:
64,192,432160,1,0,0:0:0:0:
320,192,432239,1,0,0:0:0:0:
192,192,432318,1,0,0:0:0:0:
64,192,432397,1,0,0:0:0:0:
320,192,432476,1,0,0:0:0:0:
64,192,432555,128,0,432712:0:0:0:0:
192,192,432555,1,0,0:0:0:0:
320,192,432633,1,0,0:0:0:0:
192,192,432712,128,0,432870:0:0:0:0:
448,192,432712,1,0,0:0:0:0:
320,192,432791,1,0,0:0:0:0:
448,192,432870,128,0,433344:0:0:0:0:
64,192,432870,1,0,0:0:0:0:
192,192,432949,1,0,0:0:0:0:
320,192,433028,1,0,0:0:0:0:
64,192,433107,1,0,0:0:0:0:
192,192,433186,1,0,0:0:0:0:
320,192,433265,1,0,0:0:0:0:
64,192,433344,128,0,435081:0:0:0:0:
192,192,433344,1,0,0:0:0:0:
320,192,433423,1,0,0:0:0:0:
448,192,433502,1,0,0:0:0:0:
192,192,433581,1,0,0:0:0:0:
320,192,433660,1,0,0:0:0:0:
448,192,433739,1,0,0:0:0:0:
192,192,433818,1,0,0:0:0:0:
320,192,433897,1,0,0:0:0:0:
448,192,433976,1,0,0:0:0:0:
192,192,434055,1,0,0:0:0:0:
448,192,434133,1,0,0:0:0:0:
192,192,434212,1,0,0:0:0:0:
320,192,434291,1,0,0:0:0:0:
448,192,434370,1,0,0:0:0:0:
320,192,434449,1,0,0:0:0:0:
192,192,434528,1,0,0:0:0:0:
320,192,434607,1,0,0:0:0:0:
448,192,434686,1,0,0:0:0:0:
320,192,434765,1,0,0:0:0:0:
192,192,434844,1,0,0:0:0:0:
320,192,434923,1,0,0:0:0:0:
448,192,435002,1,0,0:0:0:0:
320,192,435081,128,0,435397:0:0:0:0:
192,192,435081,1,0,0:0:0:0:
448,192,435160,1,0,0:0:0:0:
192,192,435239,1,0,0:0:0:0:
64,192,435318,1,0,0:0:0:0:
448,192,435397,128,0,436660:0:0:0:0:
192,192,435397,1,0,0:0:0:0:
64,192,435476,1,0,0:0:0:0:
192,192,435555,1,0,0:0:0:0:
320,192,435633,1,0,0:0:0:0:
192,192,435712,1,0,0:0:0:0:
64,192,435791,1,0,0:0:0:0:
320,192,435870,1,0,0:0:0:0:
64,192,435949,1,0,0:0:0:0:
192,192,436028,1,0,0:0:0:0:
320,192,436107,1,0,0:0:0:0:
192,192,436186,1,0,0:0:0:0:
64,192,436265,1,0,0:0:0:0:
320,192,436344,1,0,0:0:0:0:
64,192,436423,1,0,0:0:0:0:
320,192,436502,1,0,0:0:0:0:
192,192,436581,1,0,0:0:0:0:
64,192,436660,128,0,436818:0:0:0:0:
320,192,436660,1,0,0:0:0:0:
192,192,436739,1,0,0:0:0:0:
448,192,436818,128,0,436976:0:0:0:0:
320,192,436818,1,0,0:0:0:0:
192,192,436897,1,0,0:0:0:0:
320,192,436976,128,0,437133:0:0:0:0:
64,192,436976,1,0,0:0:0:0:
192,192,437055,1,0,0:0:0:0:
64,192,437133,128,0,437291:0:0:0:0:
448,192,437133,1,0,0:0:0:0:
192,192,437212,1,0,0:0:0:0:
320,192,437291,128,0,437528:0:0:0:0:
448,192,437291,1,0,0:0:0:0:
192,192,437370,1,0,0:0:0:0:
448,192,437449,1,0,0:0:0:0:
64,192,437528,128,0,437765:0:0:0:0:
192,192,437528,1,0,0:0:0:0:
448,192,437607,1,0,0:0:0:0:
192,192,437686,1,0,0:0:0:0:
448,192,437765,128,0,440133:0:0:0:0:
320,192,437765,1,0,0:0:0:0:
192,192,437844,1,0,0:0:0:0:
64,192,437923,1,0,0:0:0:0:
192,192,438002,1,0,0:0:0:0:
320,192,438081,1,0,0:0:0:0:
64,192,438160,1,0,0:0:0:0:
192,192,438239,1,0,0:0:0:0:
320,192,438318,1,0,0:0:0:0:
64,192,438397,1,0,0:0:0:0:
192,192,438476,1,0,0:0:0:0:
320,192,438555,1,0,0:0:0:0:
192,192,438633,1,0,0:0:0:0:
64,192,438712,1,0,0:0:0:0:
320,192,438791,1,0,0:0:0:0:
64,192,438870,1,0,0:0:0:0:
192,192,438949,1,0,0:0:0:0:
320,192,439028,1,0,0:0:0:0:
64,192,439107,1,0,0:0:0:0:
192,192,439186,1,0,0:0:0:0:
64,192,439265,1,0,0:0:0:0:
320,192,439344,1,0,0:0:0:0:
192,192,439423,1,0,0:0:0:0:
320,192,439502,1,0,0:0:0:0:
64,192,439581,1,0,0:0:0:0:
320,192,439660,1,0,0:0:0:0:
192,192,439739,1,0,0:0:0:0:
64,192,439818,1,0,0:0:0:0:
192,192,439897,1,0,0:0:0:0:
320,192,439976,1,0,0:0:0:0:
64,192,440055,1,0,0:0:0:0:
192,192,440133,1,0,0:0:0:0:
320,192,440133,128,0,440449:0:0:0:0:
448,192,440212,1,0,0:0:0:0:
64,192,440291,1,0,0:0:0:0:
192,192,440370,1,0,0:0:0:0:
448,192,440449,1,12,0:0:0:0:
64,192,440449,128,0,441397:0:0:0:0:
192,192,440449,1,0,0:0:0:0:
448,192,440528,1,0,0:0:0:0:
320,192,440607,1,0,0:0:0:0:
192,192,440686,1,0,0:0:0:0:
448,192,440765,1,0,0:0:0:0:
320,192,440844,1,0,0:0:0:0:
448,192,440923,1,0,0:0:0:0:
192,192,441002,1,0,0:0:0:0:
320,192,441081,1,0,0:0:0:0:
448,192,441160,1,0,0:0:0:0:
192,192,441239,1,0,0:0:0:0:
320,192,441318,1,0,0:0:0:0:
448,192,441397,128,0,441712:0:0:0:0:
192,192,441397,1,0,0:0:0:0:
320,192,441476,1,0,0:0:0:0:
192,192,441555,1,0,0:0:0:0:
64,192,441633,1,0,0:0:0:0:
192,192,441712,128,0,442186:0:0:0:0:
320,192,441712,1,0,0:0:0:0:
448,192,441791,1,0,0:0:0:0:
64,192,441870,1,0,0:0:0:0:
320,192,441949,1,0,0:0:0:0:
448,192,442028,1,0,0:0:0:0:
320,192,442107,1,0,0:0:0:0:
64,192,442186,128,0,442660:0:0:0:0:
448,192,442186,1,0,0:0:0:0:
320,192,442265,1,0,0:0:0:0:
192,192,442344,1,0,0:0:0:0:
320,192,442423,1,0,0:0:0:0:
448,192,442502,1,0,0:0:0:0:
320,192,442581,1,0,0:0:0:0:
192,192,442660,128,0,442818:0:0:0:0:
448,192,442660,1,0,0:0:0:0:
320,192,442739,1,0,0:0:0:0:
448,192,442818,128,0,442976:0:0:0:0:
64,192,442818,1,0,0:0:0:0:
192,192,442897,1,0,0:0:0:0:
320,192,442976,128,0,443133:0:0:0:0:
64,192,442976,1,0,0:0:0:0:
192,192,443055,1,0,0:0:0:0:
64,192,443133,128,0,443291:0:0:0:0:
448,192,443133,1,0,0:0:0:0:
320,192,443212,1,0,0:0:0:0:
192,192,443291,128,0,443449:0:0:0:0:
448,192,443291,1,0,0:0:0:0:
320,192,443370,1,0,0:0:0:0:
448,192,443449,128,0,443607:0:0:0:0:
64,192,443449,1,0,0:0:0:0:
320,192,443528,1,0,0:0:0:0:
192,192,443607,128,0,443765:0:0:0:0:
64,192,443607,1,0,0:0:0:0:
320,192,443686,1,0,0:0:0:0:
64,192,443765,128,0,444081:0:0:0:0:
448,192,443765,1,0,0:0:0:0:
320,192,443844,1,0,0:0:0:0:
192,192,443923,1,0,0:0:0:0:
448,192,444002,1,0,0:0:0:0:
320,192,444081,128,0,444397:0:0:0:0:
192,192,444081,1,0,0:0:0:0:
64,192,444160,1,0,0:0:0:0:
192,192,444239,1,0,0:0:0:0:
448,192,444318,1,0,0:0:0:0:
192,192,444397,128,0,444555:0:0:0:0:
64,192,444397,1,0,0:0:0:0:
320,192,444476,1,0,0:0:0:0:
64,192,444555,128,0,444712:0:0:0:0:
448,192,444555,1,0,0:0:0:0:
320,192,444633,1,0,0:0:0:0:
448,192,444712,128,0,444870:0:0:0:0:
192,192,444712,1,0,0:0:0:0:
320,192,444791,1,0,0:0:0:0:
192,192,444870,128,0,445028:0:0:0:0:
64,192,444870,1,0,0:0:0:0:
320,192,444949,1,0,0:0:0:0:
64,192,445028,128,0,445344:0:0:0:0:
448,192,445028,1,0,0:0:0:0:
320,192,445107,1,0,0:0:0:0:
192,192,445186,1,0,0:0:0:0:
448,192,445265,1,0,0:0:0:0:
320,192,445344,128,0,446449:0:0:0:0:
192,192,445344,1,0,0:0:0:0:
448,192,445423,1,0,0:0:0:0:
64,192,445502,1,0,0:0:0:0:
192,192,445581,1,0,0:0:0:0:
448,192,445660,1,0,0:0:0:0:
192,192,445739,1,0,0:0:0:0:
64,192,445818,1,0,0:0:0:0:
448,192,445897,1,0,0:0:0:0:
64,192,445976,1,0,0:0:0:0:
192,192,446055,1,0,0:0:0:0:
448,192,446133,1,0,0:0:0:0:
192,192,446212,1,0,0:0:0:0:
64,192,446291,1,0,0:0:0:0:
192,192,446370,1,0,0:0:0:0:
64,192,446449,128,0,446607:0:0:0:0:
448,192,446449,1,0,0:0:0:0:
192,192,446528,1,0,0:0:0:0:
320,192,446607,128,0,446765:0:0:0:0:
448,192,446607,1,0,0:0:0:0:
192,192,446686,1,0,0:0:0:0:
64,192,446765,1,0,0:0:0:0:
448,192,446765,128,0,447712:0:0:0:0:
192,192,446844,1,0,0:0:0:0:
64,192,446923,1,0,0:0:0:0:
192,192,447002,1,0,0:0:0:0:
320,192,447081,1,0,0:0:0:0:
64,192,447160,1,0,0:0:0:0:
192,192,447239,1,0,0:0:0:0:
320,192,447318,1,0,0:0:0:0:
64,192,447397,1,0,0:0:0:0:
192,192,447476,1,0,0:0:0:0:
320,192,447555,1,0,0:0:0:0:
64,192,447633,1,0,0:0:0:0:
192,192,447712,128,0,448028:0:0:0:0:
320,192,447712,1,0,0:0:0:0:
448,192,447791,1,0,0:0:0:0:
64,192,447870,1,0,0:0:0:0:
320,192,447949,1,0,0:0:0:0:
448,192,448028,128,0,448502:0:0:0:0:
64,192,448028,1,0,0:0:0:0:
320,192,448107,1,0,0:0:0:0:
192,192,448186,1,0,0:0:0:0:
64,192,448265,1,0,0:0:0:0:
192,192,448344,1,0,0:0:0:0:
320,192,448423,1,0,0:0:0:0:
192,192,448502,128,0,448976:0:0:0:0:
64,192,448502,1,0,0:0:0:0:
320,192,448581,1,0,0:0:0:0:
448,192,448660,1,0,0:0:0:0:
64,192,448739,1,0,0:0:0:0:
320,192,448818,1,0,0:0:0:0:
448,192,448897,1,0,0:0:0:0:
64,192,448976,128,0,449923:0:0:0:0:
320,192,448976,1,0,0:0:0:0:
448,192,449055,1,0,0:0:0:0:
320,192,449133,1,0,0:0:0:0:
192,192,449212,1,0,0:0:0:0:
320,192,449291,1,0,0:0:0:0:
448,192,449370,1,0,0:0:0:0:
192,192,449449,1,0,0:0:0:0:
320,192,449528,1,0,0:0:0:0:
448,192,449607,1,0,0:0:0:0:
192,192,449686,1,0,0:0:0:0:
320,192,449765,1,0,0:0:0:0:
448,192,449844,1,0,0:0:0:0:
192,192,449923,128,0,450239:0:0:0:0:
320,192,449923,1,0,0:0:0:0:
448,192,450002,1,0,0:0:0:0:
320,192,450081,1,0,0:0:0:0:
64,192,450160,1,0,0:0:0:0:
320,192,450239,128,0,450555:0:0:0:0:
448,192,450239,1,0,0:0:0:0:
64,192,450318,1,0,0:0:0:0:
192,192,450397,1,0,0:0:0:0:
64,192,450476,1,0,0:0:0:0:
64,192,450555,1,12,0:0:0:0:
192,192,450555,1,0,0:0:0:0:
448,192,450555,128,0,451502:0:0:0:0:
320,192,450633,1,0,0:0:0:0:
64,192,450712,1,0,0:0:0:0:
192,192,450791,1,0,0:0:0:0:
320,192,450870,1,0,0:0:0:0:
64,192,450949,1,0,0:0:0:0:
320,192,451028,1,0,0:0:0:0:
64,192,451107,1,0,0:0:0:0:
192,192,451186,1,0,0:0:0:0:
320,192,451265,1,0,0:0:0:0:
64,192,451344,1,0,0:0:0:0:
320,192,451423,1,0,0:0:0:0:
64,192,451502,128,0,451660:0:0:0:0:
192,192,451502,1,0,0:0:0:0:
320,192,451581,1,0,0:0:0:0:
448,192,451660,1,0,0:0:0:0:
192,192,451660,128,0,451818:0:0:0:0:
320,192,451739,1,0,0:0:0:0:
448,192,451818,128,0,452765:0:0:0:0:
64,192,451818,1,0,0:0:0:0:
320,192,451897,1,0,0:0:0:0:
192,192,451976,1,0,0:0:0:0:
64,192,452055,1,0,0:0:0:0:
192,192,452133,1,0,0:0:0:0:
320,192,452212,1,0,0:0:0:0:
64,192,452291,1,0,0:0:0:0:
192,192,452370,1,0,0:0:0:0:
320,192,452449,1,0,0:0:0:0:
64,192,452528,1,0,0:0:0:0:
192,192,452607,1,0,0:0:0:0:
320,192,452686,1,0,0:0:0:0:
192,192,452765,128,0,452923:0:0:0:0:
64,192,452765,1,0,0:0:0:0:
448,192,452844,1,0,0:0:0:0:
64,192,452923,128,0,453081:0:0:0:0:
320,192,452923,1,0,0:0:0:0:
448,192,453002,1,0,0:0:0:0:
320,192,453081,128,0,453555:0:0:0:0:
192,192,453081,1,0,0:0:0:0:
448,192,453160,1,0,0:0:0:0:
64,192,453239,1,0,0:0:0:0:
192,192,453318,1,0,0:0:0:0:
448,192,453397,1,0,0:0:0:0:
192,192,453476,1,0,0:0:0:0:
448,192,453555,128,0,455291:0:0:0:0:
64,192,453555,1,0,0:0:0:0:
192,192,453633,1,0,0:0:0:0:
320,192,453712,1,0,0:0:0:0:
64,192,453791,1,0,0:0:0:0:
192,192,453870,1,0,0:0:0:0:
320,192,453949,1,0,0:0:0:0:
64,192,454028,1,0,0:0:0:0:
192,192,454107,1,0,0:0:0:0:
320,192,454186,1,0,0:0:0:0:
192,192,454265,1,0,0:0:0:0:
64,192,454344,1,0,0:0:0:0:
320,192,454423,1,0,0:0:0:0:
192,192,454502,1,0,0:0:0:0:
64,192,454581,1,0,0:0:0:0:
192,192,454660,1,0,0:0:0:0:
320,192,454739,1,0,0:0:0:0:
192,192,454818,1,0,0:0:0:0:
320,192,454897,1,0,0:0:0:0:
64,192,454976,1,0,0:0:0:0:
192,192,455055,1,0,0:0:0:0:
320,192,455133,1,0,0:0:0:0:
64,192,455212,1,0,0:0:0:0:
192,192,455291,1,0,0:0:0:0:
320,192,455291,128,0,455607:0:0:0:0:
64,192,455370,1,0,0:0:0:0:
192,192,455449,1,0,0:0:0:0:
448,192,455528,1,0,0:0:0:0:
64,192,455607,1,0,0:0:0:0:
192,192,455607,128,0,456870:0:0:0:0:
448,192,455686,1,0,0:0:0:0:
320,192,455765,1,0,0:0:0:0:
64,192,455844,1,0,0:0:0:0:
320,192,455923,1,0,0:0:0:0:
448,192,456002,1,0,0:0:0:0:
320,192,456081,1,0,0:0:0:0:
64,192,456160,1,0,0:0:0:0:
448,192,456239,1,0,0:0:0:0:
320,192,456318,1,0,0:0:0:0:
64,192,456397,1,0,0:0:0:0:
320,192,456476,1,0,0:0:0:0:
448,192,456555,1,0,0:0:0:0:
320,192,456633,1,0,0:0:0:0:
64,192,456712,1,0,0:0:0:0:
320,192,456791,1,0,0:0:0:0:
64,192,456870,128,0,457028:0:0:0:0:
448,192,456870,1,0,0:0:0:0:
192,192,456949,1,0,0:0:0:0:
448,192,457028,128,0,457186:0:0:0:0:
320,192,457028,1,0,0:0:0:0:
192,192,457107,1,0,0:0:0:0:
320,192,457186,128,0,457344:0:0:0:0:
64,192,457186,1,0,0:0:0:0:
192,192,457265,1,0,0:0:0:0:
64,192,457344,128,0,457502:0:0:0:0:
448,192,457344,1,0,0:0:0:0:
192,192,457423,1,0,0:0:0:0:
448,192,457502,128,0,457739:0:0:0:0:
320,192,457502,1,0,0:0:0:0:
192,192,457581,1,0,0:0:0:0:
320,192,457660,1,0,0:0:0:0:
64,192,457739,128,0,457976:0:0:0:0:
192,192,457739,1,0,0:0:0:0:
320,192,457818,1,0,0:0:0:0:
448,192,457897,1,0,0:0:0:0:
320,192,457976,1,0,0:0:0:0:
192,192,457976,128,0,460344:0:0:0:0:
448,192,458055,1,0,0:0:0:0:
64,192,458133,1,0,0:0:0:0:
320,192,458212,1,0,0:0:0:0:
448,192,458291,1,0,0:0:0:0:
64,192,458370,1,0,0:0:0:0:
320,192,458449,1,0,0:0:0:0:
448,192,458528,1,0,0:0:0:0:
320,192,458607,1,0,0:0:0:0:
448,192,458686,1,0,0:0:0:0:
64,192,458765,1,0,0:0:0:0:
320,192,458844,1,0,0:0:0:0:
448,192,458923,1,0,0:0:0:0:
64,192,459002,1,0,0:0:0:0:
320,192,459081,1,0,0:0:0:0:
64,192,459160,1,0,0:0:0:0:
320,192,459239,1,0,0:0:0:0:
448,192,459318,1,0,0:0:0:0:
320,192,459397,1,0,0:0:0:0:
64,192,459476,1,0,0:0:0:0:
320,192,459555,1,0,0:0:0:0:
448,192,459633,1,0,0:0:0:0:
64,192,459712,1,0,0:0:0:0:
320,192,459791,1,0,0:0:0:0:
448,192,459870,1,0,0:0:0:0:
320,192,459949,1,0,0:0:0:0:
64,192,460028,1,0,0:0:0:0:
320,192,460107,1,0,0:0:0:0:
448,192,460186,1,0,0:0:0:0:
64,192,460265,1,0,0:0:0:0:
448,192,460344,1,0,0:0:0:0:
320,192,460344,128,0,460660:0:0:0:0:
192,192,460423,1,0,0:0:0:0:
448,192,460502,1,0,0:0:0:0:
64,192,460581,1,0,0:0:0:0:
448,192,460660,128,0,461607:0:0:0:0:
192,192,460660,1,0,0:0:0:0:
64,192,460660,1,12,0:0:0:0:
320,192,460739,1,0,0:0:0:0:
64,192,460818,1,0,0:0:0:0:
320,192,460897,1,0,0:0:0:0:
192,192,460976,1,0,0:0:0:0:
320,192,461055,1,0,0:0:0:0:
64,192,461133,1,0,0:0:0:0:
192,192,461212,1,0,0:0:0:0:
320,192,461291,1,0,0:0:0:0:
64,192,461370,1,0,0:0:0:0:
192,192,461449,1,0,0:0:0:0:
64,192,461528,1,0,0:0:0:0:
320,192,461607,128,0,461923:0:0:0:0:
192,192,461607,1,0,0:0:0:0:
64,192,461686,1,0,0:0:0:0:
192,192,461765,1,0,0:0:0:0:
448,192,461844,1,0,0:0:0:0:
192,192,461923,128,0,462397:0:0:0:0:
64,192,461923,1,0,0:0:0:0:
448,192,462002,1,0,0:0:0:0:
320,192,462081,1,0,0:0:0:0:
64,192,462160,1,0,0:0:0:0:
448,192,462239,1,0,0:0:0:0:
320,192,462318,1,0,0:0:0:0:
64,192,462397,128,0,462870:0:0:0:0:
448,192,462397,1,0,0:0:0:0:
320,192,462476,1,0,0:0:0:0:
192,192,462555,1,0,0:0:0:0:
448,192,462633,1,0,0:0:0:0:
192,192,462712,1,0,0:0:0:0:
448,192,462791,1,0,0:0:0:0:
192,192,462870,128,0,463028:0:0:0:0:
320,192,462870,1,0,0:0:0:0:
448,192,462949,1,0,0:0:0:0:
320,192,463028,128,0,463186:0:0:0:0:
64,192,463028,1,0,0:0:0:0:
192,192,463107,1,0,0:0:0:0:
448,192,463186,128,0,463344:0:0:0:0:
64,192,463186,1,0,0:0:0:0:
320,192,463265,1,0,0:0:0:0:
192,192,463344,128,0,463502:0:0:0:0:
64,192,463344,1,0,0:0:0:0:
320,192,463423,1,0,0:0:0:0:
64,192,463502,128,0,463660:0:0:0:0:
448,192,463502,1,0,0:0:0:0:
192,192,463581,1,0,0:0:0:0:
448,192,463660,128,0,463818:0:0:0:0:
320,192,463660,1,0,0:0:0:0:
192,192,463739,1,0,0:0:0:0:
320,192,463818,128,0,463976:0:0:0:0:
64,192,463818,1,0,0:0:0:0:
192,192,463897,1,0,0:0:0:0:
448,192,463976,1,0,0:0:0:0:
64,192,463976,128,0,464291:0:0:0:0:
192,192,464055,1,0,0:0:0:0:
320,192,464133,1,0,0:0:0:0:
448,192,464212,1,0,0:0:0:0:
320,192,464291,1,0,0:0:0:0:
192,192,464291,128,0,464607:0:0:0:0:
448,192,464370,1,0,0:0:0:0:
320,192,464449,1,0,0:0:0:0:
64,192,464528,1,0,0:0:0:0:
448,192,464607,128,0,464765:0:0:0:0:
320,192,464607,1,0,0:0:0:0:
64,192,464686,1,0,0:0:0:0:
320,192,464765,128,0,464923:0:0:0:0:
192,192,464765,1,0,0:0:0:0:
448,192,464844,1,0,0:0:0:0:
192,192,464923,128,0,465081:0:0:0:0:
64,192,464923,1,0,0:0:0:0:
320,192,465002,1,0,0:0:0:0:
448,192,465081,128,0,465239:0:0:0:0:
64,192,465081,1,0,0:0:0:0:
320,192,465160,1,0,0:0:0:0:
192,192,465239,128,0,465555:0:0:0:0:
64,192,465239,1,0,0:0:0:0:
320,192,465318,1,0,0:0:0:0:
448,192,465397,1,0,0:0:0:0:
320,192,465476,1,0,0:0:0:0:
448,192,465555,1,0,0:0:0:0:
64,192,465555,128,0,466660:0:0:0:0:
320,192,465633,1,0,0:0:0:0:
448,192,465712,1,0,0:0:0:0:
192,192,465791,1,0,0:0:0:0:
448,192,465870,1,0,0:0:0:0:
320,192,465949,1,0,0:0:0:0:
192,192,466028,1,0,0:0:0:0:
320,192,466107,1,0,0:0:0:0:
448,192,466186,1,0,0:0:0:0:
192,192,466265,1,0,0:0:0:0:
320,192,466344,1,0,0:0:0:0:
448,192,466423,1,0,0:0:0:0:
320,192,466502,1,0,0:0:0:0:
448,192,466581,1,0,0:0:0:0:
192,192,466660,128,0,466818:0:0:0:0:
320,192,466660,1,0,0:0:0:0:
448,192,466739,1,0,0:0:0:0:
320,192,466818,128,0,466976:0:0:0:0:
64,192,466818,1,0,0:0:0:0:
192,192,466897,1,0,0:0:0:0:
448,192,466976,128,0,467923:0:0:0:0:
64,192,466976,1,0,0:0:0:0:
192,192,467055,1,0,0:0:0:0:
320,192,467133,1,0,0:0:0:0:
64,192,467212,1,0,0:0:0:0:
192,192,467291,1,0,0:0:0:0:
320,192,467370,1,0,0:0:0:0:
192,192,467449,1,0,0:0:0:0:
320,192,467528,1,0,0:0:0:0:
64,192,467607,1,0,0:0:0:0:
192,192,467686,1,0,0:0:0:0:
64,192,467765,1,0,0:0:0:0:
320,192,467844,1,0,0:0:0:0:
192,192,467923,128,0,468239:0:0:0:0:
64,192,467923,1,0,0:0:0:0:
320,192,468002,1,0,0:0:0:0:
448,192,468081,1,0,0:0:0:0:
64,192,468160,1,0,0:0:0:0:
320,192,468239,1,0,0:0:0:0:
448,192,468239,128,0,468712:0:0:0:0:
64,192,468318,1,0,0:0:0:0:
192,192,468397,1,0,0:0:0:0:
320,192,468476,1,0,0:0:0:0:
64,192,468555,1,0,0:0:0:0:
192,192,468633,1,0,0:0:0:0:
320,192,468712,128,0,469186:0:0:0:0:
64,192,468712,1,0,0:0:0:0:
192,192,468791,1,0,0:0:0:0:
448,192,468870,1,0,0:0:0:0:
192,192,468949,1,0,0:0:0:0:
64,192,469028,1,0,0:0:0:0:
448,192,469107,1,0,0:0:0:0:
192,192,469186,128,0,470133:0:0:0:0:
64,192,469186,1,0,0:0:0:0:
320,192,469265,5,0,0:0:0:0:
448,192,469344,1,0,0:0:0:0:
64,192,469423,1,0,0:0:0:0:
320,192,469502,1,0,0:0:0:0:
448,192,469581,1,0,0:0:0:0:
320,192,469660,1,0,0:0:0:0:
448,192,469739,1,0,0:0:0:0:
64,192,469818,1,0,0:0:0:0:
320,192,469897,1,0,0:0:0:0:
448,192,469976,1,0,0:0:0:0:
320,192,470055,1,0,0:0:0:0:
64,192,470133,128,0,470449:0:0:0:0:
448,192,470133,1,0,0:0:0:0:
320,192,470212,1,0,0:0:0:0:
192,192,470291,1,0,0:0:0:0:
320,192,470370,1,0,0:0:0:0:
448,192,470449,1,0,0:0:0:0:
192,192,470449,128,0,470765:0:0:0:0:
320,192,470528,1,0,0:0:0:0:
64,192,470607,1,0,0:0:0:0:
320,192,470686,1,0,0:0:0:0:
448,192,470765,1,0,0:0:0:0:
64,192,470765,128,0,471712:0:0:0:0:
320,192,470765,1,12,0:0:0:0:
192,192,471397,1,0,0:0:0:0:
448,192,471397,1,0,0:0:0:0:
192,192,471712,128,0,471870:0:0:0:0:
320,192,471870,128,0,472028:0:0:0:0:
64,192,472028,1,0,0:0:0:0:
448,192,472028,128,0,472976:0:0:0:0:
192,192,472028,1,0,0:0:0:0:
320,192,472660,1,0,0:0:0:0:
64,192,472660,1,0,0:0:0:0:
192,192,472976,128,0,473133:0:0:0:0:
320,192,473133,128,0,473291:0:0:0:0:
448,192,473291,128,0,473765:0:0:0:0:
192,192,473291,1,0,0:0:0:0:
64,192,473291,1,0,0:0:0:0:
64,192,473765,128,0,475502:0:0:0:0:
448,192,473923,1,0,0:0:0:0:
320,192,473923,1,0,0:0:0:0:
448,192,474555,1,0,0:0:0:0:
192,192,474555,1,0,0:0:0:0:
448,192,475186,1,0,0:0:0:0:
320,192,475186,1,0,0:0:0:0:
320,192,475502,128,0,475818:0:0:0:0:
192,192,475818,1,0,0:0:0:0:
64,192,475818,1,0,0:0:0:0:
448,192,475818,128,0,477081:0:0:0:0:
64,192,476449,1,0,0:0:0:0:
320,192,476449,1,0,0:0:0:0:
320,192,477081,1,0,0:0:0:0:
192,192,477081,128,0,477239:0:0:0:0:
64,192,477081,1,0,0:0:0:0:
320,192,477239,128,0,477397:0:0:0:0:
192,192,477397,128,0,477555:0:0:0:0:
64,192,477555,128,0,477712:0:0:0:0:
448,192,477712,128,0,477949:0:0:0:0:
192,192,477712,1,0,0:0:0:0:
320,192,477712,1,0,0:0:0:0:
64,192,477949,128,0,478186:0:0:0:0:
448,192,478186,128,0,480239:0:0:0:0:
320,192,478344,1,0,0:0:0:0:
192,192,478344,1,0,0:0:0:0:
64,192,478976,1,0,0:0:0:0:
320,192,478976,1,0,0:0:0:0:
320,192,479607,1,0,0:0:0:0:
64,192,479607,1,0,0:0:0:0:
320,192,480239,1,0,0:0:0:0:
192,192,480239,1,0,0:0:0:0:
64,192,480239,128,0,480555:0:0:0:0:
320,192,480555,128,0,480870:0:0:0:0:
448,192,480870,128,0,481818:0:0:0:0:
192,192,480870,1,0,0:0:0:0:
64,192,480870,1,4,0:0:0:0:
192,192,481502,1,0,0:0:0:0:
64,192,481502,1,0,0:0:0:0:
64,192,481818,128,0,482133:0:0:0:0:
192,192,482133,1,0,0:0:0:0:
448,192,482133,128,0,482607:0:0:0:0:
320,192,482133,1,0,0:0:0:0:
192,192,482607,128,0,483081:0:0:0:0:
64,192,482765,1,0,0:0:0:0:
320,192,482765,1,0,0:0:0:0:
64,192,483081,128,0,483239:0:0:0:0:
192,192,483239,128,0,483397:0:0:0:0:
320,192,483397,1,0,0:0:0:0:
64,192,483397,1,0,0:0:0:0:
448,192,483397,128,0,483555:0:0:0:0:
320,192,483555,128,0,483712:0:0:0:0:
64,192,483712,128,0,483870:0:0:0:0:
448,192,483870,128,0,484028:0:0:0:0:
192,192,484028,1,0,0:0:0:0:
320,192,484028,128,0,484186:0:0:0:0:
64,192,484028,1,0,0:0:0:0:
192,192,484186,128,0,484502:0:0:0:0:
448,192,484502,128,0,484818:0:0:0:0:
192,192,484660,1,0,0:0:0:0:
320,192,484660,1,0,0:0:0:0:
64,192,484818,128,0,484976:0:0:0:0:
192,192,484976,128,0,485133:0:0:0:0:
320,192,485133,128,0,485291:0:0:0:0:
192,192,485291,128,0,485449:0:0:0:0:
448,192,485291,1,0,0:0:0:0:
64,192,485291,1,0,0:0:0:0:
448,192,485449,128,0,485765:0:0:0:0:
192,192,485765,128,0,486870:0:0:0:0:
320,192,485923,1,0,0:0:0:0:
64,192,485923,1,0,0:0:0:0:
320,192,486555,1,0,0:0:0:0:
64,192,486555,1,0,0:0:0:0:
320,192,486870,128,0,487028:0:0:0:0:
448,192,487028,128,0,487186:0:0:0:0:
64,192,487186,128,0,488133:0:0:0:0:
320,192,487186,1,0,0:0:0:0:
192,192,487186,1,0,0:0:0:0:
448,192,487818,1,0,0:0:0:0:
192,192,487818,1,0,0:0:0:0:
192,192,488133,1,0,0:0:0:0:
320,192,488133,128,0,488449:0:0:0:0:
448,192,488449,1,0,0:0:0:0:
64,192,488449,1,0,0:0:0:0:
320,192,488923,1,0,0:0:0:0:
448,192,489081,1,0,0:0:0:0:
64,192,489081,1,0,0:0:0:0:
320,192,489397,1,0,0:0:0:0:
64,192,489712,1,0,0:0:0:0:
320,192,489712,1,0,0:0:0:0:
448,192,490344,1,0,0:0:0:0:
192,192,490344,1,0,0:0:0:0:
192,192,491647,1,0,0:0:0:0:
320,192,491686,1,0,0:0:0:0:
320,192,492844,1,0,0:0:0:0:
64,192,493686,1,0,0:0:0:0:
320,192,494502,1,0,0:0:0:0:
192,192,495423,128,0,499818:0:0:0:0:
