osu file format v14

[General]
AudioFilename: Nonbinarity.mp3
AudioLeadIn: 0
PreviewTime: 109711
Countdown: 0
SampleSet: Normal
StackLeniency: 0.7
Mode: 1
LetterboxInBreaks: 0
WidescreenStoryboard: 1

[Editor]
DistanceSpacing: 0.8
BeatDivisor: 2
GridSize: 16
TimelineZoom: 3.2

[Metadata]
Title:Nonbinarity
TitleUnicode:Nonbinarity
Artist:Kurokotei
ArtistUnicode:黒皇帝
Creator:uone
Version:bye-narity
Source:
Tags:syaron105 TJBC TWC2022 breakcore juke hardcore footcore compilation 2 dialgadu77 sayaka- electronic instrumental
BeatmapID:3676741
BeatmapSetID:1414457

[Difficulty]
HPDrainRate:4
CircleSize:7
OverallDifficulty:7.5
ApproachRate:4
SliderMultiplier:1.4
SliderTickRate:1

[Events]
//Background and Video events
0,0,"wrqteyhjkul.jpg",0,0
//Break Periods
2,109912,119363
2,131855,135820
//Storyboard Layer 0 (Background)
//Storyboard Layer 1 (Fail)
//Storyboard Layer 2 (Pass)
//Storyboard Layer 3 (Foreground)
//Storyboard Layer 4 (Overlay)
//Storyboard Sound Samples

[TimingPoints]
-2,342.857142857143,4,1,0,40,1,0
32912,-90.9090909090909,4,1,0,80,0,0
49369,-86.9565217391304,4,1,0,80,0,0
54512,-76.9230769230769,4,1,0,80,0,0
54855,-66.6666666666667,4,1,0,80,0,0
65912,-66.6666666666667,4,1,0,60,0,0
87769,-66.6666666666667,4,1,0,80,0,1
93212,-64.5161290322581,4,1,0,80,0,1
93255,-64.5161290322581,4,1,0,70,0,0
98740,-62.5,4,1,0,85,0,1
109712,-66.6666666666667,4,1,0,40,0,0
109755,-80,4,1,0,40,0,0
130535,-80,4,1,0,60,0,0
131612,-74.0740740740741,4,1,0,80,0,0
131740,-74.0740740740741,4,1,0,60,0,0
137055,-71.4285714285714,4,1,0,80,0,0
137226,-71.4285714285714,4,1,0,60,0,0
148112,-71.4285714285714,4,1,0,80,0,0
153212,-66.6666666666667,4,1,0,80,0,0
153512,-62.5,4,1,0,80,0,0
153598,-62.5,4,1,0,80,0,1
164569,-62.5,4,1,0,80,0,0
165005,-63.2911392405063,4,1,0,80,0,0
165625,-64.1025641025641,4,1,0,80,0,0
166345,-64.9350649350649,4,1,0,80,0,0
167768,-65.7894736842105,4,1,0,80,0,0
168448,-66.6666666666667,4,1,0,80,0,0
170055,-66.6666666666667,4,1,0,80,0,1
175540,-66.6666666666667,4,1,0,80,0,0
175712,-68.9655172413793,4,1,0,80,0,0
175798,-69.0618684653424,4,1,0,80,0,0
175883,-69.157364237678,4,1,0,80,0,0
176140,-69.4477116495465,4,1,0,80,0,0
176226,-69.5454158787078,4,1,0,80,0,0
176398,-69.7416514098602,4,1,0,80,0,0
176569,-69.9378469171874,4,1,0,80,0,0
176683,-70.0692583325916,4,1,0,80,0,0
176912,-70.3347319100499,4,1,0,80,0,0
177083,-70.5342832587264,4,1,0,80,0,0
177169,-70.6350709640544,4,1,0,80,0,0
177255,-70.7361471162774,4,1,0,80,0,0
177426,-70.9379859966226,4,1,0,80,0,0
177512,-71.0399315535473,4,1,0,80,0,0
177598,-71.1421705457491,4,1,0,80,0,0
177769,-71.3463365186774,4,1,0,80,0,0
177941,-71.5528820097823,4,1,0,80,0,0
178055,-71.690438689093,4,1,0,80,0,0
178283,-71.9671448450519,4,1,0,80,0,0
178455,-72.1773057110938,4,1,0,80,0,0
178540,-72.2816181071302,4,1,0,80,0,0
178626,-72.3874650084116,4,1,0,80,0,0
178798,-72.6000915356818,4,1,0,80,0,0
178883,-72.7056304449697,4,1,0,80,0,0
178969,-72.8127237288774,4,1,0,80,0,0
179140,-73.0266051011434,4,1,0,80,0,0
179312,-73.2430085592601,4,1,0,80,0,0
179426,-73.3871468916801,4,1,0,80,0,0
179540,-73.5318536558366,4,1,0,80,0,0
179655,-73.6784091342371,4,1,0,80,0,0
179826,-73.8974141467519,4,1,0,80,0,0
179912,-74.008049802933,4,1,0,80,0,0
179998,-74.1190172326018,4,1,0,80,0,0
180083,-74.2290218154262,4,1,0,80,0,0
180169,-74.3406533835559,4,1,0,80,0,0
180341,-74.56492684176,4,1,0,80,0,0
180512,-74.7892418335609,4,1,0,80,0,0
180598,-74.9025660542247,4,1,0,80,0,0
180684,-75.0162342245687,4,1,0,80,0,0
180798,-75.1674434723568,4,1,0,80,0,0
181026,-75.4716981132076,4,1,0,80,0,0
181198,-75.7028584453419,4,1,0,80,0,0
181283,-75.8176182510157,4,1,0,80,0,0
181369,-75.9340828144481,4,1,0,80,0,0
181626,-76.2842643966093,4,1,0,80,0,0
181712,-76.402168130778,4,1,0,80,0,0
181883,-76.6376907739844,4,1,0,80,0,0
182055,-76.8760601380847,4,1,0,80,0,0
182169,-77.0348679179638,4,1,0,80,0,0
182398,-77.3558675604661,4,1,0,80,0,0
182569,-77.5973160732604,4,1,0,80,0,0
182655,-77.7193168480824,4,1,0,80,0,0
182741,-77.8417018533913,4,1,0,80,0,0
182912,-78.0861975225192,4,1,0,80,0,0
182998,-78.2097416311603,4,1,0,80,0,0
183084,-78.3336772900144,4,1,0,80,0,0
183255,-78.5812781657468,4,1,0,80,0,0
183427,-78.8319110507831,4,1,0,80,0,0
183541,-78.9989110518941,4,1,0,80,0,0
183769,-79.335042754183,4,1,0,80,0,0
183940,-79.5890246824826,4,1,0,80,0,0
184026,-79.7173738570818,4,1,0,80,0,0
184112,-79.8461376647184,4,1,0,80,0,0
184283,-80.1034078618616,4,1,0,80,0,0
184369,-80.2334227919389,4,1,0,80,0,0
184455,-80.3638604596649,4,1,0,80,0,0
184626,-80.624483200704,4,1,0,80,0,0
184712,-80.7561965259943,4,1,0,80,0,0
184798,-80.8883409061503,4,1,0,80,0,0
184912,-81.0641770780895,4,1,0,80,0,0
185140,-81.4181528467243,4,1,0,80,0,0
185312,-81.6872396353742,4,1,0,80,0,0
185398,-81.8224511321031,4,1,0,80,0,0
185483,-81.9565309592569,4,1,0,80,0,0
185569,-82.0926361484125,4,1,0,80,0,0
185655,-82.2291941492551,4,1,0,80,0,0
185826,-82.5020765247902,4,1,0,80,0,0
185998,-82.7783878932324,4,1,0,80,0,0
186083,-82.915621574601,4,1,0,80,0,0
186169,-83.0549336334189,4,1,0,80,0,0
186283,-83.2403262882944,4,1,0,80,0,0
186512,-76.9230769230769,4,1,0,80,0,0
197483,342.857142857143,8,1,0,80,1,0
197483,-71.4285714285714,8,1,0,80,0,0

[HitObjects]
256,192,18512,12,0,21598,0:0:0:0:
296,149,21940,5,4,0:0:0:0:
296,149,22283,1,0,0:0:0:0:
296,149,22626,1,8,0:0:0:0:
288,148,23312,1,0,0:0:0:0:
288,148,23998,1,8,0:0:0:0:
288,148,24683,1,0,0:0:0:0:
288,148,26055,1,8,0:0:0:0:
288,148,26740,1,8,0:0:0:0:
288,148,27426,1,0,0:0:0:0:
291,149,28112,1,8,0:0:0:0:
291,149,28798,1,0,0:0:0:0:
291,149,29483,1,8,0:0:0:0:
291,149,29712,1,8,0:0:0:0:
291,149,29940,1,8,0:0:0:0:
332,161,30169,1,0,0:0:0:0:
322,148,30855,1,8,0:0:0:0:
316,149,31369,1,8,0:0:0:0:
316,149,31498,1,8,0:0:0:0:
316,149,31626,1,0,0:0:0:0:
316,149,31755,1,8,0:0:0:0:
299,133,31969,1,0,0:0:0:0:
321,148,32226,1,8,0:0:0:0:
324,163,32455,1,0,0:0:0:0:
323,163,32683,1,0,0:0:0:0:
321,148,32912,1,0,0:0:0:0:
326,156,33169,1,0,0:0:0:0:
326,156,33426,1,0,0:0:0:0:
345,166,33598,1,8,0:0:0:0:
345,166,33855,1,0,0:0:0:0:
325,144,34026,1,8,0:0:0:0:
331,133,34140,1,8,0:0:0:0:
329,130,34255,1,0,0:0:0:0:
328,130,34369,1,8,0:0:0:0:
327,131,34512,1,0,0:0:0:0:
279,127,34712,1,0,0:0:0:0:
287,130,34969,1,8,0:0:0:0:
289,130,35033,1,8,0:0:0:0:
289,131,35098,1,0,0:0:0:0:
289,133,35226,1,0,0:0:0:0:
318,93,35312,1,8,0:0:0:0:
352,88,35426,1,8,0:0:0:0:
352,88,35540,1,8,0:0:0:0:
352,88,35655,1,0,0:0:0:0:
335,114,35883,1,0,0:0:0:0:
335,114,36112,1,0,0:0:0:0:
385,114,36340,1,8,0:0:0:0:
398,106,36569,1,0,0:0:0:0:
358,86,36798,1,8,0:0:0:0:
360,88,36912,1,8,0:0:0:0:
361,90,37026,1,0,0:0:0:0:
464,34,37112,1,8,0:0:0:0:
464,34,37283,1,0,0:0:0:0:
446,56,37540,1,0,0:0:0:0:
446,56,37712,1,8,0:0:0:0:
365,64,37940,1,0,0:0:0:0:
365,64,38169,1,8,0:0:0:0:
365,64,38283,1,8,0:0:0:0:
321,148,38398,1,0,0:0:0:0:
326,156,38655,1,0,0:0:0:0:
326,156,38912,1,0,0:0:0:0:
345,166,39084,1,8,0:0:0:0:
345,166,39341,1,0,0:0:0:0:
325,144,39512,1,8,0:0:0:0:
331,133,39626,1,8,0:0:0:0:
329,130,39741,1,0,0:0:0:0:
328,130,39855,1,8,0:0:0:0:
327,131,39998,1,0,0:0:0:0:
211,115,40112,1,8,0:0:0:0:
279,127,40198,1,0,0:0:0:0:
277,102,40369,1,0,0:0:0:0:
287,130,40455,1,8,0:0:0:0:
289,130,40519,1,8,0:0:0:0:
289,131,40584,1,0,0:0:0:0:
289,133,40712,1,0,0:0:0:0:
318,93,40798,1,8,0:0:0:0:
352,88,40912,1,8,0:0:0:0:
352,88,41026,1,8,0:0:0:0:
352,88,41141,1,0,0:0:0:0:
405,48,41312,1,8,0:0:0:0:
335,114,41398,1,0,0:0:0:0:
335,114,41569,1,0,0:0:0:0:
289,80,41655,1,0,0:0:0:0:
289,80,41740,1,0,0:0:0:0:
385,114,41826,1,8,0:0:0:0:
289,80,41912,1,8,0:0:0:0:
289,80,41998,1,8,0:0:0:0:
398,106,42083,1,0,0:0:0:0:
475,110,42169,1,8,0:0:0:0:
358,86,42255,1,8,0:0:0:0:
360,88,42340,1,8,0:0:0:0:
361,90,42426,1,0,0:0:0:0:
394,33,42512,1,0,0:0:0:0:
464,34,42598,5,8,0:0:0:0:
366,38,42683,1,8,0:0:0:0:
464,34,42769,1,0,0:0:0:0:
369,40,42855,1,0,0:0:0:0:
369,41,42940,1,8,0:0:0:0:
446,56,43026,1,0,0:0:0:0:
369,42,43112,1,0,0:0:0:0:
446,56,43198,1,8,0:0:0:0:
204,87,43240,1,8,0:0:0:0:
204,87,43283,1,0,0:0:0:0:
204,87,43369,1,0,0:0:0:0:
369,42,43455,1,8,0:0:0:0:
204,87,43498,1,8,0:0:0:0:
204,82,43540,1,0,0:0:0:0:
204,82,43626,1,0,0:0:0:0:
365,64,43712,1,8,0:0:0:0:
365,64,43798,1,8,0:0:0:0:
464,107,43883,5,0,0:0:0:0:
456,102,46626,5,0,0:0:0:0:
456,102,46883,1,0,0:0:0:0:
456,102,47140,1,0,0:0:0:0:
456,102,47312,1,0,0:0:0:0:
456,102,47569,1,0,0:0:0:0:
456,102,47826,1,0,0:0:0:0:
456,102,47998,1,0,0:0:0:0:
456,102,48255,5,0,0:0:0:0:
456,102,48512,1,0,0:0:0:0:
456,102,48683,1,0,0:0:0:0:
456,102,48769,1,0,0:0:0:0:
456,102,48940,1,0,0:0:0:0:
454,97,49026,1,8,0:0:0:0:
454,97,49140,1,8,0:0:0:0:
453,97,49255,1,8,0:0:0:0:
464,102,49369,5,0,0:0:0:0:
463,92,49626,1,0,0:0:0:0:
469,112,49712,1,8,0:0:0:0:
462,92,49883,1,0,0:0:0:0:
462,92,50055,1,0,0:0:0:0:
462,92,50312,1,0,0:0:0:0:
469,112,50398,1,8,0:0:0:0:
467,110,50483,1,8,0:0:0:0:
463,92,50569,1,0,0:0:0:0:
469,112,50655,1,8,0:0:0:0:
469,112,50740,1,0,0:0:0:0:
469,112,50826,1,0,0:0:0:0:
469,112,50998,1,0,0:0:0:0:
469,112,51083,1,8,0:0:0:0:
469,112,51255,1,0,0:0:0:0:
472,117,51426,1,0,0:0:0:0:
444,104,51512,1,8,0:0:0:0:
444,104,51569,1,8,0:0:0:0:
444,104,51683,1,0,0:0:0:0:
444,104,51769,1,8,0:0:0:0:
457,125,51855,1,8,0:0:0:0:
451,124,51940,1,0,0:0:0:0:
457,125,52026,1,8,0:0:0:0:
451,124,52112,1,0,0:0:0:0:
451,124,52198,1,8,0:0:0:0:
451,124,52369,1,0,0:0:0:0:
451,124,52455,1,8,0:0:0:0:
465,109,52498,1,0,0:0:0:0:
461,111,52540,1,0,0:0:0:0:
457,108,52626,1,8,0:0:0:0:
457,107,52712,1,8,0:0:0:0:
494,118,52798,1,0,0:0:0:0:
396,39,52883,1,8,0:0:0:0:
396,39,53055,1,0,0:0:0:0:
494,118,53140,1,8,0:0:0:0:
494,118,53183,1,8,0:0:0:0:
494,118,53226,1,0,0:0:0:0:
494,118,53312,1,8,0:0:0:0:
494,118,53398,1,8,0:0:0:0:
419,22,53483,1,0,0:0:0:0:
419,22,53569,1,8,0:0:0:0:
419,22,53626,1,8,0:0:0:0:
419,22,53683,1,8,0:0:0:0:
419,22,53740,1,0,0:0:0:0:
261,57,53826,1,8,0:0:0:0:
261,57,53883,1,8,0:0:0:0:
261,68,53940,1,8,0:0:0:0:
263,67,53998,1,0,0:0:0:0:
263,67,54083,1,8,0:0:0:0:
286,72,54169,1,0,0:0:0:0:
286,72,54283,1,0,0:0:0:0:
286,72,54398,1,0,0:0:0:0:
286,72,54455,1,0,0:0:0:0:
456,109,54512,1,8,0:0:0:0:
404,56,54855,1,0,0:0:0:0:
476,45,54931,1,8,0:0:0:0:
476,45,54969,1,8,0:0:0:0:
476,45,55007,1,0,0:0:0:0:
476,45,55083,1,0,0:0:0:0:
299,45,55198,1,8,0:0:0:0:
299,45,55255,1,8,0:0:0:0:
299,45,55312,1,8,0:0:0:0:
299,45,55369,1,0,0:0:0:0:
291,63,55455,1,0,0:0:0:0:
291,63,55540,1,0,0:0:0:0:
316,70,55626,1,8,0:0:0:0:
316,49,55669,1,8,0:0:0:0:
295,45,55712,1,0,0:0:0:0:
292,42,55769,1,0,0:0:0:0:
293,44,55826,1,8,0:0:0:0:
291,41,55883,1,8,0:0:0:0:
361,16,55969,1,0,0:0:0:0:
370,55,56055,1,8,0:0:0:0:
366,56,56098,1,8,0:0:0:0:
364,56,56140,1,0,0:0:0:0:
364,56,56183,1,0,0:0:0:0:
366,56,56226,1,8,0:0:0:0:
369,33,56283,1,0,0:0:0:0:
369,33,56340,1,0,0:0:0:0:
369,33,56398,1,0,0:0:0:0:
357,73,56483,1,8,0:0:0:0:
357,73,56569,1,8,0:0:0:0:
354,70,56655,1,0,0:0:0:0:
360,41,56698,1,0,0:0:0:0:
360,41,56740,1,8,0:0:0:0:
360,41,56798,1,8,0:0:0:0:
345,40,56855,1,0,0:0:0:0:
360,41,56912,1,8,0:0:0:0:
378,65,56998,1,0,0:0:0:0:
378,65,57040,1,8,0:0:0:0:
378,65,57083,1,0,0:0:0:0:
378,65,57126,1,0,0:0:0:0:
378,65,57169,1,8,0:0:0:0:
353,57,57255,1,8,0:0:0:0:
214,106,57331,1,8,0:0:0:0:
207,102,57369,1,0,0:0:0:0:
239,92,57427,1,0,0:0:0:0:
226,96,57484,1,8,0:0:0:0:
85,129,57521,1,0,0:0:0:0:
211,102,57559,1,0,0:0:0:0:
226,97,57598,1,8,0:0:0:0:
357,77,57712,1,0,0:0:0:0:
357,77,57826,1,0,0:0:0:0:
357,77,57883,1,0,0:0:0:0:
357,77,57940,1,8,0:0:0:0:
357,77,58055,1,0,0:0:0:0:
357,77,58169,1,8,0:0:0:0:
357,80,58226,1,0,0:0:0:0:
357,77,58283,1,8,0:0:0:0:
357,80,58340,1,0,0:0:0:0:
357,80,58398,1,0,0:0:0:0:
359,80,58512,1,0,0:0:0:0:
386,79,58626,1,8,0:0:0:0:
196,114,58664,1,0,0:0:0:0:
166,117,58702,1,0,0:0:0:0:
386,79,58740,1,8,0:0:0:0:
456,12,58798,1,0,0:0:0:0:
192,116,58855,1,8,0:0:0:0:
192,116,58893,1,8,0:0:0:0:
191,116,58931,1,8,0:0:0:0:
191,116,58969,1,0,0:0:0:0:
308,73,59055,1,8,0:0:0:0:
306,79,59226,1,0,0:0:0:0:
308,73,59312,1,8,0:0:0:0:
308,73,59398,1,8,0:0:0:0:
302,88,59483,1,0,0:0:0:0:
302,88,59569,1,8,0:0:0:0:
430,38,59655,1,0,0:0:0:0:
430,38,59740,1,8,0:0:0:0:
427,42,59783,1,8,0:0:0:0:
427,42,59826,1,8,0:0:0:0:
427,42,59912,1,0,0:0:0:0:
382,59,59998,1,8,0:0:0:0:
382,59,60046,1,8,0:0:0:0:
382,59,60095,1,8,0:0:0:0:
382,59,60144,1,8,0:0:0:0:
382,59,60193,1,0,0:0:0:0:
382,59,60242,1,0,0:0:0:0:
382,59,60291,1,0,0:0:0:0:
382,59,60340,1,8,0:0:0:0:
406,95,60683,1,0,0:0:0:0:
406,95,60769,1,8,0:0:0:0:
445,32,60855,1,0,0:0:0:0:
445,32,60893,1,8,0:0:0:0:
445,32,60931,1,8,0:0:0:0:
406,95,61026,1,8,0:0:0:0:
378,95,61112,1,0,0:0:0:0:
378,95,61155,1,0,0:0:0:0:
378,95,61240,1,8,0:0:0:0:
378,95,61283,1,0,0:0:0:0:
391,77,61326,1,0,0:0:0:0:
391,77,61369,1,8,0:0:0:0:
393,37,61483,1,8,0:0:0:0:
395,41,61540,1,0,0:0:0:0:
395,41,61598,1,8,0:0:0:0:
396,42,61655,1,8,0:0:0:0:
398,42,61712,1,0,0:0:0:0:
387,65,61798,1,8,0:0:0:0:
387,65,61840,1,8,0:0:0:0:
386,65,61883,1,0,0:0:0:0:
386,66,61969,1,0,0:0:0:0:
400,64,62055,1,8,0:0:0:0:
400,64,62076,1,8,0:0:0:0:
400,64,62140,1,0,0:0:0:0:
400,64,62226,1,0,0:0:0:0:
399,66,62312,1,8,0:0:0:0:
400,65,62333,1,8,0:0:0:0:
395,57,62398,1,0,0:0:0:0:
395,57,62483,1,0,0:0:0:0:
395,57,62526,1,0,0:0:0:0:
395,57,62569,1,8,0:0:0:0:
394,56,62626,1,0,0:0:0:0:
174,93,62683,1,0,0:0:0:0:
394,56,62740,1,8,0:0:0:0:
321,93,62769,1,8,0:0:0:0:
321,93,62826,1,0,0:0:0:0:
321,93,62883,1,8,0:0:0:0:
316,96,62940,1,8,0:0:0:0:
324,97,63007,1,0,0:0:0:0:
325,97,63045,1,0,0:0:0:0:
324,97,63083,1,8,0:0:0:0:
336,42,63169,1,0,0:0:0:0:
387,29,63255,1,8,0:0:0:0:
387,29,63312,1,0,0:0:0:0:
387,29,63369,1,0,0:0:0:0:
387,29,63426,1,8,0:0:0:0:
394,15,63512,1,8,0:0:0:0:
356,57,63598,1,0,0:0:0:0:
356,57,63640,1,0,0:0:0:0:
356,57,63683,1,8,0:0:0:0:
356,57,63726,1,0,0:0:0:0:
356,57,63769,1,8,0:0:0:0:
406,27,63883,1,8,0:0:0:0:
405,31,63998,1,0,0:0:0:0:
404,31,64055,1,0,0:0:0:0:
262,74,64112,1,8,0:0:0:0:
351,47,64198,1,0,0:0:0:0:
351,47,64308,1,8,0:0:0:0:
431,34,64357,1,8,0:0:0:0:
431,34,64406,1,8,0:0:0:0:
431,34,64455,1,0,0:0:0:0:
459,105,64540,1,0,0:0:0:0:
381,148,64626,1,8,0:0:0:0:
381,148,64669,1,8,0:0:0:0:
381,148,64712,1,0,0:0:0:0:
381,148,64755,1,0,0:0:0:0:
381,148,64798,1,8,0:0:0:0:
426,32,64855,1,0,0:0:0:0:
426,32,64912,1,0,0:0:0:0:
426,32,64969,1,8,0:0:0:0:
414,41,65055,1,8,0:0:0:0:
413,42,65140,1,0,0:0:0:0:
413,42,65226,1,8,0:0:0:0:
413,42,65269,1,0,0:0:0:0:
413,42,65312,1,8,0:0:0:0:
413,42,65355,1,8,0:0:0:0:
412,42,65398,1,0,0:0:0:0:
412,45,65483,1,8,0:0:0:0:
412,45,65526,1,8,0:0:0:0:
412,45,65569,1,0,0:0:0:0:
467,26,65626,1,0,0:0:0:0:
467,26,65683,1,0,0:0:0:0:
426,32,65740,1,8,0:0:0:0:
426,32,65783,1,0,0:0:0:0:
426,32,65826,1,8,0:0:0:0:
423,134,68569,1,0,0:0:0:0:
423,134,68740,1,8,0:0:0:0:
395,97,68826,1,0,0:0:0:0:
423,134,68912,1,8,0:0:0:0:
423,134,68998,1,8,0:0:0:0:
402,97,69169,1,0,0:0:0:0:
400,97,69255,1,8,0:0:0:0:
403,98,69426,1,0,0:0:0:0:
414,102,69512,1,8,0:0:0:0:
418,102,69598,1,8,0:0:0:0:
405,100,69683,1,0,0:0:0:0:
421,102,69769,1,8,0:0:0:0:
424,102,69855,1,0,0:0:0:0:
436,103,69940,1,8,0:0:0:0:
436,103,70026,1,8,0:0:0:0:
441,103,70112,1,8,0:0:0:0:
442,102,70198,1,0,0:0:0:0:
436,92,70283,1,8,0:0:0:0:
436,92,70369,1,0,0:0:0:0:
436,92,70540,1,8,0:0:0:0:
437,92,70626,1,8,0:0:0:0:
438,92,70712,1,0,0:0:0:0:
438,92,70798,1,0,0:0:0:0:
447,90,70883,1,0,0:0:0:0:
447,90,70969,1,8,0:0:0:0:
453,90,71055,1,0,0:0:0:0:
454,90,71140,1,8,0:0:0:0:
455,90,71226,1,8,0:0:0:0:
454,90,71312,1,0,0:0:0:0:
461,92,71398,1,8,0:0:0:0:
462,92,71483,1,0,0:0:0:0:
398,139,71569,1,0,0:0:0:0:
398,139,71655,1,8,0:0:0:0:
401,141,71740,1,8,0:0:0:0:
401,141,71826,1,8,0:0:0:0:
401,141,71912,1,0,0:0:0:0:
401,141,71998,1,8,0:0:0:0:
401,141,72083,1,0,0:0:0:0:
401,141,72169,1,0,0:0:0:0:
402,140,72255,1,0,0:0:0:0:
402,140,72340,1,8,0:0:0:0:
402,140,72426,1,0,0:0:0:0:
401,141,72512,1,8,0:0:0:0:
401,141,72598,1,8,0:0:0:0:
401,141,72683,1,0,0:0:0:0:
391,133,72769,1,8,0:0:0:0:
370,135,72812,1,8,0:0:0:0:
391,133,72940,1,0,0:0:0:0:
391,133,73026,1,8,0:0:0:0:
391,133,73112,1,8,0:0:0:0:
391,133,73198,1,0,0:0:0:0:
391,133,73283,1,0,0:0:0:0:
391,133,73369,1,8,0:0:0:0:
391,133,73455,1,8,0:0:0:0:
391,133,73626,1,8,0:0:0:0:
358,75,73712,1,0,0:0:0:0:
358,75,73798,1,0,0:0:0:0:
394,131,73883,1,8,0:0:0:0:
394,131,73968,1,8,0:0:0:0:
407,138,74055,1,0,0:0:0:0:
400,59,74312,1,0,0:0:0:0:
400,59,74483,1,0,0:0:0:0:
417,85,74740,1,8,0:0:0:0:
417,85,74912,1,8,0:0:0:0:
366,82,74998,1,0,0:0:0:0:
366,82,75169,1,0,0:0:0:0:
399,85,75283,1,8,0:0:0:0:
399,85,75426,1,0,0:0:0:0:
399,85,75512,1,8,0:0:0:0:
399,85,75662,1,0,0:0:0:0:
426,97,75940,1,0,0:0:0:0:
308,82,76112,1,8,0:0:0:0:
403,25,76283,1,0,0:0:0:0:
403,25,76369,1,0,0:0:0:0:
406,33,76540,1,8,0:0:0:0:
483,186,76798,5,0,0:0:0:0:
472,152,77055,1,0,0:0:0:0:
478,150,77140,1,8,0:0:0:0:
472,152,77312,1,0,0:0:0:0:
472,152,77398,1,8,0:0:0:0:
472,152,77483,1,8,0:0:0:0:
472,152,77569,1,0,0:0:0:0:
471,147,77655,1,0,0:0:0:0:
471,147,77740,1,0,0:0:0:0:
471,147,77869,1,8,0:0:0:0:
471,147,77998,1,0,0:0:0:0:
471,147,78083,1,0,0:0:0:0:
387,81,78169,1,8,0:0:0:0:
473,102,78283,1,0,0:0:0:0:
473,102,78398,1,0,0:0:0:0:
404,49,78455,1,0,0:0:0:0:
473,102,78512,1,8,0:0:0:0:
416,26,78598,1,0,0:0:0:0:
416,26,78683,1,8,0:0:0:0:
146,76,78726,1,8,0:0:0:0:
318,65,78769,1,0,0:0:0:0:
416,26,78812,1,0,0:0:0:0:
408,33,78912,1,8,0:0:0:0:
408,36,78969,1,8,0:0:0:0:
408,36,79026,1,0,0:0:0:0:
443,39,79112,1,8,0:0:0:0:
452,51,79198,1,0,0:0:0:0:
449,45,79283,1,8,0:0:0:0:
471,60,79426,1,8,0:0:0:0:
416,30,79483,1,8,0:0:0:0:
471,60,79540,1,0,0:0:0:0:
379,38,79626,1,8,0:0:0:0:
379,38,79712,1,8,0:0:0:0:
377,42,79798,1,0,0:0:0:0:
377,42,79883,1,8,0:0:0:0:
377,42,79969,1,8,0:0:0:0:
377,42,80140,1,0,0:0:0:0:
377,42,80226,1,8,0:0:0:0:
337,94,80312,1,0,0:0:0:0:
337,94,80398,1,0,0:0:0:0:
336,97,80483,1,8,0:0:0:0:
336,101,80569,1,8,0:0:0:0:
336,102,80698,1,0,0:0:0:0:
336,102,80826,1,8,0:0:0:0:
343,99,80912,1,0,0:0:0:0:
343,99,80998,1,0,0:0:0:0:
343,99,81040,1,0,0:0:0:0:
343,99,81083,1,8,0:0:0:0:
348,26,81140,1,0,0:0:0:0:
348,26,81198,1,0,0:0:0:0:
351,32,81255,1,8,0:0:0:0:
1,137,81312,1,0,0:0:0:0:
214,51,81369,1,8,0:0:0:0:
214,51,81412,1,8,0:0:0:0:
214,51,81455,1,0,0:0:0:0:
214,51,81498,1,0,0:0:0:0:
214,51,81541,1,8,0:0:0:0:
326,146,81598,1,0,0:0:0:0:
461,43,81655,1,8,0:0:0:0:
461,43,81698,1,0,0:0:0:0:
463,43,81741,1,8,0:0:0:0:
463,43,81784,1,8,0:0:0:0:
464,32,81827,1,0,0:0:0:0:
507,41,81883,1,0,0:0:0:0:
507,41,81940,1,8,0:0:0:0:
434,95,82026,1,0,0:0:0:0:
304,74,82112,1,8,0:0:0:0:
266,66,82155,1,8,0:0:0:0:
300,43,82198,1,0,0:0:0:0:
348,85,82283,1,8,0:0:0:0:
261,80,82369,1,8,0:0:0:0:
261,80,82412,1,8,0:0:0:0:
263,80,82455,1,0,0:0:0:0:
263,80,82498,1,0,0:0:0:0:
262,80,82540,1,8,0:0:0:0:
263,80,82626,1,0,0:0:0:0:
263,80,82712,1,8,0:0:0:0:
263,80,82798,1,8,0:0:0:0:
263,81,82883,1,0,0:0:0:0:
263,81,82926,1,0,0:0:0:0:
261,80,82969,1,8,0:0:0:0:
400,78,83083,1,0,0:0:0:0:
400,78,83198,1,0,0:0:0:0:
400,78,83312,1,8,0:0:0:0:
411,60,83426,1,0,0:0:0:0:
226,69,83483,1,0,0:0:0:0:
406,59,83540,1,8,0:0:0:0:
246,70,83598,1,0,0:0:0:0:
246,71,83655,1,8,0:0:0:0:
434,105,83740,1,8,0:0:0:0:
434,105,83912,1,0,0:0:0:0:
434,105,83998,1,8,0:0:0:0:
388,107,84040,1,8,0:0:0:0:
388,107,84083,1,8,0:0:0:0:
388,107,84126,1,0,0:0:0:0:
388,107,84190,1,0,0:0:0:0:
388,107,84255,1,8,0:0:0:0:
388,107,84298,1,0,0:0:0:0:
388,107,84340,1,8,0:0:0:0:
424,90,84383,1,8,0:0:0:0:
424,90,84426,1,0,0:0:0:0:
436,97,84512,1,0,0:0:0:0:
424,90,84598,1,8,0:0:0:0:
384,83,84769,1,0,0:0:0:0:
384,83,84855,1,8,0:0:0:0:
384,83,84940,1,8,0:0:0:0:
433,74,85026,1,0,0:0:0:0:
229,56,85198,1,0,0:0:0:0:
193,59,85283,1,8,0:0:0:0:
373,64,85483,1,8,0:0:0:0:
381,87,85655,1,8,0:0:0:0:
382,90,85712,1,0,0:0:0:0:
432,67,85826,1,0,0:0:0:0:
432,67,85940,1,0,0:0:0:0:
431,70,86055,1,8,0:0:0:0:
283,77,86140,1,0,0:0:0:0:
283,77,86245,1,8,0:0:0:0:
283,77,86321,1,8,0:0:0:0:
237,38,86398,1,0,0:0:0:0:
306,120,86483,1,0,0:0:0:0:
306,120,86569,1,0,0:0:0:0:
306,120,86655,1,0,0:0:0:0:
306,120,86740,1,8,0:0:0:0:
306,120,86826,1,0,0:0:0:0:
306,120,86912,1,0,0:0:0:0:
306,120,86998,1,8,0:0:0:0:
306,120,87083,1,0,0:0:0:0:
306,120,87169,1,8,0:0:0:0:
306,120,87255,1,8,0:0:0:0:
306,120,87340,1,0,0:0:0:0:
306,120,87426,1,8,0:0:0:0:
306,120,87512,1,8,0:0:0:0:
306,120,87598,1,8,0:0:0:0:
306,120,87683,1,8,0:0:0:0:
251,78,87769,5,0,0:0:0:0:
441,94,87998,1,0,0:0:0:0:
485,119,88226,1,0,0:0:0:0:
501,125,88455,1,0,0:0:0:0:
501,124,88683,1,0,0:0:0:0:
501,124,88912,1,0,0:0:0:0:
501,125,89140,1,8,0:0:0:0:
501,124,89369,1,8,0:0:0:0:
501,124,89598,1,8,0:0:0:0:
501,125,89826,1,8,0:0:0:0:
501,124,90055,1,8,0:0:0:0:
501,124,90283,1,8,0:0:0:0:
501,125,90512,1,0,0:0:0:0:
501,124,90740,1,0,0:0:0:0:
501,124,90969,1,0,0:0:0:0:
501,125,91197,1,0,0:0:0:0:
501,124,91425,1,0,0:0:0:0:
501,124,91655,1,0,0:0:0:0:
278,58,91883,1,8,0:0:0:0:
422,62,92112,1,8,0:0:0:0:
426,64,92340,1,8,0:0:0:0:
425,65,92569,1,8,0:0:0:0:
425,65,92798,1,8,0:0:0:0:
426,64,93026,1,8,0:0:0:0:
251,78,93255,5,0,0:0:0:0:
391,88,93405,1,8,0:0:0:0:
441,94,93484,1,0,0:0:0:0:
378,43,93598,1,8,0:0:0:0:
485,119,93712,1,0,0:0:0:0:
395,123,93798,1,8,0:0:0:0:
385,111,93940,1,0,0:0:0:0:
364,106,94055,1,8,0:0:0:0:
364,106,94112,1,8,0:0:0:0:
501,124,94169,1,0,0:0:0:0:
364,106,94283,1,8,0:0:0:0:
501,124,94398,1,0,0:0:0:0:
364,106,94455,1,0,0:0:0:0:
364,106,94512,1,8,0:0:0:0:
501,125,94626,1,8,0:0:0:0:
364,106,94740,1,0,0:0:0:0:
501,124,94855,1,8,0:0:0:0:
364,106,94912,1,0,0:0:0:0:
364,106,94969,1,0,0:0:0:0:
501,124,95084,1,8,0:0:0:0:
364,106,95198,1,0,0:0:0:0:
501,125,95312,1,8,0:0:0:0:
342,106,95369,1,0,0:0:0:0:
342,106,95426,1,0,0:0:0:0:
342,106,95483,1,8,0:0:0:0:
501,124,95541,1,8,0:0:0:0:
342,106,95655,1,0,0:0:0:0:
501,124,95769,1,8,0:0:0:0:
342,106,95826,1,8,0:0:0:0:
342,106,95883,1,8,0:0:0:0:
501,125,95998,1,0,0:0:0:0:
342,106,96148,1,8,0:0:0:0:
501,124,96226,1,0,0:0:0:0:
342,106,96283,1,0,0:0:0:0:
342,106,96340,1,8,0:0:0:0:
501,124,96455,1,0,0:0:0:0:
342,106,96569,1,8,0:0:0:0:
342,106,96626,1,0,0:0:0:0:
501,125,96683,1,0,0:0:0:0:
342,106,96740,1,8,0:0:0:0:
342,106,96855,1,8,0:0:0:0:
501,124,96911,1,0,0:0:0:0:
342,106,97026,1,8,0:0:0:0:
501,124,97141,1,0,0:0:0:0:
353,105,97255,1,0,0:0:0:0:
353,103,97312,1,0,0:0:0:0:
278,58,97369,1,8,0:0:0:0:
353,102,97483,1,0,0:0:0:0:
422,62,97598,1,8,0:0:0:0:
353,102,97655,1,8,0:0:0:0:
426,64,97826,1,8,0:0:0:0:
353,105,97883,1,8,0:0:0:0:
353,105,97940,1,0,0:0:0:0:
425,65,98055,1,8,0:0:0:0:
353,103,98112,1,8,0:0:0:0:
353,102,98169,1,0,0:0:0:0:
353,102,98226,1,0,0:0:0:0:
425,65,98284,1,8,0:0:0:0:
353,102,98398,1,0,0:0:0:0:
353,102,98455,1,0,0:0:0:0:
426,64,98512,1,8,0:0:0:0:
405,25,98626,1,8,0:0:0:0:
251,78,98740,5,0,0:0:0:0:
391,88,98855,1,8,0:0:0:0:
73,96,98912,1,8,0:0:0:0:
441,94,98969,1,0,0:0:0:0:
346,93,99026,1,0,0:0:0:0:
378,43,99083,1,8,0:0:0:0:
485,119,99169,1,0,0:0:0:0:
395,123,99283,1,8,0:0:0:0:
385,111,99425,1,0,0:0:0:0:
364,106,99540,1,8,0:0:0:0:
364,106,99597,1,8,0:0:0:0:
501,124,99654,1,0,0:0:0:0:
510,17,99705,1,0,0:0:0:0:
364,106,99768,1,8,0:0:0:0:
501,124,99855,1,0,0:0:0:0:
364,106,99898,1,0,0:0:0:0:
364,106,99940,1,8,0:0:0:0:
412,42,100048,1,8,0:0:0:0:
412,42,100112,1,0,0:0:0:0:
364,106,100225,1,0,0:0:0:0:
457,35,100255,1,0,0:0:0:0:
457,35,100283,1,0,0:0:0:0:
501,124,100340,1,8,0:0:0:0:
364,106,100397,1,0,0:0:0:0:
364,106,100455,1,8,0:0:0:0:
501,124,100569,1,8,0:0:0:0:
364,106,100683,1,0,0:0:0:0:
235,82,100740,1,0,0:0:0:0:
501,125,100797,1,8,0:0:0:0:
342,106,100854,1,0,0:0:0:0:
342,106,100911,1,0,0:0:0:0:
342,106,100968,1,8,0:0:0:0:
501,124,101026,1,8,0:0:0:0:
342,106,101140,1,0,0:0:0:0:
230,59,101198,5,8,0:0:0:0:
501,124,101254,1,8,0:0:0:0:
230,59,101312,1,0,0:0:0:0:
342,106,101368,1,8,0:0:0:0:
269,25,101426,1,8,0:0:0:0:
501,125,101483,1,0,0:0:0:0:
338,48,101521,1,0,0:0:0:0:
169,101,101559,1,0,0:0:0:0:
342,106,101598,1,8,0:0:0:0:
256,48,101636,1,8,0:0:0:0:
501,124,101711,1,0,0:0:0:0:
342,106,101768,1,0,0:0:0:0:
342,106,101825,1,8,0:0:0:0:
501,124,101940,1,0,0:0:0:0:
342,106,102054,1,8,0:0:0:0:
342,106,102111,1,0,0:0:0:0:
501,125,102168,1,0,0:0:0:0:
342,106,102225,1,8,0:0:0:0:
342,106,102340,1,8,0:0:0:0:
501,124,102396,1,0,0:0:0:0:
342,106,102511,1,8,0:0:0:0:
501,124,102626,1,0,0:0:0:0:
353,105,102740,1,0,0:0:0:0:
353,103,102797,1,0,0:0:0:0:
278,58,102854,1,8,0:0:0:0:
381,21,102912,1,0,0:0:0:0:
353,102,102968,1,0,0:0:0:0:
422,62,103083,1,8,0:0:0:0:
353,102,103198,1,0,0:0:0:0:
336,45,103255,1,0,0:0:0:0:
426,64,103311,1,8,0:0:0:0:
353,105,103368,1,8,0:0:0:0:
353,105,103425,1,0,0:0:0:0:
425,65,103540,1,8,0:0:0:0:
353,103,103597,1,8,0:0:0:0:
353,102,103654,1,0,0:0:0:0:
342,63,103693,1,0,0:0:0:0:
353,102,103731,1,0,0:0:0:0:
425,65,103769,1,8,0:0:0:0:
353,102,103883,1,8,0:0:0:0:
353,102,103921,1,0,0:0:0:0:
256,97,103959,1,0,0:0:0:0:
426,64,103997,1,8,0:0:0:0:
256,97,104055,1,0,0:0:0:0:
405,25,104092,1,8,0:0:0:0:
256,97,104131,1,8,0:0:0:0:
256,97,104169,1,0,0:0:0:0:
439,64,104226,1,8,0:0:0:0:
388,107,104369,1,8,0:0:0:0:
424,90,104412,1,8,0:0:0:0:
424,90,104455,1,0,0:0:0:0:
294,73,104512,1,0,0:0:0:0:
294,73,104569,1,8,0:0:0:0:
294,73,104626,1,0,0:0:0:0:
439,42,104683,1,0,0:0:0:0:
244,46,104798,1,8,0:0:0:0:
439,42,104912,1,8,0:0:0:0:
238,51,104950,1,0,0:0:0:0:
238,51,104988,1,0,0:0:0:0:
244,46,105026,1,8,0:0:0:0:
347,27,105083,1,8,0:0:0:0:
439,42,105140,1,0,0:0:0:0:
347,27,105255,1,8,0:0:0:0:
439,42,105369,1,0,0:0:0:0:
347,27,105521,1,8,0:0:0:0:
252,56,105559,1,8,0:0:0:0:
421,57,105598,1,0,0:0:0:0:
334,32,105655,1,8,0:0:0:0:
334,32,105712,1,0,0:0:0:0:
421,57,105826,1,8,0:0:0:0:
334,33,105883,1,0,0:0:0:0:
334,33,105940,1,8,0:0:0:0:
424,57,106055,1,8,0:0:0:0:
334,34,106169,1,0,0:0:0:0:
334,34,106226,1,8,0:0:0:0:
334,34,106283,1,0,0:0:0:0:
379,60,106321,1,8,0:0:0:0:
379,60,106359,1,8,0:0:0:0:
334,32,106398,1,0,0:0:0:0:
421,57,106512,1,8,0:0:0:0:
338,51,106583,1,0,0:0:0:0:
338,51,106626,1,0,0:0:0:0:
337,51,106669,1,8,0:0:0:0:
424,57,106740,1,8,0:0:0:0:
326,22,106855,1,8,0:0:0:0:
326,23,106912,1,8,0:0:0:0:
426,55,106969,1,0,0:0:0:0:
326,23,107083,1,8,0:0:0:0:
426,55,107198,1,0,0:0:0:0:
332,47,107269,1,0,0:0:0:0:
326,22,107312,1,8,0:0:0:0:
332,47,107355,1,0,0:0:0:0:
424,57,107426,1,8,0:0:0:0:
437,27,107502,1,0,0:0:0:0:
437,27,107540,1,8,0:0:0:0:
437,27,107578,1,8,0:0:0:0:
437,27,107617,1,8,0:0:0:0:
426,55,107655,1,0,0:0:0:0:
428,44,107712,1,8,0:0:0:0:
428,44,107769,1,8,0:0:0:0:
426,55,107883,1,0,0:0:0:0:
427,45,107998,1,0,0:0:0:0:
426,45,108055,1,8,0:0:0:0:
424,57,108112,1,8,0:0:0:0:
449,31,108169,1,0,0:0:0:0:
449,32,108226,1,0,0:0:0:0:
449,32,108283,1,0,0:0:0:0:
426,55,108340,1,8,0:0:0:0:
312,70,108389,1,8,0:0:0:0:
312,70,108438,1,0,0:0:0:0:
312,70,108487,1,0,0:0:0:0:
426,55,108569,1,8,0:0:0:0:
312,70,108618,1,8,0:0:0:0:
312,70,108667,1,0,0:0:0:0:
312,70,108732,1,0,0:0:0:0:
424,57,108797,1,8,0:0:0:0:
301,41,108855,1,0,0:0:0:0:
301,41,108912,1,0,0:0:0:0:
291,45,108969,1,0,0:0:0:0:
426,55,109026,1,8,0:0:0:0:
291,45,109140,1,8,0:0:0:0:
426,55,109255,1,8,0:0:0:0:
290,47,109312,1,0,0:0:0:0:
290,47,109369,1,8,0:0:0:0:
227,57,109426,1,8,0:0:0:0:
424,57,109483,1,0,0:0:0:0:
141,107,109712,5,0,0:0:0:0:
429,97,120683,5,0,0:0:0:0:
418,102,121026,1,0,0:0:0:0:
418,103,121369,1,8,0:0:0:0:
504,112,122312,1,8,0:0:0:0:
504,112,122398,1,0,0:0:0:0:
504,112,122569,1,0,0:0:0:0:
129,119,122740,1,8,0:0:0:0:
492,100,122998,1,8,0:0:0:0:
491,100,123083,1,0,0:0:0:0:
491,100,123255,1,8,0:0:0:0:
492,100,123683,1,8,0:0:0:0:
503,112,123769,1,0,0:0:0:0:
491,100,123940,1,0,0:0:0:0:
418,104,124112,1,8,0:0:0:0:
492,100,124283,1,0,0:0:0:0:
492,100,124369,1,8,0:0:0:0:
492,100,124455,1,0,0:0:0:0:
491,100,124626,1,8,0:0:0:0:
492,100,124798,1,0,0:0:0:0:
492,100,125055,1,0,0:0:0:0:
492,100,125140,1,8,0:0:0:0:
491,100,125312,1,0,0:0:0:0:
418,106,125483,1,8,0:0:0:0:
492,100,125740,1,8,0:0:0:0:
492,100,125826,1,0,0:0:0:0:
478,87,125998,1,0,0:0:0:0:
452,107,126426,1,8,0:0:0:0:
452,107,126512,1,8,0:0:0:0:
452,107,126683,1,0,0:0:0:0:
417,106,126855,1,8,0:0:0:0:
396,30,127112,1,8,0:0:0:0:
452,107,127198,1,0,0:0:0:0:
452,107,127369,1,0,0:0:0:0:
396,30,127798,1,8,0:0:0:0:
396,30,127883,1,0,0:0:0:0:
396,30,128055,1,0,0:0:0:0:
417,106,128226,1,8,0:0:0:0:
412,66,128398,1,0,0:0:0:0:
412,66,128483,1,8,0:0:0:0:
412,66,128569,1,0,0:0:0:0:
412,66,128740,1,8,0:0:0:0:
439,88,128912,1,0,0:0:0:0:
439,88,129169,1,8,0:0:0:0:
439,88,129255,1,0,0:0:0:0:
439,88,129426,1,0,0:0:0:0:
413,106,129598,5,8,0:0:0:0:
439,88,129769,1,8,0:0:0:0:
439,88,129855,1,8,0:0:0:0:
439,88,129940,1,0,0:0:0:0:
439,88,130112,1,8,0:0:0:0:
456,23,130283,1,0,0:0:0:0:
456,23,130412,1,8,0:0:0:0:
457,26,130540,1,0,0:0:0:0:
457,26,130626,1,8,0:0:0:0:
381,71,130712,1,8,0:0:0:0:
381,71,130798,1,0,0:0:0:0:
381,71,130883,1,0,0:0:0:0:
413,106,130969,1,8,0:0:0:0:
388,83,131098,1,0,0:0:0:0:
462,106,131226,1,8,0:0:0:0:
462,106,131290,1,8,0:0:0:0:
462,106,131355,1,0,0:0:0:0:
462,106,131440,1,0,0:0:0:0:
182,92,131526,1,8,0:0:0:0:
419,179,131655,5,4,0:0:0:0:
259,192,137140,5,4,0:0:0:0:
256,192,137312,12,0,142283,0:0:0:0:
348,112,142626,5,0,0:0:0:0:
341,120,142969,1,0,0:0:0:0:
371,163,143312,1,0,0:0:0:0:
371,163,143569,1,0,0:0:0:0:
371,163,143826,1,0,0:0:0:0:
371,163,143998,1,0,0:0:0:0:
371,163,144340,1,0,0:0:0:0:
371,163,144683,1,0,0:0:0:0:
371,163,144940,1,0,0:0:0:0:
371,163,145198,1,0,0:0:0:0:
371,163,145369,1,8,0:0:0:0:
371,163,145712,1,8,0:0:0:0:
371,163,146055,1,8,0:0:0:0:
371,163,146312,1,8,0:0:0:0:
371,163,146569,1,8,0:0:0:0:
371,163,146740,1,8,0:0:0:0:
371,163,147083,1,8,0:0:0:0:
371,163,147426,1,8,0:0:0:0:
371,163,147683,1,8,0:0:0:0:
371,163,147940,1,8,0:0:0:0:
371,163,148112,1,0,0:0:0:0:
393,161,148369,1,0,0:0:0:0:
404,161,148455,1,8,0:0:0:0:
393,161,148626,1,0,0:0:0:0:
393,161,148798,1,0,0:0:0:0:
393,161,148883,1,0,0:0:0:0:
393,161,149055,1,0,0:0:0:0:
393,161,149140,1,8,0:0:0:0:
393,160,149226,1,8,0:0:0:0:
393,161,149312,1,0,0:0:0:0:
393,161,149398,1,8,0:0:0:0:
393,161,149483,1,0,0:0:0:0:
393,161,149569,1,0,0:0:0:0:
393,161,149740,1,0,0:0:0:0:
393,161,149826,1,8,0:0:0:0:
393,161,149912,1,8,0:0:0:0:
393,160,149998,1,0,0:0:0:0:
393,161,150169,1,8,0:0:0:0:
393,161,150255,1,0,0:0:0:0:
393,161,150426,1,0,0:0:0:0:
393,161,150512,1,8,0:0:0:0:
393,161,150598,1,8,0:0:0:0:
393,161,150683,1,0,0:0:0:0:
393,160,150769,1,0,0:0:0:0:
393,161,150855,1,8,0:0:0:0:
393,161,150940,1,0,0:0:0:0:
393,161,151112,1,0,0:0:0:0:
393,161,151198,1,8,0:0:0:0:
423,40,151240,1,0,0:0:0:0:
423,40,151283,1,0,0:0:0:0:
423,40,151369,1,8,0:0:0:0:
423,40,151455,1,8,0:0:0:0:
423,40,151540,1,8,0:0:0:0:
423,40,151626,1,0,0:0:0:0:
423,40,151798,1,0,0:0:0:0:
423,40,151883,1,8,0:0:0:0:
423,40,151926,1,8,0:0:0:0:
423,40,151969,1,0,0:0:0:0:
477,94,152055,1,8,0:0:0:0:
477,94,152140,1,8,0:0:0:0:
420,118,152226,1,0,0:0:0:0:
420,118,152355,1,8,0:0:0:0:
420,118,152398,1,8,0:0:0:0:
420,118,152483,1,0,0:0:0:0:
420,118,152569,1,8,0:0:0:0:
420,118,152633,1,8,0:0:0:0:
420,118,152698,1,0,0:0:0:0:
356,67,152740,1,0,0:0:0:0:
111,83,152783,1,0,0:0:0:0:
356,67,152826,1,8,0:0:0:0:
329,50,152869,1,8,0:0:0:0:
329,50,152912,1,0,0:0:0:0:
374,45,153026,1,0,0:0:0:0:
374,45,153140,1,0,0:0:0:0:
374,45,153255,1,12,0:0:0:0:
416,178,153598,5,0,0:0:0:0:
377,84,153662,1,0,0:0:0:0:
288,167,153705,1,8,0:0:0:0:
288,167,153748,1,8,0:0:0:0:
288,167,153833,1,0,0:0:0:0:
288,167,153940,1,8,0:0:0:0:
288,167,154026,1,8,0:0:0:0:
288,167,154069,1,8,0:0:0:0:
288,167,154112,1,0,0:0:0:0:
288,167,154176,1,0,0:0:0:0:
288,167,154240,1,8,0:0:0:0:
288,167,154283,1,8,0:0:0:0:
288,167,154326,1,0,0:0:0:0:
231,107,154390,1,0,0:0:0:0:
231,107,154455,1,8,0:0:0:0:
239,139,154498,1,0,0:0:0:0:
239,139,154540,1,0,0:0:0:0:
239,139,154583,1,0,0:0:0:0:
229,110,154626,1,8,0:0:0:0:
74,104,154664,1,8,0:0:0:0:
315,62,154702,1,8,0:0:0:0:
339,124,154755,1,0,0:0:0:0:
339,124,154855,1,8,0:0:0:0:
330,58,154912,1,8,0:0:0:0:
357,14,154969,1,0,0:0:0:0:
354,91,155055,1,0,0:0:0:0:
354,91,155183,1,0,0:0:0:0:
351,94,155226,1,0,0:0:0:0:
354,91,155269,1,0,0:0:0:0:
354,91,155312,1,8,0:0:0:0:
287,78,155376,1,0,0:0:0:0:
287,78,155440,1,8,0:0:0:0:
135,91,155483,1,8,0:0:0:0:
287,78,155526,1,0,0:0:0:0:
242,75,155590,1,0,0:0:0:0:
242,75,155655,1,8,0:0:0:0:
242,75,155740,1,0,0:0:0:0:
242,75,155826,1,8,0:0:0:0:
242,75,155869,1,8,0:0:0:0:
242,75,155912,1,0,0:0:0:0:
242,75,155955,1,0,0:0:0:0:
242,75,155998,1,8,0:0:0:0:
402,42,156036,1,8,0:0:0:0:
204,95,156074,1,0,0:0:0:0:
313,58,156126,1,0,0:0:0:0:
393,30,156226,1,8,0:0:0:0:
386,35,156283,1,8,0:0:0:0:
388,40,156340,1,0,0:0:0:0:
281,56,156426,1,8,0:0:0:0:
281,56,156469,1,8,0:0:0:0:
281,56,156512,1,8,0:0:0:0:
281,56,156569,1,0,0:0:0:0:
281,56,156626,1,0,0:0:0:0:
281,56,156683,1,8,0:0:0:0:
283,74,156726,1,8,0:0:0:0:
283,74,156769,1,0,0:0:0:0:
481,17,156826,1,0,0:0:0:0:
281,56,156898,1,8,0:0:0:0:
283,74,156941,1,0,0:0:0:0:
283,74,156984,1,8,0:0:0:0:
229,54,157041,1,0,0:0:0:0:
330,96,157155,1,8,0:0:0:0:
330,96,157198,1,8,0:0:0:0:
330,96,157240,1,0,0:0:0:0:
326,97,157305,1,0,0:0:0:0:
326,97,157369,1,8,0:0:0:0:
363,42,157483,1,8,0:0:0:0:
363,42,157598,1,8,0:0:0:0:
363,42,157712,1,0,0:0:0:0:
336,58,157788,1,0,0:0:0:0:
336,58,157826,1,8,0:0:0:0:
336,58,157864,1,8,0:0:0:0:
336,58,157902,1,8,0:0:0:0:
356,49,157969,1,0,0:0:0:0:
356,49,158055,1,8,0:0:0:0:
430,97,158098,1,8,0:0:0:0:
430,97,158140,1,0,0:0:0:0:
411,28,158198,1,0,0:0:0:0:
224,135,158255,1,8,0:0:0:0:
452,45,158312,1,0,0:0:0:0:
451,54,158355,1,0,0:0:0:0:
451,54,158398,1,8,0:0:0:0:
443,62,158440,1,0,0:0:0:0:
511,38,158505,1,8,0:0:0:0:
376,98,158548,1,8,0:0:0:0:
451,54,158590,1,0,0:0:0:0:
132,36,158655,1,0,0:0:0:0:
376,98,158740,1,8,0:0:0:0:
375,102,158783,1,8,0:0:0:0:
283,83,158848,1,0,0:0:0:0:
283,83,158912,1,8,0:0:0:0:
283,83,158969,1,8,0:0:0:0:
283,83,159026,1,8,0:0:0:0:
232,151,159083,1,0,0:0:0:0:
232,151,159117,1,0,0:0:0:0:
301,138,159151,1,8,0:0:0:0:
324,158,159426,1,8,0:0:0:0:
324,158,159512,1,0,0:0:0:0:
324,158,159555,1,0,0:0:0:0:
324,158,159598,1,0,0:0:0:0:
324,158,159683,1,8,0:0:0:0:
326,57,159826,1,8,0:0:0:0:
326,57,159883,1,8,0:0:0:0:
326,57,159940,1,0,0:0:0:0:
390,55,160026,1,0,0:0:0:0:
390,55,160112,1,8,0:0:0:0:
390,55,160155,1,8,0:0:0:0:
390,55,160198,1,0,0:0:0:0:
390,55,160240,1,0,0:0:0:0:
390,55,160283,1,8,0:0:0:0:
336,47,160340,1,8,0:0:0:0:
336,46,160398,1,0,0:0:0:0:
336,47,160455,1,8,0:0:0:0:
350,31,160498,1,0,0:0:0:0:
350,31,160540,1,8,0:0:0:0:
346,45,160583,1,8,0:0:0:0:
305,79,160648,1,0,0:0:0:0:
301,79,160712,1,8,0:0:0:0:
301,80,160755,1,0,0:0:0:0:
301,80,160798,1,8,0:0:0:0:
301,80,160855,1,8,0:0:0:0:
301,80,160912,1,0,0:0:0:0:
217,99,160969,1,8,0:0:0:0:
406,51,161055,1,8,0:0:0:0:
395,38,161140,1,0,0:0:0:0:
394,39,161226,1,0,0:0:0:0:
394,39,161312,1,8,0:0:0:0:
394,39,161355,1,8,0:0:0:0:
394,39,161398,1,0,0:0:0:0:
394,38,161440,1,0,0:0:0:0:
394,39,161483,1,8,0:0:0:0:
334,42,161526,1,0,0:0:0:0:
334,42,161569,1,0,0:0:0:0:
334,42,161633,1,8,0:0:0:0:
334,42,161698,1,0,0:0:0:0:
337,42,161740,1,0,0:0:0:0:
337,42,161783,1,0,0:0:0:0:
337,42,161826,1,8,0:0:0:0:
382,41,161890,1,0,0:0:0:0:
382,41,161998,1,0,0:0:0:0:
382,41,162083,1,8,0:0:0:0:
381,42,162169,1,0,0:0:0:0:
381,42,162212,1,8,0:0:0:0:
237,52,162255,1,8,0:0:0:0:
237,52,162319,1,0,0:0:0:0:
237,52,162383,1,8,0:0:0:0:
237,52,162426,1,8,0:0:0:0:
237,52,162469,1,8,0:0:0:0:
237,52,162512,1,0,0:0:0:0:
326,55,162569,1,8,0:0:0:0:
326,55,162626,1,8,0:0:0:0:
326,55,162683,1,0,0:0:0:0:
325,45,162769,1,8,0:0:0:0:
324,46,162855,1,0,0:0:0:0:
273,46,162898,1,8,0:0:0:0:
273,46,162940,1,8,0:0:0:0:
273,46,162983,1,8,0:0:0:0:
273,46,163048,1,0,0:0:0:0:
273,46,163112,1,8,0:0:0:0:
273,46,163155,1,8,0:0:0:0:
273,46,163198,1,0,0:0:0:0:
383,33,163283,1,0,0:0:0:0:
383,33,163455,1,0,0:0:0:0:
383,33,163540,1,8,0:0:0:0:
318,48,163626,1,0,0:0:0:0:
318,48,163669,1,0,0:0:0:0:
318,48,163712,1,0,0:0:0:0:
318,48,163798,1,8,0:0:0:0:
184,79,163883,1,0,0:0:0:0:
184,79,163969,1,8,0:0:0:0:
191,79,164012,1,8,0:0:0:0:
261,80,164055,1,0,0:0:0:0:
191,79,164119,1,0,0:0:0:0:
296,48,164183,5,8,0:0:0:0:
296,48,164226,1,8,0:0:0:0:
296,48,164269,1,0,0:0:0:0:
296,48,164312,1,0,0:0:0:0:
296,48,164355,1,8,0:0:0:0:
296,48,164397,1,8,0:0:0:0:
296,48,164440,1,8,0:0:0:0:
296,48,164483,1,0,0:0:0:0:
426,133,164569,5,0,0:0:0:0:
398,28,164912,1,8,0:0:0:0:
398,28,165598,1,8,0:0:0:0:
398,28,166283,1,8,0:0:0:0:
398,28,166969,1,8,0:0:0:0:
398,28,167312,1,0,0:0:0:0:
398,28,167655,1,8,0:0:0:0:
398,28,168340,1,8,0:0:0:0:
398,28,169026,1,8,0:0:0:0:
398,28,169712,1,8,0:0:0:0:
456,48,170055,1,0,0:0:0:0:
456,48,170140,1,0,0:0:0:0:
456,48,170183,1,0,0:0:0:0:
456,48,170226,1,8,0:0:0:0:
456,48,170312,1,0,0:0:0:0:
456,48,170398,1,8,0:0:0:0:
456,48,170483,1,8,0:0:0:0:
456,48,170526,1,8,0:0:0:0:
456,48,170569,1,0,0:0:0:0:
456,48,170655,1,0,0:0:0:0:
506,26,170740,1,8,0:0:0:0:
506,26,170798,1,0,0:0:0:0:
506,26,170855,1,0,0:0:0:0:
506,26,170912,1,0,0:0:0:0:
445,29,170998,1,8,0:0:0:0:
422,80,171083,1,8,0:0:0:0:
422,80,171169,1,0,0:0:0:0:
288,82,171212,1,0,0:0:0:0:
422,80,171255,1,8,0:0:0:0:
398,47,171312,1,0,0:0:0:0:
406,48,171369,1,0,0:0:0:0:
288,82,171426,1,8,0:0:0:0:
349,48,171469,1,8,0:0:0:0:
351,50,171512,1,0,0:0:0:0:
351,50,171598,1,0,0:0:0:0:
435,41,171683,1,8,0:0:0:0:
435,41,171740,1,8,0:0:0:0:
435,41,171798,1,0,0:0:0:0:
435,41,171855,1,0,0:0:0:0:
435,41,171940,1,8,0:0:0:0:
381,23,172026,1,0,0:0:0:0:
381,23,172069,1,0,0:0:0:0:
381,23,172112,1,8,0:0:0:0:
381,23,172155,1,8,0:0:0:0:
381,23,172198,1,0,0:0:0:0:
381,23,172283,1,0,0:0:0:0:
381,23,172369,1,8,0:0:0:0:
381,23,172412,1,8,0:0:0:0:
381,23,172455,1,0,0:0:0:0:
437,31,172512,1,0,0:0:0:0:
414,67,172583,1,0,0:0:0:0:
437,31,172626,1,8,0:0:0:0:
437,31,172683,1,8,0:0:0:0:
437,31,172740,1,8,0:0:0:0:
437,31,172798,1,0,0:0:0:0:
351,66,172883,1,8,0:0:0:0:
351,66,172926,1,8,0:0:0:0:
351,66,172969,1,8,0:0:0:0:
351,66,173055,1,0,0:0:0:0:
351,66,173140,1,8,0:0:0:0:
351,66,173183,1,8,0:0:0:0:
351,66,173226,1,0,0:0:0:0:
446,62,173312,1,8,0:0:0:0:
274,78,173398,1,0,0:0:0:0:
83,59,173440,1,0,0:0:0:0:
446,62,173483,1,8,0:0:0:0:
279,53,173526,1,0,0:0:0:0:
446,62,173569,1,8,0:0:0:0:
279,53,173655,1,0,0:0:0:0:
328,46,173740,1,0,0:0:0:0:
328,46,173826,1,8,0:0:0:0:
466,51,173912,1,0,0:0:0:0:
466,51,173998,1,0,0:0:0:0:
465,65,174169,1,0,0:0:0:0:
465,65,174283,1,8,0:0:0:0:
465,65,174398,1,8,0:0:0:0:
286,69,174512,1,0,0:0:0:0:
286,69,174626,1,8,0:0:0:0:
21,134,174683,1,0,0:0:0:0:
286,69,174740,1,8,0:0:0:0:
286,69,174855,1,0,0:0:0:0:
274,78,174969,1,0,0:0:0:0:
83,59,175011,1,0,0:0:0:0:
446,62,175054,1,8,0:0:0:0:
279,53,175097,1,8,0:0:0:0:
446,62,175140,1,0,0:0:0:0:
161,43,175198,1,8,0:0:0:0:
431,20,175255,1,0,0:0:0:0:
431,20,175312,1,0,0:0:0:0:
366,38,175369,1,8,0:0:0:0:
366,38,175412,1,0,0:0:0:0:
366,38,175455,1,8,0:0:0:0:
366,38,175498,1,8,0:0:0:0:
424,178,175540,5,0,0:0:0:0:
398,67,175712,1,0,0:0:0:0:
398,67,175798,1,0,0:0:0:0:
381,141,175883,1,8,0:0:0:0:
398,67,176140,1,8,0:0:0:0:
381,141,176226,1,0,0:0:0:0:
398,67,176398,1,0,0:0:0:0:
381,141,176569,1,8,0:0:0:0:
470,17,176683,1,0,0:0:0:0:
424,178,176912,5,0,0:0:0:0:
385,44,177083,1,0,0:0:0:0:
385,44,177169,1,0,0:0:0:0:
385,44,177255,1,8,0:0:0:0:
385,44,177426,1,8,0:0:0:0:
385,44,177512,1,8,0:0:0:0:
381,141,177598,1,0,0:0:0:0:
385,44,177769,1,0,0:0:0:0:
381,141,177941,1,8,0:0:0:0:
470,17,178055,1,0,0:0:0:0:
424,178,178283,5,0,0:0:0:0:
381,48,178455,1,0,0:0:0:0:
385,44,178540,1,8,0:0:0:0:
381,141,178626,1,8,0:0:0:0:
382,48,178798,1,8,0:0:0:0:
381,48,178883,1,0,0:0:0:0:
381,141,178969,1,0,0:0:0:0:
381,48,179140,1,0,0:0:0:0:
381,141,179312,1,8,0:0:0:0:
470,17,179426,1,0,0:0:0:0:
404,32,179540,1,8,0:0:0:0:
424,178,179655,5,0,0:0:0:0:
381,24,179826,1,0,0:0:0:0:
381,24,179912,1,0,0:0:0:0:
381,141,179998,1,8,0:0:0:0:
381,24,180083,1,8,0:0:0:0:
381,24,180169,1,0,0:0:0:0:
381,141,180341,1,0,0:0:0:0:
381,24,180512,1,0,0:0:0:0:
381,24,180598,1,0,0:0:0:0:
381,141,180684,1,8,0:0:0:0:
470,17,180798,1,0,0:0:0:0:
424,178,181026,5,0,0:0:0:0:
387,32,181198,1,8,0:0:0:0:
387,32,181283,1,0,0:0:0:0:
381,141,181369,1,8,0:0:0:0:
387,32,181626,1,8,0:0:0:0:
381,141,181712,1,0,0:0:0:0:
387,32,181883,1,0,0:0:0:0:
381,141,182055,1,8,0:0:0:0:
470,17,182169,1,0,0:0:0:0:
424,178,182398,5,0,0:0:0:0:
387,32,182569,1,0,0:0:0:0:
387,32,182655,1,8,0:0:0:0:
381,141,182741,1,8,0:0:0:0:
387,32,182912,1,8,0:0:0:0:
387,32,182998,1,0,0:0:0:0:
381,141,183084,1,0,0:0:0:0:
387,32,183255,1,0,0:0:0:0:
381,141,183427,1,8,0:0:0:0:
470,17,183541,1,0,0:0:0:0:
424,178,183769,5,0,0:0:0:0:
387,32,183940,1,0,0:0:0:0:
387,32,184026,1,0,0:0:0:0:
381,141,184112,1,8,0:0:0:0:
387,32,184283,1,8,0:0:0:0:
387,32,184369,1,8,0:0:0:0:
381,141,184455,1,0,0:0:0:0:
387,32,184626,1,0,0:0:0:0:
387,32,184712,1,0,0:0:0:0:
381,141,184798,1,8,0:0:0:0:
470,17,184912,1,0,0:0:0:0:
424,178,185140,5,0,0:0:0:0:
379,162,185312,1,0,0:0:0:0:
379,162,185398,1,0,0:0:0:0:
381,141,185483,1,8,0:0:0:0:
379,162,185569,1,0,0:0:0:0:
379,162,185655,1,8,0:0:0:0:
381,141,185826,1,0,0:0:0:0:
379,162,185998,1,0,0:0:0:0:
379,162,186083,1,8,0:0:0:0:
381,141,186169,1,8,0:0:0:0:
470,17,186283,1,0,0:0:0:0:
424,178,186512,5,0,0:0:0:0:
381,141,186855,1,8,0:0:0:0:
381,141,187198,1,0,0:0:0:0:
381,141,187455,1,8,0:0:0:0:
470,17,187655,1,0,0:0:0:0:
424,178,187884,5,0,0:0:0:0:
381,141,188227,1,8,0:0:0:0:
381,141,188570,1,0,0:0:0:0:
381,141,188826,1,8,0:0:0:0:
470,17,189027,1,0,0:0:0:0:
424,178,189255,5,0,0:0:0:0:
405,108,189512,1,0,0:0:0:0:
381,141,189598,1,8,0:0:0:0:
405,108,189769,1,8,0:0:0:0:
405,108,189855,1,8,0:0:0:0:
381,141,189941,1,0,0:0:0:0:
405,108,190112,1,0,0:0:0:0:
381,141,190198,1,8,0:0:0:0:
470,17,190398,1,0,0:0:0:0:
424,178,190627,5,0,0:0:0:0:
394,112,190798,1,0,0:0:0:0:
394,112,190883,1,0,0:0:0:0:
381,141,190970,1,8,0:0:0:0:
394,112,191055,1,0,0:0:0:0:
394,112,191140,1,8,0:0:0:0:
381,141,191313,1,0,0:0:0:0:
391,116,191483,1,0,0:0:0:0:
381,141,191569,1,8,0:0:0:0:
470,17,191770,1,0,0:0:0:0:
424,178,191998,5,0,0:0:0:0:
381,141,192341,1,8,0:0:0:0:
381,141,192684,1,0,0:0:0:0:
381,141,192940,1,8,0:0:0:0:
470,17,193141,1,0,0:0:0:0:
424,178,193370,5,0,0:0:0:0:
387,120,193540,1,0,0:0:0:0:
390,122,193626,1,0,0:0:0:0:
381,141,193713,1,8,0:0:0:0:
387,120,193798,1,8,0:0:0:0:
390,122,193969,1,8,0:0:0:0:
381,141,194056,1,0,0:0:0:0:
390,122,194140,1,0,0:0:0:0:
381,141,194312,1,8,0:0:0:0:
470,17,194513,1,0,0:0:0:0:
424,178,194741,5,0,0:0:0:0:
381,141,194912,1,8,0:0:0:0:
393,122,194998,1,0,0:0:0:0:
393,122,195083,1,8,0:0:0:0:
381,72,195169,1,8,0:0:0:0:
381,72,195340,1,8,0:0:0:0:
381,141,195427,1,0,0:0:0:0:
381,72,195512,1,0,0:0:0:0:
381,72,195598,1,8,0:0:0:0:
381,141,195683,1,8,0:0:0:0:
470,17,195884,1,0,0:0:0:0:
424,178,196112,5,0,0:0:0:0:
381,72,196283,1,0,0:0:0:0:
381,72,196369,1,0,0:0:0:0:
381,141,196455,5,8,0:0:0:0:
381,72,196626,1,8,0:0:0:0:
381,72,196712,1,8,0:0:0:0:
381,141,196798,1,0,0:0:0:0:
381,72,196883,1,0,0:0:0:0:
381,72,196969,1,0,0:0:0:0:
381,141,197055,1,8,0:0:0:0:
470,17,197255,1,0,0:0:0:0:
374,295,197483,5,0,0:0:0:0:
