osu file format v14

[General]
AudioFilename: audio.mp3
AudioLeadIn: 0
PreviewTime: 54882
Countdown: 0
SampleSet: Soft
StackLeniency: 0.7
Mode: 3
LetterboxInBreaks: 0
SpecialStyle: 0
WidescreenStoryboard: 1

[Editor]
DistanceSpacing: 1.5
BeatDivisor: 4
GridSize: 4
TimelineZoom: 1.4

[Metadata]
Title:Nonbinarity (Cut Ver.)
TitleUnicode:Nonbinarity (Cut Ver.)
Artist:Kurokotei
ArtistUnicode:黒皇帝
Creator:_Deafen
Version:paraxia's insane
Source:
Tags:paraxia electronic instrumental footwork breakcore juke hardcore dochakuso records dcks-0093 footcore compilation 2 tech technical dialgadu77 sayaka-
BeatmapID:4012239
BeatmapSetID:1933724

[Difficulty]
HPDrainRate:7.5
CircleSize:4
OverallDifficulty:8
ApproachRate:5
SliderMultiplier:1.4
SliderTickRate:1

[Events]
//Background and Video events
0,0,"bg.png",0,0
//Break Periods
//Storyboard Layer 0 (Background)
//Storyboard Layer 1 (Fail)
//Storyboard Layer 2 (Pass)
//Storyboard Layer 3 (Foreground)
//Storyboard Layer 4 (Overlay)
//Storyboard Sound Samples

[TimingPoints]
21968,342.857147216797,4,2,1,20,1,0
54882,-100,4,2,1,20,0,1
60368,-100,4,2,1,20,0,0
60710,-100,4,2,1,20,0,1
65853,-100,4,2,1,20,0,0
87796,-100,4,2,1,20,0,1
109739,-100,4,2,1,20,0,0

[HitObjects]
64,192,10996,5,0,0:0:0:0:
448,192,11167,1,0,0:0:0:0:
320,192,11253,1,0,0:0:0:0:
64,192,11339,1,0,0:0:0:0:
192,192,11425,1,0,0:0:0:0:
320,192,11510,1,0,0:0:0:0:
448,192,11682,1,0,0:0:0:0:
64,192,11767,1,0,0:0:0:0:
320,192,11939,1,0,0:0:0:0:
448,192,12025,1,0,0:0:0:0:
448,192,12282,1,0,0:0:0:0:
64,192,12367,1,0,0:0:0:0:
64,192,13739,1,0,0:0:0:0:
64,192,13996,1,0,0:0:0:0:
448,192,14253,1,0,0:0:0:0:
64,192,14425,1,0,0:0:0:0:
448,192,14510,1,0,0:0:0:0:
320,192,14682,1,0,0:0:0:0:
192,192,14767,1,0,0:0:0:0:
448,192,14939,1,0,0:0:0:0:
192,192,15025,1,0,0:0:0:0:
320,192,15110,1,0,0:0:0:0:
448,192,15796,1,0,0:0:0:0:
64,192,16482,1,0,0:0:0:0:
64,192,16739,1,0,0:0:0:0:
192,192,16996,1,0,0:0:0:0:
448,192,17167,1,0,0:0:0:0:
192,192,17253,1,0,0:0:0:0:
448,192,17510,1,0,0:0:0:0:
448,192,17767,1,0,0:0:0:0:
64,192,17853,1,0,0:0:0:0:
64,192,19225,1,0,0:0:0:0:
448,192,19396,1,0,0:0:0:0:
320,192,19482,1,0,0:0:0:0:
192,192,19567,1,0,0:0:0:0:
64,192,19653,1,0,0:0:0:0:
448,192,19739,1,0,0:0:0:0:
64,192,19910,1,0,0:0:0:0:
448,192,19996,1,0,0:0:0:0:
320,192,20167,1,0,0:0:0:0:
192,192,20253,1,0,0:0:0:0:
320,192,20425,1,0,0:0:0:0:
192,192,20510,1,0,0:0:0:0:
64,192,20596,1,0,0:0:0:0:
192,192,21110,1,0,0:0:0:0:
448,192,21282,1,0,0:0:0:0:
64,192,21796,1,0,0:0:0:0:
192,192,21968,1,0,0:0:0:0:
448,192,21968,1,0,0:0:0:0:
320,192,21968,1,0,0:0:0:0:
448,192,22225,1,0,0:0:0:0:
64,192,22225,1,0,0:0:0:0:
192,192,22310,1,0,0:0:0:0:
320,192,22310,1,0,0:0:0:0:
448,192,22396,1,0,0:0:0:0:
64,192,22396,1,0,0:0:0:0:
192,192,22568,1,0,0:0:0:0:
448,192,22653,1,0,0:0:0:0:
320,192,22653,1,0,0:0:0:0:
64,192,22739,1,0,0:0:0:0:
320,192,22825,1,0,0:0:0:0:
192,192,22825,1,0,0:0:0:0:
448,192,22996,1,0,0:0:0:0:
64,192,23082,1,0,0:0:0:0:
320,192,23082,1,0,0:0:0:0:
192,192,23210,1,0,0:0:0:0:
64,192,23210,1,0,0:0:0:0:
320,192,23339,1,0,0:0:0:0:
448,192,23339,1,0,0:0:0:0:
64,192,23453,1,0,0:0:0:0:
192,192,23453,1,0,0:0:0:0:
448,192,23568,1,0,0:0:0:0:
320,192,23568,1,0,0:0:0:0:
64,192,23682,1,0,0:0:0:0:
448,192,23796,1,0,0:0:0:0:
192,192,23796,1,0,0:0:0:0:
320,192,23939,1,0,0:0:0:0:
64,192,24025,1,0,0:0:0:0:
192,192,24025,1,0,0:0:0:0:
448,192,24110,1,0,0:0:0:0:
192,192,24196,1,0,0:0:0:0:
64,192,24282,1,0,0:0:0:0:
320,192,24282,1,0,0:0:0:0:
448,192,24368,1,0,0:0:0:0:
64,192,24496,1,0,0:0:0:0:
192,192,24496,1,0,0:0:0:0:
320,192,24625,1,0,0:0:0:0:
192,192,24710,1,0,0:0:0:0:
448,192,24710,1,0,0:0:0:0:
64,192,24796,1,0,0:0:0:0:
320,192,24882,1,0,0:0:0:0:
64,192,24968,1,0,0:0:0:0:
192,192,24968,1,0,0:0:0:0:
448,192,25053,1,0,0:0:0:0:
192,192,25139,1,0,0:0:0:0:
320,192,25139,1,0,0:0:0:0:
448,192,25310,1,0,0:0:0:0:
192,192,25396,1,0,0:0:0:0:
64,192,25396,1,0,0:0:0:0:
448,192,25568,1,0,0:0:0:0:
320,192,25568,1,0,0:0:0:0:
192,192,25739,1,0,0:0:0:0:
64,192,25825,1,0,0:0:0:0:
320,192,25825,1,0,0:0:0:0:
320,192,25953,1,0,0:0:0:0:
448,192,25953,1,0,0:0:0:0:
64,192,26082,1,0,0:0:0:0:
192,192,26082,1,0,0:0:0:0:
448,192,26196,1,0,0:0:0:0:
320,192,26196,1,0,0:0:0:0:
64,192,26310,1,0,0:0:0:0:
192,192,26310,1,0,0:0:0:0:
320,192,26425,1,0,0:0:0:0:
192,192,26539,1,0,0:0:0:0:
448,192,26539,1,0,0:0:0:0:
64,192,26682,1,0,0:0:0:0:
448,192,26768,1,0,0:0:0:0:
320,192,26768,1,0,0:0:0:0:
192,192,26853,1,0,0:0:0:0:
320,192,26939,1,0,0:0:0:0:
448,192,27025,1,0,0:0:0:0:
64,192,27025,1,0,0:0:0:0:
192,192,27110,1,0,0:0:0:0:
448,192,27239,1,0,0:0:0:0:
320,192,27239,1,0,0:0:0:0:
64,192,27368,1,0,0:0:0:0:
320,192,27453,1,0,0:0:0:0:
192,192,27453,1,0,0:0:0:0:
448,192,27539,1,0,0:0:0:0:
192,192,27625,1,0,0:0:0:0:
320,192,27710,1,0,0:0:0:0:
64,192,27710,1,0,0:0:0:0:
448,192,27882,1,0,0:0:0:0:
192,192,27882,1,0,0:0:0:0:
320,192,28053,1,0,0:0:0:0:
64,192,28139,1,0,0:0:0:0:
192,192,28139,1,0,0:0:0:0:
320,192,28310,1,0,0:0:0:0:
64,192,28310,1,0,0:0:0:0:
448,192,28482,1,0,0:0:0:0:
192,192,28568,1,0,0:0:0:0:
320,192,28568,1,0,0:0:0:0:
64,192,28696,1,0,0:0:0:0:
448,192,28696,1,0,0:0:0:0:
320,192,28825,1,0,0:0:0:0:
192,192,28825,1,0,0:0:0:0:
448,192,28939,1,0,0:0:0:0:
64,192,28939,1,0,0:0:0:0:
192,192,29053,1,0,0:0:0:0:
320,192,29053,1,0,0:0:0:0:
448,192,29168,1,0,0:0:0:0:
192,192,29282,1,0,0:0:0:0:
64,192,29282,1,0,0:0:0:0:
320,192,29425,1,0,0:0:0:0:
192,192,29510,1,0,0:0:0:0:
448,192,29510,1,0,0:0:0:0:
64,192,29596,1,0,0:0:0:0:
320,192,29682,1,0,0:0:0:0:
64,192,29768,1,0,0:0:0:0:
192,192,29768,1,0,0:0:0:0:
448,192,29853,1,0,0:0:0:0:
192,192,29982,1,0,0:0:0:0:
320,192,29982,1,0,0:0:0:0:
64,192,30110,1,0,0:0:0:0:
192,192,30196,1,0,0:0:0:0:
448,192,30196,1,0,0:0:0:0:
320,192,30282,1,0,0:0:0:0:
192,192,30368,1,0,0:0:0:0:
448,192,30453,1,0,0:0:0:0:
64,192,30453,1,0,0:0:0:0:
320,192,30539,1,0,0:0:0:0:
64,192,30625,1,0,0:0:0:0:
192,192,30625,1,0,0:0:0:0:
448,192,30796,1,0,0:0:0:0:
192,192,30882,1,0,0:0:0:0:
320,192,30882,1,0,0:0:0:0:
320,192,31053,1,0,0:0:0:0:
64,192,31053,1,0,0:0:0:0:
192,192,31225,1,0,0:0:0:0:
448,192,31310,1,0,0:0:0:0:
64,192,31310,1,0,0:0:0:0:
320,192,31439,1,0,0:0:0:0:
192,192,31439,1,0,0:0:0:0:
448,192,31568,1,0,0:0:0:0:
64,192,31568,1,0,0:0:0:0:
192,192,31682,1,0,0:0:0:0:
320,192,31682,1,0,0:0:0:0:
448,192,31796,1,0,0:0:0:0:
64,192,31796,1,0,0:0:0:0:
192,192,31910,1,0,0:0:0:0:
320,192,32025,1,0,0:0:0:0:
448,192,32025,1,0,0:0:0:0:
64,192,32168,1,0,0:0:0:0:
448,192,32253,1,0,0:0:0:0:
192,192,32253,1,0,0:0:0:0:
320,192,32339,1,0,0:0:0:0:
64,192,32425,1,0,0:0:0:0:
448,192,32510,1,0,0:0:0:0:
320,192,32510,1,0,0:0:0:0:
192,192,32596,1,0,0:0:0:0:
448,192,32725,1,0,0:0:0:0:
64,192,32725,1,0,0:0:0:0:
320,192,32853,1,0,0:0:0:0:
448,192,32939,128,0,33196:0:0:0:0:
64,192,32939,1,0,0:0:0:0:
192,192,32939,1,0,0:0:0:0:
320,192,33196,128,0,33453:0:0:0:0:
64,192,33282,1,0,0:0:0:0:
192,192,33282,1,0,0:0:0:0:
448,192,33453,128,0,33625:0:0:0:0:
320,192,33625,128,0,33882:0:0:0:0:
64,192,33625,1,0,0:0:0:0:
448,192,33882,128,0,34053:0:0:0:0:
192,192,34082,128,0,34196:0:0:0:0:
320,192,34196,128,0,34310:0:0:0:0:
448,192,34310,1,0,0:0:0:0:
192,192,34310,128,0,34568:0:0:0:0:
64,192,34568,128,0,34739:0:0:0:0:
192,192,34739,128,0,34996:0:0:0:0:
448,192,34996,1,0,0:0:0:0:
64,192,34996,128,0,35082:0:0:0:0:
320,192,35082,128,0,35168:0:0:0:0:
192,192,35168,128,0,35253:0:0:0:0:
64,192,35253,1,0,0:0:0:0:
448,192,35253,1,0,0:0:0:0:
320,192,35339,128,0,35453:0:0:0:0:
192,192,35453,128,0,35568:0:0:0:0:
64,192,35568,128,0,35682:0:0:0:0:
320,192,35682,128,0,35910:0:0:0:0:
448,192,35682,1,0,0:0:0:0:
448,192,35910,128,0,36139:0:0:0:0:
320,192,36139,128,0,36368:0:0:0:0:
448,192,36368,128,0,36596:0:0:0:0:
64,192,36368,1,0,0:0:0:0:
320,192,36596,128,0,36825:0:0:0:0:
192,192,36825,128,0,36939:0:0:0:0:
320,192,36939,128,0,37053:0:0:0:0:
64,192,37053,1,0,0:0:0:0:
448,192,37053,1,0,0:0:0:0:
192,192,37139,128,0,37310:0:0:0:0:
448,192,37310,1,0,0:0:0:0:
64,192,37310,128,0,37482:0:0:0:0:
192,192,37482,128,0,37568:0:0:0:0:
448,192,37568,1,0,0:0:0:0:
64,192,37568,128,0,37739:0:0:0:0:
192,192,37739,1,0,0:0:0:0:
320,192,37739,128,0,37968:0:0:0:0:
64,192,37968,128,0,38196:0:0:0:0:
448,192,37968,1,0,0:0:0:0:
448,192,38196,1,0,0:0:0:0:
320,192,38196,128,0,38310:0:0:0:0:
192,192,38310,1,0,0:0:0:0:
64,192,38310,1,0,0:0:0:0:
448,192,38425,128,0,38682:0:0:0:0:
320,192,38425,1,0,0:0:0:0:
320,192,38682,128,0,38939:0:0:0:0:
64,192,38768,1,0,0:0:0:0:
192,192,38768,1,0,0:0:0:0:
448,192,38939,128,0,39110:0:0:0:0:
320,192,39110,128,0,39396:0:0:0:0:
64,192,39110,1,0,0:0:0:0:
448,192,39396,128,0,39568:0:0:0:0:
192,192,39568,128,0,39682:0:0:0:0:
320,192,39682,128,0,39796:0:0:0:0:
448,192,39796,1,0,0:0:0:0:
192,192,39796,128,0,40053:0:0:0:0:
64,192,40053,128,0,40225:0:0:0:0:
192,192,40225,128,0,40482:0:0:0:0:
64,192,40482,1,0,0:0:0:0:
448,192,40482,1,0,0:0:0:0:
320,192,40568,1,0,0:0:0:0:
192,192,40653,1,0,0:0:0:0:
64,192,40739,1,0,0:0:0:0:
448,192,40739,1,0,0:0:0:0:
192,192,40825,1,0,0:0:0:0:
320,192,40825,1,0,0:0:0:0:
64,192,40910,1,0,0:0:0:0:
448,192,40910,1,0,0:0:0:0:
192,192,40996,1,0,0:0:0:0:
320,192,40996,1,0,0:0:0:0:
448,192,41082,1,0,0:0:0:0:
64,192,41082,1,0,0:0:0:0:
192,192,41168,1,0,0:0:0:0:
320,192,41168,1,0,0:0:0:0:
448,192,41339,1,0,0:0:0:0:
192,192,41425,1,0,0:0:0:0:
64,192,41425,1,0,0:0:0:0:
320,192,41596,1,0,0:0:0:0:
448,192,41682,1,0,0:0:0:0:
64,192,41682,1,0,0:0:0:0:
192,192,41768,1,0,0:0:0:0:
448,192,41853,1,0,0:0:0:0:
320,192,41853,1,0,0:0:0:0:
64,192,41939,1,0,0:0:0:0:
192,192,41939,1,0,0:0:0:0:
448,192,42025,1,0,0:0:0:0:
320,192,42025,1,0,0:0:0:0:
64,192,42110,1,0,0:0:0:0:
192,192,42110,1,0,0:0:0:0:
448,192,42196,1,0,0:0:0:0:
320,192,42196,1,0,0:0:0:0:
192,192,42282,1,0,0:0:0:0:
64,192,42282,1,0,0:0:0:0:
320,192,42368,1,0,0:0:0:0:
448,192,42368,1,0,0:0:0:0:
64,192,42453,1,0,0:0:0:0:
192,192,42453,1,0,0:0:0:0:
320,192,42539,1,0,0:0:0:0:
448,192,42539,1,0,0:0:0:0:
192,192,42710,1,0,0:0:0:0:
320,192,42796,1,0,0:0:0:0:
448,192,42796,1,0,0:0:0:0:
64,192,42882,1,0,0:0:0:0:
192,192,42882,1,0,0:0:0:0:
320,192,42968,1,0,0:0:0:0:
64,192,43053,1,0,0:0:0:0:
448,192,43053,1,0,0:0:0:0:
320,192,43139,1,0,0:0:0:0:
192,192,43139,1,0,0:0:0:0:
448,192,43225,1,0,0:0:0:0:
64,192,43225,1,0,0:0:0:0:
192,192,43310,1,0,0:0:0:0:
320,192,43310,1,0,0:0:0:0:
320,192,43482,1,0,0:0:0:0:
64,192,43482,1,0,0:0:0:0:
448,192,43568,1,0,0:0:0:0:
192,192,43568,1,0,0:0:0:0:
320,192,43739,1,0,0:0:0:0:
448,192,43739,1,0,0:0:0:0:
64,192,43825,1,0,0:0:0:0:
320,192,43910,1,0,0:0:0:0:
192,192,43910,1,0,0:0:0:0:
448,192,44082,1,0,0:0:0:0:
320,192,44168,1,0,0:0:0:0:
192,192,44253,1,0,0:0:0:0:
64,192,44425,1,0,0:0:0:0:
448,192,44596,1,0,0:0:0:0:
320,192,44768,1,0,0:0:0:0:
64,192,44853,1,0,0:0:0:0:
192,192,44939,1,0,0:0:0:0:
448,192,45053,1,0,0:0:0:0:
64,192,45168,1,0,0:0:0:0:
320,192,45282,1,0,0:0:0:0:
448,192,45453,1,0,0:0:0:0:
192,192,45539,1,0,0:0:0:0:
64,192,45625,1,0,0:0:0:0:
320,192,45796,1,0,0:0:0:0:
192,192,45968,1,0,0:0:0:0:
64,192,46139,1,0,0:0:0:0:
320,192,46225,1,0,0:0:0:0:
448,192,46310,1,0,0:0:0:0:
192,192,46425,1,0,0:0:0:0:
320,192,46539,1,0,0:0:0:0:
64,192,46653,1,0,0:0:0:0:
192,192,46825,1,0,0:0:0:0:
448,192,46910,1,0,0:0:0:0:
320,192,46996,1,0,0:0:0:0:
64,192,47168,1,0,0:0:0:0:
448,192,47339,1,0,0:0:0:0:
320,192,47510,1,0,0:0:0:0:
64,192,47596,1,0,0:0:0:0:
192,192,47682,1,0,0:0:0:0:
448,192,47796,1,0,0:0:0:0:
64,192,47910,1,0,0:0:0:0:
320,192,48025,1,0,0:0:0:0:
448,192,48196,1,0,0:0:0:0:
192,192,48282,1,0,0:0:0:0:
64,192,48368,1,0,0:0:0:0:
320,192,48539,1,0,0:0:0:0:
64,192,48710,1,0,0:0:0:0:
192,192,48796,1,0,0:0:0:0:
320,192,48968,1,0,0:0:0:0:
448,192,49053,1,0,0:0:0:0:
192,192,49168,1,0,0:0:0:0:
320,192,49282,1,0,0:0:0:0:
64,192,49396,128,0,49568:0:0:0:0:
192,192,49396,1,0,0:0:0:0:
320,192,49653,1,0,0:0:0:0:
448,192,49653,128,0,49825:0:0:0:0:
64,192,49739,1,0,0:0:0:0:
192,192,49739,1,0,0:0:0:0:
64,192,49910,1,0,0:0:0:0:
320,192,49910,1,0,0:0:0:0:
448,192,50082,1,0,0:0:0:0:
192,192,50082,128,0,50253:0:0:0:0:
64,192,50339,1,0,0:0:0:0:
320,192,50339,128,0,50510:0:0:0:0:
448,192,50425,1,0,0:0:0:0:
192,192,50425,1,0,0:0:0:0:
320,192,50596,1,0,0:0:0:0:
448,192,50596,1,0,0:0:0:0:
192,192,50768,1,0,0:0:0:0:
64,192,50768,128,0,50939:0:0:0:0:
192,192,51025,1,0,0:0:0:0:
448,192,51025,128,0,51196:0:0:0:0:
64,192,51110,1,0,0:0:0:0:
320,192,51110,1,0,0:0:0:0:
320,192,51282,1,0,0:0:0:0:
192,192,51282,1,0,0:0:0:0:
448,192,51453,1,0,0:0:0:0:
192,192,51453,128,0,51625:0:0:0:0:
448,192,51710,1,0,0:0:0:0:
320,192,51710,128,0,51882:0:0:0:0:
64,192,51796,1,0,0:0:0:0:
192,192,51796,1,0,0:0:0:0:
448,192,51968,1,0,0:0:0:0:
192,192,51968,1,0,0:0:0:0:
448,192,52139,1,0,0:0:0:0:
64,192,52139,128,0,52310:0:0:0:0:
320,192,52396,1,0,0:0:0:0:
448,192,52396,128,0,52568:0:0:0:0:
64,192,52482,1,0,0:0:0:0:
192,192,52482,1,0,0:0:0:0:
64,192,52653,1,0,0:0:0:0:
320,192,52653,1,0,0:0:0:0:
448,192,52825,1,0,0:0:0:0:
192,192,52825,128,0,52996:0:0:0:0:
64,192,53082,1,0,0:0:0:0:
320,192,53082,128,0,53253:0:0:0:0:
448,192,53168,1,0,0:0:0:0:
192,192,53168,1,0,0:0:0:0:
320,192,53339,1,0,0:0:0:0:
448,192,53339,1,0,0:0:0:0:
192,192,53510,1,0,0:0:0:0:
64,192,53510,128,0,53682:0:0:0:0:
192,192,53768,1,0,0:0:0:0:
448,192,53768,128,0,53939:0:0:0:0:
64,192,53853,1,0,0:0:0:0:
320,192,53853,1,0,0:0:0:0:
64,192,54025,1,0,0:0:0:0:
192,192,54025,1,0,0:0:0:0:
448,192,54196,1,0,0:0:0:0:
320,192,54196,1,0,0:0:0:0:
64,192,54325,1,0,0:0:0:0:
192,192,54325,1,0,0:0:0:0:
448,192,54453,1,0,0:0:0:0:
320,192,54453,1,0,0:0:0:0:
64,192,54539,1,0,0:0:0:0:
192,192,54539,1,0,0:0:0:0:
448,192,54882,1,0,0:0:0:0:
320,192,54882,1,0,0:0:0:0:
64,192,54882,1,0,0:0:0:0:
192,192,54968,1,0,0:0:0:0:
448,192,55053,1,0,0:0:0:0:
320,192,55053,1,0,0:0:0:0:
192,192,55225,1,0,0:0:0:0:
64,192,55225,1,0,0:0:0:0:
320,192,55310,1,0,0:0:0:0:
448,192,55310,1,0,0:0:0:0:
192,192,55482,1,0,0:0:0:0:
320,192,55568,1,0,0:0:0:0:
448,192,55568,1,0,0:0:0:0:
64,192,55653,1,0,0:0:0:0:
320,192,55739,1,0,0:0:0:0:
192,192,55739,1,0,0:0:0:0:
448,192,55825,1,0,0:0:0:0:
64,192,55910,1,0,0:0:0:0:
192,192,55910,1,0,0:0:0:0:
320,192,55996,1,0,0:0:0:0:
448,192,55996,1,0,0:0:0:0:
64,192,56125,1,0,0:0:0:0:
192,192,56125,1,0,0:0:0:0:
320,192,56253,1,0,0:0:0:0:
448,192,56253,1,0,0:0:0:0:
64,192,56425,1,0,0:0:0:0:
192,192,56510,1,0,0:0:0:0:
448,192,56510,1,0,0:0:0:0:
320,192,56596,1,0,0:0:0:0:
64,192,56596,1,0,0:0:0:0:
192,192,56768,1,0,0:0:0:0:
448,192,56768,1,0,0:0:0:0:
320,192,56853,1,0,0:0:0:0:
64,192,56939,1,0,0:0:0:0:
192,192,56939,1,0,0:0:0:0:
448,192,57025,1,0,0:0:0:0:
320,192,57110,1,0,0:0:0:0:
192,192,57168,1,0,0:0:0:0:
64,192,57168,1,0,0:0:0:0:
320,192,57282,1,0,0:0:0:0:
448,192,57282,1,0,0:0:0:0:
192,192,57368,1,0,0:0:0:0:
64,192,57368,1,0,0:0:0:0:
320,192,57496,1,0,0:0:0:0:
448,192,57496,1,0,0:0:0:0:
192,192,57625,1,0,0:0:0:0:
64,192,57625,1,0,0:0:0:0:
448,192,57739,1,0,0:0:0:0:
192,192,57853,1,0,0:0:0:0:
320,192,57853,1,0,0:0:0:0:
64,192,57968,1,0,0:0:0:0:
192,192,57968,1,0,0:0:0:0:
320,192,58082,1,0,0:0:0:0:
448,192,58082,1,0,0:0:0:0:
320,192,58196,1,0,0:0:0:0:
448,192,58196,1,0,0:0:0:0:
192,192,58310,1,0,0:0:0:0:
64,192,58310,1,0,0:0:0:0:
64,192,58425,1,0,0:0:0:0:
192,192,58425,1,0,0:0:0:0:
320,192,58539,1,0,0:0:0:0:
448,192,58539,1,0,0:0:0:0:
64,192,58653,1,0,0:0:0:0:
192,192,58653,1,0,0:0:0:0:
448,192,58739,1,0,0:0:0:0:
320,192,58825,1,0,0:0:0:0:
64,192,58825,1,0,0:0:0:0:
192,192,58910,1,0,0:0:0:0:
448,192,58996,1,0,0:0:0:0:
320,192,58996,1,0,0:0:0:0:
192,192,59168,1,0,0:0:0:0:
320,192,59253,1,0,0:0:0:0:
448,192,59253,1,0,0:0:0:0:
64,192,59339,1,0,0:0:0:0:
192,192,59339,1,0,0:0:0:0:
448,192,59425,1,0,0:0:0:0:
320,192,59510,1,0,0:0:0:0:
64,192,59510,1,0,0:0:0:0:
320,192,59682,1,0,0:0:0:0:
448,192,59682,1,0,0:0:0:0:
64,192,59768,1,0,0:0:0:0:
192,192,59768,1,0,0:0:0:0:
448,192,59853,1,0,0:0:0:0:
320,192,59853,1,0,0:0:0:0:
64,192,59939,1,0,0:0:0:0:
192,192,60025,1,0,0:0:0:0:
448,192,60025,1,0,0:0:0:0:
320,192,60110,1,0,0:0:0:0:
64,192,60196,1,0,0:0:0:0:
192,192,60196,1,0,0:0:0:0:
448,192,60282,1,0,0:0:0:0:
192,192,60368,128,0,60625:0:0:0:0:
64,192,60368,128,0,60625:0:0:0:0:
64,192,60710,1,0,0:0:0:0:
192,192,60710,1,0,0:0:0:0:
448,192,60796,1,0,0:0:0:0:
320,192,60882,1,0,0:0:0:0:
192,192,60882,1,0,0:0:0:0:
64,192,61053,1,0,0:0:0:0:
320,192,61139,1,0,0:0:0:0:
192,192,61139,1,0,0:0:0:0:
448,192,61225,1,0,0:0:0:0:
64,192,61310,1,0,0:0:0:0:
192,192,61310,1,0,0:0:0:0:
320,192,61396,1,0,0:0:0:0:
448,192,61396,1,0,0:0:0:0:
320,192,61510,1,0,0:0:0:0:
192,192,61510,1,0,0:0:0:0:
192,192,61625,1,0,0:0:0:0:
64,192,61625,1,0,0:0:0:0:
320,192,61739,1,0,0:0:0:0:
448,192,61739,1,0,0:0:0:0:
448,192,61910,1,0,0:0:0:0:
64,192,61910,1,0,0:0:0:0:
320,192,61996,1,0,0:0:0:0:
192,192,62082,1,0,0:0:0:0:
64,192,62082,1,0,0:0:0:0:
320,192,62168,1,0,0:0:0:0:
448,192,62168,1,0,0:0:0:0:
192,192,62339,1,0,0:0:0:0:
64,192,62339,1,0,0:0:0:0:
320,192,62425,1,0,0:0:0:0:
448,192,62425,1,0,0:0:0:0:
192,192,62510,1,0,0:0:0:0:
64,192,62510,1,0,0:0:0:0:
320,192,62596,1,0,0:0:0:0:
448,192,62596,1,0,0:0:0:0:
192,192,62682,1,0,0:0:0:0:
64,192,62682,1,0,0:0:0:0:
320,192,62768,1,0,0:0:0:0:
448,192,62768,1,0,0:0:0:0:
192,192,62853,1,0,0:0:0:0:
448,192,62939,1,0,0:0:0:0:
64,192,62939,1,0,0:0:0:0:
320,192,63025,1,0,0:0:0:0:
192,192,63110,1,0,0:0:0:0:
64,192,63110,1,0,0:0:0:0:
320,192,63282,1,0,0:0:0:0:
64,192,63368,1,0,0:0:0:0:
448,192,63368,1,0,0:0:0:0:
320,192,63453,1,0,0:0:0:0:
192,192,63453,1,0,0:0:0:0:
192,192,63625,1,0,0:0:0:0:
64,192,63625,1,0,0:0:0:0:
320,192,63710,1,0,0:0:0:0:
64,192,63796,1,0,0:0:0:0:
448,192,63796,1,0,0:0:0:0:
320,192,63910,1,0,0:0:0:0:
192,192,63910,1,0,0:0:0:0:
64,192,64025,1,0,0:0:0:0:
448,192,64025,1,0,0:0:0:0:
320,192,64139,1,0,0:0:0:0:
192,192,64139,1,0,0:0:0:0:
64,192,64310,1,0,0:0:0:0:
320,192,64368,1,0,0:0:0:0:
448,192,64425,1,0,0:0:0:0:
64,192,64482,1,0,0:0:0:0:
192,192,64482,1,0,0:0:0:0:
448,192,64568,1,0,0:0:0:0:
320,192,64653,1,0,0:0:0:0:
192,192,64739,1,0,0:0:0:0:
64,192,64739,1,0,0:0:0:0:
448,192,64825,1,0,0:0:0:0:
320,192,64825,1,0,0:0:0:0:
64,192,64910,1,0,0:0:0:0:
192,192,64910,1,0,0:0:0:0:
320,192,65082,1,0,0:0:0:0:
448,192,65082,1,0,0:0:0:0:
192,192,65168,1,0,0:0:0:0:
64,192,65168,1,0,0:0:0:0:
320,192,65253,1,0,0:0:0:0:
448,192,65339,1,0,0:0:0:0:
192,192,65425,1,0,0:0:0:0:
64,192,65425,1,0,0:0:0:0:
448,192,65510,1,0,0:0:0:0:
320,192,65510,1,0,0:0:0:0:
192,192,65596,1,0,0:0:0:0:
320,192,65682,1,0,0:0:0:0:
64,192,65682,1,0,0:0:0:0:
448,192,65768,1,0,0:0:0:0:
192,192,65853,1,0,0:0:0:0:
64,192,65853,1,0,0:0:0:0:
64,192,66110,1,0,0:0:0:0:
192,192,66110,1,0,0:0:0:0:
448,192,66196,1,0,0:0:0:0:
320,192,66196,1,0,0:0:0:0:
448,192,66368,1,0,0:0:0:0:
64,192,66368,1,0,0:0:0:0:
192,192,66539,1,0,0:0:0:0:
320,192,66539,1,0,0:0:0:0:
64,192,66710,1,0,0:0:0:0:
192,192,66710,1,0,0:0:0:0:
448,192,66968,1,0,0:0:0:0:
64,192,66968,1,0,0:0:0:0:
320,192,67096,1,0,0:0:0:0:
192,192,67096,1,0,0:0:0:0:
448,192,67225,1,0,0:0:0:0:
64,192,67225,1,0,0:0:0:0:
192,192,67339,1,0,0:0:0:0:
320,192,67339,1,0,0:0:0:0:
448,192,67453,1,0,0:0:0:0:
64,192,67453,1,0,0:0:0:0:
448,192,67682,1,0,0:0:0:0:
320,192,67682,1,0,0:0:0:0:
64,192,67739,1,0,0:0:0:0:
192,192,67739,1,0,0:0:0:0:
192,192,67910,1,0,0:0:0:0:
448,192,67910,1,0,0:0:0:0:
448,192,68082,1,0,0:0:0:0:
64,192,68082,1,0,0:0:0:0:
192,192,68168,1,0,0:0:0:0:
320,192,68168,1,0,0:0:0:0:
64,192,68339,1,0,0:0:0:0:
192,192,68339,1,0,0:0:0:0:
320,192,68510,1,0,0:0:0:0:
448,192,68510,1,0,0:0:0:0:
192,192,68596,1,0,0:0:0:0:
64,192,68596,1,0,0:0:0:0:
320,192,68682,1,0,0:0:0:0:
448,192,68768,1,0,0:0:0:0:
64,192,68853,1,0,0:0:0:0:
192,192,68853,1,0,0:0:0:0:
448,192,68939,1,0,0:0:0:0:
320,192,69025,1,0,0:0:0:0:
64,192,69110,1,0,0:0:0:0:
192,192,69110,1,0,0:0:0:0:
448,192,69196,1,0,0:0:0:0:
64,192,69282,1,0,0:0:0:0:
320,192,69282,1,0,0:0:0:0:
192,192,69368,1,0,0:0:0:0:
320,192,69453,1,0,0:0:0:0:
448,192,69453,1,0,0:0:0:0:
192,192,69539,1,0,0:0:0:0:
64,192,69625,1,0,0:0:0:0:
448,192,69710,1,0,0:0:0:0:
320,192,69710,1,0,0:0:0:0:
192,192,69796,1,0,0:0:0:0:
320,192,69882,1,0,0:0:0:0:
64,192,69968,1,0,0:0:0:0:
448,192,69968,1,0,0:0:0:0:
192,192,70053,1,0,0:0:0:0:
320,192,70139,1,0,0:0:0:0:
64,192,70225,1,0,0:0:0:0:
192,192,70225,1,0,0:0:0:0:
448,192,70310,1,0,0:0:0:0:
320,192,70396,1,0,0:0:0:0:
64,192,70482,1,0,0:0:0:0:
192,192,70482,1,0,0:0:0:0:
448,192,70568,1,0,0:0:0:0:
64,192,70653,1,0,0:0:0:0:
320,192,70653,1,0,0:0:0:0:
192,192,70739,1,0,0:0:0:0:
320,192,70825,1,0,0:0:0:0:
448,192,70825,1,0,0:0:0:0:
64,192,70910,1,0,0:0:0:0:
192,192,70910,1,0,0:0:0:0:
320,192,71082,1,0,0:0:0:0:
448,192,71082,1,0,0:0:0:0:
64,192,71253,1,0,0:0:0:0:
192,192,71253,1,0,0:0:0:0:
320,192,71339,1,0,0:0:0:0:
448,192,71339,1,0,0:0:0:0:
64,192,71425,1,0,0:0:0:0:
192,192,71510,1,0,0:0:0:0:
320,192,71596,1,0,0:0:0:0:
448,192,71596,1,0,0:0:0:0:
192,192,71682,1,0,0:0:0:0:
64,192,71768,1,0,0:0:0:0:
320,192,71853,1,0,0:0:0:0:
448,192,71853,1,0,0:0:0:0:
192,192,71939,1,0,0:0:0:0:
320,192,72025,1,0,0:0:0:0:
64,192,72025,1,0,0:0:0:0:
448,192,72110,1,0,0:0:0:0:
64,192,72196,1,0,0:0:0:0:
192,192,72196,1,0,0:0:0:0:
320,192,72282,1,0,0:0:0:0:
192,192,72368,1,0,0:0:0:0:
64,192,72453,1,0,0:0:0:0:
448,192,72453,1,0,0:0:0:0:
320,192,72539,1,0,0:0:0:0:
192,192,72625,1,0,0:0:0:0:
320,192,72710,1,0,0:0:0:0:
448,192,72710,1,0,0:0:0:0:
64,192,72796,1,0,0:0:0:0:
192,192,72882,1,0,0:0:0:0:
320,192,72968,1,0,0:0:0:0:
448,192,72968,1,0,0:0:0:0:
192,192,73053,1,0,0:0:0:0:
64,192,73139,1,0,0:0:0:0:
320,192,73225,1,0,0:0:0:0:
448,192,73225,1,0,0:0:0:0:
64,192,73310,1,0,0:0:0:0:
320,192,73396,1,0,0:0:0:0:
192,192,73396,1,0,0:0:0:0:
448,192,73482,1,0,0:0:0:0:
64,192,73568,1,0,0:0:0:0:
192,192,73568,1,0,0:0:0:0:
320,192,73653,1,0,0:0:0:0:
448,192,73653,1,0,0:0:0:0:
64,192,73825,1,0,0:0:0:0:
192,192,73825,1,0,0:0:0:0:
320,192,73996,1,0,0:0:0:0:
448,192,73996,1,0,0:0:0:0:
64,192,74082,1,0,0:0:0:0:
192,192,74082,1,0,0:0:0:0:
320,192,74168,1,0,0:0:0:0:
448,192,74253,1,0,0:0:0:0:
192,192,74339,1,0,0:0:0:0:
64,192,74339,1,0,0:0:0:0:
448,192,74425,1,0,0:0:0:0:
320,192,74510,1,0,0:0:0:0:
64,192,74596,1,0,0:0:0:0:
192,192,74596,1,0,0:0:0:0:
448,192,74682,1,0,0:0:0:0:
320,192,74768,1,0,0:0:0:0:
192,192,74768,1,0,0:0:0:0:
64,192,74853,1,0,0:0:0:0:
320,192,74939,1,0,0:0:0:0:
448,192,74939,1,0,0:0:0:0:
192,192,75025,1,0,0:0:0:0:
320,192,75110,1,0,0:0:0:0:
64,192,75196,1,0,0:0:0:0:
448,192,75196,1,0,0:0:0:0:
192,192,75282,1,0,0:0:0:0:
320,192,75368,1,0,0:0:0:0:
192,192,75453,1,0,0:0:0:0:
448,192,75453,1,0,0:0:0:0:
64,192,75568,1,0,0:0:0:0:
320,192,75568,1,0,0:0:0:0:
192,192,75682,1,0,0:0:0:0:
448,192,75682,1,0,0:0:0:0:
320,192,75910,1,0,0:0:0:0:
448,192,75910,1,0,0:0:0:0:
64,192,75968,1,0,0:0:0:0:
192,192,75968,1,0,0:0:0:0:
64,192,76139,1,0,0:0:0:0:
448,192,76139,1,0,0:0:0:0:
320,192,76310,1,0,0:0:0:0:
448,192,76310,1,0,0:0:0:0:
64,192,76396,1,0,0:0:0:0:
192,192,76396,1,0,0:0:0:0:
320,192,76568,1,0,0:0:0:0:
448,192,76568,1,0,0:0:0:0:
64,192,76739,1,0,0:0:0:0:
192,192,76739,1,0,0:0:0:0:
320,192,76825,1,0,0:0:0:0:
448,192,76825,1,0,0:0:0:0:
192,192,76996,1,0,0:0:0:0:
448,192,77082,1,0,0:0:0:0:
64,192,77082,1,0,0:0:0:0:
320,192,77168,1,0,0:0:0:0:
192,192,77168,1,0,0:0:0:0:
448,192,77253,1,0,0:0:0:0:
192,192,77339,1,0,0:0:0:0:
64,192,77339,1,0,0:0:0:0:
320,192,77425,1,0,0:0:0:0:
64,192,77510,1,0,0:0:0:0:
448,192,77510,1,0,0:0:0:0:
192,192,77596,1,0,0:0:0:0:
320,192,77682,1,0,0:0:0:0:
448,192,77682,1,0,0:0:0:0:
192,192,77810,1,0,0:0:0:0:
448,192,77939,1,0,0:0:0:0:
64,192,77939,1,0,0:0:0:0:
320,192,78025,1,0,0:0:0:0:
192,192,78110,1,0,0:0:0:0:
64,192,78196,1,0,0:0:0:0:
320,192,78196,1,0,0:0:0:0:
192,192,78368,1,0,0:0:0:0:
448,192,78453,1,0,0:0:0:0:
320,192,78453,1,0,0:0:0:0:
64,192,78539,1,0,0:0:0:0:
320,192,78710,1,0,0:0:0:0:
448,192,78710,1,0,0:0:0:0:
192,192,78796,1,0,0:0:0:0:
448,192,78882,1,0,0:0:0:0:
64,192,78882,1,0,0:0:0:0:
320,192,78968,1,0,0:0:0:0:
64,192,79053,1,0,0:0:0:0:
192,192,79053,1,0,0:0:0:0:
320,192,79139,1,0,0:0:0:0:
448,192,79139,1,0,0:0:0:0:
192,192,79310,1,0,0:0:0:0:
64,192,79310,1,0,0:0:0:0:
320,192,79482,1,0,0:0:0:0:
448,192,79482,1,0,0:0:0:0:
192,192,79568,1,0,0:0:0:0:
64,192,79568,1,0,0:0:0:0:
320,192,79653,1,0,0:0:0:0:
448,192,79739,1,0,0:0:0:0:
64,192,79825,1,0,0:0:0:0:
192,192,79825,1,0,0:0:0:0:
448,192,79910,1,0,0:0:0:0:
320,192,79996,1,0,0:0:0:0:
64,192,80082,1,0,0:0:0:0:
192,192,80082,1,0,0:0:0:0:
448,192,80168,1,0,0:0:0:0:
64,192,80253,1,0,0:0:0:0:
320,192,80253,1,0,0:0:0:0:
192,192,80339,1,0,0:0:0:0:
320,192,80425,1,0,0:0:0:0:
448,192,80425,1,0,0:0:0:0:
192,192,80510,1,0,0:0:0:0:
64,192,80596,1,0,0:0:0:0:
448,192,80682,1,0,0:0:0:0:
320,192,80682,1,0,0:0:0:0:
192,192,80768,1,0,0:0:0:0:
320,192,80853,1,0,0:0:0:0:
64,192,80939,1,0,0:0:0:0:
448,192,80939,1,0,0:0:0:0:
192,192,81025,1,0,0:0:0:0:
320,192,81110,1,0,0:0:0:0:
64,192,81196,1,0,0:0:0:0:
192,192,81196,1,0,0:0:0:0:
448,192,81282,1,0,0:0:0:0:
320,192,81368,1,0,0:0:0:0:
64,192,81453,1,0,0:0:0:0:
192,192,81453,1,0,0:0:0:0:
448,192,81539,1,0,0:0:0:0:
64,192,81625,1,0,0:0:0:0:
320,192,81625,1,0,0:0:0:0:
192,192,81710,1,0,0:0:0:0:
320,192,81796,1,0,0:0:0:0:
448,192,81796,1,0,0:0:0:0:
64,192,81882,1,0,0:0:0:0:
192,192,81882,1,0,0:0:0:0:
320,192,82053,1,0,0:0:0:0:
448,192,82053,1,0,0:0:0:0:
64,192,82225,1,0,0:0:0:0:
192,192,82225,1,0,0:0:0:0:
320,192,82310,1,0,0:0:0:0:
448,192,82310,1,0,0:0:0:0:
64,192,82396,1,0,0:0:0:0:
192,192,82482,1,0,0:0:0:0:
320,192,82568,1,0,0:0:0:0:
448,192,82568,1,0,0:0:0:0:
192,192,82653,1,0,0:0:0:0:
64,192,82739,1,0,0:0:0:0:
320,192,82825,1,0,0:0:0:0:
448,192,82825,1,0,0:0:0:0:
192,192,82910,1,0,0:0:0:0:
320,192,82996,1,0,0:0:0:0:
64,192,82996,1,0,0:0:0:0:
448,192,83082,1,0,0:0:0:0:
64,192,83168,1,0,0:0:0:0:
192,192,83168,1,0,0:0:0:0:
320,192,83253,1,0,0:0:0:0:
192,192,83339,1,0,0:0:0:0:
64,192,83425,1,0,0:0:0:0:
448,192,83425,1,0,0:0:0:0:
320,192,83510,1,0,0:0:0:0:
192,192,83596,1,0,0:0:0:0:
320,192,83682,1,0,0:0:0:0:
448,192,83682,1,0,0:0:0:0:
64,192,83768,1,0,0:0:0:0:
192,192,83853,1,0,0:0:0:0:
320,192,83939,1,0,0:0:0:0:
448,192,83939,1,0,0:0:0:0:
192,192,84025,1,0,0:0:0:0:
64,192,84110,1,0,0:0:0:0:
320,192,84196,1,0,0:0:0:0:
448,192,84196,1,0,0:0:0:0:
64,192,84282,1,0,0:0:0:0:
320,192,84368,1,0,0:0:0:0:
192,192,84368,1,0,0:0:0:0:
448,192,84453,1,0,0:0:0:0:
64,192,84539,1,0,0:0:0:0:
192,192,84539,1,0,0:0:0:0:
320,192,84625,1,0,0:0:0:0:
448,192,84625,1,0,0:0:0:0:
64,192,84796,1,0,0:0:0:0:
192,192,84796,1,0,0:0:0:0:
320,192,84968,1,0,0:0:0:0:
448,192,84968,1,0,0:0:0:0:
192,192,85053,1,0,0:0:0:0:
64,192,85053,1,0,0:0:0:0:
320,192,85225,1,0,0:0:0:0:
64,192,85310,1,0,0:0:0:0:
448,192,85310,1,0,0:0:0:0:
192,192,85396,1,0,0:0:0:0:
448,192,85568,1,0,0:0:0:0:
320,192,85568,1,0,0:0:0:0:
192,192,85653,1,0,0:0:0:0:
64,192,85739,1,0,0:0:0:0:
448,192,85739,1,0,0:0:0:0:
320,192,85825,1,0,0:0:0:0:
64,192,85910,1,0,0:0:0:0:
192,192,85910,1,0,0:0:0:0:
448,192,86082,1,0,0:0:0:0:
192,192,86168,1,0,0:0:0:0:
64,192,86168,1,0,0:0:0:0:
448,192,86253,1,0,0:0:0:0:
320,192,86339,1,0,0:0:0:0:
192,192,86425,1,0,0:0:0:0:
64,192,86425,1,0,0:0:0:0:
448,192,86510,1,0,0:0:0:0:
320,192,86596,1,0,0:0:0:0:
64,192,86682,1,0,0:0:0:0:
192,192,86682,1,0,0:0:0:0:
320,192,86768,1,0,0:0:0:0:
448,192,86853,1,0,0:0:0:0:
192,192,86939,1,0,0:0:0:0:
64,192,86939,1,0,0:0:0:0:
448,192,87025,1,0,0:0:0:0:
320,192,87110,1,0,0:0:0:0:
64,192,87110,1,0,0:0:0:0:
192,192,87196,1,0,0:0:0:0:
320,192,87282,1,0,0:0:0:0:
448,192,87282,1,0,0:0:0:0:
64,192,87368,1,0,0:0:0:0:
192,192,87368,1,0,0:0:0:0:
320,192,87539,1,0,0:0:0:0:
448,192,87539,1,0,0:0:0:0:
64,192,87710,1,0,0:0:0:0:
192,192,87710,1,0,0:0:0:0:
448,192,87796,1,0,0:0:0:0:
320,192,87796,1,0,0:0:0:0:
192,192,87910,1,0,0:0:0:0:
448,192,88025,1,0,0:0:0:0:
64,192,88025,1,0,0:0:0:0:
320,192,88139,1,0,0:0:0:0:
192,192,88139,1,0,0:0:0:0:
448,192,88253,1,0,0:0:0:0:
64,192,88253,1,0,0:0:0:0:
320,192,88368,1,0,0:0:0:0:
64,192,88482,1,0,0:0:0:0:
192,192,88482,1,0,0:0:0:0:
448,192,88596,1,0,0:0:0:0:
320,192,88710,1,0,0:0:0:0:
192,192,88710,1,0,0:0:0:0:
64,192,88825,1,0,0:0:0:0:
448,192,88825,1,0,0:0:0:0:
320,192,88939,1,0,0:0:0:0:
192,192,88939,1,0,0:0:0:0:
64,192,89053,1,0,0:0:0:0:
320,192,89168,1,0,0:0:0:0:
448,192,89168,1,0,0:0:0:0:
192,192,89282,1,0,0:0:0:0:
64,192,89396,1,0,0:0:0:0:
320,192,89396,1,0,0:0:0:0:
192,192,89510,1,0,0:0:0:0:
448,192,89510,1,0,0:0:0:0:
320,192,89625,1,0,0:0:0:0:
64,192,89625,1,0,0:0:0:0:
448,192,89739,1,0,0:0:0:0:
64,192,89853,1,0,0:0:0:0:
192,192,89853,1,0,0:0:0:0:
320,192,89968,1,0,0:0:0:0:
448,192,90082,1,0,0:0:0:0:
64,192,90082,1,0,0:0:0:0:
192,192,90196,1,0,0:0:0:0:
320,192,90196,1,0,0:0:0:0:
64,192,90310,1,0,0:0:0:0:
448,192,90310,1,0,0:0:0:0:
192,192,90425,1,0,0:0:0:0:
320,192,90453,1,0,0:0:0:0:
448,192,90539,1,0,0:0:0:0:
64,192,90539,1,0,0:0:0:0:
192,192,90653,1,0,0:0:0:0:
448,192,90768,1,0,0:0:0:0:
320,192,90768,1,0,0:0:0:0:
192,192,90882,1,0,0:0:0:0:
64,192,90882,1,0,0:0:0:0:
448,192,90996,1,0,0:0:0:0:
320,192,90996,1,0,0:0:0:0:
192,192,91110,1,0,0:0:0:0:
64,192,91225,1,0,0:0:0:0:
320,192,91225,1,0,0:0:0:0:
448,192,91339,1,0,0:0:0:0:
192,192,91453,1,0,0:0:0:0:
320,192,91453,1,0,0:0:0:0:
64,192,91568,1,0,0:0:0:0:
448,192,91568,1,0,0:0:0:0:
192,192,91682,1,0,0:0:0:0:
320,192,91682,1,0,0:0:0:0:
64,192,91796,1,0,0:0:0:0:
448,192,91910,1,0,0:0:0:0:
320,192,91910,1,0,0:0:0:0:
192,192,92025,1,0,0:0:0:0:
448,192,92139,1,0,0:0:0:0:
64,192,92139,1,0,0:0:0:0:
192,192,92253,1,0,0:0:0:0:
320,192,92253,1,0,0:0:0:0:
448,192,92368,1,0,0:0:0:0:
64,192,92368,1,0,0:0:0:0:
320,192,92482,1,0,0:0:0:0:
64,192,92596,1,0,0:0:0:0:
192,192,92596,1,0,0:0:0:0:
448,192,92710,1,0,0:0:0:0:
192,192,92825,1,0,0:0:0:0:
320,192,92825,1,0,0:0:0:0:
64,192,92939,1,0,0:0:0:0:
448,192,92939,1,0,0:0:0:0:
192,192,93053,1,0,0:0:0:0:
320,192,93053,1,0,0:0:0:0:
64,192,93168,1,0,0:0:0:0:
448,192,93196,1,0,0:0:0:0:
192,192,93282,1,0,0:0:0:0:
320,192,93282,1,0,0:0:0:0:
64,192,93396,1,0,0:0:0:0:
320,192,93510,1,0,0:0:0:0:
448,192,93510,1,0,0:0:0:0:
192,192,93625,1,0,0:0:0:0:
64,192,93625,1,0,0:0:0:0:
320,192,93739,1,0,0:0:0:0:
448,192,93739,1,0,0:0:0:0:
192,192,93853,1,0,0:0:0:0:
64,192,93968,1,0,0:0:0:0:
320,192,93968,1,0,0:0:0:0:
448,192,94082,1,0,0:0:0:0:
64,192,94196,1,0,0:0:0:0:
192,192,94196,1,0,0:0:0:0:
448,192,94310,1,0,0:0:0:0:
320,192,94310,1,0,0:0:0:0:
64,192,94425,1,0,0:0:0:0:
192,192,94425,1,0,0:0:0:0:
320,192,94539,1,0,0:0:0:0:
192,192,94653,1,0,0:0:0:0:
448,192,94653,1,0,0:0:0:0:
64,192,94768,1,0,0:0:0:0:
320,192,94882,1,0,0:0:0:0:
192,192,94882,1,0,0:0:0:0:
64,192,94996,1,0,0:0:0:0:
448,192,94996,1,0,0:0:0:0:
320,192,95110,1,0,0:0:0:0:
192,192,95110,1,0,0:0:0:0:
448,192,95225,1,0,0:0:0:0:
192,192,95339,1,0,0:0:0:0:
64,192,95339,1,0,0:0:0:0:
448,192,95453,1,0,0:0:0:0:
192,192,95568,1,0,0:0:0:0:
320,192,95568,1,0,0:0:0:0:
448,192,95682,1,0,0:0:0:0:
64,192,95682,1,0,0:0:0:0:
320,192,95796,1,0,0:0:0:0:
192,192,95796,1,0,0:0:0:0:
64,192,95910,1,0,0:0:0:0:
448,192,95939,1,0,0:0:0:0:
320,192,96025,1,0,0:0:0:0:
192,192,96025,1,0,0:0:0:0:
64,192,96139,1,0,0:0:0:0:
448,192,96253,1,0,0:0:0:0:
320,192,96253,1,0,0:0:0:0:
64,192,96368,1,0,0:0:0:0:
192,192,96368,1,0,0:0:0:0:
448,192,96482,1,0,0:0:0:0:
320,192,96482,1,0,0:0:0:0:
192,192,96596,1,0,0:0:0:0:
320,192,96710,1,0,0:0:0:0:
64,192,96710,1,0,0:0:0:0:
448,192,96825,1,0,0:0:0:0:
192,192,96939,1,0,0:0:0:0:
320,192,96939,1,0,0:0:0:0:
448,192,97053,1,0,0:0:0:0:
64,192,97053,1,0,0:0:0:0:
192,192,97168,1,0,0:0:0:0:
320,192,97168,1,0,0:0:0:0:
64,192,97282,1,0,0:0:0:0:
448,192,97396,1,0,0:0:0:0:
320,192,97396,1,0,0:0:0:0:
192,192,97510,1,0,0:0:0:0:
448,192,97625,1,0,0:0:0:0:
64,192,97625,1,0,0:0:0:0:
192,192,97739,1,0,0:0:0:0:
320,192,97739,1,0,0:0:0:0:
448,192,97853,1,0,0:0:0:0:
64,192,97853,1,0,0:0:0:0:
320,192,97968,1,0,0:0:0:0:
64,192,98082,1,0,0:0:0:0:
192,192,98082,1,0,0:0:0:0:
448,192,98196,1,0,0:0:0:0:
192,192,98310,1,0,0:0:0:0:
320,192,98310,1,0,0:0:0:0:
448,192,98425,1,0,0:0:0:0:
64,192,98425,1,0,0:0:0:0:
192,192,98539,1,0,0:0:0:0:
320,192,98539,1,0,0:0:0:0:
448,192,98653,1,0,0:0:0:0:
64,192,98653,1,0,0:0:0:0:
320,192,98768,1,0,0:0:0:0:
192,192,98768,1,0,0:0:0:0:
64,192,98882,1,0,0:0:0:0:
448,192,98996,1,0,0:0:0:0:
320,192,98996,1,0,0:0:0:0:
64,192,99110,1,0,0:0:0:0:
192,192,99110,1,0,0:0:0:0:
448,192,99225,1,0,0:0:0:0:
320,192,99225,1,0,0:0:0:0:
64,192,99339,1,0,0:0:0:0:
192,192,99396,1,0,0:0:0:0:
448,192,99453,1,0,0:0:0:0:
320,192,99453,1,0,0:0:0:0:
64,192,99568,1,0,0:0:0:0:
320,192,99682,1,0,0:0:0:0:
192,192,99682,1,0,0:0:0:0:
64,192,99796,1,0,0:0:0:0:
448,192,99796,1,0,0:0:0:0:
320,192,99910,1,0,0:0:0:0:
192,192,99910,1,0,0:0:0:0:
448,192,100025,1,0,0:0:0:0:
64,192,100025,1,0,0:0:0:0:
192,192,100139,1,0,0:0:0:0:
320,192,100139,1,0,0:0:0:0:
448,192,100253,1,0,0:0:0:0:
320,192,100310,1,0,0:0:0:0:
64,192,100368,1,0,0:0:0:0:
192,192,100368,1,0,0:0:0:0:
448,192,100482,1,0,0:0:0:0:
320,192,100482,1,0,0:0:0:0:
64,192,100596,1,0,0:0:0:0:
192,192,100596,1,0,0:0:0:0:
320,192,100710,1,0,0:0:0:0:
192,192,100768,1,0,0:0:0:0:
448,192,100825,1,0,0:0:0:0:
64,192,100825,1,0,0:0:0:0:
192,192,100939,1,0,0:0:0:0:
64,192,100996,1,0,0:0:0:0:
448,192,101053,1,0,0:0:0:0:
320,192,101053,1,0,0:0:0:0:
64,192,101168,1,0,0:0:0:0:
192,192,101168,1,0,0:0:0:0:
448,192,101282,1,0,0:0:0:0:
320,192,101282,1,0,0:0:0:0:
192,192,101396,1,0,0:0:0:0:
64,192,101396,1,0,0:0:0:0:
448,192,101510,1,0,0:0:0:0:
320,192,101510,1,0,0:0:0:0:
192,192,101625,1,0,0:0:0:0:
448,192,101739,1,0,0:0:0:0:
64,192,101739,1,0,0:0:0:0:
192,192,101853,1,0,0:0:0:0:
320,192,101853,1,0,0:0:0:0:
448,192,101968,1,0,0:0:0:0:
64,192,101968,1,0,0:0:0:0:
320,192,102082,1,0,0:0:0:0:
64,192,102196,1,0,0:0:0:0:
192,192,102196,1,0,0:0:0:0:
320,192,102310,1,0,0:0:0:0:
192,192,102368,1,0,0:0:0:0:
448,192,102425,1,0,0:0:0:0:
64,192,102425,1,0,0:0:0:0:
320,192,102539,1,0,0:0:0:0:
448,192,102653,1,0,0:0:0:0:
192,192,102653,1,0,0:0:0:0:
64,192,102768,1,0,0:0:0:0:
320,192,102768,1,0,0:0:0:0:
448,192,102882,1,0,0:0:0:0:
192,192,102882,1,0,0:0:0:0:
320,192,102996,1,0,0:0:0:0:
64,192,103110,1,0,0:0:0:0:
192,192,103110,1,0,0:0:0:0:
320,192,103225,1,0,0:0:0:0:
448,192,103225,1,0,0:0:0:0:
192,192,103339,128,0,103568:0:0:0:0:
64,192,103339,1,0,0:0:0:0:
320,192,103453,128,0,103568:0:0:0:0:
64,192,103568,1,0,0:0:0:0:
448,192,103568,1,0,0:0:0:0:
192,192,103682,1,0,0:0:0:0:
320,192,103739,1,0,0:0:0:0:
448,192,103796,1,0,0:0:0:0:
64,192,103796,1,0,0:0:0:0:
192,192,103910,1,0,0:0:0:0:
320,192,103910,1,0,0:0:0:0:
64,192,104025,1,0,0:0:0:0:
448,192,104025,1,0,0:0:0:0:
192,192,104139,1,0,0:0:0:0:
320,192,104139,1,0,0:0:0:0:
64,192,104253,1,0,0:0:0:0:
448,192,104253,1,0,0:0:0:0:
192,192,104368,1,0,0:0:0:0:
320,192,104482,1,0,0:0:0:0:
448,192,104482,1,0,0:0:0:0:
64,192,104596,1,0,0:0:0:0:
192,192,104596,1,0,0:0:0:0:
320,192,104710,1,0,0:0:0:0:
448,192,104710,1,0,0:0:0:0:
64,192,104825,1,0,0:0:0:0:
448,192,104939,1,0,0:0:0:0:
320,192,104939,1,0,0:0:0:0:
64,192,104996,1,0,0:0:0:0:
192,192,105053,1,0,0:0:0:0:
320,192,105110,1,0,0:0:0:0:
64,192,105168,1,0,0:0:0:0:
448,192,105168,1,0,0:0:0:0:
192,192,105282,1,0,0:0:0:0:
320,192,105282,1,0,0:0:0:0:
448,192,105396,128,0,105625:0:0:0:0:
64,192,105396,1,0,0:0:0:0:
320,192,105510,128,0,105625:0:0:0:0:
192,192,105625,1,0,0:0:0:0:
64,192,105625,1,0,0:0:0:0:
320,192,105739,1,0,0:0:0:0:
192,192,105853,1,0,0:0:0:0:
448,192,105853,1,0,0:0:0:0:
64,192,105968,1,0,0:0:0:0:
320,192,105968,1,0,0:0:0:0:
448,192,106082,1,0,0:0:0:0:
192,192,106082,1,0,0:0:0:0:
64,192,106196,1,0,0:0:0:0:
448,192,106310,1,0,0:0:0:0:
320,192,106310,1,0,0:0:0:0:
192,192,106368,1,0,0:0:0:0:
64,192,106425,1,0,0:0:0:0:
448,192,106539,1,0,0:0:0:0:
320,192,106539,1,0,0:0:0:0:
64,192,106653,1,0,0:0:0:0:
192,192,106653,1,0,0:0:0:0:
448,192,106768,1,0,0:0:0:0:
320,192,106768,1,0,0:0:0:0:
192,192,106882,1,0,0:0:0:0:
320,192,106939,1,0,0:0:0:0:
64,192,106996,1,0,0:0:0:0:
448,192,106996,1,0,0:0:0:0:
320,192,107110,1,0,0:0:0:0:
192,192,107168,1,0,0:0:0:0:
448,192,107225,1,0,0:0:0:0:
64,192,107225,1,0,0:0:0:0:
192,192,107339,128,0,107568:0:0:0:0:
320,192,107339,1,0,0:0:0:0:
64,192,107453,128,0,107682:0:0:0:0:
448,192,107453,1,0,0:0:0:0:
320,192,107568,128,0,107682:0:0:0:0:
448,192,107682,1,0,0:0:0:0:
192,192,107682,1,0,0:0:0:0:
64,192,107796,1,0,0:0:0:0:
448,192,107910,1,0,0:0:0:0:
320,192,107910,1,0,0:0:0:0:
64,192,108025,1,0,0:0:0:0:
192,192,108025,1,0,0:0:0:0:
448,192,108139,1,0,0:0:0:0:
320,192,108139,1,0,0:0:0:0:
64,192,108253,1,0,0:0:0:0:
192,192,108253,1,0,0:0:0:0:
448,192,108368,1,0,0:0:0:0:
320,192,108368,1,0,0:0:0:0:
192,192,108482,1,0,0:0:0:0:
448,192,108482,1,0,0:0:0:0:
64,192,108596,1,0,0:0:0:0:
320,192,108596,1,0,0:0:0:0:
64,192,108710,1,0,0:0:0:0:
192,192,108710,1,0,0:0:0:0:
320,192,108825,1,0,0:0:0:0:
448,192,108825,1,0,0:0:0:0:
64,192,108882,1,0,0:0:0:0:
192,192,108939,1,0,0:0:0:0:
448,192,109053,1,0,0:0:0:0:
320,192,109053,1,0,0:0:0:0:
448,192,109168,1,0,0:0:0:0:
320,192,109168,1,0,0:0:0:0:
192,192,109282,1,0,0:0:0:0:
64,192,109282,1,0,0:0:0:0:
192,192,109396,128,0,109739:0:0:0:0:
64,192,109396,1,0,0:0:0:0:
448,192,109510,1,0,0:0:0:0:
448,192,109739,1,0,0:0:0:0:
320,192,109739,1,0,0:0:0:0:
64,192,110082,1,0,0:0:0:0:
192,192,110082,1,0,0:0:0:0:
448,192,110425,1,0,0:0:0:0:
320,192,110425,1,0,0:0:0:0:
64,192,110768,1,0,0:0:0:0:
192,192,110768,1,0,0:0:0:0:
320,192,111110,128,0,111453:0:0:0:0:
448,192,111796,128,0,112139:0:0:0:0:
448,192,112368,1,0,0:0:0:0:
192,192,112482,128,0,112825:0:0:0:0:
64,192,112653,1,0,0:0:0:0:
320,192,112825,1,0,0:0:0:0:
64,192,112910,1,0,0:0:0:0:
448,192,113082,1,0,0:0:0:0:
64,192,113682,128,0,113853:0:0:0:0:
448,192,113853,128,0,114082:0:0:0:0:
320,192,114082,128,0,114310:0:0:0:0:
64,192,114310,128,0,114539:0:0:0:0:
448,192,114539,128,0,114768:0:0:0:0:
192,192,114768,128,0,114996:0:0:0:0:
64,192,114996,128,0,115225:0:0:0:0:
320,192,115225,128,0,115568:0:0:0:0:
448,192,115396,1,0,0:0:0:0:
192,192,115568,1,0,0:0:0:0:
320,192,115739,1,0,0:0:0:0:
64,192,115825,1,0,0:0:0:0:
448,192,115910,128,0,116253:0:0:0:0:
192,192,116596,128,0,116939:0:0:0:0:
320,192,117282,128,0,117625:0:0:0:0:
192,192,117853,1,0,0:0:0:0:
64,192,117968,128,0,118310:0:0:0:0:
320,192,118139,1,0,0:0:0:0:
192,192,118310,1,0,0:0:0:0:
448,192,118396,1,0,0:0:0:0:
64,192,118568,1,0,0:0:0:0:
192,192,119168,128,0,119339:0:0:0:0:
320,192,119339,128,0,119568:0:0:0:0:
64,192,119568,128,0,119796:0:0:0:0:
192,192,119796,128,0,120025:0:0:0:0:
448,192,120025,128,0,120253:0:0:0:0:
320,192,120253,128,0,120482:0:0:0:0:
64,192,120482,128,0,120710:0:0:0:0:
192,192,120710,128,0,121053:0:0:0:0:
448,192,120882,1,0,0:0:0:0:
320,192,121053,1,0,0:0:0:0:
448,192,121225,1,0,0:0:0:0:
64,192,121310,1,0,0:0:0:0:
320,192,122082,128,0,122425:0:0:0:0:
448,192,122768,128,0,123110:0:0:0:0:
448,192,123339,1,0,0:0:0:0:
192,192,123453,128,0,123796:0:0:0:0:
320,192,123625,1,0,0:0:0:0:
64,192,123796,1,0,0:0:0:0:
320,192,123882,1,0,0:0:0:0:
448,192,124053,1,0,0:0:0:0:
64,192,124653,128,0,124825:0:0:0:0:
448,192,124825,128,0,125053:0:0:0:0:
320,192,125053,128,0,125282:0:0:0:0:
64,192,125282,128,0,125510:0:0:0:0:
448,192,125510,128,0,125739:0:0:0:0:
192,192,125739,128,0,125968:0:0:0:0:
64,192,125968,128,0,126196:0:0:0:0:
320,192,126196,128,0,126539:0:0:0:0:
448,192,126368,1,0,0:0:0:0:
192,192,126539,1,0,0:0:0:0:
320,192,126710,1,0,0:0:0:0:
64,192,126796,1,0,0:0:0:0:
448,192,126882,128,0,127225:0:0:0:0:
192,192,127568,128,0,127910:0:0:0:0:
320,192,128253,128,0,128596:0:0:0:0:
192,192,128825,1,0,0:0:0:0:
64,192,128939,128,0,129282:0:0:0:0:
320,192,129110,1,0,0:0:0:0:
192,192,129282,1,0,0:0:0:0:
448,192,129368,1,0,0:0:0:0:
64,192,129539,1,0,0:0:0:0:
192,192,130139,128,0,130310:0:0:0:0:
320,192,130310,128,0,130539:0:0:0:0:
64,192,130539,128,0,130768:0:0:0:0:
192,192,130768,128,0,130996:0:0:0:0:
448,192,130996,128,0,131225:0:0:0:0:
320,192,131225,128,0,131453:0:0:0:0:
64,192,131453,128,0,131682:0:0:0:0:
192,192,131682,128,0,134425:0:0:0:0:
