osu file format v14

[General]
AudioFilename: audio.mp3
AudioLeadIn: 0
PreviewTime: 103489
Countdown: 0
SampleSet: Normal
StackLeniency: 0.7
Mode: 1
LetterboxInBreaks: 0
WidescreenStoryboard: 0

[Editor]
Bookmarks: 12,21940,29250,32905,34123,53616,63362,73108,92600,103565,104783,114529,124275,134022,143768,146204,165697,185189,194935,204682,214428,219301,219352,219402,219453,224174,234225,243666,263159,268032,282651,302143,321636,341128,360621,366712
DistanceSpacing: 0.8
BeatDivisor: 4
GridSize: 16
TimelineZoom: 3.399999

[Metadata]
Title:Lusamine in a Perfect World
TitleUnicode:Lusamine in a Perfect World
Artist:Kurokotei
ArtistUnicode:黒皇帝
Creator:Slyme
Version:Ura-Beast
Source:
Tags:mari_0hara mari 0hara fa featured artist pokemon pokémon pocket monster instrumental electronic ultra beast j-core techno hardcore Into The Void artcore ultra sun & and moon alola generation 7 gen7 seven VII usum sm ポケットモンスター
BeatmapID:4400063
BeatmapSetID:2097864

[Difficulty]
HPDrainRate:5
CircleSize:5
OverallDifficulty:6.5
ApproachRate:5
SliderMultiplier:1.4
SliderTickRate:1

[Events]
//Background and Video events
0,0,"lusamine perfect (1).jpg",0,0
//Break Periods
2,146404,154732
//Storyboard Layer 0 (Background)
//Storyboard Layer 1 (Fail)
//Storyboard Layer 2 (Pass)
//Storyboard Layer 3 (Foreground)
//Storyboard Layer 4 (Overlay)
//Storyboard Sound Samples

[TimingPoints]
12,304.568527918782,4,1,0,60,1,0
12,-83.3333333333333,4,1,0,60,0,0
21940,-125,4,1,0,60,0,0
22245,-123.709595532239,4,1,0,61,0,0
22550,-122.445561139028,4,1,0,62,0,0
22854,-121.211116269815,4,1,0,63,0,0
23159,-119.9973735185,4,1,0,63,0,0
23463,-118.811559340767,4,1,0,64,0,0
23768,-117.645165443543,4,1,0,65,0,0
24072,-116.505163840367,4,1,0,66,0,0
24377,-115.383401205922,4,1,0,67,0,0
24682,-114.283034206741,4,1,0,68,0,0
24986,-113.206962770241,4,1,0,68,0,0
25291,-112.147525390445,4,1,0,69,0,0
25595,-111.111111111111,4,1,0,70,0,0
25900,-110.090361445783,4,1,0,71,0,0
26204,-109.091451766953,4,1,0,72,0,0
26509,-108.107308704783,4,1,0,73,0,0
26814,-107.140763322976,4,1,0,73,0,0
27118,-106.194433145447,4,1,0,74,0,0
27423,-105.261642139216,4,1,0,75,0,0
27727,-104.34807434265,4,1,0,76,0,0
28032,-103.447299898109,4,1,0,77,0,0
28336,-102.564822090021,4,1,0,77,0,0
28641,-101.694443671573,4,1,0,78,0,0
28946,-100.838713237323,4,1,0,79,0,0
29250,-100,4,1,0,80,0,0
31991,-100,4,1,0,82,0,0
32296,-100,4,1,0,85,0,0
32600,-100,4,1,0,87,0,0
32905,-100,4,1,0,90,0,0
34123,-90.9090909090908,4,1,0,90,0,0
34352,-111.111111111111,4,1,0,70,0,0
48742,-90.9090909090908,4,1,0,90,0,0
48895,-111.111111111111,4,1,0,70,0,0
49047,-110.295537956345,4,1,0,71,0,0
49199,-109.491850431448,4,1,0,71,0,0
49352,-108.694617617665,4,1,0,72,0,0
49504,-107.914008977085,4,1,0,73,0,0
49656,-107.14453253272,4,1,0,73,0,0
49808,-106.385951837533,4,1,0,74,0,0
49961,-87.2088583428789,4,1,0,90,0,0
50113,-104.895747221457,4,1,0,75,0,0
50265,-104.168566998084,4,1,0,76,0,0
50418,-103.446714072195,4,1,0,77,0,0
50570,-102.739417929918,4,1,0,77,0,0
50722,-102.041728097217,4,1,0,78,0,0
50874,-101.353450188596,4,1,0,79,0,0
51027,-100.669957686883,4,1,0,79,0,0
52397,-100,4,1,0,80,0,0
52626,-98.156051211853,4,1,0,82,0,0
52854,-96.386494820906,4,1,0,84,0,0
53083,-94.672258465362,4,1,0,86,0,0
53311,-93.025030525031,4,1,0,87,0,0
53362,-92.664386164956,4,1,0,88,0,0
53413,-92.306527336059,4,1,0,88,0,0
53463,-91.958358479179,4,1,0,89,0,0
53539,-91.434143414341,4,1,0,89,0,0
53616,-90.909090909091,4,1,0,90,0,0
61991,-86.95652173913,4,1,0,90,0,0
62143,-83.333333333333,4,1,0,90,0,0
62372,-86.21209835571,4,1,0,88,0,0
62600,-89.28292454304,4,1,0,86,0,0
62753,-91.469270166453,4,1,0,85,0,0
62803,-92.207163601162,4,1,0,84,0,0
62854,-92.972181551977,4,1,0,84,0,0
62905,-93.75,4,1,0,83,0,0
62956,-94.54094292804,4,1,0,83,0,0
63006,-95.329441201001,4,1,0,82,0,0
63057,-96.147375504711,4,1,0,82,0,0
63133,-97.39263803681,4,1,0,81,0,0
63209,-98.670580110497,4,1,0,81,0,0
63286,-100,4,1,0,80,0,0
63362,-90.909090909091,4,1,0,90,0,0
71661,-88.895365782571,4,1,0,90,0,0
71737,-86.968919304249,4,1,0,90,0,0
71814,-85.100446428571,4,1,0,90,0,0
71890,-83.333333333333,4,1,0,90,0,0
72118,-85.467205750225,4,1,0,88,0,0
72347,-92.612875745406,4,1,0,82,0,0
72423,-95.255976968331,4,1,0,80,0,0
72499,-98.054374436284,4,1,0,78,0,0
72575,-101.022169122528,4,1,0,76,0,0
72651,-104.175222450376,4,1,0,74,0,0
72727,-107.531439875654,4,1,0,72,0,0
72803,-111.111111111111,4,1,0,70,0,0
73032,-100,4,1,0,80,0,0
74631,-101.447894837112,4,1,0,79,0,0
74707,-102.187679907887,4,1,0,78,0,0
74935,-104.473219540906,4,1,0,76,0,0
75088,-106.065132954885,4,1,0,74,0,0
75240,-107.695419152594,4,1,0,73,0,0
75316,-108.529501681443,4,1,0,72,0,0
75392,-109.376604703707,4,1,0,71,0,0
75468,-110.237035503571,4,1,0,71,0,0
75544,-111.111111111111,4,1,0,70,0,0
76915,-109.581646423752,4,1,0,71,0,0
77017,-108.594864479315,4,1,0,72,0,0
77118,-107.625695855792,4,1,0,73,0,0
77220,-106.664331377529,4,1,0,74,0,0
77372,-105.263157894737,4,1,0,75,0,0
77524,-103.898319542779,4,1,0,76,0,0
77600,-103.229087210781,4,1,0,77,0,0
77829,-101.263717991354,4,1,0,79,0,0
77981,-100,4,1,0,80,0,0
79123,-99.011189175124,4,1,0,81,0,0
79199,-98.041741819119,4,1,0,82,0,0
79352,-96.146557169931,4,1,0,84,0,0
79428,-95.232136153172,4,1,0,85,0,0
79504,-94.33494483699,4,1,0,86,0,0
79656,-92.590339457355,4,1,0,88,0,0
79732,-91.742013261001,4,1,0,89,0,0
79808,-90.909090909091,4,1,0,90,0,0
80037,-92.304584932337,4,1,0,88,0,0
80113,-93.74358974359,4,1,0,87,0,0
80189,-95.228172535945,4,1,0,85,0,0
80265,-96.760533559178,4,1,0,83,0,0
80341,-98.343017000215,4,1,0,82,0,0
80418,-99.978122949026,4,1,0,80,0,0
81636,-100,4,1,0,80,0,0
81737,-99.177591401352,4,1,0,81,0,0
81839,-98.360655737705,4,1,0,82,0,0
81940,-97.564883050304,4,1,0,82,0,0
82042,-96.774193548387,4,1,0,83,0,0
82143,-96.003783400331,4,1,0,84,0,0
82245,-95.238095238095,4,1,0,85,0,0
82347,-94.484524086572,4,1,0,86,0,0
82448,-93.75,4,1,0,87,0,0
82550,-93.019703681075,4,1,0,88,0,0
82651,-92.307692307692,4,1,0,88,0,0
82753,-91.599608934346,4,1,0,89,0,0
82854,-90.909090909091,4,1,0,90,0,0
83006,-100,4,1,0,80,0,0
84377,-101.447894837112,4,1,0,79,0,0
84453,-102.187679907887,4,1,0,78,0,0
84682,-104.473219540906,4,1,0,76,0,0
84834,-106.065132954885,4,1,0,74,0,0
84986,-107.695419152594,4,1,0,73,0,0
85062,-108.529501681443,4,1,0,72,0,0
85138,-109.376604703707,4,1,0,71,0,0
85215,-110.237035503571,4,1,0,71,0,0
85291,-111.111111111111,4,1,0,70,0,0
86661,-109.581646423752,4,1,0,71,0,0
86763,-108.594864479315,4,1,0,72,0,0
86864,-107.625695855792,4,1,0,73,0,0
86966,-106.664331377529,4,1,0,74,0,0
87118,-105.263157894737,4,1,0,75,0,0
87270,-103.898319542779,4,1,0,76,0,0
87347,-103.229087210781,4,1,0,77,0,0
87575,-101.263717991354,4,1,0,79,0,0
87727,-100,4,1,0,80,0,0
88869,-99.011189175124,4,1,0,81,0,0
88946,-98.041741819119,4,1,0,82,0,0
89098,-96.146557169931,4,1,0,84,0,0
89174,-95.232136153172,4,1,0,85,0,0
89250,-94.33494483699,4,1,0,86,0,0
89402,-92.590339457355,4,1,0,88,0,0
89479,-91.742013261001,4,1,0,89,0,0
89555,-90.909090909091,4,1,0,90,0,0
89783,-92.304584932337,4,1,0,88,0,0
89859,-93.74358974359,4,1,0,87,0,0
89935,-95.228172535945,4,1,0,85,0,0
90012,-96.760533559178,4,1,0,83,0,0
90088,-98.343017000215,4,1,0,82,0,0
90164,-99.978122949026,4,1,0,80,0,0
91382,-100,4,1,0,80,0,0
91458,-99.379895561358,4,1,0,81,0,0
91534,-98.767434317223,4,1,0,81,0,0
91610,-98.16247582205,4,1,0,82,0,0
91687,-97.557068482179,4,1,0,83,0,0
91763,-96.96680200621,4,1,0,83,0,0
91839,-96.383635356493,4,1,0,84,0,0
91915,-95.807441201919,4,1,0,84,0,0
91991,-95.238095238095,4,1,0,85,0,0
92067,-94.67547609794,4,1,0,86,0,0
92143,-94.119465265435,4,1,0,86,0,0
92220,-93.562759256414,4,1,0,87,0,0
92296,-93.019703681075,4,1,0,88,0,0
92372,-92.48291571754,4,1,0,88,0,0
92448,-91.952287483014,4,1,0,89,0,0
92524,-91.427713556523,4,1,0,89,0,0
92600,-90.909090909091,4,1,0,90,0,0
92753,-91.606305922454,4,1,0,89,0,0
93057,-93.023847700491,4,1,0,87,0,0
93209,-93.749198450766,4,1,0,87,0,0
93514,-95.239336060661,4,1,0,85,0,0
93666,-95.999789877341,4,1,0,84,0,0
93971,-97.562928756373,4,1,0,82,0,0
94123,-98.361096907882,4,1,0,82,0,0
94428,-100.00273605297,4,1,0,80,0,0
94580,-100.841495378673,4,1,0,79,0,0
94732,-101.694443671573,4,1,0,78,0,0
94885,-102.567700294654,4,1,0,77,0,0
95189,-104.34807434265,4,1,0,76,0,0
95341,-105.261642139216,4,1,0,75,0,0
95646,-107.143904083487,4,1,0,73,0,0
95798,-108.107308704783,4,1,0,73,0,0
96103,-111.111111111111,4,1,0,70,0,0
96864,-105.261642139216,4,1,0,75,0,0
97473,-100.00273605297,4,1,0,80,0,0
98692,-95.239336060661,4,1,0,85,0,0
99910,-90.909090909091,4,1,0,90,0,0
101128,-86.9565217391304,4,1,0,90,0,0
102651,-111.111111111111,4,1,0,70,0,0
103565,-100.00273605297,4,1,0,80,0,0
104479,-100,4,1,0,80,0,0
104529,-98.381877022654,4,1,0,82,0,0
104580,-96.784463546641,4,1,0,83,0,0
104631,-95.238095238095,4,1,0,85,0,0
104707,-93.023255813953,4,1,0,88,0,0
104783,-90.909090909091,4,1,0,90,0,1
119402,-76.9230769230769,4,1,0,90,0,1
119707,-90.9090909090909,4,1,0,90,0,1
120621,-76.9230769230769,4,1,0,90,0,1
120925,-90.9090909090909,4,1,0,90,0,1
121839,-76.9230769230769,4,1,0,90,0,1
122143,-90.9090909090909,4,1,0,90,0,1
122676,-90.091688849453,4,1,0,90,0,1
122753,-89.278386775309,4,1,0,90,0,1
122905,-87.715256580084,4,1,0,90,0,1
123057,-86.205920643007,4,1,0,90,0,1
123159,-85.221867830563,4,1,0,90,0,1
123260,-84.269352072152,4,1,0,90,0,1
123362,-83.328773868797,4,1,0,90,0,1
123463,-82.417879755398,4,1,0,90,0,1
123565,-81.517957501472,4,1,0,90,0,1
123666,-80.646015356103,4,1,0,90,0,1
123742,-80.002101171403,4,1,0,90,0,1
123869,-78.948732569592,4,1,0,90,0,1
123971,-78.122595537317,4,1,0,90,0,1
124047,-77.518196162264,4,1,0,90,0,1
124123,-76.923076923077,4,1,0,90,0,1
124428,-90.909090909091,4,1,0,90,0,1
138438,-90.0900900900901,4,1,0,90,0,1
138514,-89.555163629238,4,1,0,90,0,1
138590,-88.240973160842,4,1,0,90,0,1
138666,-86.964795432921,4,1,0,90,0,1
138742,-85.725004689552,4,1,0,90,0,1
138819,-84.520066580359,4,1,0,90,0,1
138895,-71.4285714285714,4,1,0,90,0,1
139199,-83.3333333333333,4,1,0,90,0,1
140113,-71.4285714285714,4,1,0,90,0,1
140265,-84.20907079646,4,1,0,90,0,1
140418,-85.103409726104,4,1,0,90,0,1
140494,-85.557740938466,4,1,0,90,0,1
140570,-86.016949152542,4,1,0,90,0,1
140722,-86.950314106225,4,1,0,90,0,1
140798,-87.430909482449,4,1,0,90,0,1
140874,-87.910501623962,4,1,0,90,0,1
140951,-88.395384280427,4,1,0,90,0,1
141027,-88.885645479092,4,1,0,90,0,1
141103,-89.381375210978,4,1,0,90,0,1
141179,-89.882665485942,4,1,0,90,0,1
141255,-90.38961038961,4,1,0,90,0,1
141331,-76.9230769230769,4,1,0,90,0,1
141636,-90.909090909091,4,1,0,90,0,1
142169,-90.174966352624,4,1,0,90,0,1
142245,-89.433498852048,4,1,0,90,0,1
142397,-88.005043871171,4,1,0,90,0,1
142550,-86.621502818431,4,1,0,90,0,1
142626,-85.937099173978,4,1,0,90,0,1
142702,-85.272107111948,4,1,0,90,0,1
142778,-84.617327607982,4,1,0,90,0,1
142854,-83.972527197072,4,1,0,90,0,1
142930,-83.337479476591,4,1,0,90,0,1
143006,-82.711964841242,4,1,0,90,0,1
143083,-82.087723597158,4,1,0,90,0,1
143159,-81.480760811402,4,1,0,90,0,1
143235,-80.882708001352,4,1,0,90,0,1
143311,-80.293370404103,4,1,0,90,0,1
143387,-79.712558892114,4,1,0,90,0,1
143463,-79.140089770848,4,1,0,90,0,1
143539,-78.575784585073,4,1,0,90,0,1
143616,-78.019469933392,4,1,0,90,0,1
143692,-77.463811682005,4,1,0,90,0,1
143768,-76.923076923077,4,1,0,90,0,0
143895,-77.957843448787,4,1,0,89,0,0
143971,-78.590496529632,4,1,0,89,0,0
144047,-79.233501991603,4,1,0,89,0,0
144168,-80.279232111693,4,1,0,88,0,0
144282,-81.290037552463,4,1,0,88,0,0
144434,-82.678049876432,4,1,0,87,0,0
144624,-84.481175390266,4,1,0,86,0,0
144853,-86.761758811741,4,1,0,85,0,0
144986,-88.14371257485,4,1,0,84,0,0
145291,-91.485394655065,4,1,0,83,0,0
145519,-94.15376742996,4,1,0,82,0,0
145709,-96.499278877671,4,1,0,81,0,0
145862,-98.474712336098,4,1,0,81,0,0
145976,-100,4,1,0,80,0,0
146052,-102.040816326531,4,1,0,78,0,0
146128,-104.166666666667,4,1,0,76,0,0
146204,-106.382978723404,4,1,0,74,0,0
146357,-125,4,1,0,74,0,0
155951,-125,4,1,0,60,0,0
165925,-124.635531229219,4,1,0,60,0,0
166001,-124.514513491415,4,1,0,60,0,0
166154,-124.271597067262,4,1,0,60,0,0
166306,-124.031205060005,4,1,0,61,0,0
166534,-123.672355814986,4,1,0,61,0,0
166610,-123.553200390462,4,1,0,61,0,0
166763,-123.314016752284,4,1,0,61,0,0
166915,-123.077311645998,4,1,0,61,0,0
167143,-122.723952955398,4,1,0,61,0,0
167220,-122.605074788341,4,1,0,62,0,0
167372,-122.371080948734,4,1,0,62,0,0
167524,-122.137978570086,4,1,0,62,0,0
167676,-121.905762567701,4,1,0,62,0,0
167753,-121.788463460962,4,1,0,62,0,0
167829,-121.67290886392,4,1,0,62,0,0
167981,-121.442456262772,4,1,0,62,0,0
168057,-121.327557016233,4,1,0,62,0,0
168133,-121.212874981344,4,1,0,62,0,0
168362,-120.870126004564,4,1,0,63,0,0
168438,-120.75630668583,4,1,0,63,0,0
168590,-120.527819344307,4,1,0,63,0,0
168742,-120.301679977288,4,1,0,63,0,0
168971,-119.964057557145,4,1,0,63,0,0
169047,-119.851937479248,4,1,0,63,0,0
169199,-119.626856511599,4,1,0,64,0,0
169352,-119.404082232731,4,1,0,64,0,0
169580,-119.071472205254,4,1,0,64,0,0
169656,-118.959561560902,4,1,0,64,0,0
169808,-118.739263392585,4,1,0,64,0,0
169961,-118.519779645146,4,1,0,64,0,0
170113,-118.301105810665,4,1,0,65,0,0
170189,-118.190637885035,4,1,0,65,0,0
170265,-118.081806726762,4,1,0,65,0,0
170418,-117.864744582043,4,1,0,65,0,0
170494,-117.756512493355,4,1,0,65,0,0
170570,-117.647058823529,4,1,0,65,0,0
170798,-117.324152210813,4,1,0,65,0,0
170874,-117.216910217091,4,1,0,65,0,0
171027,-117.001608682081,4,1,0,65,0,0
171179,-116.788496105452,4,1,0,66,0,0
171407,-116.470278926361,4,1,0,66,0,0
171484,-116.364591541897,4,1,0,66,0,0
171636,-116.152406831373,4,1,0,66,0,0
171788,-115.942373808872,4,1,0,66,0,0
172017,-115.628744646268,4,1,0,66,0,0
172093,-115.523208951686,4,1,0,67,0,0
172245,-115.315443229684,4,1,0,67,0,0
172397,-115.108423489394,4,1,0,67,0,0
172550,-114.902145720349,4,1,0,67,0,0
172626,-114.797931611247,4,1,0,67,0,0
172702,-114.695256140186,4,1,0,67,0,0
172854,-114.490455212922,4,1,0,67,0,0
172930,-114.388328775484,4,1,0,67,0,0
173006,-114.286384370932,4,1,0,67,0,0
173235,-113.981638500672,4,1,0,68,0,0
173311,-113.880417382363,4,1,0,68,0,0
173463,-113.67718758019,4,1,0,68,0,0
173616,-113.476003073842,4,1,0,68,0,0
173844,-113.175557981281,4,1,0,68,0,0
173920,-113.075762849519,4,1,0,68,0,0
174072,-112.875392330588,4,1,0,69,0,0
174225,-112.677033354529,4,1,0,69,0,0
174453,-112.380798634734,4,1,0,69,0,0
174529,-112.281105990783,4,1,0,69,0,0
174682,-112.084828411077,4,1,0,69,0,0
174834,-111.889235855988,4,1,0,69,0,0
174986,-111.694324745576,4,1,0,70,0,0
175062,-111.595845785671,4,1,0,70,0,0
175138,-111.498815911405,4,1,0,70,0,0
175291,-111.305261474858,4,1,0,70,0,0
175367,-111.208736036149,4,1,0,70,0,0
175443,-111.111111111111,4,1,0,70,0,0
175671,-110.823042459803,4,1,0,70,0,0
175748,-110.727351223613,4,1,0,70,0,0
175900,-110.535209989679,4,1,0,70,0,0
176052,-110.344983752816,4,1,0,71,0,0
176281,-110.060868877822,4,1,0,71,0,0
176357,-109.966488767531,4,1,0,71,0,0
176509,-109.776976796576,4,1,0,71,0,0
176661,-109.589349165655,4,1,0,71,0,0
176890,-109.30910722297,4,1,0,71,0,0
176966,-109.214787588108,4,1,0,72,0,0
177118,-109.029075165848,4,1,0,72,0,0
177270,-108.843993254487,4,1,0,72,0,0
177423,-108.659538648501,4,1,0,72,0,0
177499,-108.566336192492,4,1,0,72,0,0
177575,-108.474500812501,4,1,0,72,0,0
177727,-108.291295362119,4,1,0,72,0,0
177803,-108.199924506517,4,1,0,72,0,0
177880,-108.108707709373,4,1,0,72,0,0
178108,-107.835977782204,4,1,0,73,0,0
178184,-107.745373338935,4,1,0,73,0,0
178336,-107.563433288819,4,1,0,73,0,0
178489,-107.383289811479,4,1,0,73,0,0
178717,-107.114203127919,4,1,0,73,0,0
178793,-107.024807001746,4,1,0,73,0,0
178946,-106.845290299947,4,1,0,74,0,0
179098,-106.667542246738,4,1,0,74,0,0
179326,-106.402026289358,4,1,0,74,0,0
179402,-106.312654762035,4,1,0,74,0,0
179555,-106.13667301933,4,1,0,74,0,0
179707,-105.961272926927,4,1,0,74,0,0
179859,-105.7864516059,4,1,0,75,0,0
179935,-105.698110752012,4,1,0,75,0,0
180012,-105.611061745519,4,1,0,75,0,0
180164,-105.437393167016,4,1,0,75,0,0
180240,-105.350772889417,4,1,0,75,0,0
180316,-105.263157894737,4,1,0,75,0,0
180544,-105.004579001239,4,1,0,75,0,0
180621,-104.918668116394,4,1,0,75,0,0
180773,-104.746141610421,4,1,0,75,0,0
180925,-104.575303661101,4,1,0,76,0,0
181154,-104.320089056345,4,1,0,76,0,0
181230,-104.235294117647,4,1,0,76,0,0
181382,-104.065005926132,4,1,0,76,0,0
181534,-103.896380789937,4,1,0,76,0,0
181763,-103.644465240926,4,1,0,76,0,0
181839,-103.559664222718,4,1,0,77,0,0
181991,-103.392671490102,4,1,0,77,0,0
182143,-103.22621645095,4,1,0,77,0,0
182296,-103.060296512489,4,1,0,77,0,0
182372,-102.976448337436,4,1,0,77,0,0
182448,-102.893822781068,4,1,0,77,0,0
182600,-102.728968810279,4,1,0,77,0,0
182676,-102.646739760077,4,1,0,77,0,0
182753,-102.564642244509,4,1,0,77,0,0
182981,-102.319135757105,4,1,0,78,0,0
183057,-102.237561236586,4,1,0,78,0,0
183209,-102.073732718894,4,1,0,78,0,0
183362,-101.911494060566,4,1,0,78,0,0
183590,-101.669100771959,4,1,0,78,0,0
183666,-101.58855903936,4,1,0,78,0,0
183819,-101.426802235428,4,1,0,79,0,0
183971,-101.266611942935,4,1,0,79,0,0
184199,-101.027273009982,4,1,0,79,0,0
184275,-100.946698982868,4,1,0,79,0,0
184428,-100.788020434756,4,1,0,79,0,0
184580,-100.629839958699,4,1,0,79,0,0
184732,-100.472155213295,4,1,0,80,0,0
184808,-100.392463869632,4,1,0,80,0,0
184885,-100.313931346817,4,1,0,80,0,0
185037,-100.157234320244,4,1,0,80,0,0
185113,-100.079069242065,4,1,0,80,0,0
185189,-83.3333333333333,4,1,0,80,0,0
185494,-100.079069242065,4,1,0,80,0,0
190043,-83.3333333333333,4,1,0,80,0,0
190348,-100.079069242065,4,1,0,80,0,0
194935,-83.3333333333333,4,1,0,80,0,0
195240,-100.079069242065,4,1,0,80,0,0
197372,-83.3333333333333,4,1,0,80,0,0
197676,-100.079069242065,4,1,0,80,0,0
199808,-83.3333333333333,4,1,0,80,0,0
199961,-100.079069242065,4,1,0,80,0,0
201027,-83.3333333333333,4,1,0,80,0,0
201179,-100.079069242065,4,1,0,80,0,0
202245,-90.9090909090909,4,1,0,80,0,0
202702,-100.079069242065,4,1,0,80,0,0
202854,-90.9090909090909,4,1,0,80,0,0
203311,-100.079069242065,4,1,0,80,0,0
203463,-90.909090909091,4,1,0,90,0,0
203539,-93.019703681075,4,1,0,88,0,0
203616,-95.260441107461,4,1,0,85,0,0
203692,-97.580515942958,4,1,0,82,0,0
203768,-100.016423057973,4,1,0,80,0,0
203844,-102.577059120768,4,1,0,77,0,0
203920,-105.272255834054,4,1,0,75,0,0
203996,-108.112906089118,4,1,0,72,0,0
204072,-111.111111111111,4,1,0,70,0,0
204149,-109.355765285187,4,1,0,71,0,0
204225,-107.676767676768,4,1,0,73,0,0
204301,-106.048547552726,4,1,0,74,0,0
204377,-104.468835750686,4,1,0,76,0,0
204453,-102.93549633063,4,1,0,77,0,0
204529,-101.446516939475,4,1,0,79,0,0
204605,-100,4,1,0,80,0,0
204682,-90.909090909091,4,1,0,90,0,0
219453,-90.551791901536,4,1,0,90,0,0
219605,-90.197290475455,4,1,0,90,0,0
219758,-89.84324892891,4,1,0,90,0,0
219808,-89.728150862179,4,1,0,90,0,0
219859,-89.611054247697,4,1,0,90,0,0
219910,-89.494262860648,4,1,0,90,0,0
220012,-89.263866231648,4,1,0,90,0,0
220215,-88.804361607709,4,1,0,90,0,0
220265,-88.68966215874,4,1,0,90,0,0
220316,-88.575258618509,4,1,0,90,0,0
220367,-88.461149843387,4,1,0,90,0,0
220443,-88.291649858814,4,1,0,90,0,0
220519,-88.122798188223,4,1,0,90,0,0
220671,-87.787024967412,4,1,0,90,0,0
220824,-87.451616930953,4,1,0,90,0,0
220900,-87.285959971087,4,1,0,90,0,0
220976,-87.120929422594,4,1,0,90,0,0
221128,-86.792733401076,4,1,0,90,0,0
221281,-86.464865932547,4,1,0,90,0,0
221357,-86.302922766031,4,1,0,90,0,0
221433,-86.141585083879,4,1,0,90,0,0
221585,-85.820712640298,4,1,0,90,0,0
221661,-85.661171175578,4,1,0,90,0,0
221737,-85.500134280622,4,1,0,90,0,0
221814,-85.341781406117,4,1,0,90,0,0
221890,-85.184014010849,4,1,0,90,0,0
222042,-84.870222717689,4,1,0,90,0,0
222118,-84.714192409105,4,1,0,90,0,0
222194,-84.558734757938,4,1,0,90,0,0
222245,-84.454733998939,4,1,0,90,0,0
222296,-84.350988751596,4,1,0,90,0,0
222347,-84.249524863473,4,1,0,90,0,0
222499,-83.940556088207,4,1,0,90,0,0
222575,-83.787922289214,4,1,0,90,0,0
222651,-83.635842567826,4,1,0,90,0,0
222702,-83.534098227703,4,1,0,90,0,0
222753,-83.432601134035,4,1,0,90,0,0
222803,-83.333333333333,4,1,0,90,0,0
223057,-85.514381964239,4,1,0,88,0,0
223108,-86.659663865546,4,1,0,88,0,0
223159,-87.836039393133,4,1,0,86,0,0
223209,-89.2857142857143,4,1,0,85,0,0
223260,-90.262582056893,4,1,0,84,0,0
223362,-92.853123241418,4,1,0,82,0,0
223413,-94.204967170996,4,1,0,82,0,0
223463,-95.569070373588,4,1,0,80,0,0
223565,-98.478066248881,4,1,0,78,0,0
223666,-101.538461538462,4,1,0,76,0,0
223768,-104.828462515883,4,1,0,74,0,0
223869,-108.303249097473,4,1,0,72,0,0
224022,-111.305261474858,4,1,0,70,0,0
229047,-91.039018056477,4,1,0,90,0,0
229352,-111.305261474858,4,1,0,90,0,0
229504,-111.305261474858,4,1,0,70,0,0
231484,-100,4,1,0,80,0,0
233387,-101.263717991354,4,1,0,79,0,0
233463,-102.559784439205,4,1,0,78,0,0
233539,-103.88945752303,4,1,0,76,0,0
233616,-105.272255834054,4,1,0,75,0,0
233666,-106.190061028771,4,1,0,74,0,0
233717,-107.142857142857,4,1,0,73,0,0
233768,-108.112906089118,4,1,0,72,0,0
233819,-109.100680759584,4,1,0,72,0,0
233869,-110.086767895879,4,1,0,71,0,0
233920,-111.111111111111,4,1,0,70,0,0
234225,-76.9230769230769,4,1,0,90,0,1
234377,-90.9090909090909,4,1,0,90,0,1
238793,-76.9230769230769,4,1,0,90,0,1
239098,-90.9090909090909,4,1,0,90,0,1
240012,-76.9230769230769,4,1,0,90,0,1
240316,-90.9090909090909,4,1,0,90,0,1
241230,-76.9230769230769,4,1,0,90,0,1
241534,-90.9090909090909,4,1,0,90,0,1
241839,-76.9230769230769,4,1,0,90,0,1
242042,-90.9090909090909,4,1,0,90,0,1
242448,-76.9230769230769,4,1,0,90,0,1
242600,-90.9090909090909,4,1,0,90,0,1
253413,-76.9230769230769,4,1,0,90,0,1
253717,-90.9090909090909,4,1,0,90,0,1
258286,-76.9230769230769,4,1,0,90,0,1
258590,-90.9090909090909,4,1,0,90,0,1
259504,-76.9230769230769,4,1,0,90,0,1
259808,-90.9090909090909,4,1,0,90,0,1
260722,-76.9230769230769,4,1,0,90,0,1
260874,-89.889712662757,4,1,0,90,0,1
261027,-88.88645730751,4,1,0,90,0,1
261179,-87.911691497421,4,1,0,90,0,1
261255,-87.432282136835,4,1,0,90,0,1
261331,-86.9580731489738,4,1,0,90,0,1
261484,-86.018848611062,4,1,0,90,0,1
261636,-85.105639951109,4,1,0,90,0,1
261788,-84.211617540343,4,1,0,90,0,1
261940,-83.336183018158,4,1,0,90,0,1
262017,-82.899615607035,4,1,0,90,0,1
262093,-82.47318014146,4,1,0,90,0,1
262169,-82.051109390256,4,1,0,90,0,1
262245,-81.63333668308,4,1,0,90,0,1
262321,-81.21979670055,4,1,0,90,0,1
262397,-80.810425440196,4,1,0,90,0,1
262473,-80.405160183444,4,1,0,90,0,1
262550,-79.998686931688,4,1,0,90,0,1
262626,-79.601502531439,4,1,0,90,0,1
262702,-79.208242597588,4,1,0,90,0,1
262778,-78.818849251269,4,1,0,90,0,1
262854,-78.433265746194,4,1,0,90,0,1
262930,-78.051436441085,4,1,0,90,0,1
263006,-77.673306772908,4,1,0,90,0,1
263083,-77.293919883282,4,1,0,90,0,1
263159,-76.923076923077,4,1,0,90,0,0
263463,-100,4,1,0,80,0,0
267270,-98.364184244511,4,1,0,82,0,0
267423,-96.770778189518,4,1,0,83,0,0
267524,-95.746909700398,4,1,0,84,0,0
267626,-94.734660033167,4,1,0,86,0,0
267727,-93.75320545697,4,1,0,87,0,0
267880,-92.304584932337,4,1,0,88,0,0
267956,-91.601523351373,4,1,0,89,0,0
268032,-76.9230769230769,4,1,0,90,0,1
268336,-90.9090909090909,4,1,0,90,0,1
272905,-76.9230769230769,4,1,0,90,0,1
273209,-90.9090909090909,4,1,0,90,0,1
277778,-76.9230769230769,4,1,0,90,0,1
278083,-90.9090909090909,4,1,0,90,0,1
278996,-76.9230769230769,4,1,0,90,0,1
279301,-90.9090909090909,4,1,0,90,0,1
280215,-76.9230769230769,4,1,0,90,0,1
280367,-89.860741140372,4,1,0,90,0,1
280443,-89.345581332976,4,1,0,90,0,1
280519,-88.836294543151,4,1,0,90,0,1
280595,-88.332780908187,4,1,0,90,0,1
280671,-87.834942816651,4,1,0,90,0,1
280748,-87.336244541485,4,1,0,90,0,1
280824,-86.849544976821,4,1,0,90,0,1
280900,-86.368239821754,4,1,0,90,0,1
280976,-85.892239885907,4,1,0,90,0,1
281052,-85.421457934339,4,1,0,90,0,1
281128,-84.955808634252,4,1,0,90,0,1
281204,-84.49520850342,4,1,0,90,0,1
281281,-84.033613445378,4,1,0,90,0,1
281433,-83.339035237769,4,1,0,90,0,1
281509,-82.902259733188,4,1,0,90,0,1
281585,-82.475622968581,4,1,0,90,0,1
281661,-82.053354890865,4,1,0,90,0,1
281737,-81.635388739946,4,1,0,90,0,1
281814,-81.221659109096,4,1,0,90,0,1
281890,-80.812101910828,4,1,0,90,0,1
281966,-80.406654343808,4,1,0,90,0,1
282042,-80,4,1,0,90,0,1
282118,-79.602640350304,4,1,0,90,0,1
282194,-79.209208558236,4,1,0,90,0,1
282245,-78.947368421053,4,1,0,90,0,1
282296,-78.687253698559,4,1,0,90,0,1
282347,-78.433897868504,4,1,0,90,0,1
282423,-78.051906440244,4,1,0,90,0,1
282499,-77.668664711134,4,1,0,90,0,1
282550,-77.416894425729,4,1,0,90,0,1
282600,-77.171640372553,4,1,0,90,0,1
282651,-76.9230769230769,4,1,0,90,0,1
282803,-83.3333333333333,4,1,0,90,0,1
292397,-76.9230769230769,4,1,0,90,0,1
292702,-90.9090909090909,4,1,0,90,0,1
297270,-76.9230769230769,4,1,0,90,0,1
297575,-90.9090909090909,4,1,0,90,0,1
298489,-76.9230769230769,4,1,0,90,0,1
298641,-90.9090909090909,4,1,0,90,0,1
299707,-83.045454545455,4,1,0,90,0,1
299783,-83.045454545455,4,1,0,90,0,1
299859,-82.759557890922,4,1,0,90,0,1
299935,-82.475622968581,4,1,0,90,0,1
300012,-82.189932070718,4,1,0,90,0,1
300088,-81.909885675857,4,1,0,90,0,1
300164,-81.631741209061,4,1,0,90,0,1
300240,-81.355479360556,4,1,0,90,0,1
300316,-81.081081081081,4,1,0,90,0,1
300392,-80.808527577513,4,1,0,90,0,1
300468,-80.537800308574,4,1,0,90,0,1
300544,-80.268880980625,4,1,0,90,0,1
300621,-79.998248533147,4,1,0,90,0,1
300697,-79.732914375491,4,1,0,90,0,1
300773,-79.469334493258,4,1,0,90,0,1
300849,-79.207491545998,4,1,0,90,0,1
300925,-78.947368421053,4,1,0,90,0,1
301001,-78.688948229822,4,1,0,90,0,1
301077,-78.432214304113,4,1,0,90,0,1
301154,-78.173805143126,4,1,0,90,0,1
301230,-77.920416257943,4,1,0,90,0,1
301306,-77.668664711134,4,1,0,90,0,1
301382,-77.418534683673,4,1,0,90,0,1
301458,-77.170010559662,4,1,0,90,0,1
301534,-76.923076923077,4,1,0,90,0,1
302143,-111.111111111111,4,1,0,70,0,0
339453,-111.111111111111,4,1,0,70,0,0
339605,-112.242846612611,4,1,0,69,0,0
339758,-113.405551794177,4,1,0,68,0,0
339910,-114.584758516897,4,1,0,67,0,0
340062,-115.788746025162,4,1,0,66,0,0
340215,-117.0264794243,4,1,0,65,0,0
340519,-119.565993290028,4,1,0,64,0,0
340671,-120.877534819947,4,1,0,63,0,0
340824,-122.227086981903,4,1,0,62,0,0
340900,-122.699386503067,4,1,0,62,0,0
340976,-123.597992916175,4,1,0,61,0,0
341128,-125,4,1,0,60,0,0

[HitObjects]
256,192,21940,12,0,28946,1:0:0:0:
256,191,29250,5,4,1:0:0:0:
256,192,31687,12,0,32600,1:0:0:0:
258,190,32905,5,12,1:0:0:0:
256,192,34123,5,12,1:0:0:0:
256,192,34352,1,8,1:0:0:0:
256,192,34428,1,0,1:0:0:0:
256,192,34580,1,8,1:0:0:0:
256,192,34808,1,0,1:0:0:0:
256,192,34885,1,0,1:0:0:0:
256,192,35037,1,8,1:0:0:0:
256,192,35265,1,8,1:0:0:0:
256,192,35341,1,0,1:0:0:0:
256,192,35494,1,8,1:0:0:0:
256,192,35722,1,0,1:0:0:0:
256,192,35798,1,0,1:0:0:0:
256,192,35951,1,8,1:0:0:0:
256,192,36103,1,0,1:0:0:0:
256,192,36179,1,0,1:0:0:0:
256,192,36255,1,8,1:0:0:0:
256,192,36407,1,8,1:0:0:0:
256,192,36484,1,8,1:0:0:0:
256,192,36560,1,0,1:0:0:0:
256,192,36788,1,0,1:0:0:0:
256,192,36864,1,8,1:0:0:0:
256,192,37017,1,0,1:0:0:0:
256,192,37245,1,8,1:0:0:0:
256,192,37321,1,8,1:0:0:0:
256,192,37473,1,0,1:0:0:0:
256,192,37702,1,0,1:0:0:0:
256,192,37778,1,8,1:0:0:0:
256,192,37930,1,0,1:0:0:0:
256,192,38159,1,8,1:0:0:0:
256,192,38235,1,8,1:0:0:0:
256,192,38387,1,0,1:0:0:0:
256,192,38539,1,8,1:0:0:0:
256,192,38616,1,8,1:0:0:0:
256,192,38692,1,0,1:0:0:0:
256,192,38844,1,0,1:0:0:0:
256,192,38920,1,0,1:0:0:0:
256,192,38996,1,8,1:0:0:0:
256,192,39225,1,8,1:0:0:0:
256,192,39301,1,0,1:0:0:0:
256,192,39453,1,8,1:0:0:0:
256,192,39682,1,0,1:0:0:0:
256,192,39758,1,0,1:0:0:0:
256,192,39910,1,8,1:0:0:0:
256,192,40138,1,8,1:0:0:0:
256,192,40215,1,0,1:0:0:0:
256,192,40367,1,8,1:0:0:0:
256,192,40595,1,0,1:0:0:0:
256,192,40671,1,0,1:0:0:0:
256,192,40824,1,8,1:0:0:0:
256,192,40976,1,0,1:0:0:0:
256,192,41052,1,0,1:0:0:0:
256,192,41128,1,8,1:0:0:0:
256,192,41281,1,8,1:0:0:0:
256,192,41357,1,8,1:0:0:0:
256,192,41433,1,0,1:0:0:0:
256,192,41661,1,0,1:0:0:0:
256,192,41737,1,8,1:0:0:0:
256,192,41890,1,0,1:0:0:0:
256,192,42118,1,8,1:0:0:0:
256,192,42194,1,8,1:0:0:0:
256,192,42347,1,0,1:0:0:0:
256,192,42575,1,0,1:0:0:0:
256,192,42651,1,8,1:0:0:0:
256,192,42803,1,0,1:0:0:0:
256,192,43032,1,8,1:0:0:0:
256,192,43108,1,8,1:0:0:0:
256,192,43260,1,0,1:0:0:0:
256,192,43413,1,8,1:0:0:0:
256,192,43489,1,8,1:0:0:0:
256,192,43565,1,0,1:0:0:0:
256,192,43717,1,0,1:0:0:0:
256,192,43793,1,0,1:0:0:0:
256,192,43869,1,8,1:0:0:0:
256,192,44098,1,8,1:0:0:0:
256,192,44174,1,0,1:0:0:0:
256,192,44326,1,8,1:0:0:0:
256,192,44555,1,0,1:0:0:0:
256,192,44631,1,0,1:0:0:0:
256,192,44783,1,8,1:0:0:0:
256,192,44859,1,8,1:0:0:0:
256,192,44935,1,8,1:0:0:0:
256,192,45012,1,8,1:0:0:0:
256,192,45088,1,0,1:0:0:0:
256,192,45240,1,8,1:0:0:0:
256,192,45468,1,8,1:0:0:0:
256,192,45544,1,0,1:0:0:0:
256,192,45697,1,0,1:0:0:0:
256,192,45849,1,0,1:0:0:0:
256,192,45925,1,0,1:0:0:0:
256,192,46001,1,8,1:0:0:0:
256,192,46154,1,8,1:0:0:0:
256,192,46230,1,8,1:0:0:0:
256,192,46306,1,0,1:0:0:0:
256,192,46534,1,0,1:0:0:0:
256,192,46610,1,8,1:0:0:0:
256,192,46763,1,0,1:0:0:0:
256,192,46991,1,8,1:0:0:0:
256,192,47067,1,8,1:0:0:0:
256,192,47220,1,0,1:0:0:0:
256,192,47296,1,0,1:0:0:0:
256,192,47372,1,0,1:0:0:0:
256,192,47448,1,0,1:0:0:0:
256,192,47524,1,8,1:0:0:0:
256,192,47676,1,0,1:0:0:0:
256,192,47905,1,0,1:0:0:0:
256,192,47981,1,8,1:0:0:0:
256,192,48133,1,0,1:0:0:0:
256,192,48286,1,8,1:0:0:0:
256,192,48362,1,8,1:0:0:0:
256,192,48438,1,0,1:0:0:0:
256,192,48590,1,0,1:0:0:0:
256,192,48666,1,0,1:0:0:0:
256,192,48742,1,12,1:0:0:0:
256,176,48895,1,0,1:0:0:0:
256,176,49047,1,8,1:0:0:0:
256,176,49199,1,8,1:0:0:0:
256,176,49352,1,0,1:0:0:0:
256,176,49504,1,0,1:0:0:0:
256,176,49656,1,8,1:0:0:0:
256,176,49808,1,0,1:0:0:0:
240,176,49961,1,12,1:0:0:0:
240,176,50113,1,0,1:0:0:0:
240,176,50265,1,8,1:0:0:0:
240,176,50418,1,8,1:0:0:0:
240,176,50570,1,0,1:0:0:0:
240,176,50722,1,0,1:0:0:0:
240,176,50874,1,0,1:0:0:0:
256,176,51027,1,0,1:0:0:0:
256,176,51179,1,8,1:0:0:0:
256,176,51255,1,8,1:0:0:0:
256,176,51331,1,8,1:0:0:0:
256,176,51407,1,8,1:0:0:0:
256,176,51484,1,0,1:0:0:0:
256,176,51560,1,0,1:0:0:0:
256,176,51636,1,8,1:0:0:0:
256,176,51712,1,0,1:0:0:0:
256,176,51788,1,8,1:0:0:0:
256,176,51864,1,8,1:0:0:0:
256,176,51940,1,8,1:0:0:0:
256,176,52017,1,8,1:0:0:0:
256,176,52093,1,0,1:0:0:0:
256,176,52169,1,8,1:0:0:0:
256,176,52245,1,0,1:0:0:0:
256,176,52321,1,0,1:0:0:0:
256,176,52397,1,12,1:0:0:0:
256,176,52626,1,12,1:0:0:0:
256,176,52854,1,4,1:0:0:0:
256,176,53083,1,4,1:0:0:0:
256,176,53311,1,8,1:0:0:0:
256,176,53362,1,0,1:0:0:0:
256,176,53413,1,0,1:0:0:0:
256,176,53463,1,8,1:0:0:0:
256,176,53539,1,8,1:0:0:0:
256,176,53616,1,4,1:0:0:0:
256,176,53768,1,4,1:0:0:0:
256,176,54072,1,12,1:0:0:0:
256,176,54225,1,4,1:0:0:0:
256,176,54529,1,12,1:0:0:0:
256,176,54682,1,4,1:0:0:0:
256,176,54986,1,12,1:0:0:0:
256,176,55138,1,12,1:0:0:0:
256,176,55443,1,4,1:0:0:0:
256,176,55595,1,4,1:0:0:0:
256,176,55748,1,12,1:0:0:0:
256,176,55900,1,4,1:0:0:0:
256,176,56052,1,12,1:0:0:0:
256,176,56204,1,12,1:0:0:0:
256,176,56509,1,4,1:0:0:0:
256,176,56661,1,12,1:0:0:0:
256,176,56966,1,12,1:0:0:0:
256,176,57118,1,4,1:0:0:0:
256,176,57423,1,12,1:0:0:0:
256,176,57575,1,12,1:0:0:0:
256,176,57880,1,8,1:0:0:0:
256,176,57956,1,8,1:0:0:0:
256,176,58032,1,8,1:0:0:0:
256,176,58108,1,8,1:0:0:0:
256,176,58184,1,4,1:0:0:0:
256,176,58336,1,12,1:0:0:0:
256,176,58489,1,4,1:0:0:0:
256,176,58641,1,4,1:0:0:0:
256,176,58946,1,12,1:0:0:0:
256,176,59098,1,4,1:0:0:0:
256,176,59402,1,4,1:0:0:0:
256,176,59555,1,12,1:0:0:0:
256,176,59859,1,4,1:0:0:0:
256,176,60012,1,4,1:0:0:0:
256,176,60316,1,12,1:0:0:0:
256,176,60468,1,12,1:0:0:0:
256,176,60621,1,4,1:0:0:0:
256,176,60773,1,4,1:0:0:0:
256,176,60925,1,12,1:0:0:0:
256,176,61077,1,12,1:0:0:0:
256,176,61382,1,4,1:0:0:0:
256,176,61534,1,4,1:0:0:0:
256,176,61839,1,12,1:0:0:0:
256,176,61991,1,4,1:0:0:0:
256,176,62143,1,12,1:0:0:0:
256,176,62372,1,12,1:0:0:0:
256,176,62600,1,4,1:0:0:0:
256,176,62753,1,8,1:0:0:0:
256,176,62803,1,0,1:0:0:0:
256,176,62854,1,0,1:0:0:0:
256,176,62905,1,8,1:0:0:0:
256,176,62956,1,0,1:0:0:0:
256,176,63006,1,0,1:0:0:0:
256,176,63057,1,8,1:0:0:0:
256,176,63133,1,8,1:0:0:0:
256,176,63209,1,0,1:0:0:0:
256,176,63286,1,8,1:0:0:0:
256,176,63362,1,0,1:0:0:0:
256,176,63514,1,0,1:0:0:0:
256,176,63666,1,8,1:0:0:0:
256,176,63742,1,8,1:0:0:0:
256,176,63819,1,0,1:0:0:0:
256,176,63971,1,8,1:0:0:0:
256,176,64022,1,8,1:0:0:0:
256,176,64072,1,8,1:0:0:0:
256,176,64123,1,0,1:0:0:0:
256,176,64199,1,0,1:0:0:0:
256,176,64275,1,8,1:0:0:0:
256,176,64428,1,8,1:0:0:0:
256,176,64580,1,8,1:0:0:0:
256,176,64656,1,8,1:0:0:0:
256,176,64732,1,0,1:0:0:0:
256,176,64885,1,0,1:0:0:0:
256,176,65037,1,0,1:0:0:0:
256,176,65113,1,0,1:0:0:0:
256,176,65189,1,8,1:0:0:0:
256,176,65341,1,0,1:0:0:0:
256,176,65392,1,0,1:0:0:0:
256,176,65443,1,0,1:0:0:0:
256,176,65494,1,8,1:0:0:0:
256,176,65570,1,8,1:0:0:0:
256,176,65646,1,0,1:0:0:0:
256,176,65798,1,8,1:0:0:0:
256,176,65951,1,8,1:0:0:0:
256,176,66103,1,8,1:0:0:0:
256,176,66179,1,8,1:0:0:0:
256,176,66255,1,0,1:0:0:0:
256,176,66331,1,8,1:0:0:0:
256,176,66407,1,0,1:0:0:0:
256,176,66560,1,0,1:0:0:0:
256,176,66610,1,0,1:0:0:0:
256,176,66661,1,0,1:0:0:0:
250,175,66712,1,8,1:0:0:0:
250,175,66864,1,8,1:0:0:0:
250,175,67017,1,8,1:0:0:0:
250,175,67093,1,8,1:0:0:0:
250,175,67169,1,0,1:0:0:0:
250,175,67321,1,0,1:0:0:0:
250,175,67473,1,8,1:0:0:0:
250,175,67550,1,8,1:0:0:0:
250,175,67626,1,0,1:0:0:0:
250,175,67702,1,8,1:0:0:0:
250,175,67778,1,0,1:0:0:0:
250,175,67854,1,0,1:0:0:0:
250,175,67930,1,8,1:0:0:0:
243,173,68083,1,8,1:0:0:0:
243,173,68235,1,0,1:0:0:0:
244,172,68387,1,0,1:0:0:0:
245,173,68539,1,8,1:0:0:0:
250,175,68616,1,8,1:0:0:0:
245,173,68692,1,0,1:0:0:0:
243,173,68844,1,0,1:0:0:0:
243,173,68895,1,0,1:0:0:0:
243,173,68946,1,0,1:0:0:0:
243,173,68996,1,8,1:0:0:0:
244,172,69072,1,8,1:0:0:0:
244,172,69149,1,0,1:0:0:0:
245,173,69301,1,0,1:0:0:0:
245,173,69453,1,8,1:0:0:0:
243,173,69529,1,8,1:0:0:0:
243,173,69605,1,0,1:0:0:0:
243,173,69758,1,0,1:0:0:0:
244,172,69910,1,0,1:0:0:0:
245,173,69986,1,0,1:0:0:0:
245,173,70062,1,8,1:0:0:0:
245,173,70215,1,8,1:0:0:0:
258,170,70265,1,8,1:0:0:0:
258,170,70316,1,8,1:0:0:0:
243,173,70367,1,0,1:0:0:0:
243,173,70519,1,0,1:0:0:0:
244,172,70671,1,8,1:0:0:0:
245,173,70824,1,8,1:0:0:0:
258,170,70976,1,8,1:0:0:0:
258,170,71027,1,8,1:0:0:0:
258,170,71077,1,8,1:0:0:0:
258,170,71128,1,0,1:0:0:0:
288,160,71204,1,0,1:0:0:0:
258,170,71281,1,8,1:0:0:0:
256,172,71433,1,8,1:0:0:0:
256,172,71585,1,0,1:0:0:0:
258,170,71661,1,8,1:0:0:0:
258,170,71737,1,0,1:0:0:0:
258,170,71814,1,0,1:0:0:0:
258,170,71890,1,8,1:0:0:0:
258,170,72042,1,8,1:0:0:0:
256,172,72118,1,0,1:0:0:0:
256,172,72347,1,8,1:0:0:0:
258,170,72423,1,0,1:0:0:0:
258,170,72499,1,8,1:0:0:0:
258,170,72575,1,8,1:0:0:0:
258,170,72651,1,8,1:0:0:0:
258,170,72727,1,8,1:0:0:0:
258,170,72803,1,0,1:0:0:0:
256,172,73032,1,0,1:0:0:0:
256,172,73108,1,8,1:0:0:0:
258,170,73184,1,8,1:0:0:0:
258,170,73260,1,0,1:0:0:0:
258,170,73413,1,8,1:0:0:0:
258,170,73489,1,8,1:0:0:0:
258,170,73565,1,0,1:0:0:0:
256,172,73641,1,8,1:0:0:0:
256,172,73869,1,0,1:0:0:0:
258,170,74022,1,8,1:0:0:0:
258,170,74174,1,0,1:0:0:0:
258,170,74250,1,8,1:0:0:0:
258,170,74326,1,0,1:0:0:0:
256,172,74479,1,8,1:0:0:0:
256,172,74631,1,8,1:0:0:0:
258,170,74707,1,0,1:0:0:0:
258,170,74935,1,8,1:0:0:0:
258,170,75088,1,0,1:0:0:0:
256,172,75240,1,8,1:0:0:0:
256,172,75316,1,8,1:0:0:0:
256,172,75392,1,0,1:0:0:0:
258,170,75468,1,0,1:0:0:0:
256,172,75544,1,8,1:0:0:0:
258,170,75697,1,0,1:0:0:0:
256,172,75849,1,8,1:0:0:0:
258,170,75925,1,0,1:0:0:0:
258,170,76001,1,8,1:0:0:0:
258,170,76077,1,8,1:0:0:0:
256,172,76306,1,0,1:0:0:0:
258,170,76458,1,8,1:0:0:0:
258,170,76610,1,0,1:0:0:0:
258,170,76687,1,0,1:0:0:0:
258,170,76763,1,8,1:0:0:0:
256,172,76915,1,8,1:0:0:0:
256,172,77017,1,8,1:0:0:0:
256,172,77118,1,0,1:0:0:0:
258,170,77220,1,8,1:0:0:0:
258,170,77372,1,0,1:0:0:0:
256,172,77524,1,0,1:0:0:0:
256,172,77600,1,8,1:0:0:0:
258,170,77829,1,0,1:0:0:0:
256,172,77981,1,0,1:0:0:0:
258,170,78057,1,8,1:0:0:0:
258,170,78133,1,8,1:0:0:0:
258,170,78286,1,8,1:0:0:0:
258,170,78362,1,8,1:0:0:0:
258,170,78438,1,0,1:0:0:0:
256,172,78514,1,8,1:0:0:0:
256,172,78742,1,0,1:0:0:0:
258,170,78895,1,8,1:0:0:0:
258,170,79047,1,0,1:0:0:0:
258,170,79123,1,0,1:0:0:0:
258,170,79199,1,8,1:0:0:0:
256,172,79352,1,0,1:0:0:0:
256,172,79428,1,8,1:0:0:0:
258,170,79504,1,8,1:0:0:0:
258,170,79656,1,0,1:0:0:0:
258,170,79732,1,0,1:0:0:0:
258,170,79808,1,8,1:0:0:0:
258,170,79961,1,0,1:0:0:0:
256,172,80037,1,0,1:0:0:0:
256,172,80113,1,8,1:0:0:0:
256,172,80189,1,0,1:0:0:0:
258,170,80265,1,8,1:0:0:0:
258,170,80341,1,8,1:0:0:0:
256,172,80418,1,0,1:0:0:0:
258,170,80570,1,0,1:0:0:0:
256,172,80722,1,8,1:0:0:0:
258,170,80798,1,0,1:0:0:0:
258,170,80874,1,8,1:0:0:0:
258,170,80951,1,8,1:0:0:0:
256,172,81179,1,8,1:0:0:0:
258,170,81331,1,0,1:0:0:0:
256,172,81484,1,8,1:0:0:0:
258,170,81560,1,8,1:0:0:0:
258,170,81636,1,0,1:0:0:0:
258,170,81737,1,0,1:0:0:0:
256,172,81839,1,8,1:0:0:0:
256,172,81940,1,0,1:0:0:0:
258,170,82042,1,8,1:0:0:0:
256,172,82143,1,8,1:0:0:0:
256,172,82245,1,0,1:0:0:0:
258,170,82347,1,0,1:0:0:0:
258,170,82448,1,8,1:0:0:0:
256,172,82550,1,0,1:0:0:0:
256,172,82651,1,8,1:0:0:0:
256,172,82753,1,8,1:0:0:0:
256,172,82854,1,4,1:0:0:0:
258,170,83006,1,8,1:0:0:0:
258,170,83159,1,8,1:0:0:0:
258,170,83235,1,8,1:0:0:0:
258,170,83311,1,0,1:0:0:0:
256,172,83387,1,8,1:0:0:0:
256,172,83616,1,0,1:0:0:0:
258,170,83768,1,8,1:0:0:0:
258,170,83920,1,0,1:0:0:0:
258,170,83996,1,8,1:0:0:0:
258,170,84072,1,0,1:0:0:0:
256,172,84225,1,8,1:0:0:0:
256,172,84377,1,8,1:0:0:0:
258,170,84453,1,0,1:0:0:0:
258,170,84682,1,8,1:0:0:0:
258,170,84834,1,0,1:0:0:0:
256,172,84986,1,8,1:0:0:0:
256,172,85062,1,8,1:0:0:0:
256,172,85138,1,8,1:0:0:0:
258,170,85215,1,8,1:0:0:0:
256,172,85291,1,0,1:0:0:0:
258,170,85443,1,0,1:0:0:0:
256,172,85595,1,8,1:0:0:0:
258,170,85671,1,0,1:0:0:0:
258,170,85748,1,8,1:0:0:0:
258,170,85824,1,8,1:0:0:0:
256,172,86052,1,0,1:0:0:0:
258,170,86204,1,8,1:0:0:0:
258,170,86357,1,0,1:0:0:0:
258,170,86433,1,0,1:0:0:0:
258,170,86509,1,8,1:0:0:0:
256,172,86661,1,8,1:0:0:0:
256,172,86763,1,8,1:0:0:0:
256,172,86864,1,0,1:0:0:0:
258,170,86966,1,8,1:0:0:0:
258,170,87118,1,0,1:0:0:0:
256,172,87270,1,0,1:0:0:0:
256,172,87347,1,8,1:0:0:0:
258,170,87575,1,0,1:0:0:0:
256,172,87727,1,0,1:0:0:0:
258,170,87803,1,8,1:0:0:0:
258,170,87880,1,8,1:0:0:0:
258,170,88032,1,8,1:0:0:0:
258,170,88108,1,8,1:0:0:0:
258,170,88184,1,0,1:0:0:0:
256,172,88260,1,8,1:0:0:0:
258,170,88336,1,8,1:0:0:0:
256,172,88413,1,0,1:0:0:0:
256,172,88489,1,0,1:0:0:0:
258,170,88641,1,8,1:0:0:0:
258,170,88793,1,0,1:0:0:0:
258,170,88869,1,0,1:0:0:0:
258,170,88946,1,8,1:0:0:0:
256,172,89098,1,0,1:0:0:0:
256,172,89174,1,8,1:0:0:0:
258,170,89250,1,8,1:0:0:0:
258,170,89402,1,0,1:0:0:0:
258,170,89479,1,0,1:0:0:0:
258,170,89555,1,8,1:0:0:0:
258,170,89707,1,0,1:0:0:0:
256,172,89783,1,0,1:0:0:0:
256,172,89859,1,8,1:0:0:0:
256,172,89935,1,0,1:0:0:0:
258,170,90012,1,8,1:0:0:0:
258,170,90088,1,8,1:0:0:0:
256,172,90164,1,0,1:0:0:0:
258,170,90316,1,0,1:0:0:0:
256,172,90468,1,8,1:0:0:0:
258,170,90544,1,8,1:0:0:0:
258,170,90621,1,0,1:0:0:0:
258,170,90697,1,8,1:0:0:0:
258,170,90773,1,0,1:0:0:0:
256,172,90925,1,0,1:0:0:0:
258,170,91077,1,8,1:0:0:0:
256,172,91154,1,0,1:0:0:0:
256,172,91230,1,8,1:0:0:0:
258,170,91382,1,8,1:0:0:0:
258,170,91458,1,8,1:0:0:0:
258,170,91534,1,0,1:0:0:0:
256,172,91610,1,8,1:0:0:0:
256,172,91687,1,0,1:0:0:0:
258,170,91763,1,0,1:0:0:0:
258,170,91839,1,8,1:0:0:0:
256,172,91915,1,0,1:0:0:0:
256,172,91991,1,8,1:0:0:0:
258,170,92067,1,8,1:0:0:0:
258,170,92143,1,8,1:0:0:0:
258,170,92220,1,8,1:0:0:0:
258,170,92296,1,0,1:0:0:0:
256,172,92372,1,8,1:0:0:0:
256,172,92448,1,0,1:0:0:0:
258,170,92524,1,0,1:0:0:0:
258,170,92600,1,12,1:0:0:0:
256,172,92753,1,12,1:0:0:0:
258,170,93057,1,4,1:0:0:0:
256,172,93209,1,4,1:0:0:0:
256,172,93514,1,12,1:0:0:0:
258,170,93666,1,12,1:0:0:0:
256,172,93971,1,4,1:0:0:0:
256,172,94123,1,4,1:0:0:0:
258,170,94428,1,12,1:0:0:0:
256,172,94580,1,12,1:0:0:0:
258,170,94732,1,4,1:0:0:0:
256,172,94885,1,12,1:0:0:0:
258,170,95189,1,4,1:0:0:0:
256,172,95341,1,4,1:0:0:0:
256,172,95646,1,12,1:0:0:0:
258,170,95798,1,12,1:0:0:0:
256,172,96103,1,4,1:0:0:0:
256,172,96255,1,12,1:0:0:0:
256,172,96484,1,12,1:0:0:0:
256,172,96712,1,12,1:0:0:0:
256,172,96864,1,4,1:0:0:0:
256,172,97093,1,4,1:0:0:0:
256,172,97321,1,4,1:0:0:0:
256,172,97473,1,12,1:0:0:0:
256,172,97778,1,8,1:0:0:0:
256,172,98083,1,0,1:0:0:0:
256,172,98387,1,0,1:0:0:0:
256,172,98692,1,12,1:0:0:0:
256,172,98996,1,8,1:0:0:0:
256,172,99301,1,0,1:0:0:0:
256,172,99605,1,0,1:0:0:0:
256,172,99910,1,12,1:0:0:0:
256,172,100062,1,0,1:0:0:0:
256,172,100215,1,8,1:0:0:0:
256,172,100367,1,0,1:0:0:0:
256,172,100519,1,12,1:0:0:0:
256,172,100671,1,0,1:0:0:0:
256,172,100824,1,8,1:0:0:0:
256,172,100976,1,0,1:0:0:0:
256,172,101128,1,8,1:0:0:0:
256,172,101204,1,8,1:0:0:0:
256,172,101281,1,0,1:0:0:0:
256,172,101357,1,0,1:0:0:0:
256,172,101433,1,8,1:0:0:0:
256,172,101509,1,8,1:0:0:0:
256,172,101585,1,0,1:0:0:0:
256,172,101661,1,0,1:0:0:0:
256,172,101737,1,8,1:0:0:0:
256,172,101814,1,0,1:0:0:0:
256,172,101890,1,8,1:0:0:0:
256,172,101966,1,0,1:0:0:0:
256,172,102042,1,8,1:0:0:0:
256,172,102118,1,8,1:0:0:0:
256,172,102194,1,8,1:0:0:0:
256,172,102270,1,8,1:0:0:0:
256,172,102347,1,0,1:0:0:0:
256,192,102651,1,8,1:0:0:0:
256,192,102803,1,0,1:0:0:0:
256,192,102880,1,8,1:0:0:0:
256,192,102956,1,0,1:0:0:0:
256,192,103032,1,0,1:0:0:0:
256,192,103108,1,8,1:0:0:0:
256,192,103260,1,8,1:0:0:0:
256,176,103311,1,8,1:0:0:0:
256,176,103362,1,8,1:0:0:0:
256,176,103413,1,0,1:0:0:0:
256,176,103565,1,12,1:0:0:0:
256,176,103793,1,12,1:0:0:0:
256,176,104022,1,12,1:0:0:0:
256,176,104250,1,12,1:0:0:0:
256,160,104479,1,0,1:0:0:0:
256,160,104529,1,0,1:0:0:0:
256,160,104580,1,0,1:0:0:0:
256,160,104631,1,8,1:0:0:0:
256,160,104707,1,8,1:0:0:0:
256,160,104783,1,0,1:0:0:0:
256,160,104935,1,0,1:0:0:0:
256,160,105012,1,8,1:0:0:0:
256,160,105088,1,0,1:0:0:0:
256,160,105164,1,0,1:0:0:0:
256,160,105240,1,8,1:0:0:0:
256,160,105316,1,8,1:0:0:0:
256,160,105544,1,8,1:0:0:0:
256,160,105621,1,0,1:0:0:0:
256,160,105697,1,8,1:0:0:0:
256,160,105849,1,0,1:0:0:0:
256,144,106001,1,8,1:0:0:0:
256,144,106077,1,8,1:0:0:0:
256,160,106154,1,0,1:0:0:0:
256,160,106230,1,0,1:0:0:0:
256,160,106306,1,8,1:0:0:0:
256,160,106382,1,8,1:0:0:0:
256,160,106458,1,0,1:0:0:0:
256,160,106610,1,8,1:0:0:0:
256,160,106687,1,0,1:0:0:0:
256,160,106763,1,8,1:0:0:0:
256,160,106839,1,0,1:0:0:0:
256,160,106915,1,8,1:0:0:0:
256,160,106991,1,8,1:0:0:0:
256,160,107067,1,0,1:0:0:0:
256,160,107143,1,0,1:0:0:0:
256,160,107220,1,8,1:0:0:0:
256,160,107372,1,0,1:0:0:0:
256,160,107524,1,8,1:0:0:0:
256,160,107600,1,0,1:0:0:0:
256,160,107676,1,8,1:0:0:0:
256,160,107753,1,8,1:0:0:0:
256,160,107981,1,8,1:0:0:0:
256,160,108133,1,0,1:0:0:0:
256,160,108209,1,0,1:0:0:0:
240,160,108286,1,8,1:0:0:0:
256,160,108362,1,8,1:0:0:0:
256,160,108438,1,0,1:0:0:0:
256,160,108590,1,8,1:0:0:0:
256,160,108742,1,8,1:0:0:0:
256,160,108819,1,8,1:0:0:0:
240,144,108895,1,0,1:0:0:0:
240,144,108971,1,8,1:0:0:0:
272,160,109047,1,8,1:0:0:0:
272,160,109199,1,8,1:0:0:0:
256,144,109352,1,0,1:0:0:0:
256,160,109428,1,0,1:0:0:0:
256,160,109504,1,0,1:0:0:0:
256,160,109580,1,0,1:0:0:0:
256,160,109656,1,8,1:0:0:0:
256,160,109808,1,0,1:0:0:0:
256,160,109885,1,0,1:0:0:0:
256,160,109961,1,8,1:0:0:0:
256,160,110037,1,8,1:0:0:0:
256,160,110113,1,0,1:0:0:0:
256,160,110189,1,0,1:0:0:0:
256,160,110418,1,8,1:0:0:0:
256,160,110570,1,8,1:0:0:0:
256,160,110646,1,8,1:0:0:0:
256,160,110722,1,0,1:0:0:0:
256,160,110798,1,0,1:0:0:0:
256,144,110874,1,8,1:0:0:0:
256,160,111027,1,0,1:0:0:0:
256,160,111179,1,8,1:0:0:0:
256,160,111255,1,0,1:0:0:0:
256,160,111331,1,0,1:0:0:0:
256,160,111484,1,8,1:0:0:0:
256,160,111560,1,0,1:0:0:0:
256,160,111636,1,8,1:0:0:0:
256,160,111712,1,8,1:0:0:0:
256,160,111788,1,0,1:0:0:0:
256,160,111864,1,0,1:0:0:0:
256,160,111940,1,8,1:0:0:0:
256,160,112017,1,0,1:0:0:0:
256,160,112093,1,8,1:0:0:0:
256,160,112245,1,0,1:0:0:0:
256,160,112397,1,8,1:0:0:0:
256,160,112473,1,0,1:0:0:0:
256,160,112550,1,0,1:0:0:0:
256,160,112626,1,8,1:0:0:0:
256,160,112854,1,8,1:0:0:0:
256,160,113006,1,0,1:0:0:0:
256,160,113083,1,0,1:0:0:0:
240,160,113159,1,8,1:0:0:0:
256,160,113235,1,8,1:0:0:0:
256,160,113311,1,0,1:0:0:0:
256,160,113463,1,8,1:0:0:0:
256,160,113616,1,8,1:0:0:0:
240,144,113692,1,8,1:0:0:0:
240,144,113768,1,0,1:0:0:0:
256,160,113844,1,0,1:0:0:0:
272,160,113920,1,8,1:0:0:0:
272,160,114072,1,0,1:0:0:0:
256,144,114225,1,8,1:0:0:0:
256,160,114301,1,8,1:0:0:0:
256,160,114377,1,8,1:0:0:0:
256,160,114453,1,8,1:0:0:0:
256,160,114529,1,0,1:0:0:0:
256,160,114682,1,0,1:0:0:0:
256,160,114758,1,8,1:0:0:0:
256,160,114834,1,0,1:0:0:0:
256,160,114910,1,0,1:0:0:0:
256,160,114986,1,8,1:0:0:0:
256,160,115062,1,8,1:0:0:0:
256,160,115291,1,8,1:0:0:0:
256,160,115367,1,0,1:0:0:0:
256,160,115443,1,8,1:0:0:0:
256,160,115595,1,0,1:0:0:0:
256,144,115748,1,8,1:0:0:0:
256,144,115824,1,8,1:0:0:0:
256,160,115900,1,0,1:0:0:0:
256,160,115976,1,0,1:0:0:0:
256,160,116052,1,8,1:0:0:0:
256,160,116128,1,8,1:0:0:0:
256,160,116204,1,0,1:0:0:0:
256,160,116357,1,8,1:0:0:0:
256,160,116433,1,0,1:0:0:0:
256,160,116509,1,8,1:0:0:0:
256,160,116585,1,0,1:0:0:0:
256,160,116661,1,8,1:0:0:0:
256,160,116737,1,8,1:0:0:0:
256,160,116814,1,0,1:0:0:0:
256,160,116890,1,0,1:0:0:0:
256,160,116966,1,8,1:0:0:0:
256,160,117118,1,0,1:0:0:0:
256,160,117270,1,8,1:0:0:0:
256,160,117347,1,8,1:0:0:0:
256,160,117423,1,8,1:0:0:0:
256,160,117499,1,0,1:0:0:0:
256,160,117727,1,8,1:0:0:0:
256,160,117880,1,0,1:0:0:0:
256,160,117956,1,0,1:0:0:0:
240,160,118032,1,8,1:0:0:0:
256,160,118108,1,8,1:0:0:0:
256,160,118184,1,0,1:0:0:0:
256,160,118336,1,8,1:0:0:0:
256,160,118489,1,8,1:0:0:0:
256,160,118565,1,8,1:0:0:0:
240,144,118641,1,0,1:0:0:0:
240,144,118717,1,8,1:0:0:0:
272,160,118793,1,8,1:0:0:0:
272,160,118946,1,8,1:0:0:0:
256,144,119098,1,0,1:0:0:0:
256,160,119174,1,0,1:0:0:0:
256,160,119250,1,0,1:0:0:0:
256,160,119326,1,0,1:0:0:0:
256,160,119402,1,12,1:0:0:0:
256,160,119707,1,8,1:0:0:0:
256,160,119783,1,8,1:0:0:0:
256,160,119859,1,0,1:0:0:0:
256,160,120012,1,0,1:0:0:0:
256,160,120088,1,0,1:0:0:0:
256,160,120164,1,8,1:0:0:0:
256,160,120240,1,0,1:0:0:0:
256,160,120316,1,8,1:0:0:0:
256,160,120392,1,0,1:0:0:0:
256,160,120468,1,8,1:0:0:0:
256,144,120544,1,8,1:0:0:0:
256,144,120621,1,4,1:0:0:0:
256,160,120925,1,0,1:0:0:0:
256,160,121001,1,8,1:0:0:0:
256,160,121077,1,0,1:0:0:0:
256,160,121230,1,8,1:0:0:0:
256,160,121306,1,8,1:0:0:0:
256,160,121382,1,0,1:0:0:0:
256,160,121458,1,8,1:0:0:0:
256,160,121534,1,0,1:0:0:0:
256,160,121610,1,0,1:0:0:0:
256,160,121687,1,8,1:0:0:0:
256,160,121763,1,0,1:0:0:0:
256,160,121839,1,12,1:0:0:0:
256,160,122143,1,8,1:0:0:0:
256,160,122220,1,8,1:0:0:0:
256,160,122296,1,0,1:0:0:0:
256,160,122448,1,8,1:0:0:0:
256,160,122600,1,0,1:0:0:0:
256,160,122676,1,8,1:0:0:0:
256,160,122753,1,0,1:0:0:0:
256,160,122905,1,8,1:0:0:0:
256,160,123057,1,8,1:0:0:0:
256,160,123159,1,8,1:0:0:0:
256,160,123260,1,0,1:0:0:0:
256,160,123362,1,8,1:0:0:0:
256,160,123463,1,0,1:0:0:0:
256,160,123565,1,0,1:0:0:0:
256,160,123666,1,8,1:0:0:0:
256,160,123768,1,0,1:0:0:0:
272,160,123869,1,8,1:0:0:0:
256,160,123971,1,0,1:0:0:0:
256,160,124072,1,8,1:0:0:0:
256,160,124174,1,8,1:0:0:0:
256,160,124275,1,0,1:0:0:0:
256,160,124428,1,8,1:0:0:0:
256,160,124504,1,8,1:0:0:0:
256,160,124580,1,0,1:0:0:0:
256,160,124656,1,8,1:0:0:0:
256,160,124732,1,0,1:0:0:0:
256,160,124808,1,0,1:0:0:0:
256,160,125037,1,8,1:0:0:0:
256,160,125113,1,0,1:0:0:0:
256,160,125189,1,8,1:0:0:0:
256,160,125341,1,0,1:0:0:0:
256,144,125494,1,8,1:0:0:0:
256,144,125570,1,8,1:0:0:0:
256,160,125646,1,0,1:0:0:0:
256,160,125722,1,0,1:0:0:0:
256,160,125798,1,8,1:0:0:0:
256,160,125874,1,8,1:0:0:0:
256,160,125951,1,0,1:0:0:0:
256,160,126103,1,8,1:0:0:0:
256,160,126179,1,0,1:0:0:0:
256,160,126255,1,8,1:0:0:0:
256,160,126331,1,0,1:0:0:0:
256,160,126407,1,8,1:0:0:0:
256,160,126484,1,8,1:0:0:0:
256,160,126560,1,0,1:0:0:0:
256,160,126636,1,0,1:0:0:0:
256,160,126712,1,8,1:0:0:0:
256,160,126864,1,0,1:0:0:0:
256,160,127017,1,8,1:0:0:0:
256,160,127093,1,0,1:0:0:0:
256,160,127169,1,8,1:0:0:0:
256,160,127245,1,8,1:0:0:0:
256,160,127473,1,8,1:0:0:0:
256,160,127626,1,0,1:0:0:0:
256,160,127702,1,0,1:0:0:0:
240,160,127778,1,8,1:0:0:0:
256,160,127854,1,8,1:0:0:0:
256,160,127930,1,0,1:0:0:0:
256,160,128083,1,8,1:0:0:0:
256,160,128235,1,8,1:0:0:0:
256,160,128311,1,8,1:0:0:0:
240,144,128387,1,0,1:0:0:0:
240,144,128463,1,8,1:0:0:0:
272,160,128539,1,8,1:0:0:0:
272,160,128692,1,8,1:0:0:0:
256,144,128844,1,0,1:0:0:0:
256,160,128920,1,0,1:0:0:0:
256,160,128996,1,0,1:0:0:0:
256,160,129072,1,0,1:0:0:0:
256,160,129149,1,8,1:0:0:0:
256,160,129301,1,0,1:0:0:0:
256,160,129377,1,8,1:0:0:0:
256,160,129453,1,0,1:0:0:0:
256,160,129529,1,0,1:0:0:0:
256,160,129605,1,8,1:0:0:0:
256,160,129682,1,8,1:0:0:0:
256,160,129910,1,0,1:0:0:0:
256,160,130062,1,8,1:0:0:0:
256,160,130138,1,8,1:0:0:0:
256,160,130215,1,0,1:0:0:0:
256,160,130291,1,0,1:0:0:0:
256,144,130367,1,8,1:0:0:0:
256,160,130519,1,0,1:0:0:0:
256,160,130671,1,8,1:0:0:0:
256,160,130748,1,0,1:0:0:0:
256,160,130824,1,0,1:0:0:0:
256,160,130976,1,8,1:0:0:0:
256,160,131052,1,0,1:0:0:0:
256,160,131128,1,8,1:0:0:0:
256,160,131204,1,8,1:0:0:0:
256,160,131281,1,0,1:0:0:0:
256,160,131357,1,0,1:0:0:0:
256,160,131433,1,8,1:0:0:0:
256,160,131509,1,0,1:0:0:0:
256,160,131585,1,8,1:0:0:0:
256,160,131737,1,0,1:0:0:0:
256,160,131890,1,8,1:0:0:0:
256,160,131966,1,0,1:0:0:0:
256,160,132042,1,0,1:0:0:0:
256,160,132118,1,8,1:0:0:0:
256,160,132347,1,8,1:0:0:0:
256,160,132499,1,0,1:0:0:0:
256,160,132575,1,0,1:0:0:0:
240,160,132651,1,8,1:0:0:0:
256,160,132727,1,8,1:0:0:0:
256,160,132803,1,0,1:0:0:0:
256,160,132956,1,8,1:0:0:0:
256,160,133108,1,8,1:0:0:0:
240,144,133184,1,8,1:0:0:0:
240,144,133260,1,0,1:0:0:0:
256,160,133336,1,0,1:0:0:0:
272,160,133413,1,8,1:0:0:0:
272,160,133565,1,0,1:0:0:0:
256,144,133717,1,8,1:0:0:0:
256,160,133793,1,8,1:0:0:0:
256,160,133869,1,8,1:0:0:0:
256,160,133946,1,8,1:0:0:0:
256,160,134022,1,0,1:0:0:0:
256,160,134174,1,0,1:0:0:0:
256,160,134250,1,8,1:0:0:0:
256,160,134326,1,0,1:0:0:0:
256,160,134402,1,0,1:0:0:0:
256,160,134479,1,8,1:0:0:0:
256,160,134555,1,8,1:0:0:0:
256,160,134783,1,8,1:0:0:0:
256,160,134859,1,0,1:0:0:0:
256,160,134935,1,8,1:0:0:0:
256,160,135088,1,0,1:0:0:0:
256,144,135240,1,8,1:0:0:0:
256,144,135316,1,8,1:0:0:0:
256,160,135392,1,0,1:0:0:0:
256,160,135468,1,0,1:0:0:0:
256,160,135544,1,8,1:0:0:0:
256,160,135621,1,8,1:0:0:0:
256,160,135697,1,0,1:0:0:0:
256,160,135849,1,8,1:0:0:0:
256,160,135925,1,0,1:0:0:0:
256,160,136001,1,8,1:0:0:0:
256,160,136077,1,0,1:0:0:0:
256,160,136154,1,8,1:0:0:0:
256,160,136230,1,8,1:0:0:0:
256,160,136306,1,0,1:0:0:0:
256,160,136382,1,0,1:0:0:0:
256,160,136458,1,8,1:0:0:0:
256,160,136610,1,0,1:0:0:0:
256,160,136763,1,8,1:0:0:0:
256,160,136839,1,0,1:0:0:0:
256,160,136915,1,8,1:0:0:0:
256,160,136991,1,8,1:0:0:0:
256,160,137220,1,8,1:0:0:0:
256,160,137372,1,0,1:0:0:0:
256,160,137448,1,0,1:0:0:0:
240,160,137524,1,8,1:0:0:0:
256,160,137600,1,8,1:0:0:0:
256,160,137676,1,0,1:0:0:0:
256,160,137829,1,8,1:0:0:0:
256,160,137981,1,8,1:0:0:0:
256,160,138057,1,8,1:0:0:0:
240,144,138133,1,0,1:0:0:0:
240,144,138209,1,8,1:0:0:0:
272,160,138286,1,8,1:0:0:0:
272,160,138438,1,8,1:0:0:0:
256,160,138514,1,8,1:0:0:0:
256,144,138590,1,0,1:0:0:0:
256,160,138666,1,0,1:0:0:0:
256,160,138742,1,0,1:0:0:0:
256,160,138819,1,0,1:0:0:0:
256,160,138895,1,12,1:0:0:0:
256,160,139199,1,8,1:0:0:0:
256,160,139275,1,8,1:0:0:0:
256,160,139352,1,0,1:0:0:0:
256,160,139504,1,0,1:0:0:0:
256,160,139580,1,0,1:0:0:0:
256,160,139656,1,8,1:0:0:0:
256,160,139732,1,0,1:0:0:0:
256,160,139808,1,8,1:0:0:0:
256,160,139885,1,0,1:0:0:0:
256,160,139961,1,8,1:0:0:0:
256,144,140037,1,8,1:0:0:0:
256,144,140113,1,4,1:0:0:0:
256,160,140418,1,0,1:0:0:0:
256,160,140494,1,8,1:0:0:0:
256,160,140570,1,0,1:0:0:0:
256,160,140722,1,8,1:0:0:0:
256,160,140798,1,8,1:0:0:0:
256,160,140874,1,0,1:0:0:0:
256,160,140951,1,8,1:0:0:0:
256,160,141027,1,0,1:0:0:0:
256,160,141103,1,0,1:0:0:0:
256,160,141179,1,8,1:0:0:0:
256,160,141255,1,0,1:0:0:0:
256,160,141331,1,12,1:0:0:0:
256,160,141636,1,8,1:0:0:0:
256,160,141712,1,8,1:0:0:0:
256,160,141788,1,0,1:0:0:0:
256,160,141940,1,8,1:0:0:0:
256,160,142093,1,0,1:0:0:0:
256,160,142169,1,8,1:0:0:0:
256,160,142245,1,0,1:0:0:0:
256,160,142397,1,8,1:0:0:0:
256,160,142550,1,8,1:0:0:0:
256,160,142626,1,8,1:0:0:0:
256,160,142702,1,0,1:0:0:0:
256,160,142778,1,8,1:0:0:0:
256,160,142854,1,0,1:0:0:0:
256,160,142930,1,0,1:0:0:0:
256,160,143006,1,8,1:0:0:0:
256,160,143083,1,0,1:0:0:0:
256,160,143159,1,8,1:0:0:0:
256,160,143235,1,8,1:0:0:0:
256,160,143311,1,8,1:0:0:0:
272,160,143387,1,8,1:0:0:0:
256,160,143463,1,0,1:0:0:0:
256,160,143539,1,8,1:0:0:0:
256,160,143616,1,0,1:0:0:0:
256,160,143692,1,0,1:0:0:0:
256,160,143768,1,8,1:0:0:0:
256,160,143895,1,0,1:0:0:0:
256,160,143971,1,0,1:0:0:0:
256,160,144047,1,8,1:0:0:0:
256,160,144168,1,8,1:0:0:0:
256,160,144282,1,0,1:0:0:0:
256,160,144434,1,0,1:0:0:0:
256,160,144624,1,8,1:0:0:0:
256,160,144853,1,8,1:0:0:0:
256,160,144986,1,0,1:0:0:0:
256,160,145291,1,0,1:0:0:0:
256,160,145519,1,8,1:0:0:0:
256,160,145709,1,0,1:0:0:0:
256,160,145862,1,8,1:0:0:0:
256,160,145976,1,0,1:0:0:0:
256,160,146052,1,0,1:0:0:0:
256,160,146128,1,0,1:0:0:0:
256,192,146204,1,8,1:0:0:0:
256,192,155951,5,8,1:0:0:0:
256,192,157169,1,0,1:0:0:0:
256,192,158387,1,0,1:0:0:0:
256,192,159605,1,8,1:0:0:0:
256,192,160824,1,0,1:0:0:0:
256,192,162042,1,8,1:0:0:0:
256,192,163260,1,8,1:0:0:0:
256,192,164479,1,0,1:0:0:0:
256,192,165697,1,8,1:0:0:0:
256,192,165925,1,8,1:0:0:0:
256,192,166001,1,0,1:0:0:0:
256,192,166154,1,8,1:0:0:0:
256,192,166306,1,8,1:0:0:0:
256,192,166534,1,8,1:0:0:0:
256,192,166610,1,0,1:0:0:0:
256,192,166763,1,8,1:0:0:0:
256,192,166915,1,0,1:0:0:0:
256,192,167143,1,0,1:0:0:0:
256,192,167220,1,8,1:0:0:0:
256,192,167372,1,0,1:0:0:0:
256,192,167524,1,0,1:0:0:0:
256,192,167676,1,8,1:0:0:0:
256,192,167753,1,8,1:0:0:0:
256,192,167829,1,0,1:0:0:0:
256,192,167981,1,0,1:0:0:0:
256,192,168057,1,0,1:0:0:0:
256,192,168133,1,8,1:0:0:0:
256,192,168362,1,8,1:0:0:0:
256,192,168438,1,0,1:0:0:0:
256,192,168590,1,8,1:0:0:0:
256,192,168742,1,8,1:0:0:0:
256,192,168971,1,8,1:0:0:0:
256,192,169047,1,0,1:0:0:0:
256,192,169199,1,8,1:0:0:0:
256,192,169352,1,0,1:0:0:0:
256,192,169580,1,0,1:0:0:0:
256,192,169656,1,8,1:0:0:0:
256,192,169808,1,0,1:0:0:0:
256,192,169961,1,0,1:0:0:0:
256,192,170113,1,8,1:0:0:0:
256,192,170189,1,0,1:0:0:0:
256,192,170265,1,8,1:0:0:0:
256,192,170418,1,0,1:0:0:0:
256,192,170494,1,0,1:0:0:0:
256,192,170570,1,8,1:0:0:0:
256,192,170798,1,8,1:0:0:0:
256,192,170874,1,0,1:0:0:0:
256,192,171027,1,8,1:0:0:0:
256,192,171179,1,8,1:0:0:0:
256,192,171407,1,8,1:0:0:0:
256,192,171484,1,0,1:0:0:0:
256,192,171636,1,8,1:0:0:0:
256,192,171788,1,0,1:0:0:0:
256,192,172017,1,0,1:0:0:0:
256,192,172093,1,8,1:0:0:0:
256,192,172245,1,0,1:0:0:0:
256,192,172397,1,0,1:0:0:0:
256,192,172550,1,8,1:0:0:0:
256,192,172626,1,8,1:0:0:0:
256,192,172702,1,0,1:0:0:0:
256,192,172854,1,0,1:0:0:0:
256,192,172930,1,0,1:0:0:0:
256,192,173006,1,8,1:0:0:0:
256,192,173235,1,8,1:0:0:0:
256,192,173311,1,0,1:0:0:0:
256,192,173463,1,8,1:0:0:0:
256,192,173616,1,8,1:0:0:0:
256,192,173844,1,8,1:0:0:0:
256,192,173920,1,0,1:0:0:0:
256,192,174072,1,8,1:0:0:0:
256,192,174225,1,0,1:0:0:0:
256,192,174453,1,0,1:0:0:0:
256,192,174529,1,8,1:0:0:0:
256,192,174682,1,0,1:0:0:0:
256,192,174834,1,0,1:0:0:0:
256,192,174986,1,8,1:0:0:0:
256,192,175062,1,0,1:0:0:0:
256,192,175138,1,8,1:0:0:0:
256,192,175291,1,0,1:0:0:0:
256,192,175367,1,0,1:0:0:0:
256,192,175443,1,8,1:0:0:0:
256,192,175671,1,8,1:0:0:0:
256,192,175748,1,0,1:0:0:0:
256,192,175900,1,8,1:0:0:0:
256,192,176052,1,8,1:0:0:0:
256,192,176281,1,8,1:0:0:0:
256,192,176357,1,0,1:0:0:0:
256,192,176509,1,8,1:0:0:0:
256,192,176661,1,0,1:0:0:0:
256,192,176890,1,0,1:0:0:0:
256,192,176966,1,8,1:0:0:0:
256,192,177118,1,0,1:0:0:0:
256,192,177270,1,0,1:0:0:0:
256,192,177423,1,8,1:0:0:0:
256,192,177499,1,8,1:0:0:0:
256,192,177575,1,0,1:0:0:0:
256,192,177727,1,0,1:0:0:0:
256,192,177803,1,0,1:0:0:0:
256,192,177880,1,8,1:0:0:0:
256,192,178108,1,8,1:0:0:0:
256,192,178184,1,0,1:0:0:0:
256,192,178336,1,8,1:0:0:0:
256,192,178489,1,8,1:0:0:0:
256,192,178717,1,8,1:0:0:0:
256,192,178793,1,0,1:0:0:0:
256,192,178946,1,8,1:0:0:0:
256,192,179098,1,0,1:0:0:0:
256,192,179326,1,0,1:0:0:0:
256,192,179402,1,8,1:0:0:0:
256,192,179555,1,0,1:0:0:0:
256,192,179707,1,0,1:0:0:0:
256,192,179859,1,8,1:0:0:0:
256,192,179935,1,0,1:0:0:0:
256,192,180012,1,8,1:0:0:0:
256,192,180164,1,0,1:0:0:0:
256,192,180240,1,0,1:0:0:0:
256,192,180316,1,8,1:0:0:0:
256,192,180544,1,8,1:0:0:0:
256,192,180621,1,0,1:0:0:0:
256,192,180773,1,8,1:0:0:0:
256,192,180925,1,8,1:0:0:0:
256,192,181154,1,8,1:0:0:0:
256,192,181230,1,0,1:0:0:0:
256,192,181382,1,8,1:0:0:0:
256,192,181534,1,0,1:0:0:0:
256,192,181763,1,0,1:0:0:0:
256,192,181839,1,8,1:0:0:0:
256,192,181991,1,0,1:0:0:0:
256,192,182143,1,0,1:0:0:0:
256,192,182296,1,8,1:0:0:0:
256,192,182372,1,8,1:0:0:0:
256,192,182448,1,0,1:0:0:0:
256,192,182600,1,0,1:0:0:0:
256,192,182676,1,0,1:0:0:0:
256,192,182753,1,8,1:0:0:0:
256,192,182981,1,8,1:0:0:0:
256,192,183057,1,0,1:0:0:0:
256,192,183209,1,8,1:0:0:0:
256,192,183362,1,8,1:0:0:0:
256,192,183590,1,8,1:0:0:0:
256,192,183666,1,0,1:0:0:0:
256,192,183819,1,8,1:0:0:0:
256,192,183971,1,0,1:0:0:0:
256,192,184199,1,0,1:0:0:0:
256,192,184275,1,8,1:0:0:0:
256,192,184428,1,0,1:0:0:0:
256,192,184580,1,0,1:0:0:0:
256,192,184732,1,8,1:0:0:0:
256,192,184808,1,0,1:0:0:0:
256,192,184885,1,8,1:0:0:0:
256,192,185037,1,0,1:0:0:0:
256,192,185113,1,0,1:0:0:0:
256,192,185189,1,12,1:0:0:0:
256,192,185494,1,0,1:0:0:0:
256,192,185798,1,0,1:0:0:0:
256,192,186103,1,0,1:0:0:0:
256,192,186407,1,8,1:0:0:0:
256,192,186712,1,0,1:0:0:0:
256,192,187017,1,0,1:0:0:0:
256,192,187169,1,8,1:0:0:0:
256,192,187321,1,0,1:0:0:0:
256,192,187626,1,8,1:0:0:0:
256,192,187930,1,8,1:0:0:0:
256,192,188235,1,8,1:0:0:0:
256,192,188539,1,8,1:0:0:0:
256,192,188844,1,0,1:0:0:0:
256,192,189149,1,0,1:0:0:0:
256,192,189453,1,0,1:0:0:0:
256,192,189758,1,0,1:0:0:0:
256,192,190062,1,12,1:0:0:0:
256,192,190367,1,0,1:0:0:0:
256,192,190671,1,0,1:0:0:0:
256,192,190976,1,0,1:0:0:0:
256,192,191281,1,8,1:0:0:0:
256,192,191585,1,8,1:0:0:0:
256,192,191890,1,8,1:0:0:0:
256,192,192042,1,0,1:0:0:0:
256,192,192194,1,8,1:0:0:0:
256,192,192499,1,0,1:0:0:0:
256,192,192803,1,0,1:0:0:0:
256,192,193108,1,0,1:0:0:0:
256,192,193413,1,0,1:0:0:0:
256,192,193717,1,8,1:0:0:0:
256,192,194022,1,8,1:0:0:0:
256,192,194326,1,8,1:0:0:0:
256,192,194631,1,8,1:0:0:0:
256,192,194935,1,4,1:0:0:0:
256,192,195240,1,8,1:0:0:0:
256,192,195544,1,8,1:0:0:0:
256,192,195849,1,8,1:0:0:0:
256,192,196154,1,0,1:0:0:0:
256,192,196458,1,8,1:0:0:0:
256,192,196763,1,8,1:0:0:0:
256,192,196915,1,0,1:0:0:0:
256,192,197067,1,8,1:0:0:0:
256,192,197372,1,4,1:0:0:0:
256,192,197676,1,8,1:0:0:0:
256,192,197981,1,0,1:0:0:0:
256,192,198286,1,0,1:0:0:0:
256,192,198590,1,8,1:0:0:0:
256,192,198895,1,8,1:0:0:0:
256,192,199199,1,8,1:0:0:0:
256,192,199504,1,8,1:0:0:0:
256,192,199808,1,4,1:0:0:0:
256,192,199961,1,8,1:0:0:0:
256,192,200037,1,0,1:0:0:0:
256,192,200113,1,8,1:0:0:0:
256,192,200265,1,0,1:0:0:0:
256,192,200418,1,8,1:0:0:0:
256,192,200646,1,0,1:0:0:0:
256,192,200874,1,8,1:0:0:0:
256,192,201027,1,4,1:0:0:0:
256,192,201179,1,8,1:0:0:0:
256,192,201255,1,8,1:0:0:0:
256,192,201331,1,0,1:0:0:0:
256,192,201484,1,0,1:0:0:0:
256,192,201636,1,8,1:0:0:0:
256,192,201864,1,8,1:0:0:0:
256,192,202093,1,0,1:0:0:0:
256,192,202245,1,8,1:0:0:0:
256,192,202321,1,8,1:0:0:0:
256,192,202397,1,0,1:0:0:0:
256,192,202473,1,0,1:0:0:0:
256,192,202550,1,8,1:0:0:0:
256,192,202702,1,8,1:0:0:0:
256,192,202854,1,0,1:0:0:0:
256,192,202930,1,0,1:0:0:0:
256,192,203006,1,8,1:0:0:0:
256,192,203083,1,8,1:0:0:0:
256,192,203159,1,0,1:0:0:0:
256,192,203311,1,0,1:0:0:0:
256,192,203463,1,8,1:0:0:0:
256,192,203539,1,8,1:0:0:0:
256,192,203616,1,0,1:0:0:0:
256,192,203692,1,8,1:0:0:0:
256,192,203768,1,0,1:0:0:0:
256,192,203844,1,0,1:0:0:0:
256,192,203920,1,8,1:0:0:0:
256,192,203996,1,0,1:0:0:0:
256,192,204072,1,8,1:0:0:0:
256,192,204149,1,8,1:0:0:0:
256,192,204225,1,8,1:0:0:0:
256,192,204301,1,8,1:0:0:0:
256,192,204377,1,0,1:0:0:0:
256,192,204453,1,0,1:0:0:0:
256,192,204529,1,0,1:0:0:0:
256,192,204605,1,0,1:0:0:0:
256,192,204682,1,12,1:0:0:0:
256,192,204834,1,12,1:0:0:0:
256,192,205138,1,4,1:0:0:0:
256,192,205291,1,4,1:0:0:0:
256,192,205595,1,12,1:0:0:0:
256,192,205748,1,12,1:0:0:0:
256,192,206052,1,4,1:0:0:0:
256,192,206204,1,4,1:0:0:0:
256,192,206509,1,12,1:0:0:0:
256,192,206661,1,4,1:0:0:0:
256,192,206966,1,12,1:0:0:0:
256,192,207118,1,12,1:0:0:0:
256,192,207423,1,4,1:0:0:0:
256,192,207575,1,12,1:0:0:0:
256,192,207880,1,4,1:0:0:0:
256,192,208032,1,4,1:0:0:0:
256,192,208336,1,12,1:0:0:0:
256,192,208489,1,12,1:0:0:0:
256,192,208793,1,4,1:0:0:0:
256,192,208946,1,4,1:0:0:0:
256,192,209250,1,12,1:0:0:0:
256,192,209402,1,4,1:0:0:0:
256,192,209555,1,12,1:0:0:0:
256,192,209707,1,12,1:0:0:0:
256,192,210012,1,4,1:0:0:0:
256,192,210164,1,4,1:0:0:0:
256,192,210468,1,12,1:0:0:0:
256,192,210621,1,12,1:0:0:0:
256,192,210925,1,4,1:0:0:0:
256,192,211077,1,4,1:0:0:0:
256,192,211382,1,12,1:0:0:0:
256,192,211534,1,4,1:0:0:0:
256,192,211839,1,12,1:0:0:0:
256,192,211991,1,12,1:0:0:0:
256,192,212296,1,4,1:0:0:0:
256,192,212448,1,12,1:0:0:0:
256,192,212753,1,4,1:0:0:0:
256,192,212905,1,4,1:0:0:0:
256,192,213209,1,12,1:0:0:0:
256,192,213362,1,12,1:0:0:0:
256,192,213666,1,4,1:0:0:0:
256,192,213819,1,4,1:0:0:0:
256,192,214123,1,12,1:0:0:0:
256,192,214275,1,4,1:0:0:0:
256,192,214428,1,8,1:0:0:0:
256,192,214504,1,0,1:0:0:0:
256,192,214580,1,8,1:0:0:0:
256,192,214732,1,0,1:0:0:0:
256,192,214885,1,8,1:0:0:0:
256,192,214935,1,8,1:0:0:0:
256,192,214986,1,8,1:0:0:0:
256,192,215037,1,0,1:0:0:0:
256,192,215138,1,8,1:0:0:0:
256,192,215240,1,8,1:0:0:0:
256,192,215341,1,0,1:0:0:0:
256,192,215392,1,0,1:0:0:0:
256,192,215443,1,0,1:0:0:0:
256,192,215494,1,8,1:0:0:0:
256,192,215570,1,8,1:0:0:0:
256,192,215646,1,0,1:0:0:0:
256,192,215798,1,0,1:0:0:0:
256,192,215874,1,0,1:0:0:0:
256,192,215951,1,8,1:0:0:0:
256,192,216001,1,8,1:0:0:0:
256,192,216052,1,8,1:0:0:0:
256,192,216103,1,0,1:0:0:0:
256,192,216255,1,0,1:0:0:0:
256,192,216306,1,0,1:0:0:0:
256,192,216357,1,0,1:0:0:0:
256,192,216407,1,8,1:0:0:0:
256,192,216484,1,8,1:0:0:0:
256,192,216560,1,0,1:0:0:0:
256,192,216712,1,0,1:0:0:0:
256,192,216788,1,0,1:0:0:0:
256,192,216864,1,8,1:0:0:0:
256,192,216915,1,8,1:0:0:0:
256,192,216966,1,8,1:0:0:0:
256,192,217017,1,0,1:0:0:0:
256,192,217169,1,8,1:0:0:0:
256,192,217245,1,8,1:0:0:0:
256,192,217321,1,0,1:0:0:0:
256,192,217397,1,8,1:0:0:0:
256,192,217473,1,0,1:0:0:0:
256,192,217626,1,8,1:0:0:0:
256,192,217702,1,0,1:0:0:0:
256,192,217778,1,8,1:0:0:0:
256,128,217930,1,0,1:0:0:0:
256,192,218083,1,8,1:0:0:0:
256,192,218159,1,8,1:0:0:0:
256,192,218235,1,0,1:0:0:0:
256,192,218311,1,0,1:0:0:0:
256,192,218387,1,8,1:0:0:0:
256,192,218438,1,8,1:0:0:0:
256,192,218489,1,8,1:0:0:0:
256,192,218539,1,0,1:0:0:0:
256,192,218616,1,0,1:0:0:0:
256,192,218692,1,8,1:0:0:0:
256,192,218844,1,0,1:0:0:0:
256,192,218996,1,8,1:0:0:0:
256,192,219072,1,8,1:0:0:0:
256,192,219149,1,0,1:0:0:0:
256,192,219199,1,0,1:0:0:0:
256,192,219250,1,0,1:0:0:0:
256,192,219301,1,8,1:0:0:0:
256,192,219453,1,8,1:0:0:0:
256,192,219605,1,0,1:0:0:0:
256,192,219758,1,8,1:0:0:0:
256,192,219808,1,8,1:0:0:0:
256,192,219859,1,8,1:0:0:0:
256,192,219910,1,0,1:0:0:0:
256,192,220012,1,8,1:0:0:0:
256,192,220113,1,8,1:0:0:0:
256,192,220215,1,0,1:0:0:0:
256,192,220265,1,0,1:0:0:0:
256,192,220316,1,0,1:0:0:0:
256,192,220367,1,8,1:0:0:0:
256,192,220443,1,8,1:0:0:0:
256,192,220519,1,0,1:0:0:0:
256,192,220671,1,8,1:0:0:0:
256,192,220824,1,0,1:0:0:0:
256,192,220900,1,0,1:0:0:0:
256,192,220976,1,8,1:0:0:0:
256,192,221128,1,0,1:0:0:0:
256,192,221281,1,8,1:0:0:0:
256,192,221357,1,8,1:0:0:0:
256,192,221433,1,0,1:0:0:0:
256,192,221585,1,0,1:0:0:0:
256,192,221661,1,0,1:0:0:0:
256,192,221737,1,8,1:0:0:0:
256,192,221814,1,8,1:0:0:0:
256,192,221890,1,0,1:0:0:0:
256,192,222042,1,8,1:0:0:0:
256,192,222118,1,8,1:0:0:0:
256,192,222194,1,0,1:0:0:0:
256,192,222245,1,0,1:0:0:0:
256,192,222296,1,0,1:0:0:0:
256,192,222347,1,8,1:0:0:0:
256,192,222499,1,0,1:0:0:0:
256,192,222575,1,0,1:0:0:0:
256,176,222651,1,8,1:0:0:0:
272,144,222702,1,8,1:0:0:0:
272,144,222753,1,8,1:0:0:0:
256,128,222803,1,0,1:0:0:0:
256,176,222956,1,0,1:0:0:0:
256,176,223057,1,8,1:0:0:0:
256,176,223159,1,0,1:0:0:0:
256,192,223209,1,0,1:0:0:0:
256,176,223260,1,0,1:0:0:0:
256,176,223362,1,8,1:0:0:0:
256,176,223463,1,8,1:0:0:0:
256,176,223565,1,0,1:0:0:0:
256,176,223666,1,8,1:0:0:0:
256,176,223768,1,8,1:0:0:0:
256,176,223869,1,0,1:0:0:0:
256,176,224022,1,0,1:0:0:0:
256,176,224072,1,0,1:0:0:0:
256,176,224123,1,0,1:0:0:0:
256,176,224174,1,8,1:0:0:0:
256,192,224631,1,8,1:0:0:0:
256,192,225088,1,0,1:0:0:0:
256,192,225392,1,8,1:0:0:0:
256,192,225849,1,8,1:0:0:0:
256,192,226306,1,0,1:0:0:0:
256,192,226610,1,8,1:0:0:0:
256,192,227067,1,8,1:0:0:0:
256,192,227524,1,0,1:0:0:0:
256,192,227829,1,8,1:0:0:0:
256,192,228286,1,0,1:0:0:0:
256,192,228590,1,8,1:0:0:0:
256,192,228742,1,0,1:0:0:0:
256,192,228895,1,0,1:0:0:0:
256,192,229047,1,12,1:0:0:0:
256,192,229504,1,0,1:0:0:0:
256,192,229961,1,8,1:0:0:0:
256,192,230265,1,0,1:0:0:0:
256,192,230722,1,8,1:0:0:0:
256,192,231179,1,0,1:0:0:0:
256,192,231484,1,8,1:0:0:0:
256,192,231636,1,0,1:0:0:0:
256,192,231712,1,8,1:0:0:0:
256,192,231940,1,0,1:0:0:0:
256,192,232093,1,8,1:0:0:0:
256,192,232169,1,0,1:0:0:0:
256,192,232321,1,8,1:0:0:0:
256,192,232550,1,0,1:0:0:0:
256,192,232600,1,0,1:0:0:0:
256,192,232651,1,0,1:0:0:0:
256,192,232702,1,8,1:0:0:0:
256,192,232854,1,8,1:0:0:0:
256,192,232930,1,0,1:0:0:0:
256,192,233159,1,8,1:0:0:0:
256,192,233311,1,0,1:0:0:0:
256,192,233387,1,0,1:0:0:0:
256,192,233463,1,8,1:0:0:0:
256,192,233539,1,0,1:0:0:0:
256,192,233616,1,8,1:0:0:0:
256,192,233666,1,0,1:0:0:0:
256,192,233717,1,0,1:0:0:0:
256,192,233768,1,8,1:0:0:0:
256,192,233819,1,0,1:0:0:0:
256,192,233869,1,0,1:0:0:0:
256,192,233920,1,8,1:0:0:0:
256,192,234225,1,4,1:0:0:0:
256,192,234377,1,8,1:0:0:0:
256,192,234682,1,0,1:0:0:0:
256,192,234834,1,8,1:0:0:0:
256,192,234910,1,8,1:0:0:0:
256,192,234986,1,0,1:0:0:0:
256,192,235062,1,0,1:0:0:0:
256,192,235138,1,8,1:0:0:0:
256,192,235291,1,0,1:0:0:0:
256,192,235443,1,8,1:0:0:0:
256,192,235595,1,0,1:0:0:0:
256,192,235671,1,0,1:0:0:0:
256,192,235748,1,8,1:0:0:0:
256,192,235900,1,8,1:0:0:0:
256,192,235976,1,8,1:0:0:0:
256,192,236052,1,0,1:0:0:0:
256,192,236128,1,0,1:0:0:0:
256,192,236204,1,8,1:0:0:0:
256,192,236281,1,0,1:0:0:0:
256,192,236357,1,8,1:0:0:0:
256,192,236509,1,8,1:0:0:0:
256,192,236661,1,0,1:0:0:0:
256,192,236737,1,0,1:0:0:0:
256,192,236814,1,8,1:0:0:0:
256,192,236890,1,8,1:0:0:0:
256,192,236966,1,0,1:0:0:0:
256,192,237118,1,8,1:0:0:0:
256,192,237194,1,8,1:0:0:0:
256,192,237270,1,0,1:0:0:0:
256,192,237347,1,8,1:0:0:0:
256,192,237423,1,0,1:0:0:0:
256,192,237499,1,0,1:0:0:0:
256,192,237575,1,8,1:0:0:0:
256,192,237727,1,8,1:0:0:0:
256,192,237880,1,0,1:0:0:0:
256,192,237956,1,0,1:0:0:0:
256,192,238032,1,8,1:0:0:0:
256,192,238108,1,8,1:0:0:0:
256,192,238184,1,0,1:0:0:0:
256,192,238336,1,8,1:0:0:0:
256,192,238413,1,0,1:0:0:0:
256,192,238489,1,8,1:0:0:0:
256,192,238565,1,8,1:0:0:0:
256,192,238641,1,0,1:0:0:0:
256,192,238717,1,0,1:0:0:0:
256,192,238793,1,12,1:0:0:0:
256,192,239098,1,8,1:0:0:0:
256,192,239250,1,0,1:0:0:0:
256,192,239326,1,0,1:0:0:0:
256,192,239402,1,8,1:0:0:0:
256,192,239555,1,8,1:0:0:0:
256,192,239631,1,8,1:0:0:0:
256,192,239707,1,0,1:0:0:0:
256,192,239783,1,8,1:0:0:0:
256,192,239859,1,0,1:0:0:0:
256,192,239935,1,0,1:0:0:0:
256,192,240012,1,12,1:0:0:0:
256,192,240316,1,0,1:0:0:0:
256,192,240392,1,0,1:0:0:0:
256,192,240468,1,8,1:0:0:0:
256,192,240544,1,8,1:0:0:0:
256,192,240621,1,0,1:0:0:0:
256,192,240773,1,8,1:0:0:0:
256,192,240849,1,8,1:0:0:0:
256,192,240925,1,0,1:0:0:0:
256,192,241001,1,0,1:0:0:0:
256,192,241077,1,8,1:0:0:0:
256,192,241154,1,0,1:0:0:0:
256,192,241230,1,12,1:0:0:0:
256,192,241534,1,0,1:0:0:0:
256,192,241610,1,0,1:0:0:0:
256,192,241687,1,0,1:0:0:0:
256,192,241763,1,0,1:0:0:0:
256,192,241839,1,12,1:0:0:0:
256,192,242067,1,0,1:0:0:0:
256,192,242143,1,8,1:0:0:0:
256,192,242296,1,0,1:0:0:0:
256,192,242448,1,12,1:0:0:0:
256,192,242600,1,8,1:0:0:0:
256,192,242676,1,0,1:0:0:0:
256,192,242905,1,8,1:0:0:0:
256,192,243057,1,8,1:0:0:0:
256,192,243133,1,0,1:0:0:0:
256,192,243362,1,8,1:0:0:0:
256,192,243438,1,0,1:0:0:0:
256,192,243514,1,8,1:0:0:0:
256,192,243590,1,0,1:0:0:0:
256,192,243666,1,8,1:0:0:0:
256,192,243819,1,8,1:0:0:0:
256,192,243971,1,0,1:0:0:0:
256,192,244123,1,8,1:0:0:0:
256,192,244199,1,8,1:0:0:0:
256,192,244275,1,0,1:0:0:0:
256,192,244428,1,0,1:0:0:0:
256,192,244504,1,0,1:0:0:0:
256,192,244580,1,8,1:0:0:0:
256,192,244656,1,8,1:0:0:0:
256,192,244732,1,0,1:0:0:0:
256,192,244808,1,0,1:0:0:0:
256,192,244885,1,8,1:0:0:0:
256,192,245037,1,0,1:0:0:0:
256,192,245189,1,8,1:0:0:0:
256,192,245265,1,8,1:0:0:0:
256,192,245341,1,0,1:0:0:0:
256,192,245418,1,0,1:0:0:0:
256,192,245494,1,8,1:0:0:0:
256,192,245646,1,8,1:0:0:0:
256,192,245722,1,8,1:0:0:0:
256,192,245798,1,0,1:0:0:0:
256,192,245874,1,0,1:0:0:0:
256,192,245951,1,8,1:0:0:0:
256,192,246027,1,0,1:0:0:0:
256,192,246103,1,8,1:0:0:0:
256,192,246255,1,8,1:0:0:0:
256,192,246407,1,0,1:0:0:0:
256,192,246560,1,8,1:0:0:0:
256,192,246636,1,8,1:0:0:0:
256,192,246712,1,0,1:0:0:0:
256,192,246864,1,8,1:0:0:0:
256,192,246940,1,8,1:0:0:0:
256,192,247017,1,0,1:0:0:0:
256,192,247093,1,8,1:0:0:0:
256,192,247169,1,0,1:0:0:0:
256,192,247245,1,0,1:0:0:0:
256,192,247321,1,8,1:0:0:0:
256,192,247473,1,8,1:0:0:0:
256,192,247626,1,0,1:0:0:0:
256,192,247778,1,0,1:0:0:0:
256,192,247854,1,0,1:0:0:0:
256,192,247930,1,8,1:0:0:0:
256,192,248006,1,0,1:0:0:0:
256,192,248083,1,8,1:0:0:0:
256,192,248159,1,8,1:0:0:0:
256,192,248235,1,0,1:0:0:0:
256,192,248311,1,8,1:0:0:0:
256,192,248387,1,0,1:0:0:0:
256,192,248463,1,0,1:0:0:0:
256,192,248539,1,8,1:0:0:0:
256,192,248692,1,0,1:0:0:0:
256,192,248844,1,8,1:0:0:0:
256,192,248996,1,0,1:0:0:0:
256,192,249072,1,0,1:0:0:0:
256,192,249149,1,8,1:0:0:0:
256,192,249301,1,8,1:0:0:0:
256,192,249377,1,8,1:0:0:0:
256,192,249453,1,0,1:0:0:0:
256,192,249529,1,8,1:0:0:0:
256,192,249605,1,0,1:0:0:0:
256,192,249682,1,0,1:0:0:0:
256,192,249758,1,8,1:0:0:0:
256,192,249910,1,8,1:0:0:0:
256,192,250062,1,0,1:0:0:0:
256,192,250138,1,0,1:0:0:0:
256,192,250215,1,8,1:0:0:0:
256,192,250291,1,8,1:0:0:0:
256,192,250367,1,0,1:0:0:0:
256,192,250519,1,8,1:0:0:0:
256,192,250595,1,8,1:0:0:0:
256,192,250671,1,0,1:0:0:0:
256,192,250748,1,0,1:0:0:0:
256,192,250824,1,8,1:0:0:0:
256,192,250900,1,0,1:0:0:0:
256,192,250976,1,8,1:0:0:0:
256,192,251128,1,0,1:0:0:0:
256,192,251281,1,8,1:0:0:0:
256,192,251433,1,0,1:0:0:0:
256,192,251509,1,0,1:0:0:0:
256,192,251585,1,8,1:0:0:0:
256,192,251737,1,8,1:0:0:0:
256,192,251814,1,0,1:0:0:0:
256,192,251890,1,8,1:0:0:0:
256,192,251966,1,8,1:0:0:0:
256,192,252042,1,0,1:0:0:0:
256,192,252118,1,0,1:0:0:0:
256,192,252194,1,8,1:0:0:0:
256,192,252347,1,8,1:0:0:0:
256,192,252499,1,0,1:0:0:0:
256,192,252651,1,8,1:0:0:0:
256,192,252803,1,8,1:0:0:0:
256,192,252880,1,8,1:0:0:0:
256,192,252956,1,0,1:0:0:0:
256,192,253032,1,8,1:0:0:0:
256,192,253108,1,0,1:0:0:0:
256,192,253184,1,0,1:0:0:0:
256,192,253260,1,8,1:0:0:0:
256,192,253336,1,8,1:0:0:0:
256,192,253413,1,4,1:0:0:0:
256,192,253717,1,8,1:0:0:0:
256,192,253793,1,8,1:0:0:0:
256,192,253869,1,8,1:0:0:0:
256,192,253946,1,8,1:0:0:0:
256,192,254022,1,0,1:0:0:0:
256,192,254174,1,8,1:0:0:0:
256,192,254250,1,0,1:0:0:0:
256,192,254326,1,8,1:0:0:0:
256,192,254402,1,8,1:0:0:0:
256,192,254479,1,0,1:0:0:0:
256,192,254555,1,0,1:0:0:0:
256,192,254631,1,8,1:0:0:0:
256,192,254783,1,0,1:0:0:0:
256,192,254935,1,8,1:0:0:0:
256,192,255012,1,8,1:0:0:0:
256,192,255088,1,0,1:0:0:0:
256,192,255164,1,0,1:0:0:0:
256,192,255240,1,8,1:0:0:0:
256,192,255392,1,8,1:0:0:0:
256,192,255468,1,8,1:0:0:0:
256,192,255544,1,0,1:0:0:0:
256,192,255621,1,0,1:0:0:0:
256,192,255697,1,8,1:0:0:0:
256,192,255773,1,0,1:0:0:0:
256,192,255849,1,8,1:0:0:0:
256,192,256001,1,8,1:0:0:0:
256,192,256154,1,0,1:0:0:0:
256,192,256230,1,0,1:0:0:0:
256,192,256306,1,8,1:0:0:0:
256,192,256382,1,8,1:0:0:0:
256,192,256458,1,0,1:0:0:0:
256,192,256610,1,0,1:0:0:0:
256,192,256687,1,0,1:0:0:0:
256,192,256763,1,8,1:0:0:0:
256,192,256839,1,8,1:0:0:0:
256,192,256915,1,0,1:0:0:0:
256,192,256991,1,0,1:0:0:0:
256,192,257067,1,8,1:0:0:0:
256,192,257220,1,8,1:0:0:0:
256,192,257372,1,0,1:0:0:0:
256,192,257448,1,8,1:0:0:0:
256,192,257524,1,0,1:0:0:0:
256,192,257676,1,8,1:0:0:0:
256,192,257829,1,8,1:0:0:0:
256,192,257905,1,8,1:0:0:0:
256,192,257981,1,0,1:0:0:0:
256,192,258133,1,0,1:0:0:0:
256,192,258209,1,0,1:0:0:0:
256,192,258286,1,12,1:0:0:0:
256,192,258590,1,8,1:0:0:0:
256,192,258666,1,0,1:0:0:0:
256,192,258742,1,8,1:0:0:0:
256,192,258819,1,8,1:0:0:0:
256,192,258895,1,0,1:0:0:0:
256,192,259047,1,0,1:0:0:0:
256,192,259123,1,0,1:0:0:0:
256,192,259199,1,8,1:0:0:0:
256,192,259275,1,8,1:0:0:0:
256,192,259352,1,0,1:0:0:0:
256,192,259428,1,0,1:0:0:0:
256,192,259504,1,12,1:0:0:0:
256,192,259808,1,8,1:0:0:0:
256,192,259885,1,8,1:0:0:0:
256,192,259961,1,0,1:0:0:0:
256,192,260037,1,8,1:0:0:0:
256,192,260113,1,8,1:0:0:0:
256,192,260265,1,8,1:0:0:0:
256,192,260341,1,0,1:0:0:0:
256,192,260418,1,8,1:0:0:0:
256,192,260494,1,8,1:0:0:0:
256,192,260570,1,0,1:0:0:0:
256,192,260646,1,0,1:0:0:0:
256,192,260722,1,12,1:0:0:0:
256,192,260874,1,8,1:0:0:0:
256,192,261027,1,0,1:0:0:0:
256,192,261179,1,8,1:0:0:0:
256,192,261255,1,8,1:0:0:0:
256,192,261331,1,0,1:0:0:0:
256,192,261484,1,0,1:0:0:0:
256,192,261636,1,8,1:0:0:0:
256,192,261788,1,0,1:0:0:0:
256,192,261940,1,0,1:0:0:0:
256,192,262017,1,8,1:0:0:0:
256,192,262093,1,0,1:0:0:0:
256,192,262169,1,8,1:0:0:0:
256,192,262245,1,8,1:0:0:0:
256,192,262321,1,0,1:0:0:0:
256,192,262397,1,8,1:0:0:0:
256,192,262473,1,0,1:0:0:0:
256,192,262550,1,8,1:0:0:0:
256,192,262626,1,8,1:0:0:0:
256,192,262702,1,0,1:0:0:0:
256,192,262778,1,0,1:0:0:0:
256,192,262854,1,8,1:0:0:0:
256,192,262930,1,8,1:0:0:0:
256,192,263006,1,0,1:0:0:0:
256,192,263083,1,8,1:0:0:0:
256,192,263159,1,0,1:0:0:0:
256,192,263463,1,8,1:0:0:0:
256,192,263539,1,8,1:0:0:0:
256,192,263616,1,0,1:0:0:0:
256,192,263692,1,0,1:0:0:0:
256,192,263768,1,8,1:0:0:0:
256,192,263819,1,8,1:0:0:0:
256,192,263869,1,8,1:0:0:0:
256,192,263920,1,0,1:0:0:0:
256,192,263996,1,0,1:0:0:0:
271,199,264072,1,8,1:0:0:0:
271,199,264174,1,8,1:0:0:0:
271,199,264275,1,8,1:0:0:0:
271,199,264377,1,0,1:0:0:0:
256,192,264682,1,0,1:0:0:0:
256,192,264758,1,0,1:0:0:0:
256,192,264834,1,8,1:0:0:0:
256,192,264986,1,0,1:0:0:0:
256,192,265088,1,0,1:0:0:0:
256,192,265189,1,8,1:0:0:0:
256,192,265291,1,0,1:0:0:0:
256,192,265392,1,8,1:0:0:0:
256,192,265494,1,8,1:0:0:0:
256,192,265595,1,0,1:0:0:0:
256,192,265900,1,0,1:0:0:0:
256,192,266052,1,8,1:0:0:0:
256,192,266357,1,0,1:0:0:0:
256,192,266509,1,8,1:0:0:0:
256,192,266585,1,8,1:0:0:0:
256,192,266661,1,8,1:0:0:0:
256,192,266737,1,8,1:0:0:0:
256,192,266814,1,0,1:0:0:0:
256,192,267118,1,8,1:0:0:0:
256,192,267270,1,0,1:0:0:0:
256,192,267423,1,8,1:0:0:0:
256,192,267524,1,0,1:0:0:0:
256,192,267626,1,0,1:0:0:0:
256,192,267727,1,8,1:0:0:0:
256,192,267880,1,8,1:0:0:0:
256,192,267956,1,8,1:0:0:0:
256,192,268032,1,4,1:0:0:0:
256,192,268336,1,0,1:0:0:0:
256,192,268489,1,0,1:0:0:0:
256,192,268565,1,0,1:0:0:0:
256,192,268641,1,8,1:0:0:0:
256,192,268793,1,8,1:0:0:0:
256,192,268869,1,8,1:0:0:0:
256,192,268946,1,0,1:0:0:0:
256,192,269022,1,8,1:0:0:0:
256,192,269098,1,0,1:0:0:0:
256,192,269174,1,0,1:0:0:0:
256,192,269250,1,8,1:0:0:0:
256,192,269402,1,0,1:0:0:0:
256,192,269555,1,8,1:0:0:0:
256,192,269631,1,8,1:0:0:0:
256,192,269707,1,0,1:0:0:0:
256,192,269783,1,0,1:0:0:0:
256,192,269859,1,8,1:0:0:0:
256,192,270012,1,0,1:0:0:0:
256,192,270088,1,8,1:0:0:0:
256,192,270164,1,0,1:0:0:0:
256,192,270240,1,0,1:0:0:0:
256,192,270316,1,8,1:0:0:0:
256,192,270392,1,0,1:0:0:0:
256,192,270468,1,8,1:0:0:0:
256,192,270621,1,8,1:0:0:0:
256,192,270773,1,0,1:0:0:0:
256,192,270925,1,8,1:0:0:0:
256,192,271001,1,8,1:0:0:0:
256,192,271077,1,0,1:0:0:0:
256,192,271230,1,0,1:0:0:0:
256,192,271306,1,0,1:0:0:0:
256,192,271382,1,8,1:0:0:0:
256,192,271458,1,0,1:0:0:0:
256,192,271534,1,8,1:0:0:0:
256,192,271610,1,8,1:0:0:0:
256,192,271687,1,0,1:0:0:0:
256,192,271839,1,8,1:0:0:0:
256,192,271991,1,0,1:0:0:0:
256,192,272143,1,0,1:0:0:0:
256,192,272220,1,0,1:0:0:0:
256,192,272296,1,8,1:0:0:0:
256,192,272372,1,0,1:0:0:0:
256,192,272448,1,8,1:0:0:0:
256,192,272524,1,8,1:0:0:0:
256,192,272600,1,0,1:0:0:0:
256,192,272676,1,8,1:0:0:0:
256,192,272753,1,0,1:0:0:0:
256,192,272829,1,0,1:0:0:0:
256,192,272905,1,12,1:0:0:0:
256,192,273209,1,8,1:0:0:0:
256,192,273362,1,0,1:0:0:0:
256,192,273438,1,0,1:0:0:0:
256,192,273514,1,8,1:0:0:0:
256,192,273666,1,0,1:0:0:0:
256,192,273742,1,0,1:0:0:0:
256,192,273819,1,8,1:0:0:0:
256,192,273895,1,8,1:0:0:0:
256,192,273971,1,0,1:0:0:0:
256,192,274047,1,0,1:0:0:0:
256,192,274123,1,8,1:0:0:0:
256,192,274275,1,8,1:0:0:0:
256,192,274428,1,0,1:0:0:0:
256,192,274504,1,0,1:0:0:0:
256,192,274580,1,8,1:0:0:0:
256,192,274656,1,8,1:0:0:0:
256,192,274732,1,0,1:0:0:0:
256,192,274885,1,0,1:0:0:0:
256,192,274961,1,8,1:0:0:0:
256,192,275037,1,0,1:0:0:0:
256,192,275113,1,0,1:0:0:0:
256,192,275189,1,8,1:0:0:0:
256,192,275265,1,0,1:0:0:0:
256,192,275341,1,8,1:0:0:0:
256,192,275494,1,0,1:0:0:0:
256,192,275646,1,8,1:0:0:0:
256,192,275798,1,0,1:0:0:0:
256,192,275874,1,0,1:0:0:0:
256,192,275951,1,8,1:0:0:0:
256,192,276103,1,0,1:0:0:0:
256,192,276179,1,8,1:0:0:0:
256,192,276255,1,0,1:0:0:0:
256,192,276331,1,0,1:0:0:0:
256,192,276407,1,8,1:0:0:0:
256,192,276484,1,8,1:0:0:0:
256,192,276560,1,0,1:0:0:0:
256,192,276712,1,0,1:0:0:0:
256,192,276864,1,8,1:0:0:0:
256,192,277017,1,8,1:0:0:0:
256,192,277093,1,8,1:0:0:0:
256,192,277169,1,0,1:0:0:0:
256,192,277321,1,8,1:0:0:0:
256,192,277397,1,0,1:0:0:0:
256,192,277473,1,8,1:0:0:0:
256,192,277626,1,0,1:0:0:0:
256,192,277702,1,0,1:0:0:0:
256,192,277778,1,12,1:0:0:0:
256,192,278083,1,8,1:0:0:0:
256,192,278159,1,0,1:0:0:0:
256,192,278235,1,8,1:0:0:0:
256,192,278311,1,8,1:0:0:0:
256,192,278387,1,0,1:0:0:0:
256,192,278539,1,0,1:0:0:0:
256,192,278616,1,0,1:0:0:0:
256,192,278692,1,8,1:0:0:0:
256,192,278768,1,8,1:0:0:0:
256,192,278844,1,0,1:0:0:0:
256,192,278920,1,0,1:0:0:0:
256,192,278996,1,12,1:0:0:0:
256,192,279301,1,8,1:0:0:0:
256,192,279377,1,8,1:0:0:0:
256,192,279453,1,0,1:0:0:0:
256,192,279529,1,8,1:0:0:0:
256,192,279605,1,8,1:0:0:0:
256,192,279758,1,8,1:0:0:0:
256,192,279834,1,0,1:0:0:0:
256,192,279910,1,8,1:0:0:0:
256,192,279986,1,8,1:0:0:0:
256,192,280062,1,0,1:0:0:0:
256,192,280138,1,0,1:0:0:0:
256,192,280215,1,12,1:0:0:0:
256,192,280367,1,8,1:0:0:0:
256,192,280443,1,8,1:0:0:0:
256,192,280519,1,0,1:0:0:0:
256,192,280595,1,8,1:0:0:0:
256,192,280671,1,0,1:0:0:0:
256,192,280748,1,0,1:0:0:0:
256,192,280824,1,8,1:0:0:0:
256,192,280900,1,8,1:0:0:0:
256,192,280976,1,0,1:0:0:0:
256,192,281052,1,0,1:0:0:0:
256,192,281128,1,8,1:0:0:0:
256,192,281204,1,8,1:0:0:0:
256,192,281281,1,0,1:0:0:0:
256,192,281433,1,0,1:0:0:0:
256,192,281509,1,8,1:0:0:0:
256,192,281585,1,0,1:0:0:0:
256,192,281661,1,8,1:0:0:0:
256,192,281737,1,8,1:0:0:0:
256,192,281814,1,0,1:0:0:0:
256,192,281890,1,8,1:0:0:0:
256,192,281966,1,0,1:0:0:0:
256,192,282042,1,8,1:0:0:0:
256,192,282118,1,8,1:0:0:0:
256,192,282194,1,0,1:0:0:0:
256,192,282245,1,0,1:0:0:0:
256,192,282296,1,0,1:0:0:0:
256,192,282347,1,8,1:0:0:0:
256,192,282423,1,0,1:0:0:0:
256,192,282499,1,8,1:0:0:0:
256,192,282550,1,8,1:0:0:0:
256,192,282600,1,8,1:0:0:0:
256,192,282651,1,0,1:0:0:0:
256,192,282956,1,0,1:0:0:0:
256,192,283032,1,0,1:0:0:0:
256,192,283108,1,8,1:0:0:0:
256,192,283184,1,0,1:0:0:0:
256,192,283260,1,8,1:0:0:0:
256,192,283336,1,8,1:0:0:0:
256,192,283413,1,0,1:0:0:0:
256,192,283565,1,8,1:0:0:0:
256,192,283717,1,0,1:0:0:0:
256,192,283869,1,8,1:0:0:0:
256,192,283946,1,8,1:0:0:0:
256,192,284022,1,0,1:0:0:0:
256,192,284098,1,8,1:0:0:0:
256,192,284174,1,0,1:0:0:0:
256,192,284250,1,0,1:0:0:0:
256,192,284326,1,8,1:0:0:0:
256,192,284402,1,8,1:0:0:0:
256,192,284479,1,0,1:0:0:0:
256,192,284631,1,8,1:0:0:0:
256,192,284783,1,8,1:0:0:0:
256,192,284859,1,0,1:0:0:0:
256,192,284935,1,8,1:0:0:0:
256,192,285012,1,8,1:0:0:0:
256,192,285088,1,0,1:0:0:0:
256,192,285240,1,0,1:0:0:0:
256,192,285392,1,8,1:0:0:0:
256,192,285544,1,0,1:0:0:0:
256,192,285621,1,8,1:0:0:0:
256,192,285697,1,0,1:0:0:0:
256,192,285849,1,8,1:0:0:0:
256,192,286001,1,0,1:0:0:0:
256,192,286077,1,0,1:0:0:0:
256,192,286154,1,8,1:0:0:0:
256,192,286306,1,0,1:0:0:0:
256,192,286382,1,8,1:0:0:0:
256,192,286458,1,0,1:0:0:0:
256,192,286534,1,0,1:0:0:0:
256,192,286610,1,8,1:0:0:0:
256,192,286687,1,0,1:0:0:0:
256,192,286763,1,8,1:0:0:0:
256,192,286839,1,8,1:0:0:0:
256,192,286915,1,0,1:0:0:0:
256,192,287067,1,0,1:0:0:0:
256,192,287220,1,8,1:0:0:0:
256,192,287296,1,0,1:0:0:0:
256,192,287372,1,8,1:0:0:0:
256,192,287524,1,0,1:0:0:0:
256,192,287676,1,8,1:0:0:0:
256,192,287829,1,0,1:0:0:0:
256,192,287905,1,0,1:0:0:0:
256,192,287981,1,8,1:0:0:0:
256,192,288057,1,8,1:0:0:0:
256,192,288133,1,0,1:0:0:0:
256,192,288209,1,8,1:0:0:0:
256,192,288286,1,0,1:0:0:0:
256,192,288438,1,8,1:0:0:0:
256,192,288590,1,0,1:0:0:0:
256,192,288742,1,8,1:0:0:0:
256,192,288819,1,8,1:0:0:0:
256,192,288895,1,0,1:0:0:0:
256,192,288971,1,8,1:0:0:0:
256,192,289047,1,0,1:0:0:0:
256,192,289123,1,0,1:0:0:0:
256,192,289199,1,8,1:0:0:0:
256,192,289275,1,0,1:0:0:0:
256,192,289352,1,8,1:0:0:0:
256,192,289504,1,0,1:0:0:0:
256,192,289656,1,8,1:0:0:0:
256,192,289732,1,8,1:0:0:0:
256,192,289808,1,0,1:0:0:0:
256,192,289885,1,8,1:0:0:0:
256,192,289961,1,8,1:0:0:0:
256,192,290113,1,0,1:0:0:0:
256,192,290265,1,8,1:0:0:0:
256,192,290418,1,0,1:0:0:0:
256,192,290494,1,8,1:0:0:0:
256,192,290570,1,0,1:0:0:0:
256,192,290722,1,8,1:0:0:0:
256,192,290874,1,0,1:0:0:0:
256,192,291027,1,8,1:0:0:0:
256,192,291103,1,8,1:0:0:0:
256,192,291179,1,0,1:0:0:0:
256,192,291255,1,8,1:0:0:0:
256,192,291331,1,0,1:0:0:0:
256,192,291407,1,0,1:0:0:0:
256,192,291484,1,8,1:0:0:0:
256,192,291636,1,0,1:0:0:0:
256,192,291712,1,8,1:0:0:0:
256,192,291788,1,0,1:0:0:0:
256,192,291940,1,0,1:0:0:0:
288,182,292017,1,8,1:0:0:0:
256,192,292093,1,8,1:0:0:0:
256,192,292245,1,0,1:0:0:0:
256,192,292321,1,0,1:0:0:0:
256,192,292397,1,12,1:0:0:0:
256,192,292702,1,8,1:0:0:0:
256,192,292778,1,8,1:0:0:0:
256,192,292854,1,0,1:0:0:0:
256,192,292930,1,8,1:0:0:0:
256,192,293006,1,0,1:0:0:0:
256,192,293083,1,0,1:0:0:0:
256,192,293159,1,8,1:0:0:0:
256,192,293311,1,8,1:0:0:0:
256,192,293463,1,0,1:0:0:0:
256,192,293616,1,8,1:0:0:0:
256,192,293692,1,8,1:0:0:0:
256,192,293768,1,0,1:0:0:0:
256,192,293844,1,8,1:0:0:0:
256,192,293920,1,0,1:0:0:0:
256,192,293996,1,0,1:0:0:0:
256,192,294072,1,8,1:0:0:0:
256,192,294149,1,8,1:0:0:0:
256,192,294225,1,0,1:0:0:0:
256,192,294377,1,8,1:0:0:0:
256,192,294529,1,8,1:0:0:0:
256,192,294605,1,0,1:0:0:0:
256,192,294682,1,8,1:0:0:0:
256,192,294758,1,8,1:0:0:0:
256,192,294834,1,0,1:0:0:0:
256,192,294986,1,0,1:0:0:0:
256,192,295138,1,8,1:0:0:0:
256,192,295291,1,0,1:0:0:0:
256,192,295367,1,8,1:0:0:0:
256,192,295443,1,0,1:0:0:0:
256,192,295595,1,8,1:0:0:0:
256,192,295748,1,0,1:0:0:0:
256,192,295824,1,0,1:0:0:0:
256,192,295900,1,8,1:0:0:0:
256,192,296052,1,8,1:0:0:0:
256,192,296128,1,0,1:0:0:0:
256,192,296204,1,8,1:0:0:0:
256,192,296281,1,8,1:0:0:0:
256,192,296357,1,0,1:0:0:0:
256,192,296433,1,0,1:0:0:0:
256,192,296509,1,8,1:0:0:0:
256,192,296585,1,8,1:0:0:0:
256,192,296661,1,0,1:0:0:0:
256,192,296814,1,8,1:0:0:0:
256,192,296966,1,0,1:0:0:0:
256,192,297042,1,8,1:0:0:0:
256,192,297118,1,0,1:0:0:0:
256,192,297194,1,0,1:0:0:0:
256,192,297270,1,12,1:0:0:0:
256,192,297575,1,0,1:0:0:0:
256,192,297651,1,0,1:0:0:0:
256,192,297727,1,8,1:0:0:0:
256,192,297880,1,0,1:0:0:0:
256,192,298032,1,8,1:0:0:0:
256,192,298108,1,8,1:0:0:0:
256,192,298184,1,0,1:0:0:0:
256,192,298260,1,8,1:0:0:0:
256,192,298336,1,0,1:0:0:0:
256,192,298413,1,0,1:0:0:0:
256,192,298489,1,12,1:0:0:0:
256,192,298641,1,0,1:0:0:0:
256,192,298793,1,8,1:0:0:0:
256,192,298869,1,0,1:0:0:0:
256,192,298946,1,8,1:0:0:0:
256,192,299022,1,8,1:0:0:0:
256,192,299098,1,0,1:0:0:0:
256,192,299174,1,0,1:0:0:0:
256,192,299250,1,8,1:0:0:0:
256,192,299326,1,8,1:0:0:0:
256,192,299402,1,0,1:0:0:0:
256,192,299555,1,0,1:0:0:0:
256,192,299707,1,8,1:0:0:0:
256,192,299783,1,8,1:0:0:0:
256,192,299859,1,0,1:0:0:0:
256,192,299935,1,0,1:0:0:0:
256,192,300012,1,8,1:0:0:0:
256,192,300088,1,0,1:0:0:0:
256,192,300164,1,8,1:0:0:0:
256,192,300240,1,0,1:0:0:0:
256,192,300316,1,8,1:0:0:0:
256,192,300392,1,8,1:0:0:0:
256,192,300468,1,0,1:0:0:0:
256,192,300544,1,0,1:0:0:0:
256,192,300621,1,8,1:0:0:0:
256,192,300697,1,8,1:0:0:0:
256,192,300773,1,0,1:0:0:0:
256,192,300849,1,0,1:0:0:0:
256,192,300925,1,8,1:0:0:0:
256,192,301001,1,8,1:0:0:0:
256,192,301077,1,8,1:0:0:0:
256,192,301154,1,8,1:0:0:0:
256,192,301230,1,0,1:0:0:0:
256,192,301306,1,0,1:0:0:0:
256,192,301382,1,0,1:0:0:0:
256,192,301458,1,0,1:0:0:0:
256,192,301534,1,8,1:0:0:0:
256,192,301610,1,0,1:0:0:0:
256,192,301687,1,8,1:0:0:0:
256,192,301763,1,8,1:0:0:0:
256,192,301839,12,0,301991,1:0:0:0:
256,192,302143,5,12,1:0:0:0:
256,192,302448,5,0,1:0:0:0:
256,192,302753,1,8,1:0:0:0:
256,192,302905,1,0,1:0:0:0:
256,192,303057,1,8,1:0:0:0:
256,192,303159,1,8,1:0:0:0:
256,192,303260,1,8,1:0:0:0:
256,192,303362,1,0,1:0:0:0:
256,192,303666,1,8,1:0:0:0:
256,192,303819,1,0,1:0:0:0:
256,192,304123,1,8,1:0:0:0:
256,192,304275,1,0,1:0:0:0:
256,192,304352,1,0,1:0:0:0:
256,192,304428,1,0,1:0:0:0:
256,192,304504,1,0,1:0:0:0:
256,192,304580,1,8,1:0:0:0:
256,192,304885,1,0,1:0:0:0:
256,192,305037,1,8,1:0:0:0:
256,192,305341,1,0,1:0:0:0:
256,192,305646,12,0,305722,1:0:0:0:
256,192,305798,5,0,1:0:0:0:
256,192,306103,1,8,1:0:0:0:
256,192,306255,1,0,1:0:0:0:
256,192,306560,1,8,1:0:0:0:
256,192,306712,1,8,1:0:0:0:
256,192,306763,1,8,1:0:0:0:
256,192,306814,1,8,1:0:0:0:
256,192,306864,1,0,1:0:0:0:
256,192,307017,1,8,1:0:0:0:
256,192,307321,1,0,1:0:0:0:
256,192,307473,1,0,1:0:0:0:
256,192,307626,1,8,1:0:0:0:
256,192,307702,1,8,1:0:0:0:
256,192,307778,1,8,1:0:0:0:
256,192,307854,1,8,1:0:0:0:
256,192,307930,1,0,1:0:0:0:
256,192,308032,1,0,1:0:0:0:
256,192,308133,1,0,1:0:0:0:
256,192,308235,1,8,1:0:0:0:
256,192,308539,1,0,1:0:0:0:
256,192,308590,1,0,1:0:0:0:
256,192,308641,1,0,1:0:0:0:
256,192,308692,1,8,1:0:0:0:
231,94,308996,5,0,1:0:0:0:
231,94,309047,1,0,1:0:0:0:
231,94,309098,1,0,1:0:0:0:
256,192,309149,1,8,1:0:0:0:
247,142,309301,1,8,1:0:0:0:
247,142,309352,1,8,1:0:0:0:
247,142,309402,1,8,1:0:0:0:
272,192,309453,1,0,1:0:0:0:
256,192,309758,1,0,1:0:0:0:
256,192,309910,1,8,1:0:0:0:
256,192,310215,8,8,310291,1:0:0:0:
256,192,310519,5,0,1:0:0:0:
256,192,310671,1,8,1:0:0:0:
256,192,310976,1,0,1:0:0:0:
288,224,311052,1,0,1:0:0:0:
256,192,311128,1,8,1:0:0:0:
256,192,311204,1,8,1:0:0:0:
256,192,311281,1,0,1:0:0:0:
256,192,311331,1,0,1:0:0:0:
256,192,311382,1,0,1:0:0:0:
256,192,311433,1,8,1:0:0:0:
256,192,311509,1,8,1:0:0:0:
256,192,311585,1,0,1:0:0:0:
256,192,311737,1,0,1:0:0:0:
256,192,311890,1,8,1:0:0:0:
256,192,312194,1,0,1:0:0:0:
256,192,312499,1,8,1:0:0:0:
256,192,312651,1,0,1:0:0:0:
256,192,312803,1,8,1:0:0:0:
256,192,312956,1,8,1:0:0:0:
256,192,313108,1,0,1:0:0:0:
256,192,313413,1,0,1:0:0:0:
256,192,313463,1,0,1:0:0:0:
256,192,313514,1,0,1:0:0:0:
256,192,313565,1,8,1:0:0:0:
256,192,313869,1,0,1:0:0:0:
256,192,313920,1,0,1:0:0:0:
256,192,313971,1,0,1:0:0:0:
256,192,314022,1,8,1:0:0:0:
256,192,314098,1,8,1:0:0:0:
256,192,314174,1,8,1:0:0:0:
256,192,314250,1,8,1:0:0:0:
256,192,314326,1,0,1:0:0:0:
256,192,314631,1,0,1:0:0:0:
256,192,314783,1,8,1:0:0:0:
256,192,315088,1,0,1:0:0:0:
256,192,315240,1,8,1:0:0:0:
256,192,315291,1,8,1:0:0:0:
256,192,315341,1,8,1:0:0:0:
256,192,315392,1,0,1:0:0:0:
256,192,315544,12,0,315621,1:0:0:0:
256,192,315849,5,8,1:0:0:0:
256,192,315925,1,0,1:0:0:0:
256,192,316001,1,8,1:0:0:0:
256,192,316077,1,8,1:0:0:0:
224,208,316154,1,0,1:0:0:0:
224,208,316204,1,0,1:0:0:0:
224,208,316255,1,0,1:0:0:0:
256,192,316306,1,8,1:0:0:0:
256,192,316382,1,8,1:0:0:0:
256,192,316458,1,0,1:0:0:0:
256,192,316610,1,0,1:0:0:0:
256,192,316763,1,8,1:0:0:0:
256,192,317067,1,0,1:0:0:0:
256,192,317372,1,8,1:0:0:0:
256,192,317524,1,0,1:0:0:0:
256,192,317676,1,8,1:0:0:0:
256,192,317829,1,8,1:0:0:0:
256,192,317905,1,8,1:0:0:0:
256,192,317981,1,0,1:0:0:0:
256,192,318286,1,8,1:0:0:0:
256,192,318438,1,0,1:0:0:0:
256,192,318742,1,8,1:0:0:0:
256,192,318895,1,8,1:0:0:0:
256,192,318946,1,8,1:0:0:0:
256,192,318996,1,8,1:0:0:0:
256,192,319047,1,0,1:0:0:0:
256,192,319123,1,0,1:0:0:0:
256,192,319199,1,8,1:0:0:0:
256,192,319504,1,8,1:0:0:0:
256,192,319555,1,8,1:0:0:0:
256,192,319605,1,8,1:0:0:0:
256,192,319656,1,0,1:0:0:0:
256,192,319808,1,8,1:0:0:0:
256,192,319961,1,0,1:0:0:0:
256,192,320113,1,0,1:0:0:0:
256,192,320164,1,0,1:0:0:0:
256,192,320215,1,0,1:0:0:0:
256,192,320265,1,8,1:0:0:0:
256,192,320341,1,8,1:0:0:0:
256,192,320418,1,0,1:0:0:0:
256,192,320570,1,8,1:0:0:0:
256,192,320874,1,0,1:0:0:0:
256,192,320951,1,0,1:0:0:0:
256,192,321027,1,8,1:0:0:0:
256,192,321077,1,8,1:0:0:0:
256,192,321128,1,8,1:0:0:0:
256,192,321179,1,0,1:0:0:0:
256,192,321255,1,0,1:0:0:0:
256,192,321331,1,8,1:0:0:0:
256,192,321382,1,8,1:0:0:0:
256,192,321433,1,8,1:0:0:0:
256,192,321484,1,0,1:0:0:0:
256,192,321636,1,8,1:0:0:0:
256,192,321940,1,0,1:0:0:0:
256,192,322245,1,8,1:0:0:0:
256,192,322397,1,0,1:0:0:0:
256,192,322550,1,0,1:0:0:0:
256,192,322651,1,0,1:0:0:0:
256,192,322753,1,0,1:0:0:0:
256,192,322854,1,8,1:0:0:0:
256,192,323159,1,0,1:0:0:0:
256,192,323616,1,8,1:0:0:0:
256,192,323768,1,8,1:0:0:0:
256,192,323819,1,8,1:0:0:0:
256,192,323869,1,8,1:0:0:0:
256,192,323920,1,0,1:0:0:0:
256,192,323996,1,0,1:0:0:0:
256,192,324072,1,8,1:0:0:0:
256,192,324377,1,0,1:0:0:0:
256,192,324834,1,8,1:0:0:0:
256,192,324986,12,0,325138,1:0:0:0:
256,192,325291,5,8,1:0:0:0:
256,192,325595,1,0,1:0:0:0:
256,192,326052,1,8,1:0:0:0:
256,192,326204,1,8,1:0:0:0:
256,192,326255,1,8,1:0:0:0:
256,192,326306,1,8,1:0:0:0:
256,192,326357,1,0,1:0:0:0:
256,192,326509,1,8,1:0:0:0:
256,192,326814,1,0,1:0:0:0:
256,192,327118,1,8,1:0:0:0:
256,192,327194,1,8,1:0:0:0:
256,192,327270,1,8,1:0:0:0:
256,192,327347,1,8,1:0:0:0:
256,192,327423,1,0,1:0:0:0:
256,192,327524,1,0,1:0:0:0:
256,192,327626,1,0,1:0:0:0:
256,192,327727,1,8,1:0:0:0:
256,192,327880,1,0,1:0:0:0:
292,226,328032,1,0,1:0:0:0:
279,214,328083,1,0,1:0:0:0:
279,214,328133,1,0,1:0:0:0:
272,192,328184,1,8,1:0:0:0:
272,192,328489,1,8,1:0:0:0:
272,192,328539,1,8,1:0:0:0:
272,192,328590,1,8,1:0:0:0:
272,192,328641,1,0,1:0:0:0:
272,192,328793,1,8,1:0:0:0:
272,192,328946,1,0,1:0:0:0:
272,192,329250,1,8,1:0:0:0:
256,192,329707,12,0,329859,1:0:0:0:
288,208,330012,5,0,1:0:0:0:
288,208,330164,1,8,1:0:0:0:
288,208,330468,1,0,1:0:0:0:
288,208,330544,1,0,1:0:0:0:
288,208,330621,1,8,1:0:0:0:
288,208,330697,1,0,1:0:0:0:
288,208,330773,1,0,1:0:0:0:
288,208,330925,1,8,1:0:0:0:
288,208,331077,1,8,1:0:0:0:
288,208,331230,1,8,1:0:0:0:
288,208,331382,1,0,1:0:0:0:
288,208,331687,1,0,1:0:0:0:
288,208,331991,1,8,1:0:0:0:
288,208,332143,1,0,1:0:0:0:
288,208,332448,1,8,1:0:0:0:
288,208,332600,1,0,1:0:0:0:
288,208,332905,1,8,1:0:0:0:
288,208,333209,1,0,1:0:0:0:
288,208,333362,1,8,1:0:0:0:
288,208,333666,1,8,1:0:0:0:
288,208,333819,1,0,1:0:0:0:
288,208,334123,1,8,1:0:0:0:
288,208,334580,1,8,1:0:0:0:
288,208,334885,1,8,1:0:0:0:
288,208,335037,1,0,1:0:0:0:
288,208,335341,1,8,1:0:0:0:
288,208,335418,1,8,1:0:0:0:
288,208,335494,1,8,1:0:0:0:
288,208,335570,1,8,1:0:0:0:
288,208,335646,1,0,1:0:0:0:
288,208,335722,1,0,1:0:0:0:
288,208,335798,1,8,1:0:0:0:
288,208,335874,1,8,1:0:0:0:
288,208,335951,1,0,1:0:0:0:
288,208,336103,1,8,1:0:0:0:
288,208,336255,1,0,1:0:0:0:
288,208,336560,1,8,1:0:0:0:
288,208,336864,1,8,1:0:0:0:
288,208,337017,1,0,1:0:0:0:
288,208,337321,1,8,1:0:0:0:
288,208,337473,1,0,1:0:0:0:
288,208,337778,1,8,1:0:0:0:
288,208,338235,1,0,1:0:0:0:
288,208,338539,1,0,1:0:0:0:
288,208,338692,1,8,1:0:0:0:
288,208,338996,1,0,1:0:0:0:
288,208,339453,1,0,1:0:0:0:
288,208,339605,1,8,1:0:0:0:
288,208,339758,1,8,1:0:0:0:
288,208,339910,1,0,1:0:0:0:
288,208,340062,1,8,1:0:0:0:
288,208,340215,1,0,1:0:0:0:
288,208,340519,1,8,1:0:0:0:
288,208,340671,1,0,1:0:0:0:
288,208,340824,1,8,1:0:0:0:
288,208,340900,1,0,1:0:0:0:
288,208,340976,1,8,1:0:0:0:
288,208,341128,1,0,1:0:0:0:
288,208,341433,1,8,1:0:0:0:
288,208,341737,1,8,1:0:0:0:
288,208,341890,1,0,1:0:0:0:
288,208,342194,1,0,1:0:0:0:
288,208,342347,1,8,1:0:0:0:
288,208,342651,1,0,1:0:0:0:
288,208,343108,1,8,1:0:0:0:
288,208,343413,1,0,1:0:0:0:
288,208,343565,1,8,1:0:0:0:
288,208,343869,1,0,1:0:0:0:
288,208,344326,1,0,1:0:0:0:
288,208,344631,1,0,1:0:0:0:
288,208,344783,1,8,1:0:0:0:
288,208,345088,1,0,1:0:0:0:
288,208,345544,1,8,1:0:0:0:
288,208,345697,1,8,1:0:0:0:
288,208,345849,1,8,1:0:0:0:
288,208,346001,1,0,1:0:0:0:
288,208,346306,1,8,1:0:0:0:
288,208,346610,1,8,1:0:0:0:
288,208,346763,1,0,1:0:0:0:
288,208,347067,1,0,1:0:0:0:
288,208,347220,1,8,1:0:0:0:
288,208,347524,1,0,1:0:0:0:
288,208,347981,1,8,1:0:0:0:
288,208,348286,1,0,1:0:0:0:
288,208,348438,1,8,1:0:0:0:
288,208,348742,1,0,1:0:0:0:
288,208,349199,1,8,1:0:0:0:
288,208,349504,1,0,1:0:0:0:
288,208,349656,1,8,1:0:0:0:
288,208,349961,1,0,1:0:0:0:
288,208,350418,1,8,1:0:0:0:
288,208,350570,1,8,1:0:0:0:
288,208,350722,1,8,1:0:0:0:
288,208,350874,1,0,1:0:0:0:
288,208,351179,1,8,1:0:0:0:
288,208,351484,1,8,1:0:0:0:
288,208,351636,1,0,1:0:0:0:
288,208,351940,1,0,1:0:0:0:
288,208,352093,1,8,1:0:0:0:
288,208,352397,1,0,1:0:0:0:
288,208,352854,1,8,1:0:0:0:
288,208,353159,1,8,1:0:0:0:
288,208,353311,1,0,1:0:0:0:
288,208,353616,1,8,1:0:0:0:
288,208,354072,1,0,1:0:0:0:
288,208,354377,1,8,1:0:0:0:
288,208,354529,1,0,1:0:0:0:
288,208,354834,1,8,1:0:0:0:
288,208,355291,1,0,1:0:0:0:
288,208,355443,1,8,1:0:0:0:
288,208,355595,1,8,1:0:0:0:
288,208,355748,1,0,1:0:0:0:
288,208,356052,1,0,1:0:0:0:
288,208,356357,1,8,1:0:0:0:
288,208,356509,1,0,1:0:0:0:
288,208,356814,1,0,1:0:0:0:
288,208,356966,1,8,1:0:0:0:
288,208,357270,1,0,1:0:0:0:
288,208,357727,1,8,1:0:0:0:
288,208,358032,1,0,1:0:0:0:
288,208,358184,1,8,1:0:0:0:
288,208,358489,1,0,1:0:0:0:
288,208,358946,1,0,1:0:0:0:
288,208,359098,1,8,1:0:0:0:
288,208,359250,1,0,1:0:0:0:
288,208,359555,1,8,1:0:0:0:
288,208,359707,1,0,1:0:0:0:
288,208,360012,1,8,1:0:0:0:
288,208,360164,1,0,1:0:0:0:
288,208,360468,1,8,1:0:0:0:
288,208,360621,1,0,1:0:0:0:
288,208,360671,1,0,1:0:0:0:
288,208,360722,1,8,1:0:0:0:
256,192,361636,1,0,1:0:0:0:
256,192,362169,1,0,1:0:0:0:
256,192,362753,1,0,1:0:0:0:
256,192,363438,1,0,1:0:0:0:
256,192,364199,1,8,1:0:0:0:
256,192,364910,1,0,1:0:0:0:
256,192,365646,1,0,1:0:0:0:
256,192,366712,1,8,1:0:0:0:
