osu file format v14

[General]
AudioFilename: audio.mp3
AudioLeadIn: 0
PreviewTime: -1
Countdown: 0
SampleSet: Normal
StackLeniency: 0.7
Mode: 1
LetterboxInBreaks: 0
WidescreenStoryboard: 0

[Editor]
DistanceSpacing: 1
BeatDivisor: 4
GridSize: 32
TimelineZoom: 4.599997

[Metadata]
Title:Lusamine in a Perfect World
TitleUnicode:Lusamine in a Perfect World
Artist:Kurokotei
ArtistUnicode:黒皇帝
Creator:Sayaka-
Version:Imperfect
Source:
Tags:pokemon
BeatmapID:1256958
BeatmapSetID:594246

[Difficulty]
HPDrainRate:6
CircleSize:5
OverallDifficulty:6
ApproachRate:5
SliderMultiplier:1.4
SliderTickRate:1

[Events]
//Background and Video events
0,0,"60681987_p0.jpg",0,75
//Break Periods
2,146505,154851
//Storyboard Layer 0 (Background)
//Storyboard Layer 1 (Fail)
//Storyboard Layer 2 (Pass)
//Storyboard Layer 3 (Foreground)
//Storyboard Sound Samples

[TimingPoints]
112,304.568527918782,4,1,0,70,1,0
29274,-12.5,4,1,0,70,0,0
29426,-100,4,1,0,70,0,0
33005,152.284263959391,4,1,0,70,1,0
33081,158.311345646438,4,1,0,70,1,0
33160,164.835164835165,4,1,0,70,1,0
33242,171.919770773639,4,1,0,70,1,0
33327,179.640718562874,4,1,0,70,1,0
33416,188.087774294671,4,1,0,70,1,0
33510,197.368421052632,4,1,0,70,1,0
33608,209.059233449477,4,1,0,70,1,0
33712,224.719101123595,4,1,0,70,1,0
33824,242.914979757085,4,1,0,70,1,0
33945,270.27027027027,4,1,0,70,1,0
34080,288.461538461538,4,1,0,70,1,0
34224,304.568527918782,4,1,0,70,1,0
53716,-50,4,1,0,70,0,1
63386,-66.6666666666667,4,1,0,70,0,1
73208,-100,4,1,0,70,0,0
92663,-50,4,1,0,70,0,0
93081,-52.6315789473684,4,1,0,70,0,0
93538,-55.5555555555556,4,1,0,70,0,0
93995,-58.8235294117647,4,1,0,70,0,0
94452,-62.5,4,1,0,70,0,0
94756,-66.6666666666667,4,1,0,70,0,0
95213,-71.4285714285714,4,1,0,70,0,0
95670,-76.9230769230769,4,1,0,70,0,0
96127,-83.3333333333333,4,1,0,70,0,0
96432,-85.7142862040816,4,1,0,70,0,0
96660,-88.2352941179066,4,1,0,70,0,0
96888,-90.9090909090909,4,1,0,70,0,0
97041,-93.7500005859375,4,1,0,70,0,0
97269,-96.7741935486993,4,1,0,70,0,0
97498,-100,4,1,0,70,0,0
98716,-90.9090909090909,4,1,0,70,0,0
99934,-83.3333333333333,4,1,0,70,0,0
100543,-76.9230769230769,4,1,0,70,0,0
101152,-71.4285714285714,4,1,0,70,0,0
102409,-25,4,1,0,70,0,0
102637,-57.1428571428571,4,1,0,70,0,0
103627,-28.5714285714286,4,1,0,70,0,0
104541,-50,4,1,0,70,0,0
104883,-50,4,1,0,70,0,1
104921,-80,4,1,0,70,0,1
123081,-71.4285714285714,4,1,0,70,0,1
124452,-75,4,1,0,70,0,1
143868,-50,4,1,0,70,0,0
143887,-52.6315789473684,4,1,0,70,0,0
143925,-55.5555555555556,4,1,0,70,0,0
143982,-58.8235294117647,4,1,0,70,0,0
144059,-62.5,4,1,0,70,0,0
144135,-66.6666666666667,4,1,0,70,0,0
144249,-71.4285714285714,4,1,0,70,0,0
144363,-76.9230769230769,4,1,0,70,0,0
144515,-83.3333333333333,4,1,0,70,0,0
144706,-90.9090909090909,4,1,0,70,0,0
144934,-95.2380952380952,4,1,0,70,0,0
145067,-100,4,1,0,70,0,0
145372,-90.9090909090909,4,1,0,70,0,0
145600,-83.3333333333333,4,1,0,70,0,0
145791,-76.9230769230769,4,1,0,70,0,0
145943,-71.4285714285714,4,1,0,70,0,0
146057,-66.6666666666667,4,1,0,70,0,0
146133,-62.5,4,1,0,70,0,0
146210,-58.8235294117647,4,1,0,70,0,0
146248,-54.054054054054,4,1,0,70,0,0
146305,609.137055837563,4,1,0,70,1,0
146305,-25,4,1,0,70,0,0
146457,-100,4,1,0,70,0,0
165645,-75.0000001875,4,1,0,70,0,0
185188,-72.463768115942,4,1,0,70,0,0
185239,-69.4444444444444,4,1,0,70,0,0
185289,304.568527918782,4,1,0,70,1,0
185289,-133.333333333333,4,1,0,70,0,0
197268,-125,4,1,0,70,0,0
199679,-121.212121212121,4,1,0,70,0,0
200923,-117.647058823529,4,1,0,70,0,0
202116,-114.285714285714,4,1,0,70,0,0
202725,-111.111111111111,4,1,0,70,0,0
203334,-108.695652173913,4,1,0,70,0,0
203791,-106.382978723404,4,1,0,70,0,0
204096,-104.166666666667,4,1,0,70,0,0
204400,-102.040816326531,4,1,0,70,0,0
204781,-50,4,1,0,70,0,1
214451,-66.6666666666667,4,1,0,70,0,1
224273,-50,4,1,0,70,0,0
224349,-100,4,1,0,70,0,0
229070,-50,4,1,0,70,0,0
229223,-100,4,1,0,70,0,0
231380,-50,4,1,0,70,0,0
234324,-80,4,1,0,70,0,1
242471,-71.4285714285714,4,1,0,70,0,1
243842,-75,4,1,0,70,0,1
263258,-50,4,1,0,70,0,0
268131,-71.4285714285714,4,1,0,70,0,1
282750,-71.4285714285714,4,1,0,70,0,0
282827,-75.0000000001875,4,1,0,70,0,0
302395,-100,4,1,0,70,0,0
321659,-111.111111111111,4,1,0,70,0,0
341151,-125,4,1,0,70,0,0
359502,-133.333333333333,4,1,0,70,0,0
359959,-142.857142857143,4,1,0,70,0,0
360415,-153.846153846154,4,1,0,70,0,0
360720,304.568527918782,20,1,0,65,1,0
360720,-166.666666666667,4,1,0,65,0,0
361634,-172.413793103448,20,1,0,60,0,0
362167,-178.571428571429,20,1,0,55,0,0
362776,-185.185185185185,20,1,0,50,0,0
363461,-192.307692307692,20,1,0,45,0,0
364223,-200,20,1,0,40,0,0
364908,-208.333333333333,20,1,0,35,0,0
365669,-217.391304347826,20,1,0,30,0,0
366735,-222.222222222222,20,1,0,25,0,0

[HitObjects]
256,192,29350,5,4,0:0:0:0:
256,192,31482,12,0,32853,0:0:0:0:
256,192,33005,5,12,0:0:0:0:
256,192,34224,5,4,0:0:0:0:
256,192,34452,1,8,0:0:0:0:
256,192,34528,1,0,0:0:0:0:
256,192,34680,1,8,0:0:0:0:
256,192,34909,1,8,0:0:0:0:
256,192,34985,1,0,0:0:0:0:
256,192,35137,1,8,0:0:0:0:
256,192,35366,1,8,0:0:0:0:
256,192,35442,1,0,0:0:0:0:
256,192,35594,1,8,0:0:0:0:
256,192,35822,1,8,0:0:0:0:
256,192,35899,1,0,0:0:0:0:
256,192,36051,1,8,0:0:0:0:
256,192,36203,1,0,0:0:0:0:
256,192,36279,1,0,0:0:0:0:
256,192,36355,1,8,0:0:0:0:
256,192,36508,1,0,0:0:0:0:
256,192,36660,1,8,0:0:0:0:
256,192,36888,1,8,0:0:0:0:
256,192,36965,1,0,0:0:0:0:
256,192,37117,1,8,0:0:0:0:
256,192,37345,1,8,0:0:0:0:
256,192,37421,1,0,0:0:0:0:
256,192,37574,1,8,0:0:0:0:
256,192,37802,1,8,0:0:0:0:
256,192,37878,1,0,0:0:0:0:
256,192,38031,1,8,0:0:0:0:
256,192,38259,1,8,0:0:0:0:
256,192,38335,1,0,0:0:0:0:
256,192,38487,1,8,0:0:0:0:
256,192,38564,1,8,0:0:0:0:
256,192,38640,1,0,0:0:0:0:
256,192,38716,1,0,0:0:0:0:
256,192,38792,1,8,0:0:0:0:
256,192,38944,1,0,0:0:0:0:
256,192,39097,1,8,0:0:0:0:
256,192,39325,1,8,0:0:0:0:
256,192,39401,1,0,0:0:0:0:
256,192,39553,1,8,0:0:0:0:
256,192,39782,1,8,0:0:0:0:
256,192,39858,1,0,0:0:0:0:
256,192,40010,1,8,0:0:0:0:
256,192,40239,1,8,0:0:0:0:
256,192,40315,1,0,0:0:0:0:
256,192,40467,1,8,0:0:0:0:
256,192,40696,1,8,0:0:0:0:
256,192,40772,1,0,0:0:0:0:
256,192,40924,1,8,0:0:0:0:
256,192,41076,1,0,0:0:0:0:
256,192,41152,1,0,0:0:0:0:
256,192,41229,1,8,0:0:0:0:
256,192,41381,1,0,0:0:0:0:
256,192,41533,1,8,0:0:0:0:
256,192,41762,1,8,0:0:0:0:
256,192,41838,1,0,0:0:0:0:
256,192,41990,1,8,0:0:0:0:
256,192,42218,1,8,0:0:0:0:
256,192,42295,1,0,0:0:0:0:
256,192,42447,1,8,0:0:0:0:
256,192,42675,1,8,0:0:0:0:
256,192,42751,1,0,0:0:0:0:
256,192,42904,1,8,0:0:0:0:
256,192,43132,1,8,0:0:0:0:
256,192,43208,1,0,0:0:0:0:
256,192,43361,1,8,0:0:0:0:
256,192,43437,1,8,0:0:0:0:
256,192,43513,1,0,0:0:0:0:
256,192,43589,1,0,0:0:0:0:
256,192,43665,1,8,0:0:0:0:
256,192,43817,1,0,0:0:0:0:
256,192,43868,1,0,0:0:0:0:
256,192,43919,1,0,0:0:0:0:
256,192,43970,1,8,0:0:0:0:
256,192,44274,1,8,0:0:0:0:
256,192,44427,1,0,0:0:0:0:
256,192,44503,1,0,0:0:0:0:
256,192,44579,1,8,0:0:0:0:
256,192,44883,1,8,0:0:0:0:
256,192,45036,1,0,0:0:0:0:
256,192,45112,1,0,0:0:0:0:
256,192,45188,1,8,0:0:0:0:
256,192,45493,1,8,0:0:0:0:
256,192,45645,1,0,0:0:0:0:
256,192,45721,1,0,0:0:0:0:
256,192,45797,1,8,0:0:0:0:
256,192,45949,1,0,0:0:0:0:
256,192,46102,1,8,0:0:0:0:
256,192,46254,1,0,0:0:0:0:
256,192,46406,1,8,0:0:0:0:
256,192,46711,1,8,0:0:0:0:
256,192,46863,1,0,0:0:0:0:
256,192,46939,1,0,0:0:0:0:
256,192,47015,1,8,0:0:0:0:
256,192,47092,1,0,0:0:0:0:
256,192,47244,1,0,0:0:0:0:
256,192,47320,1,8,0:0:0:0:
256,192,47472,1,0,0:0:0:0:
256,192,47548,1,0,0:0:0:0:
256,192,47625,1,8,0:0:0:0:
256,192,47929,1,8,0:0:0:0:
256,192,48081,1,0,0:0:0:0:
256,192,48158,1,0,0:0:0:0:
256,192,48234,1,8,0:0:0:0:
256,192,48386,1,0,0:0:0:0:
256,192,48538,1,8,0:0:0:0:
256,192,48614,1,8,0:0:0:0:
256,192,48691,1,8,0:0:0:0:
256,192,48843,1,4,0:0:0:0:
256,192,48995,1,0,0:0:0:0:
256,192,49071,1,8,0:0:0:0:
256,192,49147,1,0,0:0:0:0:
256,192,49300,1,8,0:0:0:0:
256,192,49452,1,0,0:0:0:0:
256,192,49604,1,0,0:0:0:0:
256,192,49680,1,8,0:0:0:0:
256,192,49756,1,0,0:0:0:0:
256,192,49909,1,8,0:0:0:0:
256,192,50061,1,4,0:0:0:0:
256,192,50213,1,8,0:0:0:0:
256,192,50289,1,8,0:0:0:0:
256,192,50366,1,0,0:0:0:0:
256,192,50518,1,8,0:0:0:0:
256,192,50670,1,0,0:0:0:0:
256,192,50822,1,8,0:0:0:0:
256,192,50899,1,8,0:0:0:0:
256,192,50975,1,0,0:0:0:0:
256,192,51127,1,8,0:0:0:0:
256,192,51279,1,4,0:0:0:0:
256,192,51432,1,0,0:0:0:0:
256,192,51508,1,0,0:0:0:0:
256,192,51584,1,8,0:0:0:0:
256,192,51660,1,8,0:0:0:0:
256,192,51736,1,0,0:0:0:0:
256,192,51812,1,8,0:0:0:0:
256,192,51888,1,0,0:0:0:0:
256,192,51965,1,0,0:0:0:0:
256,192,52041,1,8,0:0:0:0:
256,192,52117,1,0,0:0:0:0:
256,192,52193,1,8,0:0:0:0:
256,192,52269,1,8,0:0:0:0:
256,192,52345,1,0,0:0:0:0:
256,192,52421,1,8,0:0:0:0:
256,192,52498,1,0,0:0:0:0:
256,192,52548,1,0,0:0:0:0:
256,192,52599,1,0,0:0:0:0:
256,192,52726,1,8,0:0:0:0:
256,192,52777,1,8,0:0:0:0:
256,192,52828,1,8,0:0:0:0:
256,192,52954,1,0,0:0:0:0:
256,192,53004,1,0,0:0:0:0:
256,192,53055,1,0,0:0:0:0:
256,192,53182,1,8,0:0:0:0:
256,192,53233,1,8,0:0:0:0:
256,192,53284,1,8,0:0:0:0:
256,192,53411,1,0,0:0:0:0:
256,192,53462,1,0,0:0:0:0:
256,192,53513,1,0,0:0:0:0:
256,192,53564,1,8,0:0:0:0:
256,192,53640,1,8,0:0:0:0:
256,192,53716,1,4,0:0:0:0:
256,192,53868,1,4,0:0:0:0:
256,192,54173,1,12,0:0:0:0:
256,192,54325,1,12,0:0:0:0:
256,192,54630,1,4,0:0:0:0:
256,192,54782,1,4,0:0:0:0:
256,192,55086,1,12,0:0:0:0:
256,192,55239,1,12,0:0:0:0:
256,192,55543,1,4,0:0:0:0:
256,192,55696,1,4,0:0:0:0:
256,192,55848,1,12,0:0:0:0:
256,192,56000,1,12,0:0:0:0:
256,192,56152,1,4,0:0:0:0:
256,192,56305,1,4,0:0:0:0:
256,192,56609,1,12,0:0:0:0:
256,192,56762,1,12,0:0:0:0:
256,192,57066,1,4,0:0:0:0:
256,192,57218,1,4,0:0:0:0:
256,192,57523,1,12,0:0:0:0:
256,192,57675,1,12,0:0:0:0:
256,192,57980,1,4,0:0:0:0:
256,192,58056,1,4,0:0:0:0:
256,192,58132,1,4,0:0:0:0:
256,192,58208,1,4,0:0:0:0:
256,192,58284,1,12,0:0:0:0:
256,192,58437,1,12,0:0:0:0:
256,192,58589,1,4,0:0:0:0:
256,192,58741,1,4,0:0:0:0:
256,192,59046,1,12,0:0:0:0:
256,192,59198,1,12,0:0:0:0:
256,192,59503,1,4,0:0:0:0:
256,192,59655,1,4,0:0:0:0:
256,192,59960,1,12,0:0:0:0:
256,192,60112,1,12,0:0:0:0:
256,192,60416,1,4,0:0:0:0:
256,192,60569,1,4,0:0:0:0:
256,192,60721,1,12,0:0:0:0:
256,192,60873,1,12,0:0:0:0:
256,192,61026,1,4,0:0:0:0:
256,192,61178,1,4,0:0:0:0:
256,192,61482,1,12,0:0:0:0:
256,192,61635,1,12,0:0:0:0:
256,192,61939,1,4,0:0:0:0:
256,192,62092,1,4,0:0:0:0:
256,192,62244,1,12,0:0:0:0:
256,192,62472,1,12,0:0:0:0:
256,192,62701,1,4,0:0:0:0:
256,192,62853,1,8,0:0:0:0:
256,192,62904,1,8,0:0:0:0:
256,192,62954,1,8,0:0:0:0:
256,192,63005,1,0,0:0:0:0:
256,192,63056,1,0,0:0:0:0:
256,192,63107,1,0,0:0:0:0:
256,192,63158,1,8,0:0:0:0:
256,192,63234,1,8,0:0:0:0:
256,192,63310,1,0,0:0:0:0:
256,192,63462,1,0,0:0:0:0:
256,192,63614,1,8,0:0:0:0:
256,192,63691,1,0,0:0:0:0:
256,192,63767,1,8,0:0:0:0:
256,192,63817,1,8,0:0:0:0:
256,192,63868,1,8,0:0:0:0:
256,192,63919,1,0,0:0:0:0:
256,192,63995,1,0,0:0:0:0:
256,192,64071,1,8,0:0:0:0:
256,192,64122,1,8,0:0:0:0:
256,192,64173,1,8,0:0:0:0:
256,192,64300,1,0,0:0:0:0:
256,192,64376,1,8,0:0:0:0:
256,192,64452,1,0,0:0:0:0:
256,192,64528,1,8,0:0:0:0:
256,192,64604,1,8,0:0:0:0:
256,192,64680,1,0,0:0:0:0:
256,192,64782,1,8,0:0:0:0:
256,192,64833,1,0,0:0:0:0:
256,192,64909,1,0,0:0:0:0:
256,192,64985,1,8,0:0:0:0:
256,192,65137,1,0,0:0:0:0:
256,192,65213,1,8,0:0:0:0:
256,192,65289,1,0,0:0:0:0:
256,192,65366,1,0,0:0:0:0:
256,192,65442,1,8,0:0:0:0:
256,192,65493,1,8,0:0:0:0:
256,192,65543,1,8,0:0:0:0:
256,192,65594,1,0,0:0:0:0:
256,192,65670,1,0,0:0:0:0:
256,192,65746,1,8,0:0:0:0:
256,192,65822,1,8,0:0:0:0:
256,192,65899,1,0,0:0:0:0:
256,192,66051,1,0,0:0:0:0:
256,192,66127,1,0,0:0:0:0:
256,192,66203,1,8,0:0:0:0:
256,192,66229,1,8,0:0:0:0:
256,192,66305,1,8,0:0:0:0:
256,192,66330,1,8,0:0:0:0:
256,192,66406,1,8,0:0:0:0:
256,192,66432,1,8,0:0:0:0:
256,192,66508,1,0,0:0:0:0:
256,192,66584,1,8,0:0:0:0:
256,192,66635,1,8,0:0:0:0:
256,192,66685,1,8,0:0:0:0:
256,192,66736,1,0,0:0:0:0:
256,192,66812,1,8,0:0:0:0:
256,192,66965,1,0,0:0:0:0:
256,192,67117,1,8,0:0:0:0:
256,192,67218,1,8,0:0:0:0:
256,192,67269,1,0,0:0:0:0:
256,192,67345,1,0,0:0:0:0:
256,192,67421,1,8,0:0:0:0:
256,192,67574,1,0,0:0:0:0:
256,192,67650,1,8,0:0:0:0:
256,192,67726,1,0,0:0:0:0:
256,192,67802,1,0,0:0:0:0:
256,192,67878,1,8,0:0:0:0:
256,192,67929,1,8,0:0:0:0:
256,192,67980,1,8,0:0:0:0:
256,192,68031,1,8,0:0:0:0:
256,192,68132,1,0,0:0:0:0:
256,192,68183,1,0,0:0:0:0:
256,192,68234,1,8,0:0:0:0:
256,192,68335,1,0,0:0:0:0:
256,192,68487,1,8,0:0:0:0:
256,192,68564,1,0,0:0:0:0:
256,192,68640,1,8,0:0:0:0:
256,192,68691,1,8,0:0:0:0:
256,192,68741,1,8,0:0:0:0:
256,192,68792,1,0,0:0:0:0:
256,192,68868,1,0,0:0:0:0:
256,192,68944,1,8,0:0:0:0:
256,192,68995,1,8,0:0:0:0:
256,192,69046,1,8,0:0:0:0:
256,192,69173,1,0,0:0:0:0:
256,192,69249,1,8,0:0:0:0:
256,192,69325,1,0,0:0:0:0:
256,192,69401,1,8,0:0:0:0:
256,192,69477,1,8,0:0:0:0:
256,192,69553,1,0,0:0:0:0:
256,192,69655,1,8,0:0:0:0:
256,192,69706,1,0,0:0:0:0:
256,192,69782,1,0,0:0:0:0:
256,192,69858,1,8,0:0:0:0:
256,192,70010,1,0,0:0:0:0:
256,192,70086,1,8,0:0:0:0:
256,192,70163,1,0,0:0:0:0:
256,192,70239,1,0,0:0:0:0:
256,192,70315,1,8,0:0:0:0:
256,192,70366,1,8,0:0:0:0:
256,192,70416,1,8,0:0:0:0:
256,192,70467,1,0,0:0:0:0:
256,192,70543,1,0,0:0:0:0:
256,192,70619,1,8,0:0:0:0:
256,192,70696,1,8,0:0:0:0:
256,192,70772,1,0,0:0:0:0:
256,192,70924,1,0,0:0:0:0:
256,192,71000,1,0,0:0:0:0:
256,192,71076,1,8,0:0:0:0:
256,192,71127,1,8,0:0:0:0:
256,192,71178,1,8,0:0:0:0:
256,192,71229,1,0,0:0:0:0:
256,192,71305,1,8,0:0:0:0:
256,192,71381,1,0,0:0:0:0:
256,192,71533,1,0,0:0:0:0:
256,192,71609,1,0,0:0:0:0:
256,192,71685,1,8,0:0:0:0:
256,192,71762,1,8,0:0:0:0:
256,192,71838,1,8,0:0:0:0:
256,192,71914,1,8,0:0:0:0:
256,192,71990,1,0,0:0:0:0:
256,192,72066,1,0,0:0:0:0:
256,192,72142,1,8,0:0:0:0:
256,192,72193,1,8,0:0:0:0:
256,192,72244,1,8,0:0:0:0:
256,192,72295,1,0,0:0:0:0:
256,192,72371,1,8,0:0:0:0:
256,192,72421,1,8,0:0:0:0:
256,192,72472,1,0,0:0:0:0:
256,192,72523,1,0,0:0:0:0:
256,192,72599,1,8,0:0:0:0:
256,192,72675,1,8,0:0:0:0:
256,192,72751,1,8,0:0:0:0:
256,192,72828,1,8,0:0:0:0:
256,192,72904,12,0,73056,0:0:0:0:
256,192,73208,5,4,0:0:0:0:
256,192,73513,1,8,0:0:0:0:
256,192,73893,1,8,0:0:0:0:
256,192,73969,1,0,0:0:0:0:
256,192,74122,1,8,0:0:0:0:
256,192,74426,1,0,0:0:0:0:
256,192,74579,1,0,0:0:0:0:
256,192,74731,1,8,0:0:0:0:
256,192,74959,1,0,0:0:0:0:
256,192,75188,1,0,0:0:0:0:
256,192,75340,1,8,0:0:0:0:
256,192,75492,1,0,0:0:0:0:
256,192,75568,1,8,0:0:0:0:
256,192,75644,1,0,0:0:0:0:
256,192,75949,1,8,0:0:0:0:
256,192,76330,1,8,0:0:0:0:
256,192,76406,1,0,0:0:0:0:
256,192,76558,1,8,0:0:0:0:
256,192,76863,1,0,0:0:0:0:
256,192,77015,1,0,0:0:0:0:
256,192,77167,1,8,0:0:0:0:
256,192,77396,1,0,0:0:0:0:
256,192,77624,1,0,0:0:0:0:
256,192,77776,1,8,0:0:0:0:
256,192,77853,1,8,0:0:0:0:
256,192,77929,1,0,0:0:0:0:
256,192,78005,1,8,0:0:0:0:
256,192,78081,1,0,0:0:0:0:
256,192,78386,1,8,0:0:0:0:
256,192,78766,1,8,0:0:0:0:
256,192,78842,1,0,0:0:0:0:
256,192,78995,1,8,0:0:0:0:
256,192,79299,1,0,0:0:0:0:
256,192,79452,1,0,0:0:0:0:
256,192,79604,1,8,0:0:0:0:
256,192,79832,1,0,0:0:0:0:
256,192,80061,1,0,0:0:0:0:
256,192,80213,1,8,0:0:0:0:
256,192,80365,1,0,0:0:0:0:
256,192,80441,1,8,0:0:0:0:
256,192,80518,1,0,0:0:0:0:
256,192,80822,1,8,0:0:0:0:
256,192,81203,1,8,0:0:0:0:
256,192,81279,1,0,0:0:0:0:
256,192,81431,1,8,0:0:0:0:
256,192,81660,1,8,0:0:0:0:
256,192,81736,1,0,0:0:0:0:
256,192,81888,1,0,0:0:0:0:
256,192,82040,1,8,0:0:0:0:
256,192,82117,1,8,0:0:0:0:
256,192,82193,1,8,0:0:0:0:
256,192,82269,1,0,0:0:0:0:
256,192,82421,1,8,0:0:0:0:
256,192,82497,1,0,0:0:0:0:
256,192,82573,1,0,0:0:0:0:
256,192,82650,1,8,0:0:0:0:
256,192,82726,1,8,0:0:0:0:
256,192,82802,1,0,0:0:0:0:
256,192,82878,1,8,0:0:0:0:
256,192,82954,1,0,0:0:0:0:
256,192,83107,1,0,0:0:0:0:
256,192,83183,1,0,0:0:0:0:
256,192,83259,1,8,0:0:0:0:
256,192,83411,1,0,0:0:0:0:
256,192,83487,1,0,0:0:0:0:
256,192,83640,1,8,0:0:0:0:
256,192,83716,1,0,0:0:0:0:
256,192,83868,1,8,0:0:0:0:
256,192,84020,1,0,0:0:0:0:
256,192,84097,1,0,0:0:0:0:
256,192,84173,1,0,0:0:0:0:
256,192,84325,1,0,0:0:0:0:
256,192,84401,1,0,0:0:0:0:
256,192,84477,1,8,0:0:0:0:
256,192,84630,1,0,0:0:0:0:
256,192,84706,1,0,0:0:0:0:
256,192,84858,1,8,0:0:0:0:
256,192,84934,1,0,0:0:0:0:
256,192,85086,1,8,0:0:0:0:
256,192,85163,1,8,0:0:0:0:
256,192,85239,1,0,0:0:0:0:
256,192,85391,1,0,0:0:0:0:
256,192,85543,1,0,0:0:0:0:
256,192,85619,1,0,0:0:0:0:
256,192,85696,1,8,0:0:0:0:
256,192,85848,1,0,0:0:0:0:
256,192,85924,1,0,0:0:0:0:
256,192,86076,1,8,0:0:0:0:
256,192,86152,1,0,0:0:0:0:
256,192,86305,1,8,0:0:0:0:
256,192,86457,1,0,0:0:0:0:
256,192,86533,1,0,0:0:0:0:
256,192,86609,1,0,0:0:0:0:
256,192,86762,1,0,0:0:0:0:
256,192,86838,1,0,0:0:0:0:
256,192,86914,1,8,0:0:0:0:
256,192,87066,1,0,0:0:0:0:
256,192,87142,1,0,0:0:0:0:
256,192,87295,1,8,0:0:0:0:
256,192,87371,1,0,0:0:0:0:
256,192,87447,1,0,0:0:0:0:
256,192,87523,1,8,0:0:0:0:
256,192,87599,1,8,0:0:0:0:
256,192,87675,1,0,0:0:0:0:
256,192,87751,1,8,0:0:0:0:
256,192,87828,1,0,0:0:0:0:
256,192,87980,1,0,0:0:0:0:
256,192,88056,1,0,0:0:0:0:
256,192,88132,1,8,0:0:0:0:
256,192,88284,1,0,0:0:0:0:
256,192,88361,1,8,0:0:0:0:
256,192,88437,1,0,0:0:0:0:
256,192,88589,1,0,0:0:0:0:
256,192,88665,1,0,0:0:0:0:
256,192,88741,1,8,0:0:0:0:
256,192,88894,1,8,0:0:0:0:
256,192,88970,1,8,0:0:0:0:
256,192,89046,1,0,0:0:0:0:
256,192,89198,1,0,0:0:0:0:
256,192,89274,1,0,0:0:0:0:
256,192,89350,1,8,0:0:0:0:
256,192,89503,1,0,0:0:0:0:
256,192,89579,1,8,0:0:0:0:
256,192,89655,1,0,0:0:0:0:
256,192,89807,1,0,0:0:0:0:
256,192,89883,1,0,0:0:0:0:
256,192,89960,1,8,0:0:0:0:
256,192,90036,1,8,0:0:0:0:
256,192,90112,1,0,0:0:0:0:
256,192,90188,1,8,0:0:0:0:
256,192,90264,1,0,0:0:0:0:
256,192,90416,1,0,0:0:0:0:
256,192,90493,1,0,0:0:0:0:
256,192,90569,1,8,0:0:0:0:
256,192,90645,1,8,0:0:0:0:
256,192,90721,1,0,0:0:0:0:
256,192,90797,1,8,0:0:0:0:
256,192,90873,1,0,0:0:0:0:
256,192,91026,1,8,0:0:0:0:
256,192,91102,1,0,0:0:0:0:
256,192,91178,1,8,0:0:0:0:
256,192,91254,1,8,0:0:0:0:
256,192,91330,1,0,0:0:0:0:
256,192,91406,1,8,0:0:0:0:
256,192,91482,1,0,0:0:0:0:
256,192,91559,1,0,0:0:0:0:
256,192,91635,1,8,0:0:0:0:
256,192,91711,1,0,0:0:0:0:
256,192,91787,1,8,0:0:0:0:
256,192,91863,1,8,0:0:0:0:
256,192,91939,1,0,0:0:0:0:
256,192,92015,1,8,0:0:0:0:
256,192,92092,1,0,0:0:0:0:
256,192,92168,1,8,0:0:0:0:
256,192,92244,1,8,0:0:0:0:
256,192,92320,1,0,0:0:0:0:
256,192,92396,1,8,0:0:0:0:
256,192,92472,1,0,0:0:0:0:
256,192,92548,1,0,0:0:0:0:
256,192,92625,1,0,0:0:0:0:
256,192,92701,1,12,0:0:0:0:
256,192,92853,1,12,0:0:0:0:
256,192,93158,1,4,0:0:0:0:
256,192,93310,1,4,0:0:0:0:
256,192,93614,1,12,0:0:0:0:
256,192,93767,1,12,0:0:0:0:
256,192,94071,1,4,0:0:0:0:
256,192,94224,1,4,0:0:0:0:
256,192,94528,1,12,0:0:0:0:
256,192,94680,1,12,0:0:0:0:
256,192,94833,1,4,0:0:0:0:
256,192,94985,1,4,0:0:0:0:
256,192,95289,1,12,0:0:0:0:
256,192,95442,1,12,0:0:0:0:
256,192,95746,1,4,0:0:0:0:
256,192,95899,1,4,0:0:0:0:
256,192,96203,1,12,0:0:0:0:
256,192,96355,1,4,0:0:0:0:
256,192,96508,1,8,0:0:0:0:
256,192,96584,1,0,0:0:0:0:
256,192,96736,1,0,0:0:0:0:
256,192,96812,1,8,0:0:0:0:
256,192,96965,1,0,0:0:0:0:
256,192,97117,1,0,0:0:0:0:
256,192,97193,1,8,0:0:0:0:
256,192,97345,1,8,0:0:0:0:
256,192,97421,1,0,0:0:0:0:
256,192,97574,1,4,0:0:0:0:
256,192,97878,1,8,0:0:0:0:
256,192,98183,1,0,0:0:0:0:
256,192,98487,1,8,0:0:0:0:
256,192,98792,1,4,0:0:0:0:
256,192,99097,1,8,0:0:0:0:
256,192,99401,1,0,0:0:0:0:
256,192,99706,1,8,0:0:0:0:
256,192,100010,1,4,0:0:0:0:
256,192,100163,1,0,0:0:0:0:
256,192,100315,1,8,0:0:0:0:
256,192,100467,1,0,0:0:0:0:
256,192,100619,1,4,0:0:0:0:
256,192,100772,1,0,0:0:0:0:
256,192,100924,1,8,0:0:0:0:
256,192,101076,1,0,0:0:0:0:
256,192,101229,1,0,0:0:0:0:
256,192,101305,1,0,0:0:0:0:
256,192,101381,1,0,0:0:0:0:
256,192,101457,1,0,0:0:0:0:
256,192,101533,1,8,0:0:0:0:
256,192,101609,1,8,0:0:0:0:
256,192,101685,1,8,0:0:0:0:
256,192,101762,1,8,0:0:0:0:
256,192,101838,1,0,0:0:0:0:
256,192,101914,1,8,0:0:0:0:
256,192,101990,1,8,0:0:0:0:
256,192,102066,1,8,0:0:0:0:
256,192,102142,1,0,0:0:0:0:
256,192,102218,1,8,0:0:0:0:
256,192,102295,1,8,0:0:0:0:
256,192,102371,1,8,0:0:0:0:
256,192,102447,12,0,102599,0:0:0:0:
256,192,102751,5,8,0:0:0:0:
256,192,102904,1,8,0:0:0:0:
256,192,102980,1,8,0:0:0:0:
256,192,103056,1,8,0:0:0:0:
256,192,103132,1,8,0:0:0:0:
256,192,103208,1,8,0:0:0:0:
256,192,103361,1,8,0:0:0:0:
256,192,103411,1,8,0:0:0:0:
256,192,103462,1,8,0:0:0:0:
256,192,103513,1,8,0:0:0:0:
256,192,103589,1,8,0:0:0:0:
256,192,103665,1,4,0:0:0:0:
256,192,103894,1,4,0:0:0:0:
256,192,104122,1,4,0:0:0:0:
256,192,104350,1,4,0:0:0:0:
256,192,104579,1,8,0:0:0:0:
256,192,104630,1,8,0:0:0:0:
256,192,104680,1,0,0:0:0:0:
256,192,104731,1,8,0:0:0:0:
256,192,104807,1,8,0:0:0:0:
256,192,104883,1,4,0:0:0:0:
256,192,105188,1,8,0:0:0:0:
256,192,105340,1,8,0:0:0:0:
256,192,105416,1,8,0:0:0:0:
256,192,105493,1,8,0:0:0:0:
256,192,105645,1,0,0:0:0:0:
256,192,105797,1,8,0:0:0:0:
256,192,106102,1,0,0:0:0:0:
256,192,106254,1,0,0:0:0:0:
256,192,106330,1,0,0:0:0:0:
256,192,106406,1,8,0:0:0:0:
256,192,106559,1,0,0:0:0:0:
256,192,106711,1,8,0:0:0:0:
256,192,106863,1,8,0:0:0:0:
256,192,106939,1,0,0:0:0:0:
256,192,107015,1,8,0:0:0:0:
256,192,107168,1,0,0:0:0:0:
256,192,107320,1,0,0:0:0:0:
256,192,107625,1,8,0:0:0:0:
256,192,107777,1,8,0:0:0:0:
256,192,107853,1,8,0:0:0:0:
256,192,107929,1,8,0:0:0:0:
256,192,108081,1,0,0:0:0:0:
256,192,108234,1,8,0:0:0:0:
256,192,108538,1,0,0:0:0:0:
256,192,108691,1,0,0:0:0:0:
256,192,108767,1,0,0:0:0:0:
256,192,108843,1,8,0:0:0:0:
256,192,108995,1,0,0:0:0:0:
256,192,109071,1,8,0:0:0:0:
256,192,109147,1,8,0:0:0:0:
256,192,109224,1,8,0:0:0:0:
256,192,109300,1,0,0:0:0:0:
256,192,109452,1,8,0:0:0:0:
256,192,109604,1,8,0:0:0:0:
256,192,109680,1,8,0:0:0:0:
256,192,109756,1,0,0:0:0:0:
256,192,110061,1,8,0:0:0:0:
256,192,110213,1,8,0:0:0:0:
256,192,110289,1,8,0:0:0:0:
256,192,110366,1,8,0:0:0:0:
256,192,110518,1,0,0:0:0:0:
256,192,110670,1,8,0:0:0:0:
256,192,110975,1,0,0:0:0:0:
256,192,111127,1,0,0:0:0:0:
256,192,111203,1,0,0:0:0:0:
256,192,111279,1,8,0:0:0:0:
256,192,111432,1,0,0:0:0:0:
256,192,111584,1,8,0:0:0:0:
256,192,111736,1,8,0:0:0:0:
256,192,111812,1,0,0:0:0:0:
256,192,111888,1,8,0:0:0:0:
256,192,112041,1,0,0:0:0:0:
256,192,112193,1,0,0:0:0:0:
256,192,112498,1,8,0:0:0:0:
256,192,112650,1,8,0:0:0:0:
256,192,112726,1,8,0:0:0:0:
256,192,112802,1,8,0:0:0:0:
256,192,112954,1,0,0:0:0:0:
256,192,113107,1,8,0:0:0:0:
256,192,113411,1,0,0:0:0:0:
256,192,113564,1,0,0:0:0:0:
256,192,113640,1,0,0:0:0:0:
256,192,113716,1,8,0:0:0:0:
256,192,113792,1,0,0:0:0:0:
256,192,113868,1,0,0:0:0:0:
256,192,113944,1,8,0:0:0:0:
256,192,114097,1,8,0:0:0:0:
256,192,114173,1,0,0:0:0:0:
256,192,114325,1,8,0:0:0:0:
256,192,114477,1,8,0:0:0:0:
256,192,114553,1,8,0:0:0:0:
256,192,114630,1,0,0:0:0:0:
256,192,114935,1,8,0:0:0:0:
256,192,115087,1,8,0:0:0:0:
256,192,115163,1,8,0:0:0:0:
256,192,115240,1,8,0:0:0:0:
256,192,115315,1,8,0:0:0:0:
256,192,115392,1,0,0:0:0:0:
256,192,115544,1,8,0:0:0:0:
256,192,115849,1,0,0:0:0:0:
256,192,116001,1,0,0:0:0:0:
256,192,116077,1,0,0:0:0:0:
256,192,116153,1,8,0:0:0:0:
256,192,116306,1,0,0:0:0:0:
256,192,116458,1,8,0:0:0:0:
256,192,116610,1,8,0:0:0:0:
256,192,116686,1,0,0:0:0:0:
256,192,116762,1,8,0:0:0:0:
256,192,116915,1,0,0:0:0:0:
256,192,117067,1,0,0:0:0:0:
256,192,117372,1,8,0:0:0:0:
256,192,117524,1,8,0:0:0:0:
256,192,117600,1,8,0:0:0:0:
256,192,117676,1,8,0:0:0:0:
256,192,117751,1,8,0:0:0:0:
256,192,117828,1,0,0:0:0:0:
256,192,117981,1,8,0:0:0:0:
256,192,118285,1,0,0:0:0:0:
256,192,118438,1,0,0:0:0:0:
256,192,118514,1,0,0:0:0:0:
256,192,118590,1,8,0:0:0:0:
256,192,118742,1,0,0:0:0:0:
256,192,118818,1,8,0:0:0:0:
256,192,118894,1,8,0:0:0:0:
256,192,118971,1,8,0:0:0:0:
256,192,119047,1,0,0:0:0:0:
256,192,119199,1,8,0:0:0:0:
256,192,119274,1,0,0:0:0:0:
256,192,119351,1,8,0:0:0:0:
256,192,119427,1,8,0:0:0:0:
256,192,119503,1,0,0:0:0:0:
256,192,119808,1,8,0:0:0:0:
256,192,119960,1,8,0:0:0:0:
256,192,120036,1,8,0:0:0:0:
256,192,120113,1,8,0:0:0:0:
256,192,120188,1,8,0:0:0:0:
256,192,120265,1,0,0:0:0:0:
256,192,120417,1,8,0:0:0:0:
256,192,120569,1,0,0:0:0:0:
256,192,120721,1,4,0:0:0:0:
256,192,120873,1,0,0:0:0:0:
256,192,120949,1,0,0:0:0:0:
256,192,121026,1,8,0:0:0:0:
256,192,121178,1,8,0:0:0:0:
256,192,121254,1,0,0:0:0:0:
256,192,121330,1,8,0:0:0:0:
256,192,121406,1,8,0:0:0:0:
256,192,121482,1,0,0:0:0:0:
256,192,121559,1,8,0:0:0:0:
256,192,121711,1,8,0:0:0:0:
256,192,121787,1,0,0:0:0:0:
256,192,121939,1,4,0:0:0:0:
256,192,122092,1,0,0:0:0:0:
256,192,122168,1,0,0:0:0:0:
256,192,122244,1,8,0:0:0:0:
256,192,122396,1,0,0:0:0:0:
256,192,122548,1,4,0:0:0:0:
256,192,122701,1,0,0:0:0:0:
256,192,122777,1,0,0:0:0:0:
256,192,122853,1,8,0:0:0:0:
256,192,123005,1,0,0:0:0:0:
256,192,123158,1,4,0:0:0:0:
256,192,123386,1,12,0:0:0:0:
256,192,123614,1,4,0:0:0:0:
256,192,123843,1,12,0:0:0:0:
256,192,124071,1,12,0:0:0:0:
256,192,124224,1,0,0:0:0:0:
256,192,124376,1,4,0:0:0:0:
256,192,124528,1,0,0:0:0:0:
256,192,124604,1,0,0:0:0:0:
256,192,124680,1,8,0:0:0:0:
256,192,124833,1,8,0:0:0:0:
256,192,124909,1,0,0:0:0:0:
256,192,124985,1,8,0:0:0:0:
256,192,125061,1,8,0:0:0:0:
256,192,125137,1,0,0:0:0:0:
256,192,125289,1,8,0:0:0:0:
256,192,125442,1,0,0:0:0:0:
256,192,125594,1,0,0:0:0:0:
256,192,125746,1,0,0:0:0:0:
256,192,125822,1,0,0:0:0:0:
256,192,125899,1,8,0:0:0:0:
256,192,126051,1,0,0:0:0:0:
256,192,126127,1,8,0:0:0:0:
256,192,126203,1,0,0:0:0:0:
256,192,126279,1,8,0:0:0:0:
256,192,126355,1,0,0:0:0:0:
256,192,126508,1,8,0:0:0:0:
256,192,126660,1,8,0:0:0:0:
256,192,126736,1,8,0:0:0:0:
256,192,126812,1,0,0:0:0:0:
256,192,126965,1,0,0:0:0:0:
256,192,127041,1,0,0:0:0:0:
256,192,127117,1,8,0:0:0:0:
256,192,127269,1,8,0:0:0:0:
256,192,127345,1,0,0:0:0:0:
256,192,127421,1,8,0:0:0:0:
256,192,127498,1,8,0:0:0:0:
256,192,127574,1,0,0:0:0:0:
256,192,127726,1,8,0:0:0:0:
256,192,127878,1,0,0:0:0:0:
256,192,128031,1,0,0:0:0:0:
256,192,128183,1,0,0:0:0:0:
256,192,128259,1,0,0:0:0:0:
256,192,128335,1,8,0:0:0:0:
256,192,128487,1,0,0:0:0:0:
256,192,128564,1,0,0:0:0:0:
256,192,128640,1,0,0:0:0:0:
256,192,128716,1,8,0:0:0:0:
256,192,128792,1,0,0:0:0:0:
256,192,128868,1,0,0:0:0:0:
256,192,128944,1,8,0:0:0:0:
256,192,129097,1,0,0:0:0:0:
256,192,129249,1,0,0:0:0:0:
256,192,129401,1,0,0:0:0:0:
256,192,129477,1,0,0:0:0:0:
256,192,129553,1,8,0:0:0:0:
256,192,129706,1,8,0:0:0:0:
256,192,129782,1,0,0:0:0:0:
256,192,129858,1,8,0:0:0:0:
256,192,129934,1,8,0:0:0:0:
256,192,130010,1,0,0:0:0:0:
256,192,130162,1,8,0:0:0:0:
256,192,130315,1,0,0:0:0:0:
256,192,130467,1,0,0:0:0:0:
256,192,130619,1,0,0:0:0:0:
256,192,130695,1,0,0:0:0:0:
256,192,130772,1,8,0:0:0:0:
256,192,130924,1,0,0:0:0:0:
256,192,131000,1,8,0:0:0:0:
256,192,131076,1,0,0:0:0:0:
256,192,131152,1,8,0:0:0:0:
256,192,131228,1,0,0:0:0:0:
256,192,131381,1,8,0:0:0:0:
256,192,131533,1,8,0:0:0:0:
256,192,131609,1,8,0:0:0:0:
256,192,131685,1,0,0:0:0:0:
256,192,131838,1,0,0:0:0:0:
256,192,131914,1,0,0:0:0:0:
256,192,131990,1,8,0:0:0:0:
256,192,132142,1,8,0:0:0:0:
256,192,132218,1,0,0:0:0:0:
256,192,132294,1,8,0:0:0:0:
256,192,132371,1,8,0:0:0:0:
256,192,132447,1,0,0:0:0:0:
256,192,132599,1,8,0:0:0:0:
256,192,132751,1,0,0:0:0:0:
256,192,132904,1,0,0:0:0:0:
256,192,133056,1,0,0:0:0:0:
256,192,133132,1,0,0:0:0:0:
256,192,133208,1,8,0:0:0:0:
256,192,133360,1,0,0:0:0:0:
256,192,133437,1,8,0:0:0:0:
256,192,133513,1,8,0:0:0:0:
256,192,133589,1,0,0:0:0:0:
256,192,133665,1,8,0:0:0:0:
256,192,133741,1,0,0:0:0:0:
256,192,133817,1,8,0:0:0:0:
256,192,133894,1,0,0:0:0:0:
256,192,133970,1,8,0:0:0:0:
256,192,134046,1,8,0:0:0:0:
256,192,134122,1,0,0:0:0:0:
256,192,134274,1,0,0:0:0:0:
256,192,134350,1,0,0:0:0:0:
256,192,134426,1,8,0:0:0:0:
256,192,134579,1,8,0:0:0:0:
256,192,134655,1,0,0:0:0:0:
256,192,134731,1,8,0:0:0:0:
256,192,134807,1,8,0:0:0:0:
256,192,134883,1,0,0:0:0:0:
256,192,134960,1,0,0:0:0:0:
256,192,135035,1,8,0:0:0:0:
256,192,135188,1,0,0:0:0:0:
256,192,135340,1,0,0:0:0:0:
256,192,135492,1,0,0:0:0:0:
256,192,135568,1,0,0:0:0:0:
256,192,135645,1,8,0:0:0:0:
256,192,135797,1,0,0:0:0:0:
256,192,135873,1,8,0:0:0:0:
256,192,135949,1,0,0:0:0:0:
256,192,136025,1,8,0:0:0:0:
256,192,136101,1,0,0:0:0:0:
256,192,136178,1,0,0:0:0:0:
256,192,136254,1,8,0:0:0:0:
256,192,136406,1,8,0:0:0:0:
256,192,136482,1,8,0:0:0:0:
256,192,136558,1,0,0:0:0:0:
256,192,136711,1,0,0:0:0:0:
256,192,136787,1,0,0:0:0:0:
256,192,136863,1,8,0:0:0:0:
256,192,137015,1,8,0:0:0:0:
256,192,137091,1,0,0:0:0:0:
256,192,137167,1,8,0:0:0:0:
256,192,137244,1,8,0:0:0:0:
256,192,137320,1,0,0:0:0:0:
256,192,137396,1,0,0:0:0:0:
256,192,137472,1,8,0:0:0:0:
256,192,137624,1,0,0:0:0:0:
256,192,137777,1,0,0:0:0:0:
256,192,137929,1,0,0:0:0:0:
256,192,138005,1,0,0:0:0:0:
256,192,138081,1,8,0:0:0:0:
256,192,138233,1,0,0:0:0:0:
256,192,138310,1,0,0:0:0:0:
256,192,138386,1,0,0:0:0:0:
256,192,138462,1,8,0:0:0:0:
256,192,138538,1,0,0:0:0:0:
256,192,138614,1,0,0:0:0:0:
256,192,138690,1,8,0:0:0:0:
256,192,138767,1,8,0:0:0:0:
256,192,138843,1,0,0:0:0:0:
256,192,138919,1,8,0:0:0:0:
256,192,138995,1,0,0:0:0:0:
256,192,139147,1,0,0:0:0:0:
256,192,139223,1,0,0:0:0:0:
256,192,139299,1,8,0:0:0:0:
256,192,139452,1,8,0:0:0:0:
256,192,139528,1,0,0:0:0:0:
256,192,139604,1,8,0:0:0:0:
256,192,139680,1,8,0:0:0:0:
256,192,139756,1,0,0:0:0:0:
256,192,139833,1,0,0:0:0:0:
256,192,139908,1,8,0:0:0:0:
256,192,140061,1,0,0:0:0:0:
256,192,140213,1,4,0:0:0:0:
256,192,140365,1,0,0:0:0:0:
256,192,140441,1,0,0:0:0:0:
256,192,140518,1,8,0:0:0:0:
256,192,140670,1,0,0:0:0:0:
256,192,140746,1,0,0:0:0:0:
256,192,140822,1,8,0:0:0:0:
256,192,140899,1,8,0:0:0:0:
256,192,140975,1,0,0:0:0:0:
256,192,141051,1,8,0:0:0:0:
256,192,141203,1,8,0:0:0:0:
256,192,141279,1,0,0:0:0:0:
256,192,141432,1,4,0:0:0:0:
256,192,141584,1,0,0:0:0:0:
256,192,141660,1,0,0:0:0:0:
256,192,141736,1,8,0:0:0:0:
256,192,141888,1,0,0:0:0:0:
256,192,142041,1,4,0:0:0:0:
256,192,142193,1,0,0:0:0:0:
256,192,142269,1,0,0:0:0:0:
256,192,142345,1,8,0:0:0:0:
256,192,142498,1,0,0:0:0:0:
256,192,142650,1,0,0:0:0:0:
256,192,142726,1,0,0:0:0:0:
256,192,142802,1,8,0:0:0:0:
256,192,142878,1,0,0:0:0:0:
256,192,142954,1,8,0:0:0:0:
256,192,143031,1,8,0:0:0:0:
256,192,143107,1,0,0:0:0:0:
256,192,143183,1,8,0:0:0:0:
256,192,143259,1,0,0:0:0:0:
256,192,143335,1,8,0:0:0:0:
256,192,143411,1,8,0:0:0:0:
256,192,143487,1,0,0:0:0:0:
256,192,143564,1,8,0:0:0:0:
256,192,143640,1,0,0:0:0:0:
256,192,143716,1,8,0:0:0:0:
256,192,143792,1,8,0:0:0:0:
256,192,143868,1,0,0:0:0:0:
256,192,143906,1,0,0:0:0:0:
256,192,143944,1,0,0:0:0:0:
256,192,144001,1,0,0:0:0:0:
256,192,144078,1,0,0:0:0:0:
256,192,144154,1,0,0:0:0:0:
256,192,144268,1,0,0:0:0:0:
256,192,144382,1,0,0:0:0:0:
256,192,144534,1,0,0:0:0:0:
256,192,144725,1,0,0:0:0:0:
256,192,144953,1,0,0:0:0:0:
256,192,145086,1,8,0:0:0:0:
256,192,145391,1,8,0:0:0:0:
256,192,145619,1,8,0:0:0:0:
256,192,145810,1,8,0:0:0:0:
256,192,145962,1,8,0:0:0:0:
256,192,146076,1,8,0:0:0:0:
256,192,146152,1,8,0:0:0:0:
256,192,146229,1,8,0:0:0:0:
256,192,146267,1,8,0:0:0:0:
256,192,146305,1,8,0:0:0:0:
256,192,156051,5,8,0:0:0:0:
256,192,157269,1,8,0:0:0:0:
256,192,158487,1,8,0:0:0:0:
256,192,159706,1,8,0:0:0:0:
256,192,160924,1,8,0:0:0:0:
256,192,162142,1,8,0:0:0:0:
256,192,163361,1,8,0:0:0:0:
256,192,164579,1,8,0:0:0:0:
256,192,165797,1,0,0:0:0:0:
256,192,166254,1,0,0:0:0:0:
256,192,166406,1,8,0:0:0:0:
256,192,167015,1,0,0:0:0:0:
256,192,167244,1,0,0:0:0:0:
256,192,167472,1,0,0:0:0:0:
256,192,167625,1,8,0:0:0:0:
256,192,167777,1,8,0:0:0:0:
256,192,168081,1,8,0:0:0:0:
256,192,168234,1,0,0:0:0:0:
256,192,168691,1,0,0:0:0:0:
256,192,168843,1,8,0:0:0:0:
256,192,169452,1,0,0:0:0:0:
256,192,169680,1,0,0:0:0:0:
256,192,169909,1,0,0:0:0:0:
256,192,170061,1,8,0:0:0:0:
256,192,170213,1,8,0:0:0:0:
256,192,170289,1,8,0:0:0:0:
256,192,170366,1,8,0:0:0:0:
256,192,170518,1,8,0:0:0:0:
256,192,170670,1,0,0:0:0:0:
256,192,171127,1,0,0:0:0:0:
256,192,171279,1,8,0:0:0:0:
256,192,171432,1,8,0:0:0:0:
256,192,171736,1,8,0:0:0:0:
256,192,171888,1,0,0:0:0:0:
256,192,172117,1,0,0:0:0:0:
256,192,172345,1,0,0:0:0:0:
256,192,172498,1,8,0:0:0:0:
256,192,172650,1,8,0:0:0:0:
256,192,172954,1,8,0:0:0:0:
256,192,173107,1,0,0:0:0:0:
256,192,173564,1,0,0:0:0:0:
256,192,173717,1,8,0:0:0:0:
256,192,173869,1,8,0:0:0:0:
256,192,174173,1,8,0:0:0:0:
256,192,174325,1,0,0:0:0:0:
256,192,174553,1,0,0:0:0:0:
256,192,174782,1,0,0:0:0:0:
256,192,174934,1,8,0:0:0:0:
256,192,175086,1,0,0:0:0:0:
256,192,175162,1,0,0:0:0:0:
256,192,175239,1,8,0:0:0:0:
256,192,175391,1,8,0:0:0:0:
256,192,175543,1,0,0:0:0:0:
256,192,176000,1,0,0:0:0:0:
256,192,176152,1,8,0:0:0:0:
256,192,176304,1,8,0:0:0:0:
256,192,176609,1,8,0:0:0:0:
256,192,176761,1,0,0:0:0:0:
256,192,176990,1,0,0:0:0:0:
256,192,177218,1,0,0:0:0:0:
256,192,177370,1,8,0:0:0:0:
256,192,177523,1,8,0:0:0:0:
256,192,177827,1,8,0:0:0:0:
256,192,177980,1,0,0:0:0:0:
256,192,178436,1,0,0:0:0:0:
256,192,178589,1,8,0:0:0:0:
256,192,178741,1,8,0:0:0:0:
256,192,179046,1,8,0:0:0:0:
256,192,179198,1,0,0:0:0:0:
256,192,179426,1,0,0:0:0:0:
256,192,179655,1,0,0:0:0:0:
256,192,179807,1,8,0:0:0:0:
256,192,179959,1,8,0:0:0:0:
256,192,180035,1,8,0:0:0:0:
256,192,180112,1,8,0:0:0:0:
256,192,180264,1,8,0:0:0:0:
256,192,180416,1,0,0:0:0:0:
256,192,180873,1,0,0:0:0:0:
256,192,181025,1,8,0:0:0:0:
256,192,181178,1,8,0:0:0:0:
256,192,181482,1,8,0:0:0:0:
256,192,181634,1,0,0:0:0:0:
256,192,181863,1,0,0:0:0:0:
256,192,182091,1,0,0:0:0:0:
256,192,182244,1,8,0:0:0:0:
256,192,182396,1,8,0:0:0:0:
256,192,182700,1,8,0:0:0:0:
256,192,182853,1,0,0:0:0:0:
256,192,183310,1,0,0:0:0:0:
256,192,183462,1,8,0:0:0:0:
256,192,183614,1,8,0:0:0:0:
256,192,183919,1,8,0:0:0:0:
256,192,184071,1,0,0:0:0:0:
256,192,184223,1,8,0:0:0:0:
256,192,184299,1,0,0:0:0:0:
256,192,184452,1,8,0:0:0:0:
256,192,184528,1,0,0:0:0:0:
256,192,184680,1,8,0:0:0:0:
256,192,184832,1,0,0:0:0:0:
256,192,184909,1,0,0:0:0:0:
256,192,184985,1,8,0:0:0:0:
256,192,185137,1,0,0:0:0:0:
256,192,185188,1,0,0:0:0:0:
256,192,185239,1,0,0:0:0:0:
256,192,185289,1,8,0:0:0:0:
256,192,185593,1,8,0:0:0:0:
256,192,185898,1,8,0:0:0:0:
256,192,186202,1,8,0:0:0:0:
256,192,186507,1,8,0:0:0:0:
256,192,186811,1,8,0:0:0:0:
256,192,187116,1,8,0:0:0:0:
256,192,187268,1,8,0:0:0:0:
256,192,187420,1,8,0:0:0:0:
256,192,187573,1,8,0:0:0:0:
256,192,187725,1,8,0:0:0:0:
256,192,188030,1,8,0:0:0:0:
256,192,188334,1,8,0:0:0:0:
256,192,188639,1,8,0:0:0:0:
256,192,188943,1,8,0:0:0:0:
256,192,189248,1,8,0:0:0:0:
256,192,189552,1,8,0:0:0:0:
256,192,189705,1,8,0:0:0:0:
256,192,189781,1,8,0:0:0:0:
256,192,189857,1,8,0:0:0:0:
256,192,190009,1,0,0:0:0:0:
256,192,190060,1,0,0:0:0:0:
256,192,190111,1,0,0:0:0:0:
256,192,190162,1,8,0:0:0:0:
256,192,190466,1,8,0:0:0:0:
256,192,190771,1,8,0:0:0:0:
256,192,191075,1,8,0:0:0:0:
256,192,191380,1,8,0:0:0:0:
256,192,191684,1,8,0:0:0:0:
256,192,191989,1,8,0:0:0:0:
256,192,192141,1,8,0:0:0:0:
256,192,192293,1,8,0:0:0:0:
256,192,192446,1,8,0:0:0:0:
256,192,192598,1,8,0:0:0:0:
256,192,192903,1,8,0:0:0:0:
256,192,193207,1,8,0:0:0:0:
256,192,193512,1,8,0:0:0:0:
256,192,193816,1,8,0:0:0:0:
256,192,194121,1,8,0:0:0:0:
256,192,194425,1,8,0:0:0:0:
256,192,194578,1,8,0:0:0:0:
256,192,194654,1,8,0:0:0:0:
256,192,194730,1,8,0:0:0:0:
256,192,194882,1,0,0:0:0:0:
256,192,194933,1,0,0:0:0:0:
256,192,194984,1,0,0:0:0:0:
256,192,195035,1,8,0:0:0:0:
256,192,195339,1,8,0:0:0:0:
256,192,195644,1,8,0:0:0:0:
256,192,195948,1,8,0:0:0:0:
256,192,196253,1,8,0:0:0:0:
256,192,196558,1,8,0:0:0:0:
256,192,196862,1,8,0:0:0:0:
256,192,197167,1,8,0:0:0:0:
256,192,197319,1,0,0:0:0:0:
256,192,197370,1,0,0:0:0:0:
256,192,197420,1,0,0:0:0:0:
256,192,197471,1,8,0:0:0:0:
256,192,197776,1,8,0:0:0:0:
256,192,198080,1,8,0:0:0:0:
256,192,198385,1,8,0:0:0:0:
256,192,198690,1,8,0:0:0:0:
256,192,198994,1,8,0:0:0:0:
256,192,199299,1,8,0:0:0:0:
256,192,199603,1,8,0:0:0:0:
256,192,199756,1,0,0:0:0:0:
256,192,199806,1,0,0:0:0:0:
256,192,199857,1,0,0:0:0:0:
256,192,199908,1,8,0:0:0:0:
256,192,200060,1,8,0:0:0:0:
256,192,200212,1,8,0:0:0:0:
256,192,200365,1,8,0:0:0:0:
256,192,200517,1,8,0:0:0:0:
256,192,200745,1,8,0:0:0:0:
256,192,200974,1,0,0:0:0:0:
256,192,201025,1,0,0:0:0:0:
256,192,201075,1,0,0:0:0:0:
256,192,201126,1,8,0:0:0:0:
256,192,201278,1,8,0:0:0:0:
256,192,201431,1,8,0:0:0:0:
256,192,201583,1,8,0:0:0:0:
256,192,201735,1,8,0:0:0:0:
256,192,201964,1,8,0:0:0:0:
256,192,202192,1,0,0:0:0:0:
256,192,202243,1,0,0:0:0:0:
256,192,202294,1,0,0:0:0:0:
256,192,202344,1,8,0:0:0:0:
256,192,202497,1,8,0:0:0:0:
256,192,202649,1,8,0:0:0:0:
256,192,202801,1,0,0:0:0:0:
256,192,202852,1,0,0:0:0:0:
256,192,202903,1,0,0:0:0:0:
256,192,202953,1,8,0:0:0:0:
256,192,203106,1,8,0:0:0:0:
256,192,203258,1,8,0:0:0:0:
256,192,203410,1,0,0:0:0:0:
256,192,203461,1,0,0:0:0:0:
256,192,203512,1,0,0:0:0:0:
256,192,203563,1,8,0:0:0:0:
256,192,203639,1,8,0:0:0:0:
256,192,203715,1,8,0:0:0:0:
256,192,203867,1,8,0:0:0:0:
256,192,203943,1,8,0:0:0:0:
256,192,204019,1,8,0:0:0:0:
256,192,204172,1,8,0:0:0:0:
256,192,204248,1,8,0:0:0:0:
256,192,204324,1,8,0:0:0:0:
256,192,204476,1,8,0:0:0:0:
256,192,204552,1,8,0:0:0:0:
256,192,204629,1,0,0:0:0:0:
256,192,204679,1,0,0:0:0:0:
256,192,204730,1,0,0:0:0:0:
256,192,204781,1,12,0:0:0:0:
256,192,204933,1,12,0:0:0:0:
256,192,205238,1,4,0:0:0:0:
256,192,205390,1,4,0:0:0:0:
256,192,205695,1,12,0:0:0:0:
256,192,205847,1,12,0:0:0:0:
256,192,206151,1,4,0:0:0:0:
256,192,206304,1,4,0:0:0:0:
256,192,206608,1,12,0:0:0:0:
256,192,206761,1,12,0:0:0:0:
256,192,207065,1,4,0:0:0:0:
256,192,207217,1,4,0:0:0:0:
256,192,207522,1,12,0:0:0:0:
256,192,207674,1,12,0:0:0:0:
256,192,207979,1,4,0:0:0:0:
256,192,208131,1,4,0:0:0:0:
256,192,208436,1,12,0:0:0:0:
256,192,208588,1,12,0:0:0:0:
256,192,208893,1,4,0:0:0:0:
256,192,209045,1,4,0:0:0:0:
256,192,209349,1,12,0:0:0:0:
256,192,209502,1,12,0:0:0:0:
256,192,209654,1,4,0:0:0:0:
256,192,209806,1,4,0:0:0:0:
256,192,210111,1,12,0:0:0:0:
256,192,210263,1,12,0:0:0:0:
256,192,210568,1,4,0:0:0:0:
256,192,210720,1,4,0:0:0:0:
256,192,211025,1,12,0:0:0:0:
256,192,211177,1,12,0:0:0:0:
256,192,211481,1,4,0:0:0:0:
256,192,211634,1,4,0:0:0:0:
256,192,211938,1,12,0:0:0:0:
256,192,212091,1,12,0:0:0:0:
256,192,212395,1,4,0:0:0:0:
256,192,212547,1,4,0:0:0:0:
256,192,212852,1,12,0:0:0:0:
256,192,213004,1,12,0:0:0:0:
256,192,213309,1,4,0:0:0:0:
256,192,213461,1,4,0:0:0:0:
256,192,213766,1,12,0:0:0:0:
256,192,213918,1,12,0:0:0:0:
256,192,214223,1,4,0:0:0:0:
256,192,214375,1,12,0:0:0:0:
256,192,214527,1,0,0:0:0:0:
256,192,214603,1,0,0:0:0:0:
256,192,214679,1,8,0:0:0:0:
256,192,214756,1,0,0:0:0:0:
256,192,214832,1,8,0:0:0:0:
256,192,214882,1,8,0:0:0:0:
256,192,214933,1,8,0:0:0:0:
256,192,214984,1,0,0:0:0:0:
256,192,215060,1,0,0:0:0:0:
256,192,215136,1,8,0:0:0:0:
256,192,215238,1,8,0:0:0:0:
256,192,215339,1,0,0:0:0:0:
256,192,215441,1,8,0:0:0:0:
256,192,215492,1,8,0:0:0:0:
256,192,215542,1,8,0:0:0:0:
256,192,215593,1,8,0:0:0:0:
256,192,215669,1,0,0:0:0:0:
256,192,215745,1,8,0:0:0:0:
256,192,215847,1,8,0:0:0:0:
256,192,215898,1,0,0:0:0:0:
256,192,215974,1,0,0:0:0:0:
256,192,216050,1,8,0:0:0:0:
256,192,216126,1,0,0:0:0:0:
256,192,216202,1,8,0:0:0:0:
256,192,216278,1,8,0:0:0:0:
256,192,216354,1,0,0:0:0:0:
256,192,216431,1,0,0:0:0:0:
256,192,216507,1,8,0:0:0:0:
256,192,216545,1,8,0:0:0:0:
256,192,216659,1,0,0:0:0:0:
256,192,216761,1,8,0:0:0:0:
256,192,216862,1,0,0:0:0:0:
256,192,216964,1,8,0:0:0:0:
256,192,217014,1,8,0:0:0:0:
256,192,217065,1,8,0:0:0:0:
256,192,217116,1,8,0:0:0:0:
256,192,217192,1,8,0:0:0:0:
256,192,217268,1,0,0:0:0:0:
256,192,217344,1,0,0:0:0:0:
256,192,217420,1,8,0:0:0:0:
256,192,217471,1,8,0:0:0:0:
256,192,217522,1,8,0:0:0:0:
256,192,217573,1,0,0:0:0:0:
256,192,217649,1,8,0:0:0:0:
256,192,217725,1,0,0:0:0:0:
256,192,217801,1,0,0:0:0:0:
256,192,217877,1,8,0:0:0:0:
256,192,217903,1,8,0:0:0:0:
256,192,217979,1,0,0:0:0:0:
256,192,218080,1,8,0:0:0:0:
256,192,218182,1,0,0:0:0:0:
256,192,218258,1,0,0:0:0:0:
256,192,218334,1,8,0:0:0:0:
256,192,218385,1,8,0:0:0:0:
256,192,218486,1,8,0:0:0:0:
256,192,218537,1,8,0:0:0:0:
256,192,218639,1,0,0:0:0:0:
256,192,218715,1,0,0:0:0:0:
256,192,218791,1,8,0:0:0:0:
256,192,218867,1,8,0:0:0:0:
256,192,218943,1,8,0:0:0:0:
256,192,219019,1,0,0:0:0:0:
256,192,219096,1,8,0:0:0:0:
256,192,219172,1,0,0:0:0:0:
256,192,219248,1,8,0:0:0:0:
256,192,219299,1,8,0:0:0:0:
256,192,219349,1,8,0:0:0:0:
256,192,219400,1,0,0:0:0:0:
256,192,219476,1,0,0:0:0:0:
256,192,219552,1,8,0:0:0:0:
256,192,219629,1,0,0:0:0:0:
256,192,219705,1,8,0:0:0:0:
256,192,219756,1,8,0:0:0:0:
256,192,219806,1,8,0:0:0:0:
256,192,219857,1,0,0:0:0:0:
256,192,219933,1,0,0:0:0:0:
256,192,220009,1,8,0:0:0:0:
256,192,220111,1,8,0:0:0:0:
256,192,220212,1,0,0:0:0:0:
256,192,220314,1,8,0:0:0:0:
256,192,220365,1,8,0:0:0:0:
256,192,220415,1,8,0:0:0:0:
256,192,220466,1,8,0:0:0:0:
256,192,220542,1,0,0:0:0:0:
256,192,220618,1,8,0:0:0:0:
256,192,220695,1,8,0:0:0:0:
256,192,220771,1,0,0:0:0:0:
256,192,220821,1,0,0:0:0:0:
256,192,220872,1,0,0:0:0:0:
256,192,220923,1,8,0:0:0:0:
256,192,220999,1,8,0:0:0:0:
256,192,221075,1,0,0:0:0:0:
256,192,221151,1,8,0:0:0:0:
256,192,221228,1,0,0:0:0:0:
256,192,221304,1,0,0:0:0:0:
256,192,221380,1,8,0:0:0:0:
256,192,221418,1,8,0:0:0:0:
256,192,221532,1,8,0:0:0:0:
256,192,221634,1,8,0:0:0:0:
256,192,221735,1,0,0:0:0:0:
256,192,221837,1,8,0:0:0:0:
256,192,221913,1,8,0:0:0:0:
256,192,221989,1,0,0:0:0:0:
256,192,222065,1,8,0:0:0:0:
256,192,222141,1,0,0:0:0:0:
256,192,222217,1,0,0:0:0:0:
256,192,222294,1,8,0:0:0:0:
256,192,222344,1,8,0:0:0:0:
256,192,222395,1,8,0:0:0:0:
256,192,222446,1,8,0:0:0:0:
256,192,222522,1,8,0:0:0:0:
256,192,222598,1,0,0:0:0:0:
256,192,222674,1,0,0:0:0:0:
256,192,222750,1,8,0:0:0:0:
256,192,222801,1,8,0:0:0:0:
256,192,222852,1,8,0:0:0:0:
256,192,222903,1,8,0:0:0:0:
256,192,222979,1,0,0:0:0:0:
256,192,223055,1,8,0:0:0:0:
256,192,223157,1,8,0:0:0:0:
256,192,223207,1,8,0:0:0:0:
256,192,223258,1,0,0:0:0:0:
256,192,223360,1,8,0:0:0:0:
256,192,223461,1,8,0:0:0:0:
256,192,223512,1,8,0:0:0:0:
256,192,223563,1,0,0:0:0:0:
256,192,223664,1,12,0:0:0:0:
256,192,223766,1,12,0:0:0:0:
256,192,223867,1,12,0:0:0:0:
256,192,223969,12,0,224121,0:0:0:0:
256,192,224273,5,4,0:0:0:0:
256,192,229146,1,4,0:0:0:0:
256,192,231431,1,0,0:0:0:0:
256,192,231481,1,0,0:0:0:0:
256,192,231532,1,0,0:0:0:0:
256,192,231583,1,12,0:0:0:0:
256,192,231811,1,12,0:0:0:0:
256,192,232040,1,12,0:0:0:0:
256,192,232192,1,12,0:0:0:0:
256,192,232268,1,12,0:0:0:0:
256,192,232420,1,12,0:0:0:0:
256,192,232649,1,8,0:0:0:0:
256,192,232700,1,8,0:0:0:0:
256,192,232750,1,8,0:0:0:0:
256,192,232801,1,4,0:0:0:0:
256,192,233030,1,4,0:0:0:0:
256,192,233258,1,4,0:0:0:0:
256,192,233410,1,4,0:0:0:0:
256,192,233486,1,4,0:0:0:0:
256,192,233639,1,0,0:0:0:0:
256,192,233715,1,0,0:0:0:0:
256,192,233766,1,8,0:0:0:0:
256,192,233816,1,8,0:0:0:0:
256,192,233867,1,0,0:0:0:0:
256,192,233918,1,8,0:0:0:0:
256,192,233969,1,8,0:0:0:0:
256,192,234019,12,0,234172,0:0:0:0:
256,192,234324,5,12,0:0:0:0:
256,192,234476,1,8,0:0:0:0:
256,192,234552,1,8,0:0:0:0:
256,192,234629,1,8,0:0:0:0:
256,192,234705,1,8,0:0:0:0:
256,192,234781,1,0,0:0:0:0:
256,192,234933,1,8,0:0:0:0:
256,192,235085,1,8,0:0:0:0:
256,192,235162,1,8,0:0:0:0:
256,192,235238,1,0,0:0:0:0:
256,192,235390,1,0,0:0:0:0:
256,192,235542,1,8,0:0:0:0:
256,192,235695,1,0,0:0:0:0:
256,192,235771,1,8,0:0:0:0:
256,192,235847,1,8,0:0:0:0:
256,192,235923,1,8,0:0:0:0:
256,192,235999,1,0,0:0:0:0:
256,192,236151,1,8,0:0:0:0:
256,192,236304,1,8,0:0:0:0:
256,192,236380,1,8,0:0:0:0:
256,192,236456,1,0,0:0:0:0:
256,192,236608,1,0,0:0:0:0:
256,192,236761,1,8,0:0:0:0:
256,192,236913,1,8,0:0:0:0:
256,192,236989,1,8,0:0:0:0:
256,192,237065,1,8,0:0:0:0:
256,192,237141,1,8,0:0:0:0:
256,192,237217,1,0,0:0:0:0:
256,192,237370,1,8,0:0:0:0:
256,192,237522,1,8,0:0:0:0:
256,192,237598,1,8,0:0:0:0:
256,192,237674,1,0,0:0:0:0:
256,192,237827,1,0,0:0:0:0:
256,192,237979,1,8,0:0:0:0:
256,192,238055,1,8,0:0:0:0:
256,192,238207,1,8,0:0:0:0:
256,192,238283,1,0,0:0:0:0:
256,192,238360,1,8,0:0:0:0:
256,192,238436,1,0,0:0:0:0:
256,192,238512,1,0,0:0:0:0:
256,192,238588,1,8,0:0:0:0:
256,192,238740,1,8,0:0:0:0:
256,192,238816,1,8,0:0:0:0:
256,192,238893,1,0,0:0:0:0:
256,192,239045,1,0,0:0:0:0:
256,192,239197,1,8,0:0:0:0:
256,192,239349,1,8,0:0:0:0:
256,192,239426,1,8,0:0:0:0:
256,192,239502,1,8,0:0:0:0:
256,192,239578,1,8,0:0:0:0:
256,192,239654,1,0,0:0:0:0:
256,192,239806,1,8,0:0:0:0:
256,192,239959,1,8,0:0:0:0:
256,192,240035,1,8,0:0:0:0:
256,192,240111,1,0,0:0:0:0:
256,192,240263,1,0,0:0:0:0:
256,192,240415,1,8,0:0:0:0:
256,192,240568,1,0,0:0:0:0:
256,192,240644,1,8,0:0:0:0:
256,192,240720,1,8,0:0:0:0:
256,192,240796,1,8,0:0:0:0:
256,192,240872,1,0,0:0:0:0:
256,192,241025,1,8,0:0:0:0:
256,192,241101,1,8,0:0:0:0:
256,192,241177,1,0,0:0:0:0:
256,192,241253,1,8,0:0:0:0:
256,192,241329,1,0,0:0:0:0:
256,192,241481,1,0,0:0:0:0:
256,192,241558,1,0,0:0:0:0:
256,192,241634,1,8,0:0:0:0:
256,192,241786,1,0,0:0:0:0:
256,192,241938,1,4,0:0:0:0:
256,192,242091,1,0,0:0:0:0:
256,192,242167,1,0,0:0:0:0:
256,192,242243,1,8,0:0:0:0:
256,192,242395,1,0,0:0:0:0:
256,192,242547,1,4,0:0:0:0:
256,192,242700,1,0,0:0:0:0:
256,192,242776,1,8,0:0:0:0:
256,192,243004,1,4,0:0:0:0:
256,192,243157,1,0,0:0:0:0:
256,192,243233,1,8,0:0:0:0:
256,192,243461,1,0,0:0:0:0:
256,192,243537,1,0,0:0:0:0:
256,192,243613,1,8,0:0:0:0:
256,192,243690,1,8,0:0:0:0:
256,192,243766,1,0,0:0:0:0:
256,192,243918,1,0,0:0:0:0:
256,192,243994,1,0,0:0:0:0:
256,192,244070,1,8,0:0:0:0:
256,192,244223,1,8,0:0:0:0:
256,192,244299,1,0,0:0:0:0:
256,192,244375,1,8,0:0:0:0:
256,192,244451,1,8,0:0:0:0:
256,192,244527,1,0,0:0:0:0:
256,192,244603,1,0,0:0:0:0:
256,192,244679,1,8,0:0:0:0:
256,192,244832,1,0,0:0:0:0:
256,192,244984,1,0,0:0:0:0:
256,192,245136,1,0,0:0:0:0:
256,192,245212,1,0,0:0:0:0:
256,192,245289,1,8,0:0:0:0:
256,192,245441,1,8,0:0:0:0:
256,192,245517,1,0,0:0:0:0:
256,192,245593,1,8,0:0:0:0:
256,192,245669,1,8,0:0:0:0:
256,192,245745,1,0,0:0:0:0:
256,192,245821,1,0,0:0:0:0:
256,192,245898,1,8,0:0:0:0:
256,192,245974,1,8,0:0:0:0:
256,192,246050,1,0,0:0:0:0:
256,192,246202,1,0,0:0:0:0:
256,192,246354,1,0,0:0:0:0:
256,192,246431,1,0,0:0:0:0:
256,192,246507,1,8,0:0:0:0:
256,192,246659,1,8,0:0:0:0:
256,192,246735,1,0,0:0:0:0:
256,192,246811,1,8,0:0:0:0:
256,192,246887,1,8,0:0:0:0:
256,192,246964,1,0,0:0:0:0:
256,192,247040,1,0,0:0:0:0:
256,192,247116,1,8,0:0:0:0:
256,192,247268,1,0,0:0:0:0:
256,192,247420,1,0,0:0:0:0:
256,192,247573,1,0,0:0:0:0:
256,192,247649,1,0,0:0:0:0:
256,192,247725,1,8,0:0:0:0:
256,192,247877,1,8,0:0:0:0:
256,192,247953,1,0,0:0:0:0:
256,192,248030,1,8,0:0:0:0:
256,192,248106,1,8,0:0:0:0:
256,192,248182,1,0,0:0:0:0:
256,192,248258,1,0,0:0:0:0:
256,192,248334,1,8,0:0:0:0:
256,192,248410,1,0,0:0:0:0:
256,192,248486,1,8,0:0:0:0:
256,192,248563,1,8,0:0:0:0:
256,192,248639,1,0,0:0:0:0:
256,192,248791,1,0,0:0:0:0:
256,192,248867,1,0,0:0:0:0:
256,192,248943,1,8,0:0:0:0:
256,192,249096,1,8,0:0:0:0:
256,192,249172,1,0,0:0:0:0:
256,192,249248,1,8,0:0:0:0:
256,192,249324,1,8,0:0:0:0:
256,192,249400,1,0,0:0:0:0:
256,192,249476,1,0,0:0:0:0:
256,192,249552,1,8,0:0:0:0:
256,192,249705,1,0,0:0:0:0:
256,192,249857,1,0,0:0:0:0:
256,192,250009,1,0,0:0:0:0:
256,192,250085,1,0,0:0:0:0:
256,192,250162,1,8,0:0:0:0:
256,192,250314,1,8,0:0:0:0:
256,192,250390,1,0,0:0:0:0:
256,192,250466,1,8,0:0:0:0:
256,192,250542,1,8,0:0:0:0:
256,192,250618,1,0,0:0:0:0:
256,192,250694,1,0,0:0:0:0:
256,192,250771,1,8,0:0:0:0:
256,192,250847,1,8,0:0:0:0:
256,192,250923,1,0,0:0:0:0:
256,192,251075,1,0,0:0:0:0:
256,192,251227,1,0,0:0:0:0:
256,192,251304,1,0,0:0:0:0:
256,192,251380,1,8,0:0:0:0:
256,192,251532,1,8,0:0:0:0:
256,192,251608,1,0,0:0:0:0:
256,192,251684,1,8,0:0:0:0:
256,192,251760,1,8,0:0:0:0:
256,192,251837,1,0,0:0:0:0:
256,192,251913,1,0,0:0:0:0:
256,192,251989,1,8,0:0:0:0:
256,192,252141,1,0,0:0:0:0:
256,192,252293,1,0,0:0:0:0:
256,192,252446,1,0,0:0:0:0:
256,192,252522,1,0,0:0:0:0:
256,192,252598,1,8,0:0:0:0:
256,192,252674,1,0,0:0:0:0:
256,192,252750,1,0,0:0:0:0:
256,192,252827,1,8,0:0:0:0:
256,192,252979,1,8,0:0:0:0:
256,192,253055,1,0,0:0:0:0:
256,192,253131,1,0,0:0:0:0:
256,192,253207,1,8,0:0:0:0:
256,192,253283,1,0,0:0:0:0:
256,192,253359,1,8,0:0:0:0:
256,192,253436,1,8,0:0:0:0:
256,192,253512,1,0,0:0:0:0:
256,192,253664,1,0,0:0:0:0:
256,192,253740,1,0,0:0:0:0:
256,192,253816,1,8,0:0:0:0:
256,192,253969,1,8,0:0:0:0:
256,192,254045,1,0,0:0:0:0:
256,192,254121,1,8,0:0:0:0:
256,192,254197,1,8,0:0:0:0:
256,192,254273,1,0,0:0:0:0:
256,192,254349,1,0,0:0:0:0:
256,192,254425,1,8,0:0:0:0:
256,192,254578,1,0,0:0:0:0:
256,192,254730,1,0,0:0:0:0:
256,192,254882,1,0,0:0:0:0:
256,192,254958,1,0,0:0:0:0:
256,192,255035,1,8,0:0:0:0:
256,192,255187,1,8,0:0:0:0:
256,192,255263,1,0,0:0:0:0:
256,192,255339,1,8,0:0:0:0:
256,192,255415,1,8,0:0:0:0:
256,192,255491,1,0,0:0:0:0:
256,192,255567,1,0,0:0:0:0:
256,192,255644,1,8,0:0:0:0:
256,192,255720,1,8,0:0:0:0:
256,192,255796,1,0,0:0:0:0:
256,192,255948,1,0,0:0:0:0:
256,192,256100,1,0,0:0:0:0:
256,192,256177,1,0,0:0:0:0:
256,192,256253,1,8,0:0:0:0:
256,192,256405,1,8,0:0:0:0:
256,192,256481,1,0,0:0:0:0:
256,192,256557,1,8,0:0:0:0:
256,192,256633,1,8,0:0:0:0:
256,192,256710,1,0,0:0:0:0:
256,192,256786,1,0,0:0:0:0:
256,192,256862,1,8,0:0:0:0:
256,192,257014,1,0,0:0:0:0:
256,192,257166,1,0,0:0:0:0:
256,192,257319,1,0,0:0:0:0:
256,192,257395,1,0,0:0:0:0:
256,192,257471,1,8,0:0:0:0:
256,192,257623,1,8,0:0:0:0:
256,192,257699,1,0,0:0:0:0:
256,192,257776,1,8,0:0:0:0:
256,192,257928,1,0,0:0:0:0:
256,192,258004,1,0,0:0:0:0:
256,192,258080,1,8,0:0:0:0:
256,192,258156,1,8,0:0:0:0:
256,192,258232,1,0,0:0:0:0:
256,192,258309,1,8,0:0:0:0:
256,192,258385,1,0,0:0:0:0:
256,192,258537,1,0,0:0:0:0:
256,192,258613,1,0,0:0:0:0:
256,192,258690,1,8,0:0:0:0:
256,192,258842,1,8,0:0:0:0:
256,192,258918,1,8,0:0:0:0:
256,192,258994,1,0,0:0:0:0:
256,192,259146,1,0,0:0:0:0:
256,192,259223,1,0,0:0:0:0:
256,192,259299,1,8,0:0:0:0:
256,192,259451,1,0,0:0:0:0:
256,192,259527,1,8,0:0:0:0:
256,192,259603,1,0,0:0:0:0:
256,192,259756,1,0,0:0:0:0:
256,192,259832,1,0,0:0:0:0:
256,192,259908,1,8,0:0:0:0:
256,192,260060,1,8,0:0:0:0:
256,192,260136,1,8,0:0:0:0:
256,192,260212,1,0,0:0:0:0:
256,192,260289,1,8,0:0:0:0:
256,192,260365,1,0,0:0:0:0:
256,192,260441,1,0,0:0:0:0:
256,192,260517,1,8,0:0:0:0:
256,192,260669,1,8,0:0:0:0:
256,192,260745,1,8,0:0:0:0:
256,192,260821,1,0,0:0:0:0:
256,192,260974,1,0,0:0:0:0:
256,192,261050,1,0,0:0:0:0:
256,192,261126,1,8,0:0:0:0:
256,192,261278,1,0,0:0:0:0:
256,192,261431,1,4,0:0:0:0:
256,192,261583,1,0,0:0:0:0:
256,192,261659,1,0,0:0:0:0:
256,192,261735,1,8,0:0:0:0:
256,192,261887,1,0,0:0:0:0:
256,192,262040,1,0,0:0:0:0:
256,192,262116,1,0,0:0:0:0:
256,192,262192,1,8,0:0:0:0:
256,192,262268,1,0,0:0:0:0:
256,192,262344,1,8,0:0:0:0:
256,192,262420,1,8,0:0:0:0:
256,192,262497,1,0,0:0:0:0:
256,192,262573,1,8,0:0:0:0:
256,192,262649,1,0,0:0:0:0:
256,192,262725,1,8,0:0:0:0:
256,192,262801,1,8,0:0:0:0:
256,192,262877,1,0,0:0:0:0:
256,192,262953,1,8,0:0:0:0:
256,192,263030,1,8,0:0:0:0:
256,192,263106,1,0,0:0:0:0:
256,192,263182,1,8,0:0:0:0:
256,192,263258,12,0,263410,0:0:0:0:
256,192,263563,5,8,0:0:0:0:
256,192,263639,1,8,0:0:0:0:
256,192,263715,1,8,0:0:0:0:
256,192,263791,1,8,0:0:0:0:
256,192,263867,1,8,0:0:0:0:
256,192,263918,1,8,0:0:0:0:
256,192,263969,1,8,0:0:0:0:
256,192,264019,1,8,0:0:0:0:
256,192,264070,1,8,0:0:0:0:
256,192,264121,1,8,0:0:0:0:
256,192,264172,1,8,0:0:0:0:
256,192,264273,1,8,0:0:0:0:
256,192,264375,1,8,0:0:0:0:
256,192,264476,1,0,0:0:0:0:
256,192,264933,1,0,0:0:0:0:
256,192,265085,1,8,0:0:0:0:
256,192,265187,1,8,0:0:0:0:
256,192,265289,1,8,0:0:0:0:
256,192,265390,1,8,0:0:0:0:
256,192,265492,1,8,0:0:0:0:
256,192,265593,1,8,0:0:0:0:
256,192,265695,1,0,0:0:0:0:
256,192,265999,1,0,0:0:0:0:
256,192,266151,1,8,0:0:0:0:
256,192,266202,1,8,0:0:0:0:
256,192,266253,1,8,0:0:0:0:
256,192,266304,1,8,0:0:0:0:
256,192,266608,1,8,0:0:0:0:
256,192,266684,1,8,0:0:0:0:
256,192,266761,1,8,0:0:0:0:
256,192,266837,1,8,0:0:0:0:
256,192,266913,1,0,0:0:0:0:
256,192,267217,1,8,0:0:0:0:
256,192,267370,1,0,0:0:0:0:
256,192,267522,1,8,0:0:0:0:
256,192,267624,1,8,0:0:0:0:
256,192,267725,1,8,0:0:0:0:
256,192,267827,12,0,267979,0:0:0:0:
256,192,268131,5,4,0:0:0:0:
256,192,268283,1,0,0:0:0:0:
256,192,268360,1,0,0:0:0:0:
256,192,268436,1,8,0:0:0:0:
256,192,268588,1,8,0:0:0:0:
256,192,268664,1,8,0:0:0:0:
256,192,268740,1,8,0:0:0:0:
256,192,268816,1,8,0:0:0:0:
256,192,268893,1,0,0:0:0:0:
256,192,268969,1,0,0:0:0:0:
256,192,269045,1,8,0:0:0:0:
256,192,269197,1,0,0:0:0:0:
256,192,269273,1,8,0:0:0:0:
256,192,269349,1,0,0:0:0:0:
256,192,269502,1,0,0:0:0:0:
256,192,269578,1,0,0:0:0:0:
256,192,269654,1,8,0:0:0:0:
256,192,269806,1,8,0:0:0:0:
256,192,269882,1,8,0:0:0:0:
256,192,269959,1,0,0:0:0:0:
256,192,270035,1,8,0:0:0:0:
256,192,270111,1,0,0:0:0:0:
256,192,270187,1,0,0:0:0:0:
256,192,270263,1,8,0:0:0:0:
256,192,270339,1,0,0:0:0:0:
256,192,270415,1,8,0:0:0:0:
256,192,270568,1,0,0:0:0:0:
256,192,270720,1,0,0:0:0:0:
256,192,270796,1,0,0:0:0:0:
256,192,270872,1,8,0:0:0:0:
256,192,271025,1,8,0:0:0:0:
256,192,271101,1,8,0:0:0:0:
256,192,271177,1,8,0:0:0:0:
256,192,271253,1,8,0:0:0:0:
256,192,271329,1,0,0:0:0:0:
256,192,271405,1,0,0:0:0:0:
256,192,271481,1,8,0:0:0:0:
256,192,271634,1,8,0:0:0:0:
256,192,271710,1,8,0:0:0:0:
256,192,271786,1,0,0:0:0:0:
256,192,271938,1,0,0:0:0:0:
256,192,272014,1,0,0:0:0:0:
256,192,272091,1,8,0:0:0:0:
256,192,272243,1,0,0:0:0:0:
256,192,272395,1,8,0:0:0:0:
256,192,272471,1,0,0:0:0:0:
256,192,272624,1,0,0:0:0:0:
256,192,272700,1,8,0:0:0:0:
256,192,272776,1,0,0:0:0:0:
256,192,272852,1,8,0:0:0:0:
256,192,272928,1,8,0:0:0:0:
256,192,273004,1,0,0:0:0:0:
256,192,273157,1,0,0:0:0:0:
256,192,273234,1,0,0:0:0:0:
256,192,273310,1,8,0:0:0:0:
256,192,273462,1,8,0:0:0:0:
256,192,273538,1,8,0:0:0:0:
256,192,273614,1,8,0:0:0:0:
256,192,273690,1,8,0:0:0:0:
256,192,273767,1,0,0:0:0:0:
256,192,273843,1,0,0:0:0:0:
256,192,273919,1,8,0:0:0:0:
256,192,274071,1,0,0:0:0:0:
256,192,274147,1,8,0:0:0:0:
256,192,274223,1,0,0:0:0:0:
256,192,274376,1,0,0:0:0:0:
256,192,274452,1,0,0:0:0:0:
256,192,274528,1,8,0:0:0:0:
256,192,274680,1,8,0:0:0:0:
256,192,274756,1,8,0:0:0:0:
256,192,274833,1,0,0:0:0:0:
256,192,274909,1,8,0:0:0:0:
256,192,274985,1,0,0:0:0:0:
256,192,275061,1,0,0:0:0:0:
256,192,275137,1,8,0:0:0:0:
256,192,275213,1,0,0:0:0:0:
256,192,275289,1,8,0:0:0:0:
256,192,275442,1,0,0:0:0:0:
256,192,275594,1,0,0:0:0:0:
256,192,275670,1,0,0:0:0:0:
256,192,275746,1,8,0:0:0:0:
256,192,275899,1,8,0:0:0:0:
256,192,275975,1,8,0:0:0:0:
256,192,276051,1,8,0:0:0:0:
256,192,276127,1,8,0:0:0:0:
256,192,276203,1,0,0:0:0:0:
256,192,276279,1,0,0:0:0:0:
256,192,276355,1,8,0:0:0:0:
256,192,276508,1,8,0:0:0:0:
256,192,276584,1,8,0:0:0:0:
256,192,276660,1,0,0:0:0:0:
256,192,276812,1,0,0:0:0:0:
256,192,276888,1,0,0:0:0:0:
256,192,276965,1,8,0:0:0:0:
256,192,277117,1,0,0:0:0:0:
256,192,277192,1,8,0:0:0:0:
256,192,277269,1,8,0:0:0:0:
256,192,277344,1,8,0:0:0:0:
256,192,277420,1,0,0:0:0:0:
256,192,277497,1,0,0:0:0:0:
256,192,277573,1,8,0:0:0:0:
256,192,277726,1,8,0:0:0:0:
256,192,277802,1,8,0:0:0:0:
256,192,277878,1,0,0:0:0:0:
256,192,278030,1,0,0:0:0:0:
256,192,278106,1,0,0:0:0:0:
256,192,278182,1,8,0:0:0:0:
256,192,278334,1,8,0:0:0:0:
256,192,278410,1,8,0:0:0:0:
256,192,278486,1,0,0:0:0:0:
256,192,278639,1,0,0:0:0:0:
256,192,278715,1,0,0:0:0:0:
256,192,278791,1,8,0:0:0:0:
256,192,278943,1,0,0:0:0:0:
256,192,279019,1,8,0:0:0:0:
256,192,279096,1,0,0:0:0:0:
256,192,279248,1,0,0:0:0:0:
256,192,279324,1,0,0:0:0:0:
256,192,279400,1,8,0:0:0:0:
256,192,279552,1,8,0:0:0:0:
256,192,279629,1,8,0:0:0:0:
256,192,279705,1,0,0:0:0:0:
256,192,279781,1,8,0:0:0:0:
256,192,279857,1,0,0:0:0:0:
256,192,279933,1,0,0:0:0:0:
256,192,280009,1,8,0:0:0:0:
256,192,280162,1,8,0:0:0:0:
256,192,280238,1,8,0:0:0:0:
256,192,280314,1,0,0:0:0:0:
256,192,280390,1,0,0:0:0:0:
256,192,280466,1,0,0:0:0:0:
256,192,280542,1,0,0:0:0:0:
256,192,280618,1,8,0:0:0:0:
256,192,280771,1,0,0:0:0:0:
256,192,280923,1,0,0:0:0:0:
256,192,280999,1,0,0:0:0:0:
256,192,281075,1,0,0:0:0:0:
256,192,281151,1,0,0:0:0:0:
256,192,281228,1,8,0:0:0:0:
256,192,281380,1,0,0:0:0:0:
256,192,281532,1,0,0:0:0:0:
256,192,281608,1,0,0:0:0:0:
256,192,281684,1,8,0:0:0:0:
256,192,281761,1,0,0:0:0:0:
256,192,281837,1,8,0:0:0:0:
256,192,281913,1,8,0:0:0:0:
256,192,281989,1,0,0:0:0:0:
256,192,282065,1,8,0:0:0:0:
256,192,282141,1,0,0:0:0:0:
256,192,282217,1,0,0:0:0:0:
256,192,282294,1,8,0:0:0:0:
256,192,282344,1,8,0:0:0:0:
256,192,282395,1,8,0:0:0:0:
256,192,282446,1,0,0:0:0:0:
256,192,282522,1,0,0:0:0:0:
256,192,282598,1,8,0:0:0:0:
256,192,282649,1,8,0:0:0:0:
256,192,282700,1,8,0:0:0:0:
256,192,282750,1,0,0:0:0:0:
256,192,282903,1,0,0:0:0:0:
256,192,282979,1,0,0:0:0:0:
256,192,283055,1,8,0:0:0:0:
256,192,283207,1,0,0:0:0:0:
256,192,283360,1,8,0:0:0:0:
256,192,283512,1,0,0:0:0:0:
256,192,283588,1,0,0:0:0:0:
256,192,283664,1,8,0:0:0:0:
256,192,283816,1,0,0:0:0:0:
256,192,283969,1,8,0:0:0:0:
256,192,284121,1,0,0:0:0:0:
256,192,284197,1,0,0:0:0:0:
256,192,284273,1,8,0:0:0:0:
256,192,284349,1,0,0:0:0:0:
256,192,284426,1,8,0:0:0:0:
256,192,284502,1,8,0:0:0:0:
256,192,284578,1,0,0:0:0:0:
256,192,284654,1,0,0:0:0:0:
256,192,284730,1,8,0:0:0:0:
256,192,284806,1,0,0:0:0:0:
256,192,284882,1,8,0:0:0:0:
256,192,284959,1,8,0:0:0:0:
256,192,285035,1,0,0:0:0:0:
256,192,285111,1,8,0:0:0:0:
256,192,285187,1,0,0:0:0:0:
256,192,285339,1,0,0:0:0:0:
256,192,285415,1,0,0:0:0:0:
256,192,285492,1,8,0:0:0:0:
256,192,285644,1,0,0:0:0:0:
256,192,285796,1,8,0:0:0:0:
256,192,285948,1,0,0:0:0:0:
256,192,286025,1,0,0:0:0:0:
256,192,286101,1,8,0:0:0:0:
256,192,286253,1,0,0:0:0:0:
256,192,286329,1,8,0:0:0:0:
256,192,286405,1,0,0:0:0:0:
256,192,286558,1,0,0:0:0:0:
256,192,286634,1,0,0:0:0:0:
256,192,286710,1,8,0:0:0:0:
256,192,286862,1,0,0:0:0:0:
256,192,287014,1,8,0:0:0:0:
256,192,287091,1,0,0:0:0:0:
256,192,287243,1,0,0:0:0:0:
256,192,287319,1,8,0:0:0:0:
256,192,287395,1,8,0:0:0:0:
256,192,287471,1,0,0:0:0:0:
256,192,287547,1,0,0:0:0:0:
256,192,287624,1,8,0:0:0:0:
256,192,287776,1,0,0:0:0:0:
256,192,287852,1,0,0:0:0:0:
256,192,287928,1,8,0:0:0:0:
256,192,288080,1,0,0:0:0:0:
256,192,288233,1,8,0:0:0:0:
256,192,288385,1,0,0:0:0:0:
256,192,288461,1,0,0:0:0:0:
256,192,288537,1,8,0:0:0:0:
256,192,288690,1,0,0:0:0:0:
256,192,288842,1,8,0:0:0:0:
256,192,288994,1,0,0:0:0:0:
256,192,289070,1,8,0:0:0:0:
256,192,289223,1,8,0:0:0:0:
256,192,289299,1,0,0:0:0:0:
256,192,289451,1,0,0:0:0:0:
256,192,289527,1,8,0:0:0:0:
256,192,289679,1,8,0:0:0:0:
256,192,289756,1,0,0:0:0:0:
256,192,289832,1,8,0:0:0:0:
256,192,289908,1,8,0:0:0:0:
256,192,289984,1,0,0:0:0:0:
256,192,290060,1,8,0:0:0:0:
256,192,290212,1,0,0:0:0:0:
256,192,290289,1,0,0:0:0:0:
256,192,290365,1,8,0:0:0:0:
256,192,290517,1,0,0:0:0:0:
256,192,290593,1,0,0:0:0:0:
256,192,290669,1,8,0:0:0:0:
256,192,290821,1,0,0:0:0:0:
256,192,290974,1,8,0:0:0:0:
256,192,291126,1,0,0:0:0:0:
256,192,291202,1,8,0:0:0:0:
256,192,291278,1,8,0:0:0:0:
256,192,291431,1,0,0:0:0:0:
256,192,291583,1,8,0:0:0:0:
256,192,291735,1,0,0:0:0:0:
256,192,291811,1,0,0:0:0:0:
256,192,291887,1,8,0:0:0:0:
256,192,292040,1,8,0:0:0:0:
256,192,292116,1,0,0:0:0:0:
256,192,292192,1,8,0:0:0:0:
256,192,292344,1,0,0:0:0:0:
256,192,292497,1,4,0:0:0:0:
256,192,292650,1,0,0:0:0:0:
256,192,292726,1,0,0:0:0:0:
256,192,292802,1,8,0:0:0:0:
256,192,292954,1,0,0:0:0:0:
256,192,293107,1,8,0:0:0:0:
256,192,293259,1,0,0:0:0:0:
256,192,293335,1,0,0:0:0:0:
256,192,293411,1,8,0:0:0:0:
256,192,293563,1,0,0:0:0:0:
256,192,293716,1,8,0:0:0:0:
256,192,293868,1,0,0:0:0:0:
256,192,293944,1,0,0:0:0:0:
256,192,294020,1,8,0:0:0:0:
256,192,294096,1,0,0:0:0:0:
256,192,294173,1,8,0:0:0:0:
256,192,294249,1,8,0:0:0:0:
256,192,294325,1,0,0:0:0:0:
256,192,294401,1,0,0:0:0:0:
256,192,294477,1,8,0:0:0:0:
256,192,294553,1,0,0:0:0:0:
256,192,294629,1,8,0:0:0:0:
256,192,294706,1,8,0:0:0:0:
256,192,294782,1,0,0:0:0:0:
256,192,294858,1,8,0:0:0:0:
256,192,294934,1,0,0:0:0:0:
256,192,295086,1,0,0:0:0:0:
256,192,295162,1,0,0:0:0:0:
256,192,295239,1,8,0:0:0:0:
256,192,295391,1,0,0:0:0:0:
256,192,295543,1,8,0:0:0:0:
256,192,295695,1,0,0:0:0:0:
256,192,295772,1,0,0:0:0:0:
256,192,295848,1,8,0:0:0:0:
256,192,296000,1,0,0:0:0:0:
256,192,296076,1,8,0:0:0:0:
256,192,296152,1,0,0:0:0:0:
256,192,296305,1,0,0:0:0:0:
256,192,296381,1,0,0:0:0:0:
256,192,296457,1,8,0:0:0:0:
256,192,296609,1,0,0:0:0:0:
256,192,296761,1,8,0:0:0:0:
256,192,296838,1,0,0:0:0:0:
256,192,296990,1,0,0:0:0:0:
256,192,297066,1,8,0:0:0:0:
256,192,297142,1,8,0:0:0:0:
256,192,297218,1,0,0:0:0:0:
256,192,297294,1,0,0:0:0:0:
256,192,297371,1,8,0:0:0:0:
256,192,297522,1,0,0:0:0:0:
256,192,297598,1,0,0:0:0:0:
256,192,297674,1,8,0:0:0:0:
256,192,297750,1,0,0:0:0:0:
256,192,297827,1,0,0:0:0:0:
256,192,297903,1,0,0:0:0:0:
256,192,297979,1,8,0:0:0:0:
256,192,298055,1,8,0:0:0:0:
256,192,298131,1,0,0:0:0:0:
256,192,298207,1,0,0:0:0:0:
256,192,298283,1,8,0:0:0:0:
256,192,298360,1,0,0:0:0:0:
256,192,298436,1,0,0:0:0:0:
256,192,298588,1,12,0:0:0:0:
256,192,298740,1,0,0:0:0:0:
256,192,298816,1,8,0:0:0:0:
256,192,298893,1,8,0:0:0:0:
256,192,298969,1,0,0:0:0:0:
256,192,299045,1,8,0:0:0:0:
256,192,299121,1,0,0:0:0:0:
256,192,299197,1,8,0:0:0:0:
256,192,299273,1,8,0:0:0:0:
256,192,299349,1,0,0:0:0:0:
256,192,299426,1,0,0:0:0:0:
256,192,299502,1,8,0:0:0:0:
256,192,299578,1,0,0:0:0:0:
256,192,299654,1,8,0:0:0:0:
256,192,299806,1,0,0:0:0:0:
256,192,299882,1,0,0:0:0:0:
256,192,299959,1,8,0:0:0:0:
256,192,300035,1,0,0:0:0:0:
256,192,300111,1,8,0:0:0:0:
256,192,300187,1,8,0:0:0:0:
256,192,300263,1,0,0:0:0:0:
256,192,300339,1,8,0:0:0:0:
256,192,300415,1,0,0:0:0:0:
256,192,300492,1,0,0:0:0:0:
256,192,300568,1,8,0:0:0:0:
256,192,300644,1,0,0:0:0:0:
256,192,300720,1,8,0:0:0:0:
256,192,300796,1,8,0:0:0:0:
256,192,300872,1,0,0:0:0:0:
256,192,300948,1,8,0:0:0:0:
256,192,301025,1,0,0:0:0:0:
256,192,301101,1,8,0:0:0:0:
256,192,301177,1,8,0:0:0:0:
256,192,301253,1,0,0:0:0:0:
256,192,301329,1,8,0:0:0:0:
256,192,301405,1,8,0:0:0:0:
256,192,301481,1,0,0:0:0:0:
256,192,301558,1,8,0:0:0:0:
256,192,301634,1,0,0:0:0:0:
256,192,301710,1,8,0:0:0:0:
256,192,301786,1,8,0:0:0:0:
256,192,301862,1,8,0:0:0:0:
256,192,301938,12,0,302091,0:0:0:0:
256,192,302243,5,4,0:0:0:0:
256,192,302547,1,8,0:0:0:0:
256,192,302852,1,8,0:0:0:0:
256,192,303004,1,0,0:0:0:0:
256,192,303157,1,8,0:0:0:0:
256,192,303258,1,8,0:0:0:0:
256,192,303360,1,8,0:0:0:0:
256,192,303461,1,0,0:0:0:0:
256,192,303766,1,8,0:0:0:0:
256,192,304223,1,8,0:0:0:0:
256,192,304375,1,8,0:0:0:0:
256,192,304426,1,8,0:0:0:0:
256,192,304476,1,8,0:0:0:0:
256,192,304527,1,8,0:0:0:0:
256,192,304578,1,8,0:0:0:0:
256,192,304629,1,8,0:0:0:0:
256,192,304679,1,0,0:0:0:0:
256,192,305136,1,8,0:0:0:0:
256,192,305593,1,8,0:0:0:0:
256,192,305644,1,0,0:0:0:0:
256,192,305695,1,0,0:0:0:0:
256,192,305796,1,0,0:0:0:0:
256,192,305847,1,0,0:0:0:0:
256,192,305898,1,8,0:0:0:0:
256,192,306354,1,8,0:0:0:0:
256,192,306659,1,8,0:0:0:0:
256,192,306811,1,8,0:0:0:0:
256,192,306862,1,8,0:0:0:0:
256,192,306913,1,8,0:0:0:0:
256,192,306964,1,8,0:0:0:0:
256,192,307116,1,0,0:0:0:0:
256,192,307420,1,8,0:0:0:0:
256,192,307725,1,8,0:0:0:0:
256,192,307801,1,8,0:0:0:0:
256,192,307877,1,8,0:0:0:0:
256,192,307953,1,8,0:0:0:0:
256,192,308030,1,8,0:0:0:0:
256,192,308131,1,8,0:0:0:0:
256,192,308233,1,8,0:0:0:0:
256,192,308334,1,0,0:0:0:0:
256,192,308639,1,8,0:0:0:0:
256,192,308690,1,8,0:0:0:0:
256,192,308740,1,8,0:0:0:0:
256,192,308791,1,8,0:0:0:0:
256,192,309096,1,8,0:0:0:0:
256,192,309146,1,8,0:0:0:0:
256,192,309197,1,8,0:0:0:0:
256,192,309248,1,8,0:0:0:0:
256,192,309400,1,8,0:0:0:0:
256,192,309451,1,8,0:0:0:0:
256,192,309502,1,8,0:0:0:0:
256,192,309552,1,0,0:0:0:0:
256,192,310009,1,8,0:0:0:0:
256,192,310162,1,0,0:0:0:0:
256,192,310212,1,0,0:0:0:0:
256,192,310314,1,8,0:0:0:0:
256,192,310365,1,8,0:0:0:0:
256,192,310415,1,0,0:0:0:0:
256,192,310618,1,0,0:0:0:0:
256,192,310771,1,8,0:0:0:0:
256,192,311075,1,8,0:0:0:0:
256,192,311151,1,0,0:0:0:0:
256,192,311228,1,8,0:0:0:0:
256,192,311304,1,8,0:0:0:0:
256,192,311380,1,0,0:0:0:0:
256,192,311431,1,0,0:0:0:0:
256,192,311481,1,0,0:0:0:0:
256,192,311532,1,0,0:0:0:0:
256,192,311583,1,0,0:0:0:0:
256,192,311634,1,0,0:0:0:0:
256,192,311684,1,8,0:0:0:0:
256,192,311837,1,8,0:0:0:0:
256,192,311989,1,0,0:0:0:0:
256,192,312294,1,0,0:0:0:0:
256,192,312598,1,8,0:0:0:0:
256,192,312750,1,0,0:0:0:0:
256,192,313055,1,8,0:0:0:0:
256,192,313207,1,0,0:0:0:0:
256,192,313512,1,8,0:0:0:0:
256,192,313563,1,8,0:0:0:0:
256,192,313613,1,8,0:0:0:0:
256,192,313664,1,8,0:0:0:0:
256,192,313969,1,8,0:0:0:0:
256,192,314019,1,8,0:0:0:0:
256,192,314070,1,8,0:0:0:0:
256,192,314121,1,8,0:0:0:0:
256,192,314197,1,8,0:0:0:0:
256,192,314273,1,8,0:0:0:0:
256,192,314349,1,8,0:0:0:0:
256,192,314426,1,0,0:0:0:0:
256,192,314730,1,8,0:0:0:0:
256,192,314781,1,8,0:0:0:0:
256,192,314832,1,0,0:0:0:0:
256,192,314882,1,8,0:0:0:0:
256,192,315187,1,8,0:0:0:0:
256,192,315238,1,8,0:0:0:0:
256,192,315289,1,0,0:0:0:0:
256,192,315339,1,8,0:0:0:0:
256,192,315390,1,8,0:0:0:0:
256,192,315441,1,8,0:0:0:0:
256,192,315492,1,0,0:0:0:0:
256,192,315644,1,0,0:0:0:0:
256,192,315695,1,0,0:0:0:0:
256,192,315745,1,8,0:0:0:0:
256,192,315948,1,8,0:0:0:0:
256,192,316025,1,8,0:0:0:0:
256,192,316101,1,0,0:0:0:0:
256,192,316177,1,0,0:0:0:0:
256,192,316253,1,8,0:0:0:0:
256,192,316304,1,8,0:0:0:0:
256,192,316354,1,8,0:0:0:0:
256,192,316405,1,8,0:0:0:0:
256,192,316558,1,8,0:0:0:0:
256,192,316608,1,8,0:0:0:0:
256,192,316659,1,8,0:0:0:0:
256,192,316710,1,8,0:0:0:0:
256,192,316862,1,0,0:0:0:0:
256,192,317167,1,0,0:0:0:0:
256,192,317471,1,8,0:0:0:0:
256,192,317624,1,0,0:0:0:0:
256,192,317928,1,8,0:0:0:0:
256,192,318004,1,8,0:0:0:0:
256,192,318080,1,0,0:0:0:0:
256,192,318385,1,8,0:0:0:0:
256,192,318842,1,8,0:0:0:0:
256,192,318994,1,8,0:0:0:0:
256,192,319045,1,8,0:0:0:0:
256,192,319096,1,8,0:0:0:0:
256,192,319146,1,8,0:0:0:0:
256,192,319197,1,8,0:0:0:0:
256,192,319248,1,8,0:0:0:0:
256,192,319299,1,0,0:0:0:0:
256,192,319603,1,8,0:0:0:0:
256,192,319654,1,8,0:0:0:0:
256,192,319705,1,8,0:0:0:0:
256,192,319756,1,0,0:0:0:0:
256,192,319857,1,0,0:0:0:0:
256,192,319908,1,8,0:0:0:0:
256,192,320212,1,8,0:0:0:0:
256,192,320263,1,8,0:0:0:0:
256,192,320314,1,8,0:0:0:0:
256,192,320365,1,8,0:0:0:0:
256,192,320415,1,8,0:0:0:0:
256,192,320466,1,8,0:0:0:0:
256,192,320517,1,0,0:0:0:0:
256,192,320568,1,0,0:0:0:0:
256,192,320618,1,0,0:0:0:0:
256,192,320669,1,8,0:0:0:0:
256,192,320974,1,8,0:0:0:0:
256,192,321050,1,8,0:0:0:0:
256,192,321126,1,0,0:0:0:0:
256,192,321177,1,0,0:0:0:0:
256,192,321228,1,0,0:0:0:0:
256,192,321278,1,0,0:0:0:0:
256,192,321329,1,0,0:0:0:0:
256,192,321380,1,0,0:0:0:0:
256,192,321431,1,8,0:0:0:0:
256,192,321481,1,8,0:0:0:0:
256,192,321532,1,8,0:0:0:0:
256,192,321583,1,8,0:0:0:0:
256,192,321735,5,0,0:0:0:0:
256,192,322040,1,8,0:0:0:0:
256,192,322344,1,8,0:0:0:0:
256,192,322497,1,0,0:0:0:0:
256,192,322649,1,8,0:0:0:0:
256,192,322750,1,8,0:0:0:0:
256,192,322852,1,8,0:0:0:0:
256,192,322953,1,0,0:0:0:0:
256,192,323258,1,8,0:0:0:0:
256,192,323715,1,8,0:0:0:0:
256,192,323867,1,8,0:0:0:0:
256,192,323918,1,8,0:0:0:0:
256,192,323968,1,8,0:0:0:0:
256,192,324019,1,8,0:0:0:0:
256,192,324070,1,8,0:0:0:0:
256,192,324121,1,8,0:0:0:0:
256,192,324171,1,0,0:0:0:0:
256,192,324628,1,8,0:0:0:0:
256,192,325085,1,8,0:0:0:0:
256,192,325136,1,0,0:0:0:0:
256,192,325187,1,0,0:0:0:0:
256,192,325288,1,0,0:0:0:0:
256,192,325339,1,0,0:0:0:0:
256,192,325390,1,8,0:0:0:0:
256,192,325846,1,8,0:0:0:0:
256,192,326151,1,8,0:0:0:0:
256,192,326303,1,8,0:0:0:0:
256,192,326354,1,8,0:0:0:0:
256,192,326405,1,8,0:0:0:0:
256,192,326456,1,8,0:0:0:0:
256,192,326608,1,0,0:0:0:0:
256,192,326913,1,8,0:0:0:0:
256,192,327217,1,8,0:0:0:0:
256,192,327293,1,8,0:0:0:0:
256,192,327369,1,8,0:0:0:0:
256,192,327445,1,8,0:0:0:0:
256,192,327522,1,8,0:0:0:0:
256,192,327623,1,8,0:0:0:0:
256,192,327725,1,8,0:0:0:0:
256,192,327826,1,0,0:0:0:0:
256,192,328131,1,8,0:0:0:0:
256,192,328182,1,8,0:0:0:0:
256,192,328232,1,8,0:0:0:0:
256,192,328283,1,8,0:0:0:0:
256,192,328588,1,8,0:0:0:0:
256,192,328638,1,8,0:0:0:0:
256,192,328689,1,8,0:0:0:0:
256,192,328740,1,8,0:0:0:0:
256,192,328892,1,8,0:0:0:0:
256,192,328943,1,8,0:0:0:0:
256,192,328994,1,8,0:0:0:0:
256,192,329044,1,0,0:0:0:0:
256,192,329501,1,8,0:0:0:0:
256,192,329654,1,0,0:0:0:0:
256,192,329704,1,0,0:0:0:0:
256,192,329806,1,8,0:0:0:0:
256,192,329857,1,8,0:0:0:0:
256,192,329907,1,0,0:0:0:0:
256,192,330110,1,0,0:0:0:0:
256,192,330263,1,8,0:0:0:0:
256,192,330567,1,8,0:0:0:0:
256,192,330643,1,0,0:0:0:0:
256,192,330720,1,8,0:0:0:0:
256,192,330796,1,8,0:0:0:0:
256,192,330872,1,0,0:0:0:0:
256,192,330923,1,0,0:0:0:0:
256,192,330973,1,0,0:0:0:0:
256,192,331024,1,0,0:0:0:0:
256,192,331075,1,0,0:0:0:0:
256,192,331126,1,0,0:0:0:0:
256,192,331176,1,8,0:0:0:0:
256,192,331329,1,8,0:0:0:0:
256,192,331481,1,0,0:0:0:0:
256,192,331786,1,0,0:0:0:0:
256,192,332090,1,8,0:0:0:0:
256,192,332242,1,0,0:0:0:0:
256,192,332547,1,8,0:0:0:0:
256,192,332699,1,0,0:0:0:0:
256,192,333004,1,8,0:0:0:0:
256,192,333055,1,8,0:0:0:0:
256,192,333105,1,8,0:0:0:0:
256,192,333156,1,8,0:0:0:0:
256,192,333461,1,8,0:0:0:0:
256,192,333511,1,8,0:0:0:0:
256,192,333562,1,8,0:0:0:0:
256,192,333613,1,8,0:0:0:0:
256,192,333689,1,8,0:0:0:0:
256,192,333765,1,8,0:0:0:0:
256,192,333841,1,8,0:0:0:0:
256,192,333918,1,0,0:0:0:0:
256,192,334222,1,8,0:0:0:0:
256,192,334273,1,8,0:0:0:0:
256,192,334324,1,0,0:0:0:0:
256,192,334374,1,8,0:0:0:0:
256,192,334679,1,8,0:0:0:0:
256,192,334730,1,8,0:0:0:0:
256,192,334781,1,0,0:0:0:0:
256,192,334831,1,8,0:0:0:0:
256,192,334984,1,8,0:0:0:0:
256,192,335136,1,0,0:0:0:0:
256,192,335289,1,8,0:0:0:0:
256,192,335440,1,8,0:0:0:0:
256,192,335517,1,8,0:0:0:0:
256,192,335593,1,0,0:0:0:0:
256,192,335669,1,0,0:0:0:0:
256,192,335745,1,8,0:0:0:0:
256,192,335796,1,8,0:0:0:0:
256,192,335846,1,8,0:0:0:0:
256,192,335897,1,8,0:0:0:0:
256,192,336050,1,8,0:0:0:0:
256,192,336151,1,8,0:0:0:0:
256,192,336354,1,0,0:0:0:0:
256,192,336659,1,0,0:0:0:0:
256,192,336963,1,8,0:0:0:0:
256,192,337116,1,0,0:0:0:0:
256,192,337420,1,8,0:0:0:0:
256,192,337496,1,8,0:0:0:0:
256,192,337572,1,0,0:0:0:0:
256,192,337877,1,8,0:0:0:0:
256,192,338334,1,8,0:0:0:0:
256,192,338639,1,8,0:0:0:0:
256,192,338791,1,0,0:0:0:0:
256,192,339095,1,8,0:0:0:0:
256,192,339248,1,0,0:0:0:0:
256,192,339400,1,8,0:0:0:0:
256,192,339704,1,8,0:0:0:0:
256,192,339857,1,8,0:0:0:0:
256,192,340162,1,8,0:0:0:0:
256,192,340314,1,0,0:0:0:0:
256,192,340618,1,8,0:0:0:0:
256,192,340771,1,0,0:0:0:0:
256,192,341075,1,8,0:0:0:0:
256,192,341228,1,0,0:0:0:0:
256,192,342446,1,8,0:0:0:0:
256,192,343664,1,0,0:0:0:0:
256,192,344882,1,8,0:0:0:0:
256,192,345644,1,8,0:0:0:0:
256,192,345796,1,8,0:0:0:0:
256,192,345948,1,8,0:0:0:0:
256,192,346101,1,0,0:0:0:0:
256,192,347319,1,8,0:0:0:0:
256,192,348537,1,0,0:0:0:0:
256,192,349756,1,8,0:0:0:0:
256,192,350517,1,8,0:0:0:0:
256,192,350669,1,0,0:0:0:0:
256,192,350821,1,8,0:0:0:0:
256,192,350974,1,0,0:0:0:0:
256,192,352192,1,8,0:0:0:0:
256,192,353410,1,0,0:0:0:0:
256,192,354628,1,8,0:0:0:0:
256,192,355390,1,8,0:0:0:0:
256,192,355542,1,8,0:0:0:0:
256,192,355694,1,8,0:0:0:0:
256,192,355847,1,0,0:0:0:0:
256,192,357065,1,8,0:0:0:0:
256,192,358283,1,0,0:0:0:0:
256,192,359197,1,8,0:0:0:0:
256,192,359654,1,8,0:0:0:0:
256,192,360111,1,8,0:0:0:0:
256,192,360567,1,8,0:0:0:0:
256,192,360720,1,0,0:0:0:0:
256,192,360758,1,0,0:0:0:0:
256,192,360796,1,0,0:0:0:0:
256,192,360834,1,8,0:0:0:0:
256,192,361748,1,8,0:0:0:0:
256,192,362281,1,8,0:0:0:0:
256,192,362852,1,8,0:0:0:0:
256,192,363537,1,8,0:0:0:0:
256,192,364299,1,8,0:0:0:0:
256,192,365022,1,8,0:0:0:0:
256,192,365745,1,8,0:0:0:0:
256,192,366811,12,0,369248,0:0:0:0:
